osu file format v14

[General]
AudioFilename: audio.mp3
AudioLeadIn: 0
PreviewTime: 17316
Countdown: 0
SampleSet: Soft
StackLeniency: 0.6
Mode: 0
LetterboxInBreaks: 0
WidescreenStoryboard: 0

[Editor]
Bookmarks: 3743,5243,8959,24208,26243,33422,60208,67493,74136,111100,114208
DistanceSpacing: 1.4
BeatDivisor: 4
GridSize: 4
TimelineZoom: 1

[Metadata]
Title:Mermaid girl
TitleUnicode:Mermaid girl
Artist:Cream puff
ArtistUnicode:Cream puff
Creator:Stjpa
Version:Stefan's Normal
Source:beatmania IIDX 18 Resort Anthem
Tags:DanceDanceRevolution X3 VS 2ndMIX DanceEvolution ARCADE bubblegum pop pop'n music 20 fantasia FutureTomTom Ver.2 Halka MoiMoi Ryu* stefan tng thenutritiousguy
BeatmapID:1523968
BeatmapSetID:715915

[Difficulty]
HPDrainRate:4
CircleSize:3
OverallDifficulty:4.5
ApproachRate:5
SliderMultiplier:1.225
SliderTickRate:1

[Events]
//Background and Video events
0,0,"mermaid girl.png",0,0
//Break Periods
2,88016,93473
//Storyboard Layer 0 (Background)
//Storyboard Layer 1 (Fail)
//Storyboard Layer 2 (Pass)
//Storyboard Layer 3 (Foreground)
//Storyboard Sound Samples

[TimingPoints]
388,428.571428571429,4,2,2,65,1,0
3816,-100,4,2,2,65,0,0
10673,-100,4,2,2,65,0,0
17530,-100,4,2,1,80,0,1
31245,-100,4,2,2,65,0,0
32102,-100,4,2,2,65,0,0
32959,-100,4,2,2,65,0,0
59745,-100,4,1,1,65,0,0
60388,-100,4,2,1,80,0,1
73245,-100,4,2,2,65,0,0
74102,-100,4,2,1,80,0,1
75602,-100,4,2,2,80,0,1
75816,-100,4,2,2,65,0,0
77530,-100,4,2,1,80,0,1
79245,-100,4,2,2,65,0,0
80959,-100,4,2,1,80,0,1
87816,-100,4,2,2,65,0,0
102709,-100,4,1,1,65,0,0
103245,-100,4,2,1,80,0,1
116959,-100,4,2,2,65,0,0

[Colours]
Combo1 : 255,219,202
Combo2 : 174,255,215
Combo3 : 255,185,151
Combo4 : 132,255,132

[HitObjects]
348,52,3816,6,0,P|304:40|256:52,2,91.875,2|0|0,0:0|0:0|0:0,0:0:0:0:
384,128,4673,2,0,P|375:157|383:186,1,61.25
400,272,5102,1,0,0:0:0:0:
240,336,5530,5,2,0:0:0:0:
240,336,5745,1,0,0:0:0:0:
168,292,5959,2,0,P|143:273|131:245,1,61.25,0|0,0:0|0:0,0:0:0:0:
176,172,6388,2,0,P|199:191|212:218,2,61.25
336,108,7245,6,0,P|297:84|278:43,2,91.875,2|0|0,2:0|2:0|2:0,2:0:0:0:
420,128,8102,2,0,P|441:148|446:178,1,61.25
440,264,8530,1,0,0:0:0:0:
276,308,8959,5,2,0:0:0:0:
196,344,9173,1,0,0:0:0:0:
112,320,9388,2,0,P|80:305|64:284,1,61.25
44,200,9816,2,0,P|96:172|128:116,1,122.5
280,44,10673,6,0,L|408:80,2,122.5,14|8|8,0:0|0:0|0:0,0:0:0:0:
194,53,11745,1,0,0:0:0:0:
172,136,11959,1,8,0:0:0:0:
268,276,12388,6,0,L|396:312,2,122.5,10|8|8,0:0|0:0|0:0,0:0:0:0:
192,320,13459,1,0,0:0:0:0:
108,304,13673,1,8,0:0:0:0:
64,140,14102,6,0,P|140:89|231:85,1,183.75,14|0,0:0|0:0,0:0:0:0:
193,164,14959,2,0,P|283:158|360:108,1,183.75,12|0,0:0|0:0,0:0:0:0:
388,28,15816,5,14,0:0:0:0:
492,164,16245,1,12,0:0:0:0:
324,188,16673,1,10,0:3:0:0:
388,28,17102,1,10,0:3:0:0:
492,164,17530,6,0,L|456:216,1,61.25,12|0,0:0|0:0,0:0:0:0:
372,216,17959,2,0,L|336:268,1,61.25,8|0,0:0|0:0,0:0:0:0:
264,312,18388,2,0,P|208:295|207:238,1,122.5,8|8,0:0|0:0,0:0:0:0:
292,88,19245,5,8,0:0:0:0:
140,12,19673,1,8,0:0:0:0:
76,68,19888,1,0,0:0:0:0:
80,152,20102,2,0,L|46:214,2,61.25,8|0|8,0:0|0:0|0:0,0:0:0:0:
252,148,20959,6,0,P|288:157|311:150,1,61.25,8|0,0:0|0:0,0:0:0:0:
340,72,21388,2,0,P|303:62|280:69,1,61.25,8|0,0:0|0:0,0:0:0:0:
196,84,21816,2,0,P|164:136|180:196,1,122.5,8|8,0:0|0:0,0:0:0:0:
299,314,22673,5,8,0:0:0:0:
359,253,22888,1,0,0:0:0:0:
444,268,23102,1,8,0:0:0:0:
496,200,23317,1,0,0:0:0:0:
443,131,23530,2,0,P|408:96|336:84,1,122.5,8|8,0:0|0:0,0:0:0:0:
184,160,24388,6,0,P|164:180|132:192,1,61.25,14|0,0:0|0:0,0:0:0:0:
68,140,24816,2,0,P|88:120|120:108,1,61.25,8|0,0:0|0:0,0:0:0:0:
196,76,25245,2,0,B|256:52|256:100|316:76,1,122.5,8|8,0:0|0:0,0:0:0:0:
476,136,26102,5,8,0:0:0:0:
404,292,26530,1,8,0:0:0:0:
328,332,26745,1,0,0:0:0:0:
244,312,26959,2,0,P|220:296|184:292,2,61.25,8|0|8,0:0|0:0|0:0,0:0:0:0:
416,292,27816,6,0,P|448:204|408:128,1,183.75,14|0,0:0|0:0,0:0:0:0:
356,196,28673,2,0,P|316:115|348:32,1,183.75,12|0,0:0|0:0,0:0:0:0:
440,36,29530,6,0,L|484:92,1,61.25,12|0,0:0|0:0,0:0:0:0:
432,160,29959,2,0,L|388:104,1,61.25,14|0,0:0|0:0,0:0:0:0:
328,60,30388,1,12,0:0:0:0:
244,48,30602,1,0,0:0:0:0:
164,80,30816,1,12,0:0:0:0:
60,216,31245,6,0,L|60:340,1,122.5,2|2,0:0|0:0,0:0:0:0:
404,280,32959,5,14,0:0:0:0:
496,136,33388,1,8,0:0:0:0:
384,8,33816,1,8,0:0:0:0:
232,88,34245,1,8,0:0:0:0:
248,172,34459,1,0,0:0:0:0:
232,256,34673,6,0,P|204:304|144:328,1,122.5,8|8,0:0|0:0,0:0:0:0:
60,316,35316,2,0,P|91:264|148:243,1,122.5,0|0,0:0|0:0,0:0:0:0:
204,176,35959,1,8,0:0:0:0:
128,20,36388,5,8,0:0:0:0:
28,160,36816,1,8,0:0:0:0:
92,320,37245,1,8,0:0:0:0:
264,332,37673,1,8,0:0:0:0:
300,252,37888,1,0,0:0:0:0:
280,168,38102,6,0,P|332:140|408:160,1,122.5,8|8,0:0|0:0,0:0:0:0:
464,196,38745,2,0,L|496:260,1,61.25,0|8,0:0|0:0,0:0:0:0:
368,372,39388,1,8,0:0:0:0:
288,344,39602,1,8,0:0:0:0:
240,272,39816,6,0,P|188:256|132:292,1,122.5,14|8,0:0|0:0,0:0:0:0:
16,164,40673,2,0,P|68:180|124:144,1,122.5,8|8,0:0|0:0,2:0:0:0:
256,36,41530,5,14,0:0:0:0:
388,144,41959,1,14,0:0:0:0:
256,256,42388,1,14,0:0:0:0:
124,148,42816,2,0,L|76:108,1,61.25,10|8,0:0|0:0,0:0:0:0:
4,152,43245,6,0,P|32:204|88:228,1,122.5,14|8,0:0|0:0,0:0:0:0:
259,228,44102,2,0,P|314:251|343:304,1,122.5,8|8,0:0|0:0,0:0:0:0:
404,364,44745,1,0,0:0:0:0:
464,304,44959,6,0,L|512:260,1,61.25,14|0,0:0|0:0,0:0:0:0:
448,200,45388,2,0,L|402:241,1,61.25,14|0,0:0|0:0,0:0:0:0:
120,288,46673,5,14,0:0:0:0:
16,152,47102,1,8,0:0:0:0:
140,32,47530,2,0,L|208:16,1,61.25,8|0,0:0|0:0,0:0:0:0:
284,36,47959,1,8,0:0:0:0:
436,112,48388,5,8,0:0:0:0:
488,180,48602,2,0,L|488:248,1,61.25,0|8,0:0|0:0,0:0:0:0:
456,320,49030,2,0,P|372:304|304:368,1,183.75,0|8,0:0|0:0,0:0:0:0:
172,256,50102,6,0,P|148:303|80:327,2,122.5,8|8|8,0:0|0:0|0:0,0:0:0:0:
256,108,51388,1,8,0:0:0:0:
339,255,51816,6,0,P|368:308|425:328,1,122.5,8|8,0:0|0:0,0:0:0:0:
500,288,52459,1,0,0:0:0:0:
512,204,52673,1,8,0:0:0:0:
240,16,53530,5,14,0:0:0:0:
72,44,53959,1,8,0:0:0:0:
0,200,54388,2,0,L|-20:260,1,61.25,8|0,0:0|0:0,0:0:0:0:
48,312,54816,2,0,L|68:252,1,61.25,8|0,0:0|0:0,0:0:0:0:
96,172,55245,5,14,0:0:0:0:
180,24,55673,1,14,0:0:0:0:
268,172,56102,1,14,0:0:0:0:
96,172,56530,1,8,0:0:0:0:
32,228,56745,1,8,0:0:0:0:
32,312,56959,6,0,P|64:356|128:364,1,122.5,14|8,0:0|0:0,0:0:0:0:
276,276,57816,2,0,P|244:232|180:224,1,122.5,12|8,0:0|0:0,0:0:0:0:
92,76,58673,5,6,0:0:0:0:
263,76,59102,1,6,0:0:0:0:
180,224,59530,1,8,0:3:0:0:
424,152,60388,6,0,L|454:98,1,61.25,14|0,0:0|0:0,0:0:0:0:
492,20,60816,2,0,P|436:12|384:48,1,122.5,8|8,0:0|0:0,0:0:0:0:
320,104,61459,1,0,0:0:0:0:
236,124,61673,1,8,0:0:0:0:
88,212,62102,5,8,0:0:0:0:
88,212,62316,1,0,0:0:0:0:
44,284,62530,2,0,P|40:320|48:356,1,61.25,8|0,0:0|0:0,0:0:0:0:
132,344,62959,2,0,P|136:308|128:272,2,61.25,8|0|8,0:0|0:0|0:0,0:0:0:0:
296,296,63816,6,0,L|272:240,1,61.25,8|0,0:0|0:0,0:0:0:0:
196,200,64245,2,0,P|240:160|300:160,1,122.5,8|8,0:0|0:0,0:0:0:0:
380,196,64888,1,0,0:0:0:0:
460,160,65102,1,8,0:0:0:0:
380,8,65530,5,8,0:0:0:0:
296,0,65745,1,0,0:0:0:0:
216,28,65959,1,8,0:0:0:0:
176,104,66173,1,0,0:0:0:0:
200,188,66388,2,0,P|184:244|132:284,1,122.5,8|8,0:0|0:0,0:0:0:0:
11,163,67245,6,0,P|3:134|11:105,1,61.25,14|0,0:0|0:0,0:0:0:0:
64,36,67673,2,0,B|96:68|96:104|96:104|144:96,1,122.5,8|8,0:0|0:0,0:0:0:0:
224,80,68316,1,0,0:0:0:0:
308,64,68530,1,8,0:0:0:0:
440,172,68959,6,0,L|464:296,1,122.5,8|8,0:0|0:0,0:0:0:0:
412,360,69602,1,0,0:0:0:0:
328,340,69816,2,0,P|292:340|264:360,2,61.25,8|0|8,0:0|0:0|0:0,0:0:0:0:
320,168,70673,6,0,P|248:194|158:146,1,183.75,14|0,0:0|0:0,0:0:0:0:
160,60,71530,2,0,P|240:21|322:55,1,183.75,14|0,0:0|0:0,0:0:0:0:
392,4,72388,5,14,0:0:0:0:
484,148,72816,1,14,0:0:0:0:
312,156,73245,1,8,0:3:0:0:
392,4,73673,1,2,0:0:0:0:
484,148,74102,6,0,L|512:216,1,61.25,14|0,0:0|0:0,0:0:0:0:
432,244,74530,2,0,L|420:312,1,61.25,8|0,0:0|0:0,0:0:0:0:
352,352,74959,2,0,P|316:364|280:360,2,61.25,8|0|8,0:0|0:0|0:0,0:0:0:0:
436,204,75816,5,14,0:0:0:0:
232,44,76888,1,8,0:0:0:0:
232,44,77102,1,8,0:0:0:0:
76,116,77530,6,0,P|52:136|36:176,1,61.25,14|0,0:0|0:0,0:0:0:0:
84,236,77959,2,0,P|108:216|124:176,1,61.25,8|0,0:0|0:0,0:0:0:0:
160,112,78388,2,0,P|152:80|136:56,2,61.25,8|0|8,0:0|0:0|0:0,0:0:0:0:
208,276,79245,5,14,0:0:0:0:
256,112,79673,1,6,0:0:0:0:
304,276,80102,1,6,0:0:0:0:
364,216,80316,2,0,L|380:156,1,61.25,2|2,0:0|0:0,0:0:0:0:
280,16,80959,6,0,L|220:4,1,61.25,14|0,0:0|0:0,0:0:0:0:
180,80,81388,2,0,L|240:92,1,61.25,8|0,0:0|0:0,0:0:0:0:
320,120,81816,2,0,B|344:180|304:180|320:240,1,122.5,8|8,0:0|0:0,0:0:0:0:
192,352,82673,5,8,0:0:0:0:
32,288,83102,1,8,0:0:0:0:
4,208,83316,1,0,0:0:0:0:
24,124,83530,2,0,P|56:96|84:84,2,61.25,8|0|8,0:0|0:0|0:0,0:0:0:0:
88,284,84388,6,0,P|139:335|237:305,1,183.75,14|0,0:0|0:0,0:0:0:0:
169,251,85245,2,0,P|249:218|319:275,1,183.75,14|0,0:0|0:0,0:0:0:0:
392,316,86102,6,0,L|452:336,1,61.25,14|0,0:0|0:0,0:0:0:0:
508,272,86530,2,0,L|448:252,1,61.25,14|0,0:0|0:0,0:0:0:0:
376,208,86959,1,14,0:0:0:0:
332,132,87173,1,0,0:0:0:0:
348,48,87388,1,14,0:0:0:0:
348,48,87816,5,6,0:0:0:0:
44,192,94673,5,10,0:0:0:0:
152,56,95102,1,8,0:0:0:0:
256,192,95530,1,8,0:0:0:0:
360,56,95959,1,8,0:0:0:0:
468,192,96388,6,0,L|496:324,2,122.5,10|8|8,0:0|0:0|0:0,0:0:0:0:
156,332,98102,6,0,P|140:274|154:211,1,122.5,14|8,0:0|0:0,0:0:0:0:
244,68,98959,2,0,P|251:128|231:185,1,122.5,14|8,0:0|0:0,0:0:0:0:
64,216,99816,5,6,0:0:0:0:
120,52,100245,1,6,0:0:0:0:
230,185,100673,1,6,0:0:0:0:
448,216,101530,5,10,0:0:0:0:
392,52,101959,1,10,0:0:0:0:
280,184,102387,1,8,0:3:0:0:
120,120,103245,6,0,P|91:144|85:182,1,61.25,14|0,0:0|0:0,0:0:0:0:
63,250,103673,2,0,P|118:245|163:193,1,122.5,8|8,0:0|0:0,0:0:0:0:
220,136,104316,1,0,0:0:0:0:
304,120,104530,1,8,0:0:0:0:
468,180,104959,5,8,0:0:0:0:
468,180,105173,1,0,0:0:0:0:
432,260,105387,2,0,P|428:296|436:332,1,61.25,8|0,0:0|0:0,0:0:0:0:
512,356,105816,2,0,P|516:320|508:284,2,61.25,8|0|8,0:0|0:0|0:0,0:0:0:0:
340,364,106673,6,0,L|276:372,1,61.25,8|0,0:0|0:0,0:0:0:0:
200,340,107102,2,0,P|176:280|196:228,1,122.5,8|8,0:0|0:0,0:0:0:0:
256,168,107745,1,0,0:0:0:0:
328,216,107959,1,8,0:0:0:0:
420,72,108388,5,8,0:0:0:0:
340,40,108602,1,0,0:0:0:0:
256,32,108816,1,8,0:0:0:0:
172,40,109030,1,0,0:0:0:0:
92,72,109245,2,0,P|68:124|80:192,1,122.5,8|8,0:0|0:0,0:0:0:0:
244,228,110102,6,0,P|265:249|270:279,1,61.25,14|0,0:0|0:0,0:0:0:0:
340,332,110530,2,0,P|379:348|452:314,1,122.5,8|8,0:0|0:0,0:0:0:0:
492,244,111173,1,0,0:0:0:0:
496,160,111388,1,8,0:0:0:0:
380,36,111816,6,0,P|323:13|263:1,1,122.5,8|8,0:0|0:0,0:0:0:0:
180,16,112459,1,0,0:0:0:0:
120,76,112673,2,0,P|106:103|107:133,2,61.25,8|0|8,0:0|0:0|0:0,0:0:0:0:
280,12,113530,6,0,P|356:57|355:145,1,183.75,14|0,0:0|0:0,0:0:0:0:
279,102,114388,2,0,P|277:189|352:234,1,183.75,14|0,0:0|0:0,0:0:0:0:
436,260,115245,6,0,P|455:282|463:312,1,61.25,14|0,0:0|0:0,0:0:0:0:
404,372,115673,2,0,P|384:349|376:319,1,61.25,10|0,0:0|0:0,0:0:0:0:
352,234,116102,1,14,0:3:0:0:
416,176,116316,1,8,0:0:0:0:
412,92,116530,1,14,0:0:0:0:
412,92,116959,5,12,0:0:0:0:
