osu file format v14

[General]
AudioFilename: audio.mp3
AudioLeadIn: 0
PreviewTime: 17316
Countdown: 0
SampleSet: Soft
StackLeniency: 0.6
Mode: 0
LetterboxInBreaks: 0
WidescreenStoryboard: 0

[Editor]
DistanceSpacing: 1.2
BeatDivisor: 4
GridSize: 16
TimelineZoom: 1

[Metadata]
Title:Mermaid girl
TitleUnicode:Mermaid girl
Artist:Cream puff
ArtistUnicode:Cream puff
Creator:Stjpa
Version:Hyper
Source:beatmania IIDX 18 Resort Anthem
Tags:DanceDanceRevolution X3 VS 2ndMIX DanceEvolution ARCADE bubblegum pop pop'n music 20 fantasia FutureTomTom Ver.2 Halka MoiMoi Ryu* stefan tng thenutritiousguy
BeatmapID:1513044
BeatmapSetID:715915

[Difficulty]
HPDrainRate:5
CircleSize:3.5
OverallDifficulty:6
ApproachRate:7.5
SliderMultiplier:1.45
SliderTickRate:1

[Events]
//Background and Video events
0,0,"mermaid girl.png",0,0
//Break Periods
2,88016,93848
//Storyboard Layer 0 (Background)
//Storyboard Layer 1 (Fail)
//Storyboard Layer 2 (Pass)
//Storyboard Layer 3 (Foreground)
//Storyboard Sound Samples

[TimingPoints]
388,428.571428571429,4,2,2,65,1,0
3816,-100,4,2,2,65,0,0
10673,-100,4,2,2,65,0,0
13138,-100,4,2,2,5,0,0
13245,-100,4,2,2,65,0,0
17530,-90.9090909090909,4,2,1,80,0,1
23852,-90.9090909090909,4,2,1,5,0,1
23959,-90.9090909090909,4,2,1,80,0,1
31245,-100,4,2,2,65,0,0
32102,-100,4,2,2,65,0,0
32959,-100,4,2,2,65,0,0
38638,-100,4,2,2,5,0,0
38745,-100,4,2,2,65,0,0
38852,-100,4,2,2,5,0,0
38959,-100,4,2,2,65,0,0
45495,-100,4,2,2,5,0,0
45602,-100,4,2,2,65,0,0
45709,-100,4,2,2,5,0,0
45816,-100,4,2,2,65,0,0
59745,-100,4,1,1,65,0,0
60388,-90.9090909090909,4,2,1,80,0,1
73245,-100,4,2,2,65,0,0
74102,-90.9090909090909,4,2,1,80,0,1
75602,-90.9090909090909,4,2,2,80,0,1
75816,-100,4,2,2,65,0,0
77530,-90.9090909090909,4,2,1,80,0,1
79245,-100,4,2,2,65,0,0
80423,-100,4,2,2,5,0,0
80530,-100,4,2,2,65,0,0
80638,-100,4,2,2,5,0,0
80959,-90.9090909090909,4,2,1,80,0,1
87816,-100,4,2,2,65,0,0
102602,-100,4,1,1,65,0,0
103245,-83.3333333333333,4,2,1,80,0,1
116959,-100,4,2,2,65,0,0

[Colours]
Combo1 : 255,219,202
Combo2 : 174,255,215
Combo3 : 255,185,151
Combo4 : 132,255,132

[HitObjects]
23,62,3816,6,0,L|119:67,1,72.5,6|0,0:0|0:0,0:0:0:0:
138,86,4138,1,2,0:0:0:0:
138,86,4245,2,0,L|234:81,1,72.5,2|0,0:0|0:0,0:0:0:0:
303,94,4673,2,0,B|295:61|295:61|303:14,2,72.5,2|0|2,0:0|0:0|0:0,0:0:0:0:
215,261,5530,6,0,L|109:253,2,72.5,2|0|2,0:0|0:0|0:0,0:0:0:0:
301,298,6173,1,0,0:0:0:0:
386,337,6388,2,0,L|492:329,2,72.5,2|0|2,0:0|0:0|0:0,0:0:0:0:
480,173,7245,5,2,0:0:0:0:
499,80,7459,1,2,0:0:0:0:
499,80,7566,1,2,0:0:0:0:
412,43,7780,1,2,0:0:0:0:
412,43,7888,1,2,0:0:0:0:
334,97,8102,1,2,0:0:0:0:
305,89,8316,1,0,0:0:0:0:
219,48,8530,2,0,L|135:44,1,72.5,2|0,0:0|0:0,0:0:0:0:
61,3,8959,6,0,P|47:50|57:90,1,72.5,2|0,0:0|0:0,0:0:0:0:
108,146,9388,2,0,P|122:193|112:233,1,72.5,2|0,0:0|0:0,0:0:0:0:
71,296,9816,2,0,L|246:302,1,145,2|2,0:0|0:0,0:0:0:0:
394,362,10673,6,0,L|387:275,1,72.5,12|0,0:0|0:0,0:0:0:0:
411,248,10995,1,2,0:0:0:0:
411,248,11102,2,0,L|404:161,1,72.5,10|0,0:0|0:0,0:0:0:0:
368,89,11530,2,0,B|403:95|403:95|458:85,2,72.5,10|0|10,0:0|0:0|0:0,0:0:0:0:
182,76,12388,6,0,L|174:-1,2,72.5,10|0|10,0:0|0:0|0:0,0:0:0:0:
240,149,13030,2,0,L|239:213,1,36.25,2|0,0:0|0:0,0:0:0:0:
262,226,13245,2,0,L|256:299,1,72.5,10|0,0:0|0:0,0:0:0:0:
203,376,13673,1,10,0:0:0:0:
15,358,14102,5,14,0:0:0:0:
68,280,14316,1,2,0:0:0:0:
68,280,14423,1,2,0:0:0:0:
14,202,14638,1,2,0:0:0:0:
14,202,14745,1,2,0:0:0:0:
76,131,14959,1,14,0:0:0:0:
71,102,15173,1,0,0:0:0:0:
28,17,15388,2,0,L|114:16,1,72.5,10|0,0:0|0:0,0:0:0:0:
192,38,15816,5,14,0:0:0:0:
225,131,16030,1,2,0:0:0:0:
225,131,16138,1,2,0:0:0:0:
166,204,16352,1,2,0:0:0:0:
166,204,16459,1,2,0:0:0:0:
234,268,16673,1,8,0:3:0:0:
188,350,16888,1,0,0:0:0:0:
188,350,16995,1,2,0:0:0:0:
188,350,17102,2,0,L|279:342,1,72.5,10|0,0:3|0:0,0:0:0:0:
359,332,17530,6,0,L|350:238,1,79.7500024337769,12|0,0:0|0:0,0:0:0:0:
459,282,17959,2,0,L|468:188,1,79.7500024337769,8|0,0:0|0:0,0:0:0:0:
371,143,18388,2,0,L|362:49,1,79.7500024337769,8|0,0:0|0:0,0:0:0:0:
471,93,18817,2,0,L|480:-1,1,79.7500024337769,8|0,0:0|0:0,0:0:0:0:
363,63,19245,6,0,L|256:56,1,79.7500024337769,8|0,0:0|0:0,0:0:0:0:
210,142,19673,2,0,L|317:135,1,79.7500024337769,8|0,0:0|0:0,0:0:0:0:
229,231,20102,2,0,L|122:224,1,79.7500024337769,8|0,0:0|0:0,0:0:0:0:
76,310,20530,2,0,L|183:303,1,79.7500024337769,8|0,0:0|0:0,0:0:0:0:
275,352,20959,5,8,0:0:0:0:
368,291,21173,1,2,0:0:0:0:
368,291,21280,1,2,0:0:0:0:
317,190,21495,1,2,0:0:0:0:
317,190,21602,1,2,0:0:0:0:
391,106,21816,1,8,0:0:0:0:
494,147,22030,1,0,0:0:0:0:
475,257,22245,2,0,L|470:359,1,79.7500024337769,8|0,0:0|0:0,0:0:0:0:
345,355,22673,6,0,L|340:253,1,79.7500024337769,8|0,0:0|0:0,0:0:0:0:
200,307,23102,2,0,L|205:205,1,79.7500024337769,8|0,0:0|0:0,0:0:0:0:
64,260,23530,2,0,L|56:104,1,119.625003650665,8|0,0:0|0:0,0:0:0:0:
59,120,23959,1,8,0:0:0:0:
59,120,24173,1,0,0:0:0:0:
157,16,24388,6,0,L|254:25,1,79.7500024337769,12|0,0:0|0:0,0:0:0:0:
191,125,24816,2,0,L|288:116,1,79.7500024337769,8|0,0:0|0:0,0:0:0:0:
340,30,25245,2,0,L|437:39,1,79.7500024337769,8|0,0:0|0:0,0:0:0:0:
374,139,25673,2,0,L|471:130,1,79.7500024337769,8|0,0:0|0:0,0:0:0:0:
435,258,26102,6,0,L|447:363,1,79.7500024337769,8|0,0:0|0:0,0:0:0:0:
323,378,26530,2,0,L|335:273,1,79.7500024337769,8|0,0:0|0:0,0:0:0:0:
218,238,26959,2,0,L|230:343,1,79.7500024337769,8|0,0:0|0:0,0:0:0:0:
108,365,27388,2,0,L|120:260,1,79.7500024337769,8|0,0:0|0:0,0:0:0:0:
76,165,27816,5,12,0:0:0:0:
169,104,28030,1,2,0:0:0:0:
169,104,28138,1,2,0:0:0:0:
265,159,28352,1,2,0:0:0:0:
265,159,28459,1,2,0:0:0:0:
359,99,28673,2,0,L|461:109,1,79.7500024337769,12|0,0:0|0:0,0:0:0:0:
488,6,29102,2,0,L|386:16,1,79.7500024337769,8|0,0:0|0:0,0:0:0:0:
285,47,29530,5,12,0:0:0:0:
228,144,29745,1,2,0:0:0:0:
228,144,29852,1,2,0:0:0:0:
282,241,30066,1,2,0:0:0:0:
282,241,30173,1,2,0:0:0:0:
189,329,30388,2,0,L|84:339,1,79.7500024337769,12|0,0:0|0:0,0:0:0:0:
130,194,30816,2,0,L|27:181,1,79.7500024337769,12|0,0:0|0:0,0:0:0:0:
108,66,31245,6,0,L|256:58,1,145,2|2,0:0|0:0,0:0:0:0:
404,25,32959,6,0,B|390:73|390:73|401:173,1,145,12|8,0:0|0:0,0:0:0:0:
508,303,33816,2,0,B|460:289|460:289|360:300,1,145,8|8,0:0|0:0,0:0:0:0:
286,337,34459,1,0,0:0:0:0:
237,264,34673,6,0,L|243:168,1,72.5,8|0,0:0|0:0,0:0:0:0:
289,119,35102,1,8,0:0:0:0:
251,40,35316,1,0,0:0:0:0:
169,69,35530,2,0,L|78:65,1,72.5,8|0,0:0|0:0,0:0:0:0:
23,114,35959,1,8,0:0:0:0:
31,141,36173,1,8,0:0:0:0:
74,216,36388,6,0,L|87:383,1,145,8|8,0:0|0:0,0:0:0:0:
189,220,37245,2,0,L|202:53,1,145,8|8,0:0|0:0,0:0:0:0:
250,3,37888,1,0,0:0:0:0:
328,41,38102,2,0,L|407:36,1,72.5,8|0,0:0|0:0,0:0:0:0:
484,59,38530,2,0,L|481:103,1,36.25,2|0,0:0|0:0,0:0:0:0:
460,133,38745,2,0,L|463:177,1,36.25,2|0,0:0|0:0,0:0:0:0:
484,206,38959,2,0,L|481:295,1,72.5,8|0,0:0|0:0,0:0:0:0:
441,355,39388,1,8,0:0:0:0:
412,358,39602,1,8,0:0:0:0:
347,299,39816,6,0,B|299:285|299:285|199:296,1,145,12|8,0:0|0:0,0:0:0:0:
67,188,40673,2,0,B|115:202|115:202|215:191,1,145,8|8,0:0|0:0,0:0:0:0:
380,149,41530,6,0,B|394:101|394:101|383:1,2,145,12|12|12,0:0|0:0|0:0,0:0:0:0:
245,44,42816,1,10,0:0:0:0:
252,71,43030,1,8,0:0:0:0:
289,150,43245,6,0,L|275:317,1,145,12|8,0:0|0:0,0:0:0:0:
117,363,44102,2,0,L|101:197,1,145,8|8,0:0|0:0,0:0:0:0:
111,131,44745,1,0,0:0:0:0:
53,65,44959,5,12,0:0:0:0:
56,36,45173,1,0,0:0:0:0:
136,2,45388,2,0,L|180:9,1,36.25,6|0,0:0|0:0,0:0:0:0:
209,29,45602,2,0,L|253:22,1,36.25,2|0,0:0|0:0,0:0:0:0:
280,47,45816,2,0,L|367:44,1,72.5,12|0,0:0|0:0,0:0:0:0:
441,17,46245,1,0,0:0:0:0:
441,17,46352,1,0,0:0:0:0:
441,17,46459,1,0,0:0:0:0:
429,103,46673,5,12,0:0:0:0:
379,174,46888,2,0,L|385:261,1,72.5,0|8,0:0|0:0,0:0:0:0:
413,328,47316,1,0,0:0:0:0:
336,370,47530,2,0,L|249:364,1,72.5,8|0,0:0|0:0,0:0:0:0:
208,297,47959,2,0,L|121:303,1,72.5,8|0,0:0|0:0,0:0:0:0:
60,349,48388,5,8,0:0:0:0:
24,269,48602,2,0,L|31:176,1,72.5,0|8,0:0|0:0,0:0:0:0:
66,117,49030,2,0,B|106:139|106:139|212:127,1,145,0|0,0:0|0:0,0:0:0:0:
275,77,49673,1,8,0:0:0:0:
302,85,49888,1,8,0:0:0:0:
382,117,50102,6,0,L|479:114,1,72.5,8|0,0:0|0:0,0:0:0:0:
422,195,50530,2,0,L|325:192,1,72.5,8|0,0:0|0:0,0:0:0:0:
378,275,50959,2,0,L|475:272,1,72.5,8|0,0:0|0:0,0:0:0:0:
418,353,51387,2,0,L|321:350,1,72.5,8|0,0:0|0:0,0:0:0:0:
268,309,51816,6,0,L|250:147,1,145,8|8,0:0|0:0,0:0:0:0:
424,186,52673,2,0,L|435:84,1,72.5,8|0,0:0|0:0,0:0:0:0:
380,43,53102,1,8,0:0:0:0:
351,36,53316,1,8,0:0:0:0:
278,84,53530,5,12,0:0:0:0:
210,28,53745,2,0,L|105:21,1,72.5,0|8,0:0|0:0,0:0:0:0:
57,56,54173,1,0,0:0:0:0:
81,139,54388,2,0,L|74:244,1,72.5,8|0,0:0|0:0,0:0:0:0:
36,288,54816,1,8,0:0:0:0:
43,316,55030,1,0,0:0:0:0:
114,365,55245,6,0,L|271:355,1,145,12|12,0:0|0:0,0:0:0:0:
387,238,56102,2,0,L|285:231,1,72.5,12|0,0:0|0:0,0:0:0:0:
244,182,56530,1,8,0:0:0:0:
238,153,56745,1,8,0:0:0:0:
297,89,56959,6,0,L|305:-9,1,72.5,12|0,0:0|0:0,0:0:0:0:
382,53,57388,2,0,L|390:151,1,72.5,8|0,0:0|0:0,0:0:0:0:
470,99,57816,2,0,L|462:197,1,72.5,12|0,0:0|0:0,0:0:0:0:
410,240,58245,1,8,0:0:0:0:
262,356,58673,6,0,L|85:351,1,145,6|6,0:0|0:0,0:0:0:0:
12,212,59530,1,8,0:3:0:0:
56,136,59745,1,0,0:0:0:0:
56,136,59852,1,0,0:0:0:0:
56,136,59959,2,0,L|51:92,3,36.25,0|0|8|0,0:0|0:0|0:3|0:0,0:0:0:0:
74,57,60388,6,0,L|170:66,1,79.7500024337769,12|0,0:0|0:0,0:0:0:0:
180,80,60709,1,2,0:0:0:0:
207,96,60816,2,0,L|303:105,1,79.7500024337769,10|0,0:0|0:0,0:0:0:0:
388,56,61245,1,8,0:0:0:0:
485,4,61459,1,0,0:0:0:0:
503,114,61673,2,0,L|499:212,1,79.7500024337769,8|0,0:0|0:0,0:0:0:0:
410,285,62102,6,0,L|406:187,1,79.7500024337769,8|0,0:0|0:0,0:0:0:0:
300,239,62530,2,0,L|304:141,1,79.7500024337769,8|0,0:0|0:0,0:0:0:0:
201,206,62959,2,0,L|197:304,1,79.7500024337769,8|0,0:0|0:0,0:0:0:0:
91,252,63387,2,0,L|95:350,1,79.7500024337769,8|8,0:0|0:0,0:0:0:0:
215,372,63816,5,8,0:0:0:0:
313,320,64030,1,2,0:0:0:0:
313,320,64138,1,2,0:0:0:0:
416,361,64352,1,2,0:0:0:0:
416,361,64459,1,2,0:0:0:0:
477,268,64673,1,8,0:0:0:0:
409,178,64888,1,0,0:0:0:0:
302,211,65102,2,0,L|192:205,1,79.7500024337769,8|0,0:0|0:0,0:0:0:0:
86,162,65530,6,0,L|78:58,1,79.7500024337769,8|0,0:0|0:0,0:0:0:0:
213,28,65959,2,0,L|205:132,1,79.7500024337769,8|0,0:0|0:0,0:0:0:0:
309,208,66388,2,0,B|329:161|329:161|319:36,1,159.500004867554,8|8,0:0|0:0,0:0:0:0:
320,52,67030,1,8,0:0:0:0:
440,8,67245,6,0,L|447:95,1,79.7500024337769,12|0,0:0|0:0,0:0:0:0:
457,117,67566,1,2,0:0:0:0:
467,147,67673,2,0,L|460:234,1,79.7500024337769,10|0,0:0|0:0,0:0:0:0:
490,334,68102,1,8,0:0:0:0:
385,374,68316,1,0,0:0:0:0:
283,328,68530,2,0,L|172:333,1,79.7500024337769,8|0,0:0|0:0,0:0:0:0:
80,369,68959,6,0,L|75:278,1,79.7500024337769,8|0,0:0|0:0,0:0:0:0:
7,180,69388,2,0,L|12:89,1,79.7500024337769,8|0,0:0|0:0,0:0:0:0:
119,33,69816,2,0,L|124:124,1,79.7500024337769,8|0,0:0|0:0,0:0:0:0:
192,222,70245,2,0,L|187:313,1,79.7500024337769,8|8,0:0|0:0,0:0:0:0:
290,377,70673,5,12,0:0:0:0:
345,279,70888,1,2,0:0:0:0:
345,279,70995,1,2,0:0:0:0:
298,177,71209,1,2,0:0:0:0:
298,177,71316,1,2,0:0:0:0:
346,76,71530,1,12,0:0:0:0:
267,0,71745,1,0,0:0:0:0:
168,53,71959,2,0,L|60:46,1,79.7500024337769,8|0,0:0|0:0,0:0:0:0:
1,141,72388,5,12,0:0:0:0:
96,225,72602,1,2,0:0:0:0:
96,225,72709,1,2,0:0:0:0:
205,160,72923,1,2,0:0:0:0:
205,160,73030,1,2,0:0:0:0:
317,227,73245,2,0,L|403:219,1,72.5,8|0,0:3|0:0,0:0:0:0:
485,132,73673,2,0,L|481:91,3,36.25,2|2|2|2,0:0|0:0|0:0|0:0,0:0:0:0:
466,67,74102,5,14,0:0:0:0:
437,52,74316,1,0,0:0:0:0:
352,7,74530,1,8,0:0:0:0:
320,10,74745,1,0,0:0:0:0:
300,103,74959,1,8,0:0:0:0:
307,133,75173,1,0,0:0:0:0:
380,194,75388,1,8,0:0:0:0:
323,276,75602,1,8,0:0:0:0:
323,276,75709,1,8,0:0:0:0:
323,276,75816,6,0,L|401:271,1,72.5,14|0,0:0|0:0,0:0:0:0:
391,362,76245,2,0,L|313:357,1,72.5,2|0,0:0|0:0,0:0:0:0:
238,319,76673,1,2,0:0:0:0:
164,357,76888,1,8,0:0:0:0:
136,347,77102,1,10,0:0:0:0:
4,201,77530,5,12,0:0:0:0:
89,129,77745,1,2,0:0:0:0:
89,129,77852,1,2,0:0:0:0:
13,46,78066,1,2,0:0:0:0:
13,46,78173,1,2,0:0:0:0:
120,13,78388,1,8,0:0:0:0:
151,7,78602,1,0,0:0:0:0:
187,95,78816,2,0,L|280:92,1,79.7500024337769,8|0,0:0|0:0,0:0:0:0:
322,19,79245,6,0,L|412:23,1,72.5,14|0,0:0|0:0,0:0:0:0:
381,108,79673,2,0,L|471:104,1,72.5,6|0,0:0|0:0,0:0:0:0:
506,173,80102,1,6,0:0:0:0:
457,244,80316,2,0,L|453:289,1,36.25,2|0,0:0|0:0,0:0:0:0:
496,270,80530,2,0,L|499:306,1,36.25,2|0,0:0|0:0,0:0:0:0:
310,259,80959,6,0,L|322:371,1,79.7500024337769,12|0,0:0|0:0,0:0:0:0:
212,373,81388,2,0,L|224:261,1,79.7500024337769,8|0,0:0|0:0,0:0:0:0:
123,239,81816,2,0,L|135:351,1,79.7500024337769,8|0,0:0|0:0,0:0:0:0:
25,353,82245,2,0,L|37:241,1,79.7500024337769,8|0,0:0|0:0,0:0:0:0:
13,147,82673,6,0,L|101:139,1,79.7500024337769,8|0,0:0|0:0,0:0:0:0:
77,28,83102,2,0,L|165:36,1,79.7500024337769,8|0,0:0|0:0,0:0:0:0:
210,132,83530,2,0,L|298:124,1,79.7500024337769,8|0,0:0|0:0,0:0:0:0:
292,12,83959,2,0,L|380:20,1,79.7500024337769,8|0,0:0|0:0,0:0:0:0:
474,66,84388,5,12,0:0:0:0:
411,158,84602,1,2,0:0:0:0:
411,158,84709,1,2,0:0:0:0:
449,262,84923,1,2,0:0:0:0:
449,262,85030,1,2,0:0:0:0:
338,241,85245,2,0,L|249:247,1,79.7500024337769,12|0,0:0|0:0,0:0:0:0:
165,185,85673,2,0,L|76:179,1,79.7500024337769,8|0,0:0|0:0,0:0:0:0:
8,77,86102,5,12,0:0:0:0:
101,16,86316,1,2,0:0:0:0:
101,16,86423,1,2,0:0:0:0:
188,86,86638,1,2,0:0:0:0:
188,86,86745,1,2,0:0:0:0:
96,174,86959,2,0,L|106:281,1,79.7500024337769,12|0,0:0|0:0,0:0:0:0:
219,338,87388,2,0,L|232:206,1,119.625003650665,12|0,0:0|0:0,0:0:0:0:
234,190,87816,5,4,0:0:0:0:
26,35,94673,6,0,L|38:139,1,72.5,8|0,0:0|0:0,0:0:0:0:
119,89,95102,2,0,L|107:193,1,72.5,8|0,0:0|0:0,0:0:0:0:
35,204,95530,2,0,L|47:308,1,72.5,8|0,0:0|0:0,0:0:0:0:
128,258,95959,2,0,L|116:362,1,72.5,8|0,0:0|0:0,0:0:0:0:
222,365,96388,6,0,L|210:261,1,72.5,8|0,0:0|0:0,0:0:0:0:
298,310,96816,2,0,L|310:206,1,72.5,8|0,0:0|0:0,0:0:0:0:
390,260,97245,2,0,L|378:156,1,72.5,8|0,0:0|0:0,0:0:0:0:
480,80,98102,6,0,L|468:-24,1,72.5,12|0,0:0|0:0,0:0:0:0:
372,92,98530,2,0,L|384:-12,1,72.5,8|0,0:0|0:0,0:0:0:0:
284,109,98959,2,0,L|272:5,1,72.5,12|0,0:0|0:0,0:0:0:0:
173,118,99388,2,0,L|185:14,1,72.5,8|0,0:0|0:0,0:0:0:0:
55,80,99816,6,0,L|69:253,1,145,6|6,0:0|0:0,0:0:0:0:
151,376,100673,1,4,0:0:0:0:
220,322,100888,1,2,0:0:0:0:
288,268,101102,2,0,L|284:221,2,36.25,6|2|2,0:0|0:0|0:0,0:0:0:0:
307,352,101530,6,0,L|480:358,1,145,10|10,0:0|0:0,0:0:0:0:
413,186,102388,1,8,0:3:0:0:
467,121,102602,1,0,0:0:0:0:
467,121,102709,1,0,0:0:0:0:
467,121,102816,2,0,L|464:83,3,36.25,0|0|8|0,0:0|0:0|0:3|0:0,0:0:0:0:
447,54,103245,6,0,L|333:47,1,86.9999973449708,12|0,0:0|0:0,0:0:0:0:
325,46,103566,1,2,0:0:0:0:
290,47,103673,2,0,L|280:163,1,86.9999973449708,10|0,0:0|0:0,0:0:0:0:
361,226,104102,1,8,0:0:0:0:
293,326,104316,1,0,0:0:0:0:
186,266,104530,2,0,L|82:262,1,86.9999973449708,8|0,0:0|0:0,0:0:0:0:
28,141,104959,6,0,L|132:137,1,86.9999973449708,8|0,0:0|0:0,0:0:0:0:
213,38,105388,2,0,L|109:34,1,86.9999973449708,8|0,0:0|0:0,0:0:0:0:
237,143,105816,2,0,L|341:139,1,86.9999973449708,8|0,0:0|0:0,0:0:0:0:
443,37,106245,2,0,L|339:33,1,86.9999973449708,8|0,0:0|0:0,0:0:0:0:
438,145,106673,5,8,0:0:0:0:
491,254,106888,1,2,0:0:0:0:
491,254,106995,1,2,0:0:0:0:
437,363,107209,1,2,0:0:0:0:
437,363,107316,1,2,0:0:0:0:
341,287,107530,1,8,0:0:0:0:
238,353,107745,1,0,0:0:0:0:
174,249,107959,2,0,L|182:157,1,86.9999973449708,8|0,0:0|0:0,0:0:0:0:
273,35,108388,6,0,L|386:40,1,86.9999973449708,8|0,0:0|0:0,0:0:0:0:
407,187,108816,2,0,L|294:192,1,86.9999973449708,8|0,0:0|0:0,0:0:0:0:
203,86,109245,2,0,B|146:74|146:74|17:92,1,173.999994689942,8|8,0:0|0:0,0:0:0:0:
31,89,109888,1,8,0:0:0:0:
89,216,110102,6,0,L|77:318,1,86.9999973449708,12|0,0:0|0:0,0:0:0:0:
74,336,110423,1,2,0:0:0:0:
72,370,110530,2,0,L|194:362,1,86.9999973449708,10|0,0:0|0:0,0:0:0:0:
254,287,110959,1,8,0:0:0:0:
357,351,111173,1,0,0:0:0:0:
449,271,111388,2,0,L|442:159,1,86.9999973449708,8|0,0:0|0:0,0:0:0:0:
449,27,111816,6,0,L|345:31,1,86.9999973449708,8|0,0:0|0:0,0:0:0:0:
264,130,112245,2,0,L|368:134,1,86.9999973449708,8|0,0:0|0:0,0:0:0:0:
240,25,112673,2,0,L|136:29,1,86.9999973449708,8|0,0:0|0:0,0:0:0:0:
35,131,113102,2,0,L|139:135,1,86.9999973449708,8|0,0:0|0:0,0:0:0:0:
250,187,113530,5,12,0:0:0:0:
357,129,113745,1,2,0:0:0:0:
357,129,113852,1,2,0:0:0:0:
455,199,114066,1,2,0:0:0:0:
455,199,114173,1,2,0:0:0:0:
405,310,114388,1,12,0:0:0:0:
296,255,114602,1,0,0:0:0:0:
195,323,114816,2,0,L|71:318,1,86.9999973449708,8|0,0:0|0:0,0:0:0:0:
8,198,115245,5,12,0:0:0:0:
121,89,115459,1,10,0:0:0:0:
121,89,115566,1,10,0:0:0:0:
158,240,115780,1,10,0:0:0:0:
158,240,115888,1,10,0:0:0:0:
8,198,116102,1,12,0:3:0:0:
121,89,116316,1,8,0:0:0:0:
250,175,116530,2,0,L|363:170,1,86.9999973449708,12|0,0:0|0:0,0:0:0:0:
439,116,116959,5,12,0:0:0:0:
