osu file format v14

[General]
AudioFilename: audio.mp3
AudioLeadIn: 0
PreviewTime: 17316
Countdown: 0
SampleSet: Soft
StackLeniency: 0.6
Mode: 0
LetterboxInBreaks: 0
WidescreenStoryboard: 0

[Editor]
DistanceSpacing: 1.1
BeatDivisor: 4
GridSize: 16
TimelineZoom: 1

[Metadata]
Title:Mermaid girl
TitleUnicode:Mermaid girl
Artist:Cream puff
ArtistUnicode:Cream puff
Creator:Stjpa
Version:Beginner
Source:beatmania IIDX 18 Resort Anthem
Tags:DanceDanceRevolution X3 VS 2ndMIX DanceEvolution ARCADE bubblegum pop pop'n music 20 fantasia FutureTomTom Ver.2 Halka MoiMoi Ryu* stefan tng thenutritiousguy
BeatmapID:1520051
BeatmapSetID:715915

[Difficulty]
HPDrainRate:3
CircleSize:2.5
OverallDifficulty:3
ApproachRate:3
SliderMultiplier:1
SliderTickRate:1

[Events]
//Background and Video events
0,0,"mermaid girl.png",0,0
//Break Periods
2,88016,93233
//Storyboard Layer 0 (Background)
//Storyboard Layer 1 (Fail)
//Storyboard Layer 2 (Pass)
//Storyboard Layer 3 (Foreground)
//Storyboard Sound Samples

[TimingPoints]
388,428.571428571429,4,2,2,65,1,0
3816,-100,4,2,2,65,0,0
10673,-100,4,2,2,65,0,0
17530,-95.2380952380952,4,2,1,80,0,1
31245,-100,4,2,2,65,0,0
32102,-100,4,2,2,65,0,0
32959,-100,4,2,2,65,0,0
59745,-100,4,1,1,65,0,0
60388,-95.2380952380952,4,2,1,80,0,1
73245,-100,4,2,2,65,0,0
74102,-95.2380952380952,4,2,1,80,0,1
75602,-95.2380952380952,4,2,2,80,0,1
75816,-100,4,2,2,65,0,0
77530,-95.2380952380952,4,2,1,80,0,1
79245,-100,4,2,2,65,0,0
80959,-95.2380952380952,4,2,1,80,0,1
87816,-100,4,2,2,65,0,0
102709,-100,4,1,1,65,0,0
103245,-90.9090909090909,4,2,1,80,0,1
116959,-100,4,2,2,65,0,0

[Colours]
Combo1 : 255,219,202
Combo2 : 174,255,215
Combo3 : 255,185,151
Combo4 : 132,255,132

[HitObjects]
183,36,3816,6,0,B|282:24|282:24|374:57|374:57|491:41,1,300,6|0,0:0|0:0,0:0:0:0:
466,152,5530,2,0,B|367:164|367:164|275:131|275:131|158:147,1,300,2|0,0:0|0:0,0:0:0:0:
80,124,7245,2,0,P|79:267|202:342,1,300,2|0,0:0|0:0,0:0:0:0:
312,343,8959,2,0,P|433:266|432:123,1,300,2|0,0:0|0:0,0:0:0:0:
483,25,10673,6,0,P|434:13|385:20,3,100,14|8|8|8,0:0|0:0|0:0|0:0,0:0:0:0:
318,108,12388,2,0,P|306:156|313:205,3,100,10|8|8|8,0:0|0:0|0:0|0:0,0:0:0:0:
223,268,14102,2,0,P|234:316|227:365,3,100,14|8|12|8,0:0|0:0|0:0|0:0,0:0:0:0:
128,316,15816,6,0,L|115:203,1,100,14|12,0:0|0:0,0:0:0:0:
29,149,16673,2,0,L|42:36,1,100,10|10,0:3|0:3,0:0:0:0:
155,36,17530,6,0,B|215:59|215:59|373:36,1,209.999993591309,12|8,0:0|0:0,0:0:0:0:
471,9,18816,1,8,0:0:0:0:
503,119,19245,2,0,L|487:336,1,209.999993591309,8|8,0:0|0:0,0:0:0:0:
381,374,20530,1,8,0:0:0:0:
299,291,20959,5,8,0:0:0:0:
195,343,21388,2,0,L|71:355,2,104.999996795654,8|8|8,0:0|0:0|0:0,0:0:0:0:
299,291,22673,2,0,L|293:181,1,104.999996795654,8|8,0:0|0:0,0:0:0:0:
344,82,23530,1,8,0:0:0:0:
119,27,24388,6,0,P|62:57|51:204,1,209.999993591309,14|8,0:0|0:0,0:0:0:0:
95,292,25673,1,8,0:0:0:0:
181,215,26102,2,0,B|232:198|232:198|384:232,1,209.999993591309,8|8,0:0|0:0,0:0:0:0:
485,288,27388,1,8,0:0:0:0:
494,173,27816,5,14,0:0:0:0:
400,104,28245,2,0,L|389:-3,2,104.999996795654,8|12|8,0:0|0:0|0:0,0:0:0:0:
334,198,29530,2,0,L|224:187,1,104.999996795654,12|14,0:0|0:0,0:0:0:0:
218,72,30388,2,0,L|108:83,1,104.999996795654,12|12,0:0|0:0,0:0:0:0:
28,151,31245,5,2,0:0:0:0:
361,20,32959,6,0,L|371:243,1,200,14|8,0:0|0:0,0:0:0:0:
409,322,34245,1,8,0:0:0:0:
315,379,34673,1,8,0:0:0:0:
207,355,35102,2,0,L|105:362,1,100,8|8,0:0|0:0,0:0:0:0:
23,158,36388,6,0,P|87:124|201:176,1,200,8|8,0:0|0:0,0:0:0:0:
252,265,37673,1,8,0:0:0:0:
349,214,38102,2,0,P|363:261|354:310,2,100,8|8|8,0:0|0:0|0:0,0:0:0:0:
473,32,39816,6,0,B|411:59|411:59|278:47,1,200,14|8,0:0|0:0,0:0:0:0:
88,24,41530,1,14,0:0:0:0:
37,121,41959,1,14,0:0:0:0:
86,219,42388,1,14,0:0:0:0:
253,75,43245,6,0,P|323:62|431:147,1,200,14|8,0:0|0:0,0:0:0:0:
402,238,44530,1,8,0:0:0:0:
443,340,44959,2,0,P|396:351|337:327,2,100,12|4|14,0:0|0:0|0:0,0:0:0:0:
224,365,46673,6,0,P|251:328|198:95,1,300,14|8,0:0|0:0,0:0:0:0:
112,37,48388,2,0,L|104:142,1,100,8|8,0:0|0:0,0:0:0:0:
14,200,49245,2,0,L|22:305,1,100,8|8,0:0|0:0,0:0:0:0:
124,259,50102,6,0,L|115:375,3,100,8|8|8|8,0:0|0:0|0:0|0:0,0:0:0:0:
223,369,51816,2,0,P|283:380|422:201,1,300,8|8,0:0|0:0,0:0:0:0:
473,122,53530,6,0,B|373:105|373:105|275:129|275:129|163:101,1,300,14|8,0:0|0:0,0:0:0:0:
92,38,55245,1,14,0:0:0:0:
23,123,55673,1,14,0:0:0:0:
61,226,56102,1,14,0:0:0:0:
244,346,56959,6,0,L|347:335,3,100,14|8|12|8,0:0|0:0|0:0|0:0,0:0:0:0:
289,239,58673,2,0,L|186:228,1,100,6|6,0:0|0:0,0:0:0:0:
122,141,59530,2,0,L|225:130,1,100,8|0,0:3|0:0,0:0:0:0:
322,74,60388,5,14,0:0:0:0:
419,17,60816,1,8,0:0:0:0:
483,113,61245,2,0,L|480:223,1,104.999996795654,8|8,0:0|0:0,0:0:0:0:
503,331,62102,2,0,B|437:303|437:303|283:332,1,209.999993591309,8|8,0:0|0:0,0:0:0:0:
192,368,63388,1,8,0:0:0:0:
114,282,63816,5,8,0:0:0:0:
178,186,64245,1,8,0:0:0:0:
285,227,64673,2,0,L|399:221,1,104.999996795654,8|8,0:0|0:0,0:0:0:0:
467,136,65530,2,0,P|447:70|307:17,1,209.999993591309,8|8,0:0|0:0,0:0:0:0:
96,32,67245,5,14,0:0:0:0:
34,132,67673,1,8,0:0:0:0:
94,230,68102,2,0,L|102:343,1,104.999996795654,8|8,0:0|0:0,0:0:0:0:
213,362,68959,2,0,P|269:330|410:361,1,209.999993591309,8|8,0:0|0:0,0:0:0:0:
503,295,70245,1,8,0:0:0:0:
436,200,70673,5,14,0:0:0:0:
498,102,71102,1,8,0:0:0:0:
397,44,71530,2,0,L|285:48,1,104.999996795654,14|8,0:0|0:0,0:0:0:0:
192,107,72388,1,14,0:0:0:0:
239,212,72816,1,14,0:0:0:0:
192,311,73245,1,8,0:3:0:0:
79,109,74102,6,0,P|122:88|187:97,2,104.999996795654,14|8|8,0:0|0:0|0:0,0:0:0:0:
150,200,75388,1,8,0:0:0:0:
106,300,75816,1,14,0:0:0:0:
312,354,77530,5,14,0:0:0:0:
274,244,77959,1,8,0:0:0:0:
339,148,78388,2,0,P|351:99|329:32,1,104.999996795654,8|8,0:0|0:0,0:0:0:0:
240,97,79245,2,0,L|126:90,2,100,14|6|6,0:0|0:0|0:0,0:0:0:0:
460,27,80959,6,0,L|446:246,1,209.999993591309,14|8,0:0|0:0,0:0:0:0:
484,345,82245,1,8,0:0:0:0:
369,360,82673,2,0,B|324:334|324:334|161:355,1,209.999993591309,8|8,0:0|0:0,0:0:0:0:
59,311,83959,1,8,0:0:0:0:
108,206,84388,6,12,L|217:215,1,104.999996795654,14|8,0:0|0:0,0:0:0:0:
304,285,85245,2,0,L|409:282,1,104.999996795654,14|8,0:0|0:0,0:0:0:0:
472,185,86102,2,0,L|367:182,1,104.999996795654,14|14,0:0|0:0,0:0:0:0:
285,100,86959,2,0,L|181:103,1,104.999996795654,14|14,0:0|0:0,0:0:0:0:
76,141,87816,5,6,0:0:0:0:
441,76,94673,6,0,P|392:66|330:80,3,100,10|8|8|8,0:0|0:0|0:0|0:0,0:0:0:0:
293,172,96388,2,0,P|342:182|404:168,2,100,10|8|8,0:0|0:0|0:0,0:0:0:0:
129,24,98102,6,0,L|141:137,1,100,14|8,0:0|0:0,0:0:0:0:
34,90,98959,2,0,L|22:203,1,100,14|8,0:0|0:0,0:0:0:0:
57,294,99816,2,0,P|105:278|158:287,1,100,6|6,0:0|0:0,0:0:0:0:
234,359,100673,1,6,0:0:0:0:
453,360,101530,6,0,L|461:250,1,100,10|10,0:0|0:0,0:0:0:0:
359,216,102388,2,0,L|367:326,1,100,8|0,0:3|0:0,0:0:0:0:
261,375,103245,5,14,0:0:0:0:
158,310,103673,1,8,0:0:0:0:
47,359,104102,2,0,P|37:304|54:248,1,110.000003356934,8|8,0:0|0:0,0:0:0:0:
147,178,104959,2,0,B|204:205|204:205|377:189,1,220.000006713867,8|8,0:0|0:0,0:0:0:0:
461,123,106245,1,8,0:0:0:0:
400,20,106673,5,8,0:0:0:0:
293,77,107102,1,8,0:0:0:0:
183,26,107530,2,0,L|66:28,1,110.000003356934,8|8,0:0|0:0,0:0:0:0:
12,133,108388,2,0,P|21:211|144:271,1,220.000006713867,8|8,0:0|0:0,0:0:0:0:
308,101,110102,5,14,0:0:0:0:
412,40,110530,1,8,0:0:0:0:
477,141,110959,2,0,L|471:261,1,110.000003356934,8|8,0:0|0:0,0:0:0:0:
415,358,111816,2,0,P|375:314|211:322,1,220.000006713867,8|8,0:0|0:0,0:0:0:0:
121,376,113102,1,8,0:0:0:0:
47,280,113530,5,14,0:0:0:0:
117,181,113959,1,8,0:0:0:0:
63,72,114388,2,0,P|111:57|172:74,1,110.000003356934,14|8,0:0|0:0,0:0:0:0:
270,135,115245,1,14,0:0:0:0:
378,81,115673,1,10,0:0:0:0:
454,175,116102,2,0,L|446:291,1,110.000003356934,14|14,0:3|0:0,0:0:0:0:
377,370,116959,5,12,0:0:0:0:
