osu file format v14

[General]
AudioFilename: audio.mp3
AudioLeadIn: 0
PreviewTime: 17316
Countdown: 0
SampleSet: Soft
StackLeniency: 0.4
Mode: 0
LetterboxInBreaks: 0
WidescreenStoryboard: 0

[Editor]
DistanceSpacing: 0.1
BeatDivisor: 4
GridSize: 16
TimelineZoom: 1

[Metadata]
Title:Mermaid girl
TitleUnicode:Mermaid girl
Artist:Cream puff
ArtistUnicode:Cream puff
Creator:Stjpa
Version:Another
Source:beatmania IIDX 18 Resort Anthem
Tags:DanceDanceRevolution X3 VS 2ndMIX DanceEvolution ARCADE bubblegum pop pop'n music 20 fantasia FutureTomTom Ver.2 Halka MoiMoi Ryu* stefan tng thenutritiousguy
BeatmapID:1512693
BeatmapSetID:715915

[Difficulty]
HPDrainRate:6
CircleSize:4
OverallDifficulty:7.5
ApproachRate:9
SliderMultiplier:1.75
SliderTickRate:1

[Events]
//Background and Video events
0,0,"mermaid girl.png",0,0
//Break Periods
2,88016,94073
//Storyboard Layer 0 (Background)
//Storyboard Layer 1 (Fail)
//Storyboard Layer 2 (Pass)
//Storyboard Layer 3 (Foreground)
//Storyboard Sound Samples

[TimingPoints]
388,428.571428571429,4,2,2,65,1,0
3816,-111.111111111111,4,2,2,65,0,0
10673,-95.2380952380952,4,2,2,65,0,0
17530,-80,4,2,1,80,0,1
23852,-80,4,2,1,5,0,1
23959,-80,4,2,1,80,0,1
31245,-100,4,2,2,65,0,0
31566,-100,4,2,2,5,0,0
31673,-100,4,2,2,65,0,0
31995,-100,4,2,2,5,0,0
32102,-333.333333333333,4,2,2,65,0,0
32423,-333.333333333333,4,2,2,5,0,0
32530,-333.333333333333,4,2,2,65,0,0
32959,-95.2380952380952,4,2,2,65,0,0
38638,-95.2380952380952,4,2,2,5,0,0
38745,-95.2380952380952,4,2,2,65,0,0
38852,-95.2380952380952,4,2,2,5,0,0
38959,-95.2380952380952,4,2,2,65,0,0
41423,-95.2380952380952,4,2,2,5,0,0
41530,-95.2380952380952,4,2,2,65,0,0
45495,-95.2380952380952,4,2,2,5,0,0
45602,-95.2380952380952,4,2,2,65,0,0
45709,-95.2380952380952,4,2,2,5,0,0
45816,-95.2380952380952,4,2,2,65,0,0
59745,-95.2380952380952,4,1,1,65,0,0
60388,-74.0740740740741,4,2,1,80,0,1
73245,-100,4,2,2,65,0,0
74102,-74.0740740740741,4,2,1,80,0,1
75602,-74.0740740740741,4,2,2,80,0,1
75816,-100,4,2,2,65,0,0
77530,-74.0740740740741,4,2,1,80,0,1
79245,-100,4,2,2,65,0,0
80423,-100,4,2,2,5,0,0
80530,-100,4,2,2,65,0,0
80638,-100,4,2,2,5,0,0
80959,-74.0740740740741,4,2,1,80,0,1
87816,-100,4,2,2,65,0,0
102602,-100,4,1,1,65,0,0
103245,-66.6666666666667,4,2,1,80,0,1
116959,-100,4,2,2,65,0,0

[Colours]
Combo1 : 255,219,202
Combo2 : 174,255,215
Combo3 : 255,185,151
Combo4 : 132,255,132

[HitObjects]
60,76,3388,5,0,0:0:0:0:
60,76,3602,1,0,0:0:0:0:
165,21,3816,6,0,L|255:27,1,78.7499975967408,6|0,0:0|0:0,0:0:0:0:
316,74,4138,1,2,0:0:0:0:
316,74,4245,2,0,B|306:114|306:114|326:173,1,78.7499975967408,2|0,0:0|0:0,0:0:0:0:
470,115,4673,2,0,L|385:110,1,78.7499975967408,2|0,0:0|0:0,0:0:0:0:
396,208,5102,2,0,L|480:205,1,78.7499975967408,2|0,0:0|0:0,0:0:0:0:
357,367,5530,6,0,L|348:253,1,78.7499975967408,2|0,0:0|0:0,0:0:0:0:
229,296,5959,2,0,L|220:410,1,78.7499975967408,2|0,0:0|0:0,0:0:0:0:
123,303,6388,2,0,L|46:291,1,78.7499975967408,2|0,0:0|0:0,0:0:0:0:
139,197,6816,2,0,L|216:185,1,78.7499975967408,2|0,0:0|0:0,0:0:0:0:
351,213,7245,5,2,0:0:0:0:
417,120,7459,1,2,0:0:0:0:
421,92,7566,1,2,0:0:0:0:
301,67,7780,1,2,0:0:0:0:
305,95,7887,1,2,0:0:0:0:
208,6,8102,1,2,0:0:0:0:
108,78,8316,1,0,0:0:0:0:
153,192,8530,2,0,L|149:273,1,78.7499975967408,2|0,0:0|0:0,0:0:0:0:
20,199,8959,6,0,L|12:85,1,78.7499975967408,2|0,0:0|0:0,0:0:0:0:
69,288,9388,2,0,L|61:402,1,78.7499975967408,2|0,0:0|0:0,0:0:0:0:
211,307,9816,2,0,L|199:171,1,118.124996395111,2|0,0:0|0:0,0:0:0:0:
199,169,10245,1,2,0:0:0:0:
282,75,10459,1,0,0:0:0:0:
413,155,10673,6,0,L|416:266,1,91.8749971961976,12|0,0:0|0:0,0:0:0:0:
458,328,10995,1,2,0:0:0:0:
458,328,11102,2,0,B|412:336|412:336|353:320,1,91.8749971961976,10|0,0:0|0:0,0:0:0:0:
252,271,11530,1,10,0:0:0:0:
160,359,11745,1,0,0:0:0:0:
58,256,11959,2,0,B|50:213|50:213|61:159,1,91.8749971961976,10|0,0:0|0:0,0:0:0:0:
200,25,12388,6,0,L|108:19,1,91.8749971961976,10|0,0:0|0:0,0:0:0:0:
236,127,12816,2,0,L|144:132,1,91.8749971961976,10|0,0:0|0:0,0:0:0:0:
206,237,13245,2,0,L|313:244,1,91.8749971961976,10|0,0:0|0:0,0:0:0:0:
258,363,13673,2,0,L|365:356,1,91.8749971961976,10|0,0:0|0:0,0:0:0:0:
494,225,14102,5,14,0:0:0:0:
427,115,14316,1,2,0:0:0:0:
431,92,14423,1,2,0:0:0:0:
326,39,14638,1,2,0:0:0:0:
330,62,14745,1,2,0:0:0:0:
264,171,14959,1,14,0:0:0:0:
184,68,15173,1,0,0:0:0:0:
44,184,15388,2,0,L|144:177,1,91.8749971961976,10|0,0:0|0:0,0:0:0:0:
259,251,15816,5,14,0:0:0:0:
176,351,16030,1,2,0:0:0:0:
172,329,16138,1,2,0:0:0:0:
55,292,16352,1,2,0:0:0:0:
50,315,16459,1,2,0:0:0:0:
125,204,16673,2,0,L|135:98,1,91.8749971961976,8|0,0:3|0:0,0:0:0:0:
91,36,16995,1,2,0:0:0:0:
91,36,17102,2,0,B|136:26|136:26|181:39,1,91.8749971961976,10|0,0:3|0:0,0:0:0:0:
48,214,17530,6,0,L|32:89,1,109.375,12|0,0:0|0:0,0:0:0:0:
179,38,17959,2,0,L|165:155,1,109.375,8|0,0:0|0:0,0:0:0:0:
301,215,18388,2,0,L|288:101,1,109.375,8|0,0:0|0:0,0:0:0:0:
415,36,18816,2,0,L|400:158,1,109.375,8|0,0:0|0:0,0:0:0:0:
203,261,19245,6,0,L|215:386,1,109.375,8|0,0:0|0:0,0:0:0:0:
333,301,19673,2,0,L|344:179,1,109.375,8|0,0:0|0:0,0:0:0:0:
133,139,20102,2,0,L|245:149,1,109.375,8|0,0:0|0:0,0:0:0:0:
446,77,20530,2,0,L|334:87,1,109.375,8|0,0:0|0:0,0:0:0:0:
132,18,20959,5,8,0:0:0:0:
23,103,21173,1,2,0:0:0:0:
29,146,21280,1,2,0:0:0:0:
69,298,21495,1,2,0:0:0:0:
76,255,21602,1,2,0:0:0:0:
205,171,21816,1,8,0:0:0:0:
282,341,22030,1,0,0:0:0:0:
396,229,22245,2,0,L|407:110,1,109.375,8|0,0:0|0:0,0:0:0:0:
289,2,22673,5,8,0:0:0:0:
212,160,22888,1,0,0:0:0:0:
382,33,23102,1,8,0:0:0:0:
181,21,23317,1,0,0:0:0:0:
319,194,23530,2,0,L|301:376,1,164.0625,8|0,0:0|0:0,0:0:0:0:
299,384,23959,1,8,0:0:0:0:
206,230,24173,1,0,0:0:0:0:
378,136,24388,6,0,L|487:149,1,109.375,12|0,0:0|0:0,0:0:0:0:
373,0,24816,2,0,L|263:6,1,109.375,8|0,0:0|0:0,0:0:0:0:
143,122,25245,2,0,L|253:131,1,109.375,8|0,0:0|0:0,0:0:0:0:
138,15,25673,2,0,L|28:23,1,109.375,8|0,0:0|0:0,0:0:0:0:
63,175,26102,6,0,L|77:286,1,109.375,8|0,0:0|0:0,0:0:0:0:
198,384,26530,2,0,L|212:273,1,109.375,8|0,0:0|0:0,0:0:0:0:
149,77,26959,2,0,L|163:188,1,109.375,8|0,0:0|0:0,0:0:0:0:
324,326,27388,2,0,L|310:215,1,109.375,8|0,0:0|0:0,0:0:0:0:
297,24,27816,5,12,0:0:0:0:
160,66,28030,1,2,0:0:0:0:
112,58,28138,1,2,0:0:0:0:
4,189,28352,1,2,0:0:0:0:
47,180,28459,1,2,0:0:0:0:
113,324,28673,1,12,0:0:0:0:
203,148,28888,1,0,0:0:0:0:
325,355,29102,2,0,L|309:212,1,109.375,8|0,0:0|0:0,0:0:0:0:
364,84,29530,5,12,0:0:0:0:
195,17,29745,1,2,0:0:0:0:
146,8,29852,1,2,0:0:0:0:
5,155,30066,1,2,0:0:0:0:
48,145,30173,1,2,0:0:0:0:
37,360,30388,1,12,0:0:0:0:
145,134,30602,1,2,0:0:0:0:
298,359,30816,2,0,L|453:352,1,109.375,12|0,0:0|0:0,0:0:0:0:
486,257,31245,6,0,P|440:233|489:215,1,131.25,2|0,0:0|0:0,0:0:0:0:
364,216,31673,2,0,P|410:192|361:174,1,131.25,2|0,0:0|0:0,0:0:0:0:
438,144,32102,6,2,L|440:97,1,39.3749987983704
482,24,32530,5,0,0:0:0:0:
482,24,32745,1,0,0:0:0:0:
305,63,32959,6,0,B|260:73|260:73|200:60,1,91.8749971961976,12|0,0:0|0:0,0:0:0:0:
143,153,33388,2,0,B|188:143|188:143|248:156,1,91.8749971961976,8|0,0:0|0:0,0:0:0:0:
42,195,33816,2,0,L|52:73,1,91.8749971961976,8|0,0:0|0:0,0:0:0:0:
132,252,34245,1,8,0:0:0:0:
132,252,34459,1,0,0:0:0:0:
240,384,34673,6,0,L|347:376,1,91.8749971961976,8|0,0:0|0:0,0:0:0:0:
457,338,35102,1,8,0:0:0:0:
325,228,35316,2,0,L|333:121,1,91.8749971961976,0|8,0:0|0:0,0:0:0:0:
397,16,35745,1,0,0:0:0:0:
464,148,35959,1,8,0:0:0:0:
464,148,36173,1,8,0:0:0:0:
284,48,36388,6,0,L|168:56,1,91.8749971961976,8|0,0:0|0:0,0:0:0:0:
104,165,36816,2,0,L|220:173,1,91.8749971961976,8|0,0:0|0:0,0:0:0:0:
24,333,37245,2,0,L|16:217,1,91.8749971961976,8|0,0:0|0:0,0:0:0:0:
35,69,37673,1,8,0:0:0:0:
35,69,37888,1,0,0:0:0:0:
203,15,38102,5,8,0:0:0:0:
286,114,38316,1,0,0:0:0:0:
150,208,38530,2,0,L|157:149,1,45.9374985980988,2|0,0:0|0:0,0:0:0:0:
242,215,38745,2,0,L|249:274,1,45.9374985980988,2|0,0:0|0:0,0:0:0:0:
157,383,38959,2,0,L|168:287,1,91.8749971961976,8|0,0:0|0:0,0:0:0:0:
242,125,39388,1,8,0:0:0:0:
242,125,39602,1,8,0:0:0:0:
398,16,39816,6,0,L|529:25,1,91.8749971961976,12|0,0:0|0:0,0:0:0:0:
438,132,40245,2,0,L|307:141,1,91.8749971961976,8|0,0:0|0:0,0:0:0:0:
414,266,40673,2,0,L|545:275,1,91.8749971961976,8|0,0:0|0:0,0:0:0:0:
327,361,41102,2,0,B|287:337|287:337|187:347,1,137.812495794296,8|0,0:0|0:0,0:0:0:0:
108,360,41530,6,0,B|127:302|127:302|103:169,2,183.749994392395,12|12|12,0:0|0:0|0:0,0:0:0:0:
112,364,42816,1,10,0:0:0:0:
112,364,43030,1,8,0:0:0:0:
9,211,43245,6,0,L|16:98,1,91.8749971961976,12|0,0:0|0:0,0:0:0:0:
171,90,43673,2,0,L|178:203,1,91.8749971961976,8|0,0:0|0:0,0:0:0:0:
6,23,44102,2,0,L|119:16,1,91.8749971961976,8|0,0:0|0:0,0:0:0:0:
241,17,44530,1,8,0:0:0:0:
176,181,44745,1,0,0:0:0:0:
358,94,44959,6,0,L|353:2,1,91.8749971961976,12|0,0:0|0:0,0:0:0:0:
432,136,45388,2,0,L|429:196,1,45.9374985980988,6|0,0:0|0:0,0:0:0:0:
509,215,45602,2,0,L|506:155,1,45.9374985980988,2|0,0:0|0:0,0:0:0:0:
440,265,45816,2,0,L|435:356,1,91.8749971961976,12|0,0:0|0:0,0:0:0:0:
350,231,46245,1,2,0:0:0:0:
350,231,46352,1,2,0:0:0:0:
350,231,46459,1,2,0:0:0:0:
178,369,46673,5,12,0:0:0:0:
240,265,46888,1,0,0:0:0:0:
81,311,47102,2,0,L|71:212,1,91.8749971961976,8|0,0:0|0:0,0:0:0:0:
191,98,47530,2,0,L|181:197,1,91.8749971961976,8|0,0:0|0:0,0:0:0:0:
325,112,47959,2,0,L|315:13,1,91.8749971961976,8|0,0:0|0:0,0:0:0:0:
410,203,48388,5,8,0:0:0:0:
470,88,48602,1,0,0:0:0:0:
470,88,48816,1,8,0:0:0:0:
315,20,49030,2,0,L|211:26,1,91.8749971961976,0|8,0:0|0:0,0:0:0:0:
121,121,49459,1,0,0:0:0:0:
18,17,49673,1,8,0:0:0:0:
18,17,49888,1,8,0:0:0:0:
42,186,50102,6,0,L|33:289,1,91.8749971961976,8|0,0:0|0:0,0:0:0:0:
239,347,50530,2,0,L|230:244,1,91.8749971961976,8|0,0:0|0:0,0:0:0:0:
136,194,50959,2,0,L|127:297,1,91.8749971961976,8|0,0:0|0:0,0:0:0:0:
333,339,51388,2,0,L|324:236,1,91.8749971961976,8|0,0:0|0:0,0:0:0:0:
258,59,51816,6,0,B|202:74|202:74|56:45,2,183.749994392395,8|8|8,0:0|0:0|0:0,0:0:0:0:
262,63,53102,1,8,0:0:0:0:
262,63,53316,1,8,0:0:0:0:
427,8,53530,5,12,0:0:0:0:
504,115,53745,1,0,0:0:0:0:
386,225,53959,2,0,L|274:209,1,91.8749971961976,8|0,0:0|0:0,0:0:0:0:
223,336,54388,2,0,L|335:320,1,91.8749971961976,8|0,0:0|0:0,0:0:0:0:
115,277,54816,2,0,L|97:405,1,91.8749971961976,8|0,0:0|0:0,0:0:0:0:
56,182,55245,5,12,0:0:0:0:
215,91,55673,1,12,0:0:0:0:
213,274,56102,1,12,0:0:0:0:
60,186,56530,1,8,0:0:0:0:
60,186,56745,1,8,0:0:0:0:
186,7,56959,6,0,L|293:14,1,91.8749971961976,12|0,0:0|0:0,0:0:0:0:
121,119,57388,2,0,L|228:111,1,91.8749971961976,8|0,0:0|0:0,0:0:0:0:
327,248,57816,2,0,L|219:255,1,91.8749971961976,12|0,0:0|0:0,0:0:0:0:
392,360,58245,2,0,L|284:352,1,91.8749971961976,8|0,0:0|0:0,0:0:0:0:
498,299,58673,5,6,0:0:0:0:
476,185,59102,1,6,0:0:0:0:
457,70,59530,2,0,L|396:68,1,45.9374985980988,8|0,0:3|0:0,0:0:0:0:
263,44,59745,1,0,0:0:0:0:
263,44,59852,1,0,0:0:0:0:
263,44,59959,1,0,0:0:0:0:
212,50,60066,1,0,0:0:0:0:
161,56,60173,1,8,0:3:0:0:
111,63,60280,1,0,0:0:0:0:
62,69,60388,6,0,L|71:201,1,118.125000450611,12|0,0:0|0:0,0:0:0:0:
200,222,60709,1,2,0:0:0:0:
254,166,60816,2,0,L|245:298,1,118.125000450611,10|0,0:0|0:0,0:0:0:0:
9,364,61245,1,8,0:0:0:0:
125,270,61459,1,0,0:0:0:0:
269,370,61673,2,0,L|404:359,1,118.125000450611,8|0,0:0|0:0,0:0:0:0:
506,184,62102,6,0,L|371:173,1,118.125000450611,8|0,0:0|0:0,0:0:0:0:
223,21,62530,2,0,L|358:10,1,118.125000450611,8|0,0:0|0:0,0:0:0:0:
188,175,62959,2,0,L|53:164,1,118.125000450611,8|0,0:0|0:0,0:0:0:0:
263,268,63388,1,8,0:0:0:0:
263,268,63602,1,8,0:0:0:0:
423,156,63816,5,8,0:0:0:0:
315,14,64030,1,2,0:0:0:0:
367,6,64138,1,2,0:0:0:0:
508,71,64352,1,2,0:0:0:0:
456,63,64460,1,2,0:0:0:0:
300,153,64673,1,8,0:0:0:0:
456,63,64888,1,0,0:0:0:0:
498,285,65102,2,0,L|368:272,1,118.125000450611,8|0,0:0|0:0,0:0:0:0:
216,362,65530,5,8,0:0:0:0:
252,210,65745,1,0,0:0:0:0:
294,382,65959,1,8,0:0:0:0:
196,146,66174,1,0,0:0:0:0:
65,375,66388,2,0,L|54:232,1,118.125000450611,8|0,0:0|0:0,0:0:0:0:
14,91,66816,1,8,0:0:0:0:
14,91,67030,1,8,0:0:0:0:
221,11,67245,6,0,L|353:20,1,118.125000450611,12|0,0:0|0:0,0:0:0:0:
374,149,67566,1,2,0:0:0:0:
318,203,67673,2,0,L|450:194,1,118.125000450611,10|0,0:0|0:0,0:0:0:0:
485,366,68102,1,8,0:0:0:0:
362,297,68316,1,0,0:0:0:0:
194,383,68530,2,0,L|211:212,1,118.125000450611,8|0,0:0|0:0,0:0:0:0:
281,38,68959,6,0,L|158:48,1,118.125000450611,8|0,0:0|0:0,0:0:0:0:
308,205,69388,2,0,L|431:215,1,118.125000450611,8|0,0:0|0:0,0:0:0:0:
495,19,69816,2,0,L|372:29,1,118.125000450611,8|0,0:0|0:0,0:0:0:0:
218,129,70245,1,8,0:0:0:0:
218,129,70459,1,8,0:0:0:0:
64,24,70673,5,12,0:0:0:0:
17,187,70888,1,2,0:0:0:0:
7,134,70995,1,2,0:0:0:0:
129,179,71209,1,2,0:0:0:0:
119,232,71316,1,2,0:0:0:0:
192,372,71530,1,12,0:0:0:0:
270,222,71745,1,0,0:0:0:0:
426,376,71959,2,0,L|416:241,1,118.125000450611,8|0,0:0|0:0,0:0:0:0:
446,20,72388,5,12,0:0:0:0:
493,183,72603,1,2,0:0:0:0:
503,130,72710,1,2,0:0:0:0:
349,99,72924,1,2,0:0:0:0:
359,152,73031,1,2,0:0:0:0:
195,67,73245,2,0,P|164:69|200:24,1,131.25,8|0,0:3|0:0,0:0:0:0:
112,52,73673,1,2,0:0:0:0:
107,99,73780,1,2,0:0:0:0:
103,147,73888,1,2,0:0:0:0:
99,194,73995,1,2,0:0:0:0:
101,243,74102,5,14,0:0:0:0:
101,243,74316,1,0,0:0:0:0:
15,368,74530,1,8,0:0:0:0:
15,368,74745,1,0,0:0:0:0:
225,303,74959,1,8,0:0:0:0:
225,303,75173,1,0,0:0:0:0:
170,143,75388,1,8,0:0:0:0:
263,56,75602,1,8,0:0:0:0:
298,57,75709,1,8,0:0:0:0:
336,60,75816,5,14,0:0:0:0:
336,60,76030,1,0,0:0:0:0:
422,21,76245,1,2,0:0:0:0:
422,21,76459,1,0,0:0:0:0:
509,65,76673,1,2,0:0:0:0:
509,65,76888,1,8,0:0:0:0:
485,164,77102,1,10,0:0:0:0:
485,164,77530,5,12,0:0:0:0:
454,289,77745,1,2,0:0:0:0:
506,281,77852,1,2,0:0:0:0:
370,378,78066,1,2,0:0:0:0:
318,370,78173,1,2,0:0:0:0:
189,273,78388,1,8,0:0:0:0:
51,363,78602,1,0,0:0:0:0:
5,166,78816,2,0,L|18:28,1,118.125000450611,8|0,0:0|0:0,0:0:0:0:
167,14,79245,5,14,0:0:0:0:
167,14,79459,1,0,0:0:0:0:
264,26,79673,1,6,0:0:0:0:
264,26,79888,1,0,0:0:0:0:
365,37,80102,1,6,0:0:0:0:
307,113,80316,2,0,L|313:165,1,43.75,2|0,0:0|0:0,0:0:0:0:
217,188,80530,2,0,L|223:136,1,43.75,2|0,0:0|0:0,0:0:0:0:
217,188,80959,6,0,L|93:177,1,118.125000450611,12|0,0:0|0:0,0:0:0:0:
21,358,81388,2,0,L|145:347,1,118.125000450611,8|0,0:0|0:0,0:0:0:0:
307,113,81816,2,0,L|321:238,1,118.125000450611,8|0,0:0|0:0,0:0:0:0:
466,367,82245,2,0,L|480:242,1,118.125000450611,8|0,0:0|0:0,0:0:0:0:
411,35,82673,6,0,L|271:24,1,118.125000450611,8|0,0:0|0:0,0:0:0:0:
202,239,83102,2,0,L|342:228,1,118.125000450611,8|0,0:0|0:0,0:0:0:0:
52,331,83530,2,0,L|36:177,1,118.125000450611,8|0,0:0|0:0,0:0:0:0:
151,26,83959,2,0,L|135:180,1,118.125000450611,8|0,0:0|0:0,0:0:0:0:
201,353,84388,5,12,0:0:0:0:
358,279,84602,1,2,0:0:0:0:
349,226,84709,1,2,0:0:0:0:
496,310,84923,1,2,0:0:0:0:
487,363,85030,1,2,0:0:0:0:
455,185,85245,1,12,0:0:0:0:
323,77,85459,1,0,0:0:0:0:
192,222,85673,2,0,L|203:358,1,118.125000450611,8|0,0:0|0:0,0:0:0:0:
13,171,86102,5,12,0:0:0:0:
84,23,86316,1,2,0:0:0:0:
31,17,86423,1,2,0:0:0:0:
154,135,86638,1,2,0:0:0:0:
207,129,86745,1,2,0:0:0:0:
378,13,86959,1,12,0:0:0:0:
495,188,87173,1,2,0:0:0:0:
253,278,87388,2,0,L|107:268,1,118.125000450611,12|0,0:0|0:0,0:0:0:0:
135,269,87816,5,4,0:0:0:0:
17,39,94673,6,0,L|133:30,1,87.5,8|0,0:0|0:0,0:0:0:0:
71,121,95102,2,0,L|187:130,1,87.5,8|0,0:0|0:0,0:0:0:0:
110,213,95530,2,0,L|226:204,1,87.5,8|0,0:0|0:0,0:0:0:0:
161,296,95959,2,0,L|277:305,1,87.5,8|0,0:0|0:0,0:0:0:0:
506,282,96388,6,0,L|390:291,1,87.5,8|0,0:0|0:0,0:0:0:0:
452,200,96817,2,0,L|336:191,1,87.5,8|0,0:0|0:0,0:0:0:0:
413,108,97245,2,0,L|297:117,1,87.5,8|0,0:0|0:0,0:0:0:0:
332,202,98102,6,0,L|325:114,1,87.5,12|0,0:0|0:0,0:0:0:0:
216,257,98531,2,0,L|222:169,1,87.5,8|0,0:0|0:0,0:0:0:0:
119,300,98959,2,0,L|112:212,1,87.5,12|0,0:0|0:0,0:0:0:0:
9,355,99388,2,0,L|15:267,1,87.5,8|0,0:0|0:0,0:0:0:0:
12,78,99816,5,6,0:0:0:0:
115,64,100245,1,6,0:0:0:0:
219,51,100673,1,4,0:0:0:0:
219,51,100888,1,2,0:0:0:0:
323,38,101102,1,6,0:0:0:0:
323,38,101209,1,2,0:0:0:0:
323,38,101316,1,2,0:0:0:0:
427,26,101530,6,0,L|416:140,1,87.5,10|0,0:0|0:0,0:0:0:0:
510,169,101959,2,0,L|499:55,1,87.5,10|0,0:0|0:0,0:0:0:0:
341,155,102388,2,0,L|345:198,1,43.75,8|0,0:3|0:0,0:0:0:0:
447,335,102602,1,0,0:0:0:0:
447,335,102709,1,0,0:0:0:0:
447,335,102816,1,0,0:0:0:0:
390,341,102923,1,0,0:0:0:0:
333,347,103030,1,8,0:3:0:0:
276,353,103138,1,0,0:0:0:0:
221,361,103245,6,0,L|87:355,1,131.25000500679,12|0,0:0|0:0,0:0:0:0:
246,223,103566,1,2,0:0:0:0:
177,174,103673,2,0,L|311:168,1,131.25000500679,10|0,0:0|0:0,0:0:0:0:
86,111,104102,1,8,0:0:0:0:
231,11,104316,1,0,0:0:0:0:
448,108,104530,2,0,L|439:250,1,131.25000500679,8|0,0:0|0:0,0:0:0:0:
185,304,104959,6,0,L|176:162,1,131.25000500679,8|0,0:0|0:0,0:0:0:0:
318,56,105388,2,0,L|309:186,1,131.25000500679,8|0,0:0|0:0,0:0:0:0:
51,316,105816,2,0,L|42:174,1,131.25000500679,8|0,0:0|0:0,0:0:0:0:
452,68,106245,2,0,L|443:198,1,131.25000500679,8|0,0:0|0:0,0:0:0:0:
215,364,106673,5,8,0:0:0:0:
357,289,106888,1,2,0:0:0:0:
426,308,106995,1,2,0:0:0:0:
216,196,107209,1,2,0:0:0:0:
147,215,107316,1,2,0:0:0:0:
312,80,107530,1,8,0:0:0:0:
357,289,107745,1,0,0:0:0:0:
38,280,107959,2,0,L|47:130,1,131.25000500679,8|0,0:0|0:0,0:0:0:0:
243,37,108388,5,8,0:0:0:0:
287,236,108602,1,0,0:0:0:0:
318,0,108816,1,8,0:0:0:0:
238,311,109030,1,0,0:0:0:0:
135,5,109245,2,0,L|144:145,1,131.25000500679,8|0,0:0|0:0,0:0:0:0:
206,384,109673,1,8,0:0:0:0:
206,384,109888,1,8,0:0:0:0:
506,296,110102,6,0,L|500:162,1,131.25000500679,12|0,0:0|0:0,0:0:0:0:
378,320,110423,1,2,0:0:0:0:
329,251,110530,2,0,L|323:385,1,131.25000500679,10|0,0:0|0:0,0:0:0:0:
390,143,110959,1,8,0:0:0:0:
243,31,111173,1,0,0:0:0:0:
29,147,111388,2,0,L|37:292,1,131.25000500679,8|0,0:0|0:0,0:0:0:0:
291,257,111816,6,0,L|429:269,1,131.25000500679,8|0,0:0|0:0,0:0:0:0:
218,92,112245,2,0,L|80:104,1,131.25000500679,8|0,0:0|0:0,0:0:0:0:
152,359,112673,2,0,L|164:221,1,131.25000500679,8|0,0:0|0:0,0:0:0:0:
350,7,113102,2,0,L|362:145,1,131.25000500679,8|0,0:0|0:0,0:0:0:0:
306,373,113530,5,12,0:0:0:0:
397,225,113745,1,2,0:0:0:0:
473,241,113852,1,2,0:0:0:0:
297,84,114066,1,2,0:0:0:0:
220,102,114173,1,2,0:0:0:0:
408,12,114388,1,12,0:0:0:0:
303,205,114602,1,0,0:0:0:0:
95,5,114816,2,0,L|107:141,1,131.25000500679,8|0,0:0|0:0,0:0:0:0:
263,383,115245,5,12,0:0:0:0:
88,223,115459,1,10,0:0:0:0:
12,245,115566,1,10,0:0:0:0:
272,120,115780,1,10,0:0:0:0:
348,142,115887,1,10,0:0:0:0:
146,21,116102,1,12,0:3:0:0:
191,277,116316,1,10,0:0:0:0:
443,146,116530,2,0,L|432:-23,1,131.25000500679,12|0,0:0|0:0,0:0:0:0:
420,232,116959,5,12,0:0:0:0:
