osu file format v14

[General]
AudioFilename: audio.mp3
AudioLeadIn: 0
PreviewTime: 104700
Countdown: 0
SampleSet: Soft
StackLeniency: 0.7
Mode: 0
LetterboxInBreaks: 0
WidescreenStoryboard: 1

[Editor]
Bookmarks: 76874
DistanceSpacing: 1
BeatDivisor: 4
GridSize: 16
TimelineZoom: 1.7

[Metadata]
Title:Axel F
TitleUnicode:Axel F
Artist:Crazy Frog
ArtistUnicode:Crazy Frog
Creator:wafer
Version:Phynta's Normal Frog
Source:
Tags:pop electronic dance music english goopert kami no kotoba daniel malmedahl phynta mekki mkguh fsjallink novelty Beverly Hills Cop harold faltermeyer instrumental matthias wagner andreas dohmeyer henning reith reinhard raith dj voodoo wolfgang boss jamster! daniel malmedahl eurodance
BeatmapID:3528770
BeatmapSetID:1719956

[Difficulty]
HPDrainRate:3.5
CircleSize:3.5
OverallDifficulty:3.5
ApproachRate:5
SliderMultiplier:1.1
SliderTickRate:1

[Events]
//Background and Video events
0,0,"unknown.jpg",0,0
Video,269,"crazyfrogscrazierfrog.mp4"
//Break Periods
2,77074,82848
2,160352,165239
//Storyboard Layer 0 (Background)
//Storyboard Layer 1 (Fail)
//Storyboard Layer 2 (Pass)
//Storyboard Layer 3 (Foreground)
//Storyboard Layer 4 (Overlay)
//Storyboard Sound Samples

[TimingPoints]
353,434.782608695652,4,2,0,30,1,0
7309,-100,4,2,0,40,0,0
14266,-100,4,2,0,50,0,0
21222,-90.9090909090909,4,2,0,70,0,0
35135,-100,4,2,0,55,0,0
49048,-90.9090909090909,4,2,0,70,0,0
59483,-90.9090909090909,4,2,0,60,0,0
60135,-90.9090909090909,4,2,0,55,0,0
60570,-90.9090909090909,4,2,0,50,0,0
62309,-90.9090909090909,4,2,0,45,0,0
62961,-90.9090909090909,4,2,0,75,0,0
76874,-100,4,2,0,50,0,0
89809,-100,4,2,0,40,0,0
89918,-100,4,2,0,60,0,0
104700,-90.9090909090909,4,2,0,70,0,0
115135,-90.9090909090909,4,2,0,60,0,0
115787,-90.9090909090909,4,2,0,55,0,0
116222,-90.9090909090909,4,2,0,50,0,0
118613,-100,4,2,0,55,0,0
132526,-90.9090909090909,4,2,0,70,0,0
142961,-90.9090909090909,4,2,0,60,0,0
143613,-90.9090909090909,4,2,0,55,0,0
144048,-90.9090909090909,4,2,0,50,0,0
145787,-90.9090909090909,4,2,0,45,0,0
146439,-90.9090909090909,4,2,0,75,0,0
159483,-100,4,2,0,50,0,0
166439,-100,4,2,0,40,0,0

[Colours]
Combo1 : 17,254,176
Combo2 : 173,255,95
Combo3 : 255,88,100
Combo4 : 255,94,55

[HitObjects]
19,364,7309,6,0,P|18:335|37:300,1,55,4|0,0:1|0:0,0:0:0:0:
63,269,7744,2,0,L|151:280,2,82.5,2|2|2,0:0|0:0|0:0,0:0:0:0:
44,217,8613,1,2,0:0:0:0:
88,116,9048,6,0,L|146:110,1,55,2|0,0:0|0:0,0:0:0:0:
191,84,9483,2,0,L|181:-4,2,82.5,2|2|2,0:0|0:0|0:0,0:0:0:0:
243,100,10352,1,2,0:0:0:0:
336,42,10787,5,2,0:0:0:0:
436,87,11222,2,0,L|428:182,1,82.5,2|2,0:0|0:0,0:0:0:0:
470,240,11874,1,2,0:0:0:0:
480,294,12092,1,0,0:0:0:0:
491,347,12309,1,2,0:0:0:0:
262,194,13396,5,0,3:0:0:0:
325,283,13831,1,0,3:0:0:0:
255,368,14266,6,0,P|225:366|200:346,1,55,6|0,3:2|0:0,0:0:0:0:
171,308,14700,2,0,L|85:317,2,82.5,2|2|2,3:2|0:0|0:0,0:0:0:0:
194,258,15570,1,2,0:0:0:0:
158,153,16005,6,0,P|150:128|154:95,1,55,2|0,3:2|0:0,0:0:0:0:
180,52,16439,2,0,B|219:52|215:18|255:17,2,82.5,2|2|2,3:2|0:0|0:0,0:0:0:0:
140,13,17309,1,2,0:0:0:0:
31,30,17744,5,2,3:2:0:0:
56,136,18179,2,0,B|73:164|73:164|65:215,1,82.5,2|2,0:0|0:0,0:0:0:0:
0,264,18831,1,2,0:0:0:0:
12,317,19048,1,2,3:0:0:0:
26,370,19266,1,6,0:0:0:0:
256,192,20352,5,4,1:0:0:0:
414,370,21222,6,0,P|389:356|387:322,1,60.5000018463135,4|2,1:0|3:0,0:0:0:0:
395,266,21657,2,0,L|408:173,1,90.7500027694703,10|2,1:0|0:0,0:0:0:0:
422,160,22092,2,0,L|415:97,2,60.5000018463135,4|2|10,1:3|0:0|1:0,0:0:0:0:
305,125,22961,6,0,P|280:135|241:127,1,60.5000018463135,2|2,1:0|3:0,0:0:0:0:
199,93,23396,2,0,P|148:76|101:89,1,90.7500027694703,10|2,1:0|0:0,0:0:0:0:
96,96,23831,2,0,P|63:99|33:86,2,60.5000018463135,4|2|10,1:3|0:0|1:0,0:0:0:0:
158,199,24700,6,0,P|154:234|138:261,1,60.5000018463135,2|2,1:0|0:1,0:0:0:0:
98,298,25135,2,0,P|56:309|12:285,2,90.7500027694703,10|2|2,1:0|0:0|0:0,0:0:0:0:
146,334,26005,1,10,1:0:0:0:
200,306,26222,2,0,B|283:288|267:382|371:363,1,181.500005538941,2|8,0:1|1:0,0:0:0:0:
481,341,27309,5,2,1:0:0:0:
445,225,27744,1,10,1:0:0:0:
508,122,28179,6,0,P|516:95|507:61,1,60.5000018463135,4|2,1:0|3:0,0:0:0:0:
468,18,28613,2,0,P|430:7|381:24,1,90.7500027694703,10|2,1:0|0:0,0:0:0:0:
367,37,29048,2,0,P|337:51|297:40,2,60.5000018463135,4|2|10,1:3|0:0|1:0,0:0:0:0:
384,157,29918,6,0,P|351:158|317:174,1,60.5000018463135,2|2,1:0|3:0,0:0:0:0:
277,203,30352,2,0,L|292:294,1,90.7500027694703,10|2,1:0|0:0,0:0:0:0:
310,302,30787,2,0,L|302:377,2,60.5000018463135,4|2|10,1:3|0:0|1:0,0:0:0:0:
191,301,31657,6,0,P|158:302|123:318,1,60.5000018463135,2|2,1:0|0:1,0:0:0:0:
87,352,32092,2,0,B|46:358|46:358|39:365|39:365|1:371,2,90.7500027694703,10|2|2,1:0|0:0|0:0,0:0:0:0:
104,294,32961,1,10,1:0:0:0:
119,235,33179,2,0,B|146:146|73:154|109:59,1,181.500005538941,2|0,0:1|0:0,0:0:0:0:
507,19,35135,6,0,B|497:65|497:65|502:79|502:79|490:131,1,110,4|10,1:0|0:0,0:0:0:0:
453,164,35787,1,2,0:0:0:0:
415,202,36005,2,0,L|440:308,1,110,6|10,1:3|1:2,0:0:0:0:
335,335,36874,6,0,B|325:289|325:289|330:275|330:275|318:223,1,110,4|10,1:0|0:0,0:0:0:0:
281,190,37526,1,2,0:0:0:0:
243,152,37744,2,0,L|255:98,1,55,6|2,1:3|0:0,0:0:0:0:
268,44,38179,1,10,1:2:0:0:
161,24,38613,6,0,B|151:70|151:70|156:84|156:84|144:136,1,110,4|10,1:0|0:0,0:0:0:0:
107,169,39265,1,2,0:0:0:0:
69,207,39483,2,0,L|94:313,1,110,6|10,1:3|1:2,0:0:0:0:
195,360,40352,6,0,P|206:335|203:298,1,55,4|2,1:0|3:0,0:0:0:0:
188,255,40787,2,0,P|216:252|246:230,1,55,10|2,0:0|0:0,0:0:0:0:
280,200,41222,6,2,L|342:213,1,55,6|2,1:3|0:0,0:1:0:0:
388,224,41657,1,10,1:1:0:0:
494,191,42092,6,0,L|482:74,1,110,4|10,1:0|0:0,0:0:0:0:
478,26,42744,1,2,0:0:0:0:
422,31,42961,2,0,L|305:42,1,110,6|10,1:3|1:2,0:0:0:0:
249,131,43831,6,0,L|261:248,1,110,4|10,1:0|0:0,0:0:0:0:
265,296,44483,1,2,0:0:0:0:
320,291,44700,2,0,L|374:286,1,55,6|2,1:3|0:0,0:0:0:0:
431,281,45135,1,10,1:2:0:0:
494,191,45570,6,0,L|482:74,1,110,4|10,1:0|0:0,0:0:0:0:
478,26,46222,1,2,0:0:0:0:
422,31,46439,2,0,L|305:42,1,110,6|8,1:3|1:0,0:0:0:0:
318,95,47092,1,4,1:0:0:0:
322,153,47309,6,2,P|324:187|315:211,1,55,6|4,3:0|3:0,3:1:0:0:
284,247,47744,2,0,L|228:247,1,55,14|4,0:3|0:3,0:0:0:0:
195,206,48179,2,2,P|188:180|190:153,1,55,6|2,1:2|0:0,0:1:0:0:
195,97,48613,1,2,0:2:0:0:
90,31,49048,6,0,P|59:37|36:59,1,60.5000018463135,4|2,1:0|3:0,0:0:0:0:
8,108,49483,2,0,L|20:206,1,90.7500027694703,10|2,1:0|0:0,0:0:0:0:
35,212,49918,2,0,L|28:273,2,60.5000018463135,4|2|10,1:3|0:0|1:0,0:0:0:0:
154,190,50787,6,0,P|181:179|214:182,1,60.5000018463135,2|2,3:0|3:0,3:0:0:0:
265,208,51222,2,0,P|302:202|336:162,1,90.7500027694703,10|2,1:0|0:0,0:0:0:0:
340,142,51657,2,0,P|336:116|316:89,2,60.5000018463135,4|2|10,1:3|0:0|1:0,0:0:0:0:
394,240,52526,6,0,B|426:233|426:233|453:243,1,60.5000018463135,2|2,1:0|0:1,0:0:0:0:
496,283,52961,2,0,B|513:330|513:330|495:376,2,90.7500027694703,10|2|2,1:0|0:0|0:0,0:0:0:0:
452,242,53831,1,10,1:0:0:0:
394,240,54048,2,0,B|317:255|317:255|304:267|304:267|216:284,1,181.500005538941,2|8,0:1|1:0,0:0:0:0:
134,370,55135,5,2,1:0:0:0:
23,319,55570,1,10,1:0:0:0:
56,202,56005,6,0,L|44:136,1,60.5000018463135,4|2,1:0|3:0,0:0:0:0:
33,83,56439,2,0,L|126:66,1,90.7500027694703,10|2,1:0|0:0,0:0:0:0:
143,63,56874,2,0,B|148:32|148:32|132:6,2,60.5000018463135,4|2|10,1:3|0:0|1:0,0:0:0:0:
173,180,57744,6,0,P|205:191|232:187,1,60.5000018463135,2|2,1:0|3:0,0:0:0:0:
283,156,58179,2,0,B|306:128|306:128|294:58,1,90.7500027694703,10|2,1:0|0:0,0:0:0:0:
292,53,58613,2,0,P|265:39|233:46,2,60.5000018463135,4|2|10,1:3|0:0|1:0,0:0:0:0:
409,22,59483,6,0,P|414:58|436:75,1,60.5000018463135,2|2,1:0|0:1,0:0:0:0:
481,107,59918,2,0,B|504:145|504:145|499:191,2,90.7500027694703,10|2|2,1:0|0:0|0:0,0:0:0:0:
431,72,60787,1,10,1:2:0:0:
382,108,61005,2,0,B|375:168|375:168|405:221|405:221|398:281,1,181.500005538941,2|10,0:0|0:0,0:0:0:0:
27,24,62961,6,0,P|55:12|88:9,1,60.5000018463135,4|2,1:0|3:0,0:0:0:0:
142,25,63396,2,0,P|172:55|180:102,1,90.7500027694703,10|2,1:0|0:0,0:0:0:0:
175,121,63831,2,0,P|169:144|177:181,1,60.5000018463135,4|2,1:3|0:0,0:0:0:0:
206,231,64266,1,10,1:0:0:0:
187,350,64700,6,0,P|215:359|248:352,1,60.5000018463135,2|2,1:0|3:0,3:0:0:0:
296,321,65135,2,0,P|341:308|382:319,1,90.7500027694703,10|2,1:0|0:0,0:0:0:0:
399,331,65570,2,0,P|436:346|462:338,1,60.5000018463135,4|2,1:3|0:0,0:0:0:0:
503,305,66005,1,10,1:0:0:0:
510,188,66439,6,0,B|492:163|492:163|461:160,1,60.5000018463135,2|2,1:0|0:0,0:0:0:0:
401,153,66874,2,0,B|281:140,1,121.000003692627,10|4,1:0|1:3,0:0:0:0:
238,96,67526,1,2,0:0:0:0:
183,122,67744,1,10,1:0:0:0:
136,83,67961,2,0,P|111:34|4:56,1,181.500005538941,2|8,0:1|1:0,0:0:0:0:
0,176,69048,5,2,1:0:0:0:
90,256,69483,1,10,1:0:0:0:
24,357,69918,6,0,P|48:370|87:369,1,60.5000018463135,4|2,1:0|3:0,0:0:0:0:
140,359,70352,2,0,L|233:336,1,90.7500027694703,10|2,1:0|0:0,0:0:0:0:
242,321,70787,2,0,L|307:333,1,60.5000018463135,4|2,1:3|0:0,0:0:0:0:
360,345,71222,1,10,1:0:0:0:
465,285,71657,6,0,P|458:259|464:215,1,60.5000018463135,2|2,1:0|3:0,0:0:0:0:
491,173,72092,2,0,P|498:124|480:77,1,90.7500027694703,10|2,1:0|0:0,0:0:0:0:
469,71,72526,2,0,L|407:80,1,60.5000018463135,4|2,1:3|0:0,0:0:0:0:
349,92,72961,1,10,1:0:0:0:
299,200,73396,6,0,B|305:231|305:231|293:257,1,60.5000018463135,2|2,1:0|0:1,0:0:0:0:
238,285,73831,2,0,L|116:272,1,121.000003692627,10|4,1:0|1:3,0:0:0:0:
57,261,74483,1,2,0:0:0:0:
47,201,74700,2,0,L|37:136,1,60.5000018463135,10|4,1:2|1:0,0:0:0:0:
28,80,75135,6,2,L|92:70,1,60.5000018463135,6|4,3:0|3:0,3:1:0:0:
148,61,75570,2,0,L|157:125,1,60.5000018463135,14|4,0:3|0:3,0:0:0:0:
167,181,76005,6,2,P|248:260|351:207,1,242.000007385254,6|4,1:2|0:0,0:1:0:0:
256,192,84048,12,4,89918,3:0:0:0:
491,357,90787,6,0,P|495:327|479:296,1,55,4|2,1:2|0:0,0:0:0:0:
454,259,91222,2,0,P|441:230|453:174,1,82.5,8|2,0:0|0:0,0:0:0:0:
459,165,91657,2,0,P|477:131|475:110,1,55,0|2,1:0|3:0,0:0:0:0:
456,64,92092,1,10,1:2:0:0:
358,14,92526,6,0,P|345:43|351:77,1,55,4|2,3:0|0:0,0:0:0:0:
358,119,92961,2,0,P|367:161|349:204,2,82.5,8|2|2,0:0|0:0|0:0,0:0:0:0:
307,95,93831,1,10,1:2:0:0:
211,139,94266,6,0,P|195:166|199:194,1,55,4|2,3:0|0:0,0:0:0:0:
214,240,94700,2,0,P|222:286|212:325,1,82.5,8|0,0:0|0:0,0:0:0:0:
205,337,95135,2,0,L|92:352,1,110,0|8,1:0|1:0,0:0:0:0:
46,326,95787,1,0,0:0:0:0:
3,361,96005,1,4,1:2:0:0:
3,250,96439,1,8,0:0:0:0:
4,140,96874,5,2,1:0:0:0:
114,141,97309,1,10,1:0:0:0:
115,31,97744,6,0,P|153:14|177:16,1,55,4|2,1:2|0:0,0:0:0:0:
217,31,98179,2,0,P|257:42|306:25,1,82.5,8|2,0:0|0:0,0:0:0:0:
312,22,98613,2,0,P|344:10|379:21,1,55,0|2,1:0|3:0,0:0:0:0:
415,32,99048,1,10,1:2:0:0:
497,105,99483,6,0,B|481:131|481:131|487:163,1,55,4|2,3:0|0:0,0:0:0:0:
497,208,99918,2,0,B|505:252|505:252|487:288,2,82.5,8|2|2,0:0|0:0|0:0,0:0:0:0:
444,193,100787,1,10,1:2:0:0:
337,172,101222,6,0,L|283:184,1,55,4|2,3:0|0:0,0:0:0:0:
228,196,101657,2,0,L|246:277,1,82.5,8|0,0:0|0:0,0:0:0:0:
251,294,102092,2,0,L|143:317,1,110,0|8,1:0|1:0,0:0:0:0:
89,328,102744,1,6,0:0:0:0:
78,274,102961,6,0,P|77:242|88:216,1,55,2|2,0:0|0:0,0:0:0:0:
109,171,103396,2,0,P|117:136|105:105,1,55,2|2,0:1|0:0,0:0:0:0:
88,68,103831,1,2,0:2:0:0:
293,36,104700,6,0,B|294:68|294:68|316:95,1,60.5000018463135,4|2,1:0|3:0,0:0:0:0:
372,91,105135,2,0,L|472:82,1,90.7500027694703,10|2,1:0|0:0,0:0:0:0:
482,76,105570,2,0,B|495:51|495:51|491:20,2,60.5000018463135,4|2|10,1:3|0:0|1:0,0:0:0:0:
503,198,106439,6,0,P|512:230|507:256,1,60.5000018463135,2|2,3:0|3:0,3:0:0:0:
476,308,106874,2,0,B|434:322|429:290|382:300,1,90.7500027694703,10|2,1:0|0:0,0:0:0:0:
368,307,107309,2,0,P|363:336|371:365,2,60.5000018463135,4|2|10,1:3|0:0|1:0,0:0:0:0:
285,210,108179,6,0,L|216:216,1,60.5000018463135,2|2,1:0|0:1,0:0:0:0:
164,221,108613,2,0,P|147:256|168:305,2,90.7500027694703,10|2|2,1:0|0:0|0:0,0:0:0:0:
224,215,109483,1,10,1:0:0:0:
285,210,109700,2,0,B|291:133|291:133|280:107|280:107|289:29,1,181.500005538941,2|8,0:1|1:0,0:0:0:0:
168,1,110787,5,2,1:0:0:0:
148,120,111222,1,10,1:0:0:0:
28,98,111657,6,0,P|17:126|22:159,1,60.5000018463135,4|2,1:0|3:0,0:0:0:0:
51,207,112092,2,0,P|68:251|52:299,1,90.7500027694703,10|2,1:0|0:0,0:0:0:0:
44,308,112526,2,0,P|31:342|44:375,2,60.5000018463135,4|2|10,1:3|0:0|1:0,0:0:0:0:
158,300,113396,6,0,B|191:296|191:296|218:310,1,60.5000018463135,2|2,1:0|3:0,0:0:0:0:
258,350,113831,2,0,L|357:340,1,90.7500027694703,10|2,1:0|0:0,0:0:0:0:
365,353,114266,2,0,L|433:361,2,60.5000018463135,4|2|10,1:3|0:0|1:0,0:0:0:0:
320,247,115135,6,0,P|313:217|320:187,1,60.5000018463135,2|2,1:0|0:1,0:0:0:0:
357,141,115570,2,0,P|407:127|444:141,2,90.7500027694703,10|2|2,1:0|0:0|0:0,0:0:0:0:
298,154,116439,1,10,1:2:0:0:
249,117,116657,2,0,P|217:64|100:52,1,181.500005538941,2|8,0:0|1:0,0:0:0:0:
42,371,118613,6,0,B|20:342|20:342|36:267,1,110,4|10,1:0|0:0,0:0:0:0:
48,217,119266,1,2,0:0:0:0:
60,164,119483,2,0,B|104:194|104:194|157:176,1,110,6|10,1:3|1:2,0:0:0:0:
249,113,120352,6,0,B|271:142|271:142|255:217,1,110,4|10,1:0|0:0,0:0:0:0:
243,267,121005,1,2,0:0:0:0:
231,320,121222,2,0,L|169:307,1,55,6|2,1:3|0:0,0:0:0:0:
123,297,121657,1,10,1:2:0:0:
48,217,122092,6,0,B|26:188|26:188|42:113,1,110,4|10,1:0|0:0,0:0:0:0:
54,63,122745,1,2,0:0:0:0:
66,10,122961,2,0,L|172:32,1,110,6|10,1:3|1:2,0:0:0:0:
249,113,123831,6,0,L|308:100,1,55,4|2,1:3|3:3,0:3:0:0:
358,92,124266,2,0,L|409:124,1,55,10|2,0:0|0:0,0:0:0:0:
450,154,124700,6,2,L|463:213,1,55,2|2,1:0|3:3,3:3:0:0:
472,262,125135,1,10,1:0:0:0:
430,363,125570,6,0,B|386:361|386:361|371:372|371:372|325:369,1,110,4|10,1:0|0:0,0:0:0:0:
280,336,126222,1,2,0:0:0:0:
232,362,126439,2,0,L|120:356,1,110,6|10,1:3|1:2,0:0:0:0:
62,242,127309,6,0,B|107:243|107:243|122:232|122:232|168:235,1,110,4|10,1:0|0:0,0:0:0:0:
212,269,127961,1,2,0:0:0:0:
260,243,128179,2,0,L|316:246,1,55,6|2,1:3|0:0,0:0:0:0:
358,279,128613,1,10,1:2:0:0:
430,363,129048,6,0,B|386:361|386:361|371:372|371:372|325:369,1,110,4|10,1:0|0:0,0:0:0:0:
280,336,129700,1,2,0:0:0:0:
232,362,129918,2,0,L|120:356,1,110,6|8,1:3|1:0,0:0:0:0:
78,321,130570,1,4,1:0:0:0:
23,314,130787,6,2,P|12:291|14:258,1,55,6|4,3:0|3:0,3:1:0:0:
35,209,131222,2,0,P|44:175|38:143,1,55,14|4,0:3|0:3,0:0:0:0:
15,107,131657,2,2,P|8:53|32:-1,1,110,6|0,1:2|0:0,0:1:0:0:
148,11,132526,6,0,L|213:16,1,60.5000018463135,4|2,1:0|3:0,0:0:0:0:
274,26,132961,2,0,P|290:76|271:122,1,90.7500027694703,10|2,1:0|0:0,0:0:0:0:
266,127,133396,2,0,L|206:122,2,60.5000018463135,4|2|10,1:3|0:0|1:0,0:0:0:0:
375,98,134266,6,0,P|404:110|419:135,1,60.5000018463135,2|2,3:0|3:0,3:0:0:0:
444,188,134700,2,0,P|431:239|428:294,1,90.7500027694703,10|2,1:0|0:0,0:0:0:0:
436,296,135135,2,0,P|449:327|455:353,2,60.5000018463135,4|2|10,1:3|0:0|1:0,0:0:0:0:
316,289,136005,6,0,L|250:300,1,60.5000018463135,2|2,1:0|0:1,0:0:0:0:
226,351,136439,2,0,B|183:356|183:356|176:352|176:352|131:357,2,90.7500027694703,10|2|2,1:0|0:0|0:0,0:0:0:0:
256,298,137309,1,10,1:0:0:0:
226,245,137526,2,0,B|220:185|220:185|240:127|240:127|234:66,1,181.500005538941,2|8,0:1|1:0,0:0:0:0:
129,5,138613,5,2,1:0:0:0:
8,20,139048,1,10,1:0:0:0:
83,115,139483,6,0,P|81:148|62:173,1,60.5000018463135,4|2,1:0|3:0,0:0:0:0:
24,213,139918,2,0,P|1:257|20:299,1,90.7500027694703,10|2,1:0|0:0,0:0:0:0:
29,308,140352,2,0,P|41:342|30:371,2,60.5000018463135,4|2|10,1:3|0:0|1:0,0:0:0:0:
137,248,141222,6,0,B|170:246|170:246|195:262,1,60.5000018463135,2|2,1:0|3:0,0:0:0:0:
241,297,141657,2,0,B|282:319|282:319|327:295,1,90.7500027694703,10|2,1:0|0:0,0:0:0:0:
338,286,142092,2,0,L|346:221,2,60.5000018463135,4|2|10,1:3|0:0|1:0,0:0:0:0:
427,368,142961,6,0,P|459:371|493:358,1,60.5000018463135,2|2,1:0|0:1,0:0:0:0:
510,307,143396,2,0,L|500:208,1,90.7500027694703,10|2,1:0|0:0,0:0:0:0:
459,135,144048,1,2,0:0:0:0:
477,77,144266,1,10,1:2:0:0:
450,22,144483,2,0,B|400:26|400:26|382:20|382:20|329:24,1,121.000003692627,2|2,0:0|0:0,0:0:0:0:
270,31,145135,1,10,0:0:0:0:
280,151,145570,5,4,0:0:0:0:
160,162,146005,1,2,1:2:0:0:
149,42,146439,6,0,P|121:35|89:37,1,60.5000018463135,4|2,1:0|3:0,0:0:0:0:
32,56,146874,2,0,L|40:156,1,90.7500027694703,10|2,1:0|0:0,0:0:0:0:
47,166,147309,2,0,L|40:231,1,60.5000018463135,4|2,1:3|0:0,0:0:0:0:
31,286,147744,1,10,1:0:0:0:
114,370,148179,6,0,L|178:367,1,60.5000018463135,2|2,1:0|3:0,3:0:0:0:
234,363,148613,2,0,B|256:323|256:323|302:319,1,90.7500027694703,10|2,1:0|0:0,0:0:0:0:
322,319,149048,2,0,B|344:338|344:338|383:336,1,60.5000018463135,4|2,1:3|0:0,0:0:0:0:
435,329,149483,1,10,1:0:0:0:
488,220,149918,6,0,B|470:199|470:199|433:202,1,60.5000018463135,2|2,1:0|0:0,0:0:0:0:
375,208,150352,2,0,B|253:218,1,121.000003692627,10|4,1:0|1:3,0:0:0:0:
193,221,151005,1,2,0:0:0:0:
187,160,151222,1,10,1:0:0:0:
182,99,151439,2,0,B|178:40|178:40|57:48,1,181.500005538941,2|8,0:1|1:0,0:0:0:0:
66,170,152526,5,2,1:0:0:0:
77,292,152961,1,10,1:0:0:0:
174,363,153396,6,0,B|202:369|202:369|233:360,1,60.5000018463135,4|2,1:0|3:0,0:0:0:0:
289,339,153831,2,0,P|339:331|381:348,1,90.7500027694703,10|2,1:0|0:0,0:0:0:0:
392,356,154266,2,0,P|421:364|455:357,1,60.5000018463135,4|2,1:3|0:0,0:0:0:0:
503,329,154700,1,10,1:0:0:0:
437,237,155135,6,0,B|428:216|428:216|433:176,1,60.5000018463135,2|2,1:0|3:0,0:0:0:0:
477,137,155570,2,0,B|493:109|493:109|479:43,1,90.7500027694703,10|2,1:0|0:0,0:0:0:0:
474,31,156005,2,0,L|412:42,1,60.5000018463135,4|2,1:3|0:0,0:0:0:0:
355,54,156439,1,10,1:0:0:0:
235,75,156874,6,0,P|218:46|194:32,1,60.5000018463135,2|2,1:0|0:1,0:0:0:0:
135,38,157309,2,0,B|85:44|85:44|69:59|69:59|21:66,1,121.000003692627,10|4,1:0|1:3,0:0:0:0:
4,124,157961,1,2,0:0:0:0:
14,183,158179,1,10,1:2:0:0:
24,242,158396,1,4,1:0:0:0:
34,301,158613,1,6,3:0:0:0:
305,96,166439,5,0,3:0:0:0:
417,73,166874,1,0,3:0:0:0:
