osu file format v14

[General]
AudioFilename: audio.mp3
AudioLeadIn: 0
PreviewTime: 19005
Countdown: 1
SampleSet: Normal
StackLeniency: 0.7
Mode: 0
LetterboxInBreaks: 0
WidescreenStoryboard: 0

[Editor]
DistanceSpacing: 2.5
BeatDivisor: 4
GridSize: 32
TimelineZoom: 1

[Metadata]
Title:Axel F
TitleUnicode:Axel F
Artist:Crazy Frog
ArtistUnicode:Crazy Frog
Creator:khrono691
Version:Epic Penis Moment
Source:
Tags:
BeatmapID:2072310
BeatmapSetID:990767

[Difficulty]
HPDrainRate:2
CircleSize:3.8
OverallDifficulty:8
ApproachRate:9.4
SliderMultiplier:2
SliderTickRate:1

[Events]
//Background and Video events
0,0,"omgffff.png",0,0
//Break Periods
2,83896,89226
//Storyboard Layer 0 (Background)
//Storyboard Layer 1 (Fail)
//Storyboard Layer 2 (Pass)
//Storyboard Layer 3 (Foreground)
//Storyboard Sound Samples

[TimingPoints]
0,-125,4,1,0,80,0,0
7157.78660938474,434.782608695652,4,1,0,80,1,0
21070,-55.5555555555556,4,1,0,80,0,0
48244,-29.4117647058824,4,1,0,80,0,0
48462,-200,4,1,0,80,0,0
48896,-52.6315789473684,4,1,0,80,0,0
59331,-83.3333333333333,4,1,0,80,0,0
61723,-71.4285714285714,4,1,0,80,0,0
62157,-62.5,4,1,0,80,0,0
62375,-55.5555555555556,4,1,0,80,0,0
62592,-45.4545454545455,4,1,0,80,0,0
73244,-62.5,4,1,0,80,0,0
75853,-166.666666666667,4,1,0,80,0,0
77157,-66.6666666666667,4,1,0,80,0,0
90636,-50,4,1,0,80,0,0
111505,-71.4285714285714,4,1,0,80,0,0
132375,-45.4545454545455,4,1,0,80,0,0
139331,-66.6666666666667,4,1,0,80,0,0
146288,-41.6666666666667,4,1,0,80,0,0

[HitObjects]
255,193,7157,5,0,0:0:0:0:
256,192,7266,12,0,13244,0:0:0:0:
82,143,14114,6,0,P|161:130|255:217,1,200
285,313,14875,1,0,0:0:0:0:
355,105,15092,1,0,0:0:0:0:
355,105,15201,1,0,0:0:0:0:
450,212,15418,1,0,0:0:0:0:
308,213,15635,1,0,0:0:0:0:
447,124,15853,6,0,P|468:192|382:293,1,200
346,126,16614,1,0,0:0:0:0:
283,333,16831,1,0,0:0:0:0:
283,333,16940,1,0,0:0:0:0:
419,272,17157,1,0,0:0:0:0:
214,189,17375,1,0,0:0:0:0:
114,44,17592,5,0,0:0:0:0:
105,138,17809,1,0,0:0:0:0:
97,237,18027,1,0,0:0:0:0:
218,94,18244,5,0,0:0:0:0:
218,94,18353,1,0,0:0:0:0:
349,152,18570,1,0,0:0:0:0:
349,152,18679,1,0,0:0:0:0:
157,175,18896,1,0,0:0:0:0:
332,47,19114,1,0,0:0:0:0:
387,237,19331,6,0,L|372:127,1,100
286,41,19766,2,0,L|271:146,1,100
180,333,20201,1,0,0:0:0:0:
298,236,20853,5,0,0:0:0:0:
298,236,21070,5,0,0:0:0:0:
378,191,21179,1,0,0:0:0:0:
433,265,21288,1,0,0:0:0:0:
398,341,21396,1,0,0:0:0:0:
306,323,21505,2,0,P|336:277|375:258,1,89.9999972534181
221,351,21723,2,0,P|192:300|135:275,1,89.9999972534181
80,173,21940,5,0,0:0:0:0:
177,151,22049,1,0,0:0:0:0:
80,173,22157,1,0,0:0:0:0:
177,151,22266,1,0,0:0:0:0:
80,173,22375,2,0,L|68:273,1,89.9999972534181
180,338,22592,2,0,L|165:234,1,89.9999972534181
312,65,22809,5,0,0:0:0:0:
255,154,22918,1,0,0:0:0:0:
361,137,23027,1,0,0:0:0:0:
297,232,23136,1,0,0:0:0:0:
403,217,23244,2,0,L|357:129,1,89.9999972534181
312,65,23462,2,0,L|270:173,1,89.9999972534181
207,244,23679,2,0,L|300:231,1,89.9999972534181
408,70,23896,5,0,0:0:0:0:
390,157,24005,1,0,0:0:0:0:
372,54,24114,5,0,0:0:0:0:
373,193,24223,1,0,0:0:0:0:
343,49,24331,5,0,0:0:0:0:
372,233,24440,1,0,0:0:0:0:
308,55,24549,5,0,0:0:0:0:
465,228,24766,1,0,0:0:0:0:
300,329,24983,1,0,0:0:0:0:
368,126,25201,1,0,0:0:0:0:
368,126,25309,1,0,0:0:0:0:
426,339,25527,1,0,0:0:0:0:
426,339,25636,1,0,0:0:0:0:
132,198,25853,5,0,0:0:0:0:
453,229,26070,6,0,L|373:223,19,44.999998626709
443,252,27157,5,0,0:0:0:0:
354,245,27266,1,0,0:0:0:0:
268,235,27375,1,0,0:0:0:0:
183,227,27483,1,0,0:0:0:0:
128,268,27592,5,0,0:0:0:0:
218,233,27701,1,0,0:0:0:0:
321,197,27809,1,0,0:0:0:0:
418,157,27918,1,0,0:0:0:0:
509,120,28027,5,0,0:0:0:0:
471,218,28136,1,0,0:0:0:0:
368,178,28244,1,0,0:0:0:0:
315,267,28353,1,0,0:0:0:0:
239,215,28462,2,0,P|208:262|203:320,1,89.9999972534181
333,343,28679,1,0,0:0:0:0:
333,343,28788,1,0,0:0:0:0:
333,343,28896,2,0,P|316:277|286:244,1,89.9999972534181
199,153,29114,1,0,0:0:0:0:
279,111,29223,1,0,0:0:0:0:
361,153,29331,2,0,L|346:253,1,89.9999972534181
232,326,29549,2,0,L|251:202,1,89.9999972534181
368,64,29766,5,0,0:0:0:0:
315,168,29875,1,0,0:0:0:0:
416,230,29984,1,0,0:0:0:0:
466,122,30092,1,0,0:0:0:0:
368,64,30201,2,0,P|372:118|410:157,1,89.9999972534181
477,227,30418,2,0,P|451:279|371:305,1,89.9999972534181
219,138,30636,5,0,0:0:0:0:
203,268,30744,1,0,0:0:0:0:
336,157,30853,5,0,0:0:0:0:
317,287,30962,1,0,0:0:0:0:
141,58,31070,6,0,P|196:52|260:85,1,89.9999972534181
477,212,31288,2,0,P|426:223|364:203,1,89.9999972534181
167,160,31505,5,0,0:0:0:0:
276,240,31723,1,0,0:0:0:0:
390,16,31940,1,0,0:0:0:0:
495,173,32157,1,0,0:0:0:0:
495,173,32266,1,0,0:0:0:0:
263,92,32483,1,0,0:0:0:0:
263,92,32592,1,0,0:0:0:0:
445,44,32809,1,0,0:0:0:0:
430,125,32918,1,0,0:0:0:0:
331,177,33027,1,0,0:0:0:0:
354,90,33135,1,0,0:0:0:0:
285,26,33244,5,0,0:0:0:0:
424,334,34114,5,0,0:0:0:0:
424,334,34549,1,0,0:0:0:0:
166,111,34983,5,0,0:0:0:0:
183,111,35092,1,0,0:0:0:0:
201,111,35201,1,0,0:0:0:0:
219,112,35309,1,0,0:0:0:0:
237,116,35418,1,0,0:0:0:0:
197,259,35636,1,0,0:0:0:0:
314,148,35853,1,0,0:0:0:0:
351,305,36070,1,0,0:0:0:0:
263,209,36288,1,0,0:0:0:0:
148,329,36505,1,0,0:0:0:0:
406,113,36723,5,0,0:0:0:0:
417,148,36831,1,0,0:0:0:0:
418,189,36940,1,0,0:0:0:0:
409,228,37048,1,0,0:0:0:0:
387,258,37157,1,0,0:0:0:0:
295,87,37375,1,0,0:0:0:0:
217,295,37592,1,0,0:0:0:0:
386,135,37809,1,0,0:0:0:0:
469,340,38027,1,0,0:0:0:0:
229,193,38244,1,0,0:0:0:0:
397,27,38462,5,0,0:0:0:0:
433,92,38570,1,0,0:0:0:0:
441,168,38679,1,0,0:0:0:0:
423,241,38788,1,0,0:0:0:0:
374,300,38897,1,0,0:0:0:0:
188,42,39114,1,0,0:0:0:0:
476,267,39331,1,0,0:0:0:0:
91,221,39549,1,0,0:0:0:0:
409,149,39766,1,0,0:0:0:0:
140,14,39983,1,0,0:0:0:0:
363,361,40201,5,0,0:0:0:0:
389,247,40309,1,0,0:0:0:0:
294,86,40418,5,0,0:0:0:0:
269,212,40527,1,0,0:0:0:0:
134,320,40636,5,0,0:0:0:0:
481,22,40853,1,0,0:0:0:0:
494,112,40961,1,0,0:0:0:0:
466,202,41070,1,0,0:0:0:0:
223,63,41288,1,0,0:0:0:0:
312,349,41505,1,0,0:0:0:0:
356,20,41723,1,0,0:0:0:0:
373,97,41831,1,0,0:0:0:0:
390,179,41940,5,0,0:0:0:0:
101,120,42157,1,0,0:0:0:0:
296,32,42375,1,0,0:0:0:0:
239,251,42592,1,0,0:0:0:0:
211,62,42809,1,0,0:0:0:0:
330,131,43027,1,0,0:0:0:0:
199,164,43244,1,0,0:0:0:0:
283,69,43462,1,0,0:0:0:0:
363,233,43679,5,0,0:0:0:0:
292,152,43896,1,0,0:0:0:0:
410,308,44114,1,0,0:0:0:0:
466,212,44331,1,0,0:0:0:0:
228,239,44549,5,0,0:0:0:0:
322,122,44766,1,0,0:0:0:0:
342,288,44983,5,0,0:0:0:0:
210,121,45201,1,0,0:0:0:0:
411,175,45418,5,0,0:0:0:0:
147,275,45636,1,0,0:0:0:0:
323,34,45853,5,0,0:0:0:0:
329,342,46070,1,0,0:0:0:0:
142,53,46288,5,0,0:0:0:0:
443,205,46505,1,0,0:0:0:0:
74,310,46723,5,0,0:0:0:0:
414,36,46940,1,0,0:0:0:0:
232,226,47157,5,0,0:0:0:0:
269,182,47266,1,0,0:0:0:0:
289,249,47375,5,0,0:0:0:0:
225,157,47483,1,0,0:0:0:0:
188,270,47592,5,0,0:0:0:0:
319,151,47701,1,0,0:0:0:0:
337,305,47809,5,0,0:0:0:0:
168,118,47918,1,0,0:0:0:0:
127,311,48027,5,0,0:0:0:0:
427,44,48244,6,0,L|435:240,1,170.000003242493
413,270,48462,2,0,L|409:205,1,50
116,86,48896,5,0,0:0:0:0:
83,220,49005,1,0,0:0:0:0:
205,289,49114,1,0,0:0:0:0:
304,195,49223,1,0,0:0:0:0:
245,73,49331,2,0,P|212:146|215:231,1,94.9999974632264
362,293,49549,2,0,P|337:237|345:152,1,94.9999974632264
417,31,49766,5,0,0:0:0:0:
475,153,49875,1,0,0:0:0:0:
244,196,49983,1,0,0:0:0:0:
369,105,50092,1,0,0:0:0:0:
468,289,50201,2,0,L|344:275,1,94.9999974632264
222,193,50418,1,0,0:0:0:0:
265,315,50527,1,0,0:0:0:0:
306,119,50636,5,0,0:0:0:0:
266,339,50744,1,0,0:0:0:0:
203,95,50853,5,0,0:0:0:0:
386,237,50962,1,0,0:0:0:0:
134,281,51070,2,0,L|244:232,1,94.9999974632264
444,322,51288,2,0,L|324:284,1,94.9999974632264
116,113,51505,5,0,0:0:0:0:
286,132,51614,1,0,0:0:0:0:
47,168,51723,5,0,0:0:0:0:
307,87,51831,1,0,0:0:0:0:
36,59,51940,5,0,0:0:0:0:
381,183,52049,1,0,0:0:0:0:
153,217,52157,5,0,0:0:0:0:
216,91,52266,1,0,0:0:0:0:
370,309,52375,6,0,P|393:248|372:181,1,94.9999974632264
166,60,52592,2,0,P|147:117|161:181,1,94.9999974632264
466,328,52809,2,0,P|483:271|465:204,1,94.9999974632264
74,48,53027,2,0,P|55:98|81:184,1,94.9999974632264
348,191,53244,5,0,0:0:0:0:
183,243,53353,1,0,0:0:0:0:
372,280,53462,5,0,0:0:0:0:
157,157,53571,1,0,0:0:0:0:
452,353,53679,6,0,L|464:253,1,94.9999974632264
329,115,53896,2,0,L|304:249,1,94.9999974632264
162,316,54114,2,0,P|214:331|168:263,1,189.999994926453
19,343,54440,1,0,0:0:0:0:
19,343,54549,2,0,B|49:294|27:245|27:245|2:202|31:150,1,189.999994926453
140,43,54875,5,0,0:0:0:0:
140,43,54983,1,0,0:0:0:0:
235,129,55092,1,0,0:0:0:0:
73,153,55201,1,0,0:0:0:0:
140,43,55310,1,0,0:0:0:0:
234,309,55418,5,0,0:0:0:0:
303,42,55527,1,0,0:0:0:0:
394,353,55636,5,0,0:0:0:0:
452,91,55744,1,0,0:0:0:0:
124,233,55853,5,0,0:0:0:0:
252,210,55962,1,0,0:0:0:0:
229,77,56070,1,0,0:0:0:0:
105,94,56179,1,0,0:0:0:0:
124,233,56288,2,0,L|139:352,1,94.9999974632264
252,210,56505,2,0,L|396:193,1,94.9999974632264
414,268,56723,5,0,0:0:0:0:
454,109,56831,1,0,0:0:0:0:
395,291,56940,5,0,0:0:0:0:
345,85,57049,1,0,0:0:0:0:
165,200,57157,6,0,P|208:205|259:195,1,94.9999974632264
390,133,57375,2,0,P|332:124|286:135,1,94.9999974632264
169,295,57592,5,0,0:0:0:0:
237,313,57701,1,0,0:0:0:0:
310,308,57809,1,0,0:0:0:0:
377,290,57918,1,0,0:0:0:0:
438,254,58027,2,0,L|429:138,1,94.9999974632264
326,55,58244,1,0,0:0:0:0:
316,87,58353,1,0,0:0:0:0:
312,125,58462,1,0,0:0:0:0:
395,115,58679,5,0,0:0:0:0:
346,223,58896,1,0,0:0:0:0:
255,122,59114,1,0,0:0:0:0:
455,200,59331,6,0,L|441:342,1,119.999996337891
311,101,59766,1,0,0:0:0:0:
340,280,59983,1,0,0:0:0:0:
340,280,60092,1,0,0:0:0:0:
195,102,60309,1,0,0:0:0:0:
195,102,60418,1,0,0:0:0:0:
437,189,60636,5,0,0:0:0:0:
123,241,60853,1,0,0:0:0:0:
123,241,61288,6,0,L|128:180,1,59.9999981689454
220,214,61505,2,0,L|225:145,1,59.9999981689454
431,73,61723,6,0,L|420:175,1,69.9999978637696
366,351,62157,6,0,L|381:246,1,80
270,331,62375,6,0,L|292:182,1,89.9999972534181
179,310,62592,6,0,L|205:157,1,110.000003356934
84,304,62809,5,0,0:0:0:0:
35,137,62918,1,0,0:0:0:0:
195,179,63027,1,0,0:0:0:0:
84,304,63136,1,0,0:0:0:0:
35,137,63244,2,0,P|94:178|94:244,1,110.000003356934
251,353,63462,2,0,P|202:319|198:242,1,110.000003356934
208,49,63679,5,0,0:0:0:0:
390,113,63788,1,0,0:0:0:0:
150,131,63896,1,0,0:0:0:0:
324,48,64005,1,0,0:0:0:0:
310,277,64114,1,0,0:0:0:0:
312,159,64223,1,0,0:0:0:0:
224,273,64331,1,0,0:0:0:0:
225,156,64440,1,0,0:0:0:0:
386,222,64549,6,0,L|557:225,1,110.000003356934
160,213,64766,2,0,L|21:213,1,110.000003356934
84,77,64983,5,0,0:0:0:0:
203,46,65092,1,0,0:0:0:0:
288,140,65201,1,0,0:0:0:0:
430,178,65309,1,0,0:0:0:0:
503,55,65418,2,0,L|386:58,1,110.000003356934
300,287,65636,2,0,B|282:305|282:305|302:191,1,110.000003356934
199,258,65853,2,0,P|205:191|152:137,1,110.000003356934
336,153,66070,2,0,P|375:91|438:67,1,110.000003356934
113,46,66288,5,0,0:0:0:0:
65,141,66396,1,0,0:0:0:0:
190,128,66505,2,0,L|313:177,1,110.000003356934
372,318,66723,5,0,0:0:0:0:
423,149,66831,1,0,0:0:0:0:
299,354,66940,5,0,0:0:0:0:
246,98,67049,1,0,0:0:0:0:
458,267,67157,5,0,0:0:0:0:
144,228,67266,1,0,0:0:0:0:
437,138,67375,5,0,0:0:0:0:
258,190,67483,1,0,0:0:0:0:
306,360,67592,5,0,0:0:0:0:
222,16,67809,1,0,0:0:0:0:
256,192,68027,12,0,69657,0:0:0:0:
122,175,69766,5,0,0:0:0:0:
135,44,69875,1,0,0:0:0:0:
272,60,69983,1,0,0:0:0:0:
257,194,70092,1,0,0:0:0:0:
122,175,70201,2,0,P|86:218|88:302,1,110.000003356934
209,361,70418,2,0,P|200:294|158:257,1,110.000003356934
85,91,70636,5,0,0:0:0:0:
194,66,70744,1,0,0:0:0:0:
275,120,70853,5,0,0:0:0:0:
165,143,70961,1,0,0:0:0:0:
99,227,71070,5,0,0:0:0:0:
188,262,71179,1,0,0:0:0:0:
265,251,71288,1,0,0:0:0:0:
302,235,71396,1,0,0:0:0:0:
328,212,71505,2,0,P|304:170|306:82,1,110.000003356934
416,133,71723,2,0,P|442:69|429:4,1,110.000003356934
115,262,71940,1,0,0:0:0:0:
152,248,72049,1,0,0:0:0:0:
194,248,72157,1,0,0:0:0:0:
234,260,72266,1,0,0:0:0:0:
264,287,72375,1,0,0:0:0:0:
303,303,72483,1,0,0:0:0:0:
346,304,72592,1,0,0:0:0:0:
386,298,72701,1,0,0:0:0:0:
417,273,72809,6,0,L|434:163,1,110.000003356934
339,75,73027,2,0,L|323:204,1,110.000003356934
113,314,73244,5,0,0:0:0:0:
358,252,73462,1,0,0:0:0:0:
155,52,73679,2,0,L|139:215,1,160
149,232,74005,1,0,0:0:0:0:
386,108,74223,1,0,0:0:0:0:
386,108,74331,1,0,0:0:0:0:
67,153,74549,1,0,0:0:0:0:
428,217,74657,1,0,0:0:0:0:
183,262,74766,5,0,0:0:0:0:
337,45,74875,1,0,0:0:0:0:
496,242,74983,5,0,0:0:0:0:
118,153,75092,1,0,0:0:0:0:
471,81,75201,5,0,0:0:0:0:
76,226,75309,1,0,0:0:0:0:
430,333,75418,5,0,0:0:0:0:
170,55,75527,1,0,0:0:0:0:
495,251,75636,5,0,0:0:0:0:
26,303,75745,1,0,0:0:0:0:
311,194,75853,6,0,P|243:135|236:241,1,239.999992675781
168,249,77266,5,0,0:0:0:0:
186,160,77375,1,0,0:0:0:0:
366,104,77538,5,0,0:0:0:0:
359,198,77755,1,0,0:0:0:0:
53,249,77918,5,0,0:0:0:0:
214,222,78136,1,0,0:0:0:0:
214,222,78190,1,0,0:0:0:0:
214,222,78244,1,0,0:0:0:0:
88,98,78462,5,0,0:0:0:0:
245,76,78570,1,0,0:0:0:0:
48,77,78679,5,0,0:0:0:0:
320,122,78788,1,0,0:0:0:0:
33,234,78896,5,0,0:0:0:0:
33,234,78951,1,0,0:0:0:0:
33,234,79005,1,0,0:0:0:0:
33,234,79059,1,0,0:0:0:0:
33,234,79114,5,0,0:0:0:0:
348,200,79223,1,0,0:0:0:0:
192,146,79331,1,0,0:0:0:0:
384,331,79440,6,0,L|394:281,4,37.5000014305115
150,258,79820,2,0,L|141:209,6,37.5000014305115
355,178,80309,6,0,L|365:122,10,37.5000014305115
342,138,80907,1,0,0:0:0:0:
181,212,81125,1,0,0:0:0:0:
374,288,81288,1,0,0:0:0:0:
261,62,81559,1,0,0:0:0:0:
119,310,81940,1,0,0:0:0:0:
432,159,82375,1,0,0:0:0:0:
181,136,89766,5,0,0:0:0:0:
192,250,89983,1,0,0:0:0:0:
314,132,90201,1,0,0:0:0:0:
327,246,90418,1,0,0:0:0:0:
83,122,90636,6,0,P|144:138|219:123,1,100
235,57,90853,2,0,P|294:40|374:61,1,100
386,115,91070,1,0,0:0:0:0:
366,203,91179,1,0,0:0:0:0:
450,226,91288,1,0,0:0:0:0:
470,139,91396,1,0,0:0:0:0:
386,115,91505,2,0,L|307:192,1,100
162,63,91723,2,0,P|239:66|300:117,1,100
182,213,91940,5,0,0:0:0:0:
121,335,92049,1,0,0:0:0:0:
268,316,92157,1,0,0:0:0:0:
175,210,92266,1,0,0:0:0:0:
121,335,92375,2,0,L|223:279,1,100
436,350,92592,2,0,L|327:310,1,100
235,120,92809,5,0,0:0:0:0:
358,211,92918,1,0,0:0:0:0:
296,44,93027,5,0,0:0:0:0:
215,199,93136,1,0,0:0:0:0:
442,306,93244,6,0,P|464:248|435:167,1,100
278,64,93462,2,0,P|265:116|287:216,1,100
193,327,93679,5,0,0:0:0:0:
89,225,93788,1,0,0:0:0:0:
306,222,93896,1,0,0:0:0:0:
199,105,94005,1,0,0:0:0:0:
193,327,94114,6,0,L|227:195,1,100
403,345,94331,2,0,L|256:329,1,100
265,113,94549,5,0,0:0:0:0:
428,213,94657,1,0,0:0:0:0:
201,229,94766,5,0,0:0:0:0:
399,88,94875,1,0,0:0:0:0:
82,148,94983,2,0,P|63:195|80:271,1,100
281,304,95201,2,0,P|307:239|283:182,1,100
235,57,95418,5,0,0:0:0:0:
143,226,95527,1,0,0:0:0:0:
377,169,95636,5,0,0:0:0:0:
130,242,95745,1,0,0:0:0:0:
472,141,95853,5,0,0:0:0:0:
450,252,95962,1,0,0:0:0:0:
383,100,96070,5,0,0:0:0:0:
318,255,96179,1,0,0:0:0:0:
176,80,96288,2,0,L|286:85,1,100
490,182,96505,2,0,L|363:174,1,100
143,326,96723,5,0,0:0:0:0:
138,90,96831,1,0,0:0:0:0:
362,78,96941,1,0,0:0:0:0:
381,317,97049,1,0,0:0:0:0:
74,209,97157,5,0,0:0:0:0:
248,21,97266,1,0,0:0:0:0:
440,198,97375,1,0,0:0:0:0:
270,380,97483,1,0,0:0:0:0:
74,209,97592,6,0,P|148:190|305:218,1,200
432,312,98027,1,0,0:0:0:0:
339,48,98244,1,0,0:0:0:0:
339,48,98353,1,0,0:0:0:0:
186,235,98570,1,0,0:0:0:0:
186,235,98679,1,0,0:0:0:0:
456,171,98896,1,0,0:0:0:0:
183,67,99114,1,0,0:0:0:0:
353,335,99331,5,0,0:0:0:0:
305,115,99548,1,0,0:0:0:0:
205,304,99765,1,0,0:0:0:0:
141,65,99983,1,0,0:0:0:0:
172,46,100091,1,0,0:0:0:0:
208,39,100200,1,0,0:0:0:0:
244,40,100309,1,0,0:0:0:0:
277,56,100418,1,0,0:0:0:0:
430,170,100636,1,0,0:0:0:0:
184,153,100853,1,0,0:0:0:0:
451,72,101070,6,0,L|421:210,1,100
349,286,101288,2,0,L|319:133,1,100
152,48,101505,5,0,0:0:0:0:
339,91,101723,1,0,0:0:0:0:
90,180,101940,1,0,0:0:0:0:
90,180,102049,1,0,0:0:0:0:
416,182,102266,1,0,0:0:0:0:
416,182,102375,1,0,0:0:0:0:
179,58,102592,1,0,0:0:0:0:
312,90,102809,5,0,0:0:0:0:
85,234,102918,1,0,0:0:0:0:
401,195,103027,5,0,0:0:0:0:
92,129,103136,1,0,0:0:0:0:
394,38,103244,5,0,0:0:0:0:
286,324,103353,1,0,0:0:0:0:
307,4,103462,5,0,0:0:0:0:
401,288,103570,1,0,0:0:0:0:
252,66,103679,5,0,0:0:0:0:
429,125,104549,5,0,0:0:0:0:
395,286,104657,1,0,0:0:0:0:
308,88,104766,5,0,0:0:0:0:
323,329,104875,1,0,0:0:0:0:
197,131,104983,6,0,P|245:166|259:271,1,100
96,301,105201,2,0,P|127:246|192:218,1,100
320,158,105418,5,0,0:0:0:0:
104,222,105527,1,0,0:0:0:0:
383,247,105636,5,0,0:0:0:0:
110,88,105744,1,0,0:0:0:0:
419,69,105853,5,0,0:0:0:0:
359,330,105962,1,0,0:0:0:0:
437,55,106070,5,0,0:0:0:0:
491,312,106179,1,0,0:0:0:0:
180,89,106288,6,0,P|251:55|343:80,1,100
393,209,106505,5,0,0:0:0:0:
150,178,106614,1,0,0:0:0:0:
259,152,106723,2,0,P|248:84|285:15,1,100
443,172,106940,2,0,P|462:227|428:300,1,100
143,183,107157,5,0,0:0:0:0:
344,303,107266,1,0,0:0:0:0:
232,84,107375,5,0,0:0:0:0:
113,316,107483,1,0,0:0:0:0:
59,3,107592,5,0,0:0:0:0:
66,378,107701,1,0,0:0:0:0:
450,378,107809,1,0,0:0:0:0:
432,0,107918,1,0,0:0:0:0:
59,3,108027,6,0,L|23:272,1,200
258,193,108462,1,0,0:0:0:0:
450,378,108679,1,0,0:0:0:0:
450,378,108788,1,0,0:0:0:0:
66,378,109005,1,0,0:0:0:0:
66,378,109114,1,0,0:0:0:0:
258,193,109331,1,0,0:0:0:0:
432,0,109549,1,0,0:0:0:0:
146,71,109766,5,0,0:0:0:0:
125,202,109875,1,0,0:0:0:0:
268,213,109983,1,0,0:0:0:0:
277,78,110092,1,0,0:0:0:0:
303,61,110201,5,0,0:0:0:0:
290,233,110309,1,0,0:0:0:0:
106,224,110418,1,0,0:0:0:0:
127,50,110527,1,0,0:0:0:0:
70,31,110636,5,0,0:0:0:0:
108,325,110744,1,0,0:0:0:0:
216,37,110853,5,0,0:0:0:0:
252,326,110962,1,0,0:0:0:0:
422,24,111070,5,0,0:0:0:0:
388,362,111179,1,0,0:0:0:0:
290,15,111288,5,0,0:0:0:0:
246,369,111396,1,0,0:0:0:0:
61,78,111505,6,0,L|215:99,1,139.999995727539
387,160,111940,2,0,L|244:188,1,139.999995727539
85,238,112375,5,0,0:0:0:0:
199,344,112592,1,0,0:0:0:0:
199,344,112701,1,0,0:0:0:0:
274,98,112809,1,0,0:0:0:0:
155,237,113027,1,0,0:0:0:0:
374,190,113244,5,0,0:0:0:0:
133,103,113462,1,0,0:0:0:0:
376,33,113679,1,0,0:0:0:0:
190,167,113896,1,0,0:0:0:0:
190,167,114005,1,0,0:0:0:0:
447,162,114223,1,0,0:0:0:0:
447,162,114331,1,0,0:0:0:0:
263,46,114549,1,0,0:0:0:0:
334,273,114766,1,0,0:0:0:0:
117,103,114983,6,0,P|177:118|262:111,1,139.999995727539
378,57,115418,1,0,0:0:0:0:
435,206,115636,1,0,0:0:0:0:
435,206,115744,1,0,0:0:0:0:
237,139,115962,1,0,0:0:0:0:
237,139,116071,1,0,0:0:0:0:
472,90,116288,1,0,0:0:0:0:
184,202,116505,1,0,0:0:0:0:
367,81,116723,5,0,0:0:0:0:
367,81,117157,1,0,0:0:0:0:
424,279,117592,5,0,0:0:0:0:
424,279,118027,1,0,0:0:0:0:
290,67,118462,5,0,0:0:0:0:
284,88,118570,1,0,0:0:0:0:
281,115,118679,1,0,0:0:0:0:
288,139,118788,1,0,0:0:0:0:
299,164,118896,1,0,0:0:0:0:
459,108,119114,1,0,0:0:0:0:
357,135,119331,1,0,0:0:0:0:
500,203,119549,1,0,0:0:0:0:
366,234,119766,1,0,0:0:0:0:
466,76,119983,1,0,0:0:0:0:
93,160,120201,5,0,0:0:0:0:
135,180,120309,1,0,0:0:0:0:
180,189,120418,1,0,0:0:0:0:
226,184,120527,1,0,0:0:0:0:
270,172,120636,1,0,0:0:0:0:
386,58,120853,1,0,0:0:0:0:
475,231,121070,1,0,0:0:0:0:
308,107,121288,1,0,0:0:0:0:
225,306,121505,1,0,0:0:0:0:
420,173,121723,1,0,0:0:0:0:
111,37,121940,5,0,0:0:0:0:
86,131,122049,1,0,0:0:0:0:
105,231,122157,1,0,0:0:0:0:
165,320,122266,1,0,0:0:0:0:
259,358,122375,1,0,0:0:0:0:
386,87,122592,1,0,0:0:0:0:
163,303,122809,1,0,0:0:0:0:
292,17,123027,1,0,0:0:0:0:
432,246,123244,1,0,0:0:0:0:
154,77,123462,1,0,0:0:0:0:
0,384,123679,5,0,0:0:0:0:
119,293,123788,1,0,0:0:0:0:
255,194,123896,1,0,0:0:0:0:
400,91,124005,1,0,0:0:0:0:
510,2,124114,1,0,0:0:0:0:
346,314,124331,1,0,0:0:0:0:
254,40,124549,1,0,0:0:0:0:
191,275,124766,1,0,0:0:0:0:
443,206,124983,1,0,0:0:0:0:
148,158,125201,1,0,0:0:0:0:
483,293,125418,5,0,0:0:0:0:
256,192,125527,12,0,128896,0:0:0:0:
310,142,130418,5,0,0:0:0:0:
166,245,130527,1,0,0:0:0:0:
122,105,130636,5,0,0:0:0:0:
370,264,130744,1,0,0:0:0:0:
415,77,130853,5,0,0:0:0:0:
94,317,130962,1,0,0:0:0:0:
41,80,131070,5,0,0:0:0:0:
459,299,131179,1,0,0:0:0:0:
419,20,131288,5,0,0:0:0:0:
116,369,131396,1,0,0:0:0:0:
254,187,131505,5,0,0:0:0:0:
223,188,132375,5,0,0:0:0:0:
105,349,132483,1,0,0:0:0:0:
86,203,132592,5,0,0:0:0:0:
247,333,132701,1,0,0:0:0:0:
365,57,132809,6,0,P|342:130|363:228,1,110.000003356934
282,266,133027,2,0,P|267:190|204:140,1,110.000003356934
121,67,133244,5,0,0:0:0:0:
290,33,133353,1,0,0:0:0:0:
99,80,133462,5,0,0:0:0:0:
377,128,133570,1,0,0:0:0:0:
172,266,133679,6,0,P|164:191|182:127,1,110.000003356934
339,49,133896,2,0,P|346:122|322:202,1,110.000003356934
264,350,134114,5,0,0:0:0:0:
149,136,134223,1,0,0:0:0:0:
143,357,134331,5,0,0:0:0:0:
272,140,134440,1,0,0:0:0:0:
448,289,134549,5,0,0:0:0:0:
206,242,134657,1,0,0:0:0:0:
419,149,134766,5,0,0:0:0:0:
216,224,134875,1,0,0:0:0:0:
345,43,134983,6,0,L|355:178,1,110.000003356934
221,328,135201,2,0,L|257:158,1,110.000003356934
77,58,135418,5,0,0:0:0:0:
422,128,135527,1,0,0:0:0:0:
56,86,135636,5,0,0:0:0:0:
457,39,135744,1,0,0:0:0:0:
206,280,135853,5,0,0:0:0:0:
191,129,135962,1,0,0:0:0:0:
438,108,136070,1,0,0:0:0:0:
455,251,136179,1,0,0:0:0:0:
191,129,136288,2,0,P|252:94|375:117,1,110.000003356934
455,251,136505,5,0,0:0:0:0:
175,73,136614,1,0,0:0:0:0:
477,52,136723,5,0,0:0:0:0:
95,213,136831,1,0,0:0:0:0:
437,320,136940,5,0,0:0:0:0:
372,26,137049,1,0,0:0:0:0:
331,325,137157,5,0,0:0:0:0:
414,24,137266,1,0,0:0:0:0:
278,344,137375,5,0,0:0:0:0:
118,47,137483,1,0,0:0:0:0:
55,317,137592,6,0,P|232:322|559:213,1,440.000013427735
127,115,138244,1,0,0:0:0:0:
461,156,138462,1,0,0:0:0:0:
206,181,138679,1,0,0:0:0:0:
391,106,138896,1,0,0:0:0:0:
165,48,139114,1,0,0:0:0:0:
394,238,139331,5,0,0:0:0:0:
298,94,139549,1,0,0:0:0:0:
197,273,139766,1,0,0:0:0:0:
359,174,139983,1,0,0:0:0:0:
359,174,140092,1,0,0:0:0:0:
442,327,140309,1,0,0:0:0:0:
442,327,140418,1,0,0:0:0:0:
229,258,140636,1,0,0:0:0:0:
414,66,140853,1,0,0:0:0:0:
359,347,141070,5,0,0:0:0:0:
277,157,141288,1,0,0:0:0:0:
127,294,141505,1,0,0:0:0:0:
373,240,141723,1,0,0:0:0:0:
373,240,141831,1,0,0:0:0:0:
131,121,142049,1,0,0:0:0:0:
131,121,142157,1,0,0:0:0:0:
466,73,142375,1,0,0:0:0:0:
235,202,142592,1,0,0:0:0:0:
440,309,142809,6,0,L|455:148,1,150.000005722046
226,50,143244,1,0,0:0:0:0:
370,124,143462,1,0,0:0:0:0:
370,124,143570,1,0,0:0:0:0:
102,170,143788,1,0,0:0:0:0:
102,170,143896,1,0,0:0:0:0:
370,124,144114,1,0,0:0:0:0:
394,360,144331,1,0,0:0:0:0:
247,251,144549,5,0,0:0:0:0:
341,209,144766,1,0,0:0:0:0:
247,251,144983,1,0,0:0:0:0:
341,209,145201,1,0,0:0:0:0:
151,81,145418,5,0,0:0:0:0:
162,225,145527,1,0,0:0:0:0:
151,81,145636,1,0,0:0:0:0:
162,225,145744,1,0,0:0:0:0:
340,85,145853,5,0,0:0:0:0:
91,162,145962,1,0,0:0:0:0:
340,85,146070,1,0,0:0:0:0:
91,162,146179,1,0,0:0:0:0:
404,333,146288,6,0,L|428:175,1,119.999996337891
124,15,146505,2,0,L|106:173,1,119.999996337891
395,242,146723,5,0,0:0:0:0:
193,175,146831,1,0,0:0:0:0:
437,88,146940,5,0,0:0:0:0:
263,278,147049,1,0,0:0:0:0:
425,65,147157,5,0,0:0:0:0:
432,291,147266,1,0,0:0:0:0:
328,29,147375,5,0,0:0:0:0:
259,329,147483,1,0,0:0:0:0:
87,137,147592,6,0,P|152:122|257:141,1,119.999996337891
443,231,147809,2,0,P|350:229|277:189,1,119.999996337891
122,127,148027,5,0,0:0:0:0:
112,269,148136,1,0,0:0:0:0:
277,144,148244,5,0,0:0:0:0:
268,288,148353,1,0,0:0:0:0:
426,53,148462,5,0,0:0:0:0:
226,182,148570,1,0,0:0:0:0:
441,233,148679,5,0,0:0:0:0:
311,31,148788,1,0,0:0:0:0:
131,222,148896,2,0,L|286:195,1,119.999996337891
473,89,149114,2,0,L|327:111,1,119.999996337891
91,128,149331,5,0,0:0:0:0:
264,330,149440,1,0,0:0:0:0:
314,46,149549,1,0,0:0:0:0:
150,257,149657,1,0,0:0:0:0:
256,39,149766,5,0,0:0:0:0:
339,296,149875,1,0,0:0:0:0:
412,19,149983,5,0,0:0:0:0:
483,311,150092,1,0,0:0:0:0:
264,19,150201,5,0,0:0:0:0:
225,356,150309,1,0,0:0:0:0:
76,11,150418,5,0,0:0:0:0:
30,364,150527,1,0,0:0:0:0:
292,9,150636,5,0,0:0:0:0:
358,360,150744,1,0,0:0:0:0:
430,131,150853,1,0,0:0:0:0:
106,246,151070,1,0,0:0:0:0:
361,290,151288,1,0,0:0:0:0:
188,147,151505,1,0,0:0:0:0:
279,355,152375,5,0,0:0:0:0:
279,355,152809,1,0,0:0:0:0:
279,355,153244,5,0,0:0:0:0:
368,129,153462,1,0,0:0:0:0:
494,326,153679,1,0,0:0:0:0:
277,221,153896,1,0,0:0:0:0:
277,221,154005,1,0,0:0:0:0:
466,162,154223,1,0,0:0:0:0:
466,162,154331,1,0,0:0:0:0:
205,87,154549,1,0,0:0:0:0:
397,271,154766,1,0,0:0:0:0:
175,335,154983,5,0,0:0:0:0:
326,148,155201,1,0,0:0:0:0:
455,296,155418,1,0,0:0:0:0:
257,230,155636,1,0,0:0:0:0:
257,230,155744,1,0,0:0:0:0:
425,72,155962,1,0,0:0:0:0:
425,72,156070,1,0,0:0:0:0:
352,320,156288,1,0,0:0:0:0:
286,106,156505,1,0,0:0:0:0:
464,233,156723,5,0,0:0:0:0:
228,212,156940,1,0,0:0:0:0:
394,70,157157,1,0,0:0:0:0:
415,333,157375,5,0,0:0:0:0:
415,333,157483,1,0,0:0:0:0:
307,117,157701,1,0,0:0:0:0:
307,117,157809,1,0,0:0:0:0:
13,188,158027,5,0,0:0:0:0:
506,175,158244,1,0,0:0:0:0:
256,192,158462,12,0,160201,0:0:0:0:
