osu file format v14

[General]
AudioFilename: audio.mp3
AudioLeadIn: 0
PreviewTime: 175543
Countdown: 0
SampleSet: Normal
StackLeniency: 0.7
Mode: 1
LetterboxInBreaks: 0
WidescreenStoryboard: 0

[Editor]
Bookmarks: 126171,222171,326400
DistanceSpacing: 1.2
BeatDivisor: 6
GridSize: 32
TimelineZoom: 3.499999

[Metadata]
Title:So Damn Tough (feat. VG)
TitleUnicode:So Damn Tough (feat. VG)
Artist:Crazy Astronaut
ArtistUnicode:Crazy Astronaut
Creator:Nifty
Version:Hitech Trip
Source:
Tags:electronic psychedelic trance drumstep psystep psytrance instrumental sv alien acid kurtis blow crazy
BeatmapID:2073465
BeatmapSetID:991458

[Difficulty]
HPDrainRate:5
CircleSize:2
OverallDifficulty:7
ApproachRate:10
SliderMultiplier:1.4
SliderTickRate:1

[Events]
//Background and Video events
0,0,"tuff.jpg",0,100
//Break Periods
2,222379,231329
2,255294,260129
//Storyboard Layer 0 (Background)
//Storyboard Layer 1 (Fail)
//Storyboard Layer 2 (Pass)
//Storyboard Layer 3 (Foreground)
//Storyboard Sound Samples

[TimingPoints]
8,342.857142857143,4,1,0,20,1,0
8,-500,4,1,0,20,0,0
343,-477.272293388824,4,1,0,20,0,0
514,-466.666044445274,4,1,0,20,0,0
857,-446.807559983915,4,1,0,20,0,0
1371,-420.00042000042,4,1,0,20,0,0
1714,-403.846231508891,4,1,0,20,0,0
1886,-396.226340334653,4,1,0,20,0,0
2229,-381.817834711059,4,1,0,20,0,0
2743,-362.069589775155,4,1,0,20,0,0
3086,-350.00035000035,4,1,0,20,0,0
3257,-344.262520827883,4,1,0,20,0,0
3600,-333.333333333333,4,1,0,20,0,0
4114,-318.181528925883,4,1,0,20,0,0
4457,-308.823075260183,4,1,0,20,0,0
4629,-304.3482230629,4,1,0,20,0,0
4971,-295.774856179476,4,1,0,20,0,0
5486,-283.783745434629,4,1,0,25,0,0
5829,-276.3156076871,4,1,0,25,0,0
6000,-272.727024793614,4,1,0,25,0,0
6343,-265.82312129509,4,1,0,25,0,0
6857,-256.09768590131,4,1,0,25,0,0
7200,-250,4,1,0,25,0,0
7371,-247.058765397938,4,1,0,25,0,0
7714,-241.379143876453,4,1,0,25,0,0
8229,-233.3335666669,4,1,0,25,0,0
8571,-228.260993620105,4,1,0,25,0,0
8743,-225.806524453718,4,1,0,25,0,0
9086,-221.052608310252,4,1,0,25,0,0
9600,-214.285561224599,4,1,0,25,0,0
9943,-210.00021000021,4,1,0,25,0,0
10114,-207.920956769075,4,1,0,25,0,0
10457,-203.883574323718,4,1,0,25,0,0
10971,-198.113170167326,4,1,0,30,0,0
11314,-194.444336419813,4,1,0,30,0,0
11486,-192.660409056581,4,1,0,30,0,0
11829,-189.189342585953,4,1,0,30,0,0
12000,-187.500117187573,4,1,0,30,0,0
12343,-184.210574792257,4,1,0,30,0,0
12686,-181.034467152201,4,1,0,30,0,0
12857,-179.487133464838,4,1,0,30,0,0
13200,-176.470484429127,4,1,0,30,0,0
13714,-172.131260413941,4,1,0,30,0,0
14057,-169.354893340288,4,1,0,30,0,0
14229,-168.000026880004,4,1,0,30,0,0
14571,-165.354304668613,4,1,0,30,0,0
14743,-164.062448730485,4,1,0,30,0,0
15086,-161.538362130239,4,1,0,30,0,0
15429,-159.091017562057,4,1,0,30,0,0
15600,-157.894819944642,4,1,0,30,0,0
15943,-155.555590123464,4,1,0,30,0,0
16114,-154.411776059689,4,1,0,30,0,0
16457,-152.1738799622,4,1,0,35,0,0
16800,-149.999925000038,4,1,0,35,0,0
16971,-148.936075147186,4,1,0,35,0,0
17314,-146.853229008799,4,1,0,35,0,0
17486,-145.833394097248,4,1,0,35,0,0
17829,-143.835636141868,4,1,0,35,0,0
18171,-141.891872717314,4,1,0,35,0,0
18343,-140.939559479313,4,1,0,35,0,0
18686,-139.072774001179,4,1,0,35,0,0
19200,-136.363698347136,4,1,0,35,0,0
19543,-134.615410502964,4,1,0,35,0,0
19714,-133.757970303055,4,1,0,35,0,0
20057,-132.075446778218,4,1,0,35,0,0
20229,-131.249958984388,4,1,0,35,0,0
20571,-129.629557613209,4,1,0,35,0,0
20914,-128.048842950655,4,1,0,35,0,0
21086,-127.272773553736,4,1,0,35,0,0
21429,-125.748518053715,4,1,0,35,0,0
21600,-125,4,1,0,35,0,0
23314,-142.857142857143,4,1,0,35,0,0
24686,-166.666666666667,4,1,0,20,0,0
24857,-156.886616473408,4,1,0,20,0,0
25029,-148.190958869599,4,1,0,20,0,0
25200,-140.408420012131,4,1,0,20,0,0
25371,-133.402702738757,4,1,0,20,0,0
25543,-127.062704173883,4,1,0,20,0,0
25714,-121.297985483057,4,1,0,20,0,0
25886,-116.033779753962,4,1,0,20,0,0
26057,-111.207367265667,4,1,0,35,0,0
26400,-102.666663928889,4,1,0,35,0,0
26743,-95.3442451643782,4,1,0,35,0,0
27086,-88.9967925555963,4,1,0,35,0,0
27429,-83.4416684328486,4,1,0,40,0,0
27514,-100.156043115173,4,1,0,40,0,0
31543,-100,4,1,0,45,0,0
31714,-98.7654320987654,4,1,0,45,0,0
31886,-97.5609756097561,4,1,0,45,0,0
31971,-96.969696969697,4,1,0,45,0,0
32057,-96.3855421686747,4,1,0,45,0,0
32143,-95.8083832335329,4,1,0,45,0,0
32229,-95.2380952380952,4,1,0,45,0,0
32314,-94.6745562130178,4,1,0,45,0,0
32400,-94.1176470588235,4,1,0,45,0,0
32486,-93.5672514619883,4,1,0,45,0,0
32571,-93.0232558139535,4,1,0,45,0,0
32657,-92.485549132948,4,1,0,45,0,0
32743,-91.9540229885058,4,1,0,45,0,0
32829,-91.4285714285714,4,1,0,45,0,0
32914,-90.9090909090909,4,1,0,60,0,0
33086,-90.5666665761,4,1,0,60,0,0
33257,-90.226730751706,4,1,0,60,0,0
33343,-90.0577179914607,4,1,0,60,0,0
33429,-89.8894180379297,4,1,0,60,0,0
33514,-89.7216654494427,4,1,0,60,0,0
33600,-89.5545378179858,4,1,0,60,0,0
33771,-89.2222231144444,4,1,0,60,0,0
33943,-88.8922865496192,4,1,0,60,0,0
34114,-88.5648595892716,4,1,0,60,0,0
34286,-88.2397580112876,4,1,0,60,0,0
34457,-87.9171117470449,4,1,0,60,0,0
34629,-87.5968163813054,4,1,0,60,0,0
34714,-87.4375040439846,4,1,0,60,0,0
34800,-87.2787701373942,4,1,0,60,0,0
34886,-87.1206115169964,4,1,0,60,0,0
34971,-86.9631006867476,4,1,0,60,0,0
35143,-86.6496313491434,4,1,0,60,0,0
35314,-86.3384883166758,4,1,0,60,0,0
35486,-86.0294977942037,4,1,0,60,0,0
35657,-85.7227845160649,4,1,0,60,0,0
35829,-85.4181775006812,4,1,0,60,0,0
36000,-85.1158000459625,4,1,0,60,0,0
36086,-84.9653766090318,4,1,0,60,0,0
36171,-84.8155558514676,4,1,0,60,0,0
36257,-84.6661908426741,4,1,0,60,0,0
36343,-84.5173509895714,4,1,0,60,0,0
36514,-84.2213066430398,4,1,0,60,0,0
36686,-83.9272585664553,4,1,0,60,0,0
36857,-83.6353265583143,4,1,0,60,0,0
37029,-62.5067585432675,4,1,0,60,0,0
37714,-100,4,1,0,30,0,0
37800,-103.399464183977,4,1,0,30,0,0
37886,-107.038074513485,4,1,0,30,0,0
37971,-110.9422323796,4,1,0,30,0,0
38057,-115.141975813277,4,1,0,30,0,0
38229,-124.573336323093,4,1,0,30,0,0
38400,-71.2890485763576,4,1,0,69,0,0
38743,-83.3333333333333,4,1,0,69,0,0
38800,-85.6643311714512,4,1,0,69,0,0
38857,-88.1294868925014,4,1,0,69,0,0
38914,-90.7407256172865,4,1,0,69,0,0
38971,-93.5114289668483,4,1,0,69,0,0
39029,-96.4566644320873,4,1,0,69,0,0
39086,-99.5934594983278,4,1,0,69,0,0
41143,-90.9090909090909,4,1,0,69,0,0
41200,-92.3077207100679,4,1,0,69,0,0
41257,-93.7499707031342,4,1,0,69,0,0
41314,-95.2380952380952,4,1,0,69,0,0
41486,-83.3333333333333,4,1,0,69,0,0
41543,-84.5070660583285,4,1,0,69,0,0
41600,-85.7142612244968,4,1,0,69,0,0
41657,-86.9565217391304,4,1,0,69,0,0
41829,-76.9230769230769,4,1,0,69,0,0
41943,-78.9473476454348,4,1,0,69,0,0
42057,-81.0811029948927,4,1,0,69,0,0
42171,-83.3333333333333,4,1,0,69,0,0
42286,-85.7142612244968,4,1,0,69,0,0
42400,-88.2353200692118,4,1,0,69,0,0
42514,-90.9090909090909,4,1,0,69,0,0
42571,-92.2509225092251,4,1,0,69,0,0
42629,-93.6329588014981,4,1,0,69,0,0
42686,-95.0570342205323,4,1,0,69,0,0
43200,-95.2380952380952,4,1,0,69,0,0
43314,-93.0455867547746,4,1,0,69,0,0
43429,-90.9516728286425,4,1,0,69,0,0
43543,-88.9500074273256,4,1,0,69,0,0
43657,-87.0345501053553,4,1,0,69,0,0
43771,-85.1998490258675,4,1,0,69,0,0
43886,-71.5075361792379,4,1,0,69,0,0
44229,-83.3333333333333,4,1,0,69,0,0
44286,-85.7142612244968,4,1,0,69,0,0
44343,-88.2353200692118,4,1,0,69,0,0
44400,-90.9090909090909,4,1,0,69,0,0
44457,-93.7499707031342,4,1,0,69,0,0
44514,-96.774224765879,4,1,0,69,0,0
44571,-100,4,1,0,69,0,0
45257,-83.3333333333333,4,1,0,69,0,0
45600,-90.8239640845716,4,1,0,69,0,0
45686,-92.9118480259484,4,1,0,69,0,0
45771,-95.0980746443807,4,1,0,69,0,0
45857,-97.3895699666149,4,1,0,69,0,0
45943,-99.7942243094739,4,1,0,69,0,0
46607,-90.9090909090909,4,1,0,69,0,0
46664,-92.3077207100679,4,1,0,69,0,0
46721,-93.7499707031342,4,1,0,69,0,0
46778,-95.2380952380952,4,1,0,69,0,0
46950,-83.3333333333333,4,1,0,69,0,0
47007,-84.5070660583285,4,1,0,69,0,0
47064,-85.7142612244968,4,1,0,69,0,0
47121,-86.9565217391304,4,1,0,69,0,0
47293,-76.9230769230769,4,1,0,69,0,0
47407,-78.9473476454348,4,1,0,69,0,0
47521,-81.0811029948927,4,1,0,69,0,0
47635,-83.3333333333333,4,1,0,69,0,0
47750,-85.7142612244968,4,1,0,69,0,0
47864,-88.2353200692118,4,1,0,69,0,0
47978,-90.9090909090909,4,1,0,69,0,0
48343,-83.3333333333333,4,1,0,69,0,0
48686,-71.4285714285714,4,1,0,69,0,0
48857,-76.9230769230769,4,1,0,69,0,0
49029,-83.3333333333333,4,1,0,69,0,0
49200,-90.9090909090909,4,1,0,69,0,0
49371,-71.4285714285714,4,1,0,69,0,0
49693,-83.3333333333333,4,1,0,69,0,0
49750,-85.6643311714512,4,1,0,69,0,0
49807,-88.1294868925014,4,1,0,69,0,0
49864,-90.7407256172865,4,1,0,69,0,0
49921,-93.5114289668483,4,1,0,69,0,0
49979,-96.4566644320873,4,1,0,69,0,0
50036,-99.5934594983278,4,1,0,69,0,0
52093,-90.9090909090909,4,1,0,69,0,0
52150,-92.3077207100679,4,1,0,69,0,0
52207,-93.7499707031342,4,1,0,69,0,0
52264,-95.2380952380952,4,1,0,69,0,0
52436,-83.3333333333333,4,1,0,69,0,0
52493,-84.5070660583285,4,1,0,69,0,0
52550,-85.7142612244968,4,1,0,69,0,0
52607,-86.9565217391304,4,1,0,69,0,0
52779,-76.9230769230769,4,1,0,69,0,0
52893,-78.9473476454348,4,1,0,69,0,0
53007,-81.0811029948927,4,1,0,69,0,0
53121,-83.3333333333333,4,1,0,69,0,0
53236,-85.7142612244968,4,1,0,69,0,0
53350,-88.2353200692118,4,1,0,69,0,0
53464,-90.9090909090909,4,1,0,69,0,0
53521,-92.2509225092251,4,1,0,69,0,0
53579,-93.6329588014981,4,1,0,69,0,0
53636,-95.0570342205323,4,1,0,69,0,0
54150,-95.2380952380952,4,1,0,69,0,0
54264,-93.0455867547746,4,1,0,69,0,0
54379,-90.9516728286425,4,1,0,69,0,0
54493,-88.9500074273256,4,1,0,69,0,0
54607,-87.0345501053553,4,1,0,69,0,0
54721,-85.1998490258675,4,1,0,69,0,0
54836,-71.5075361792379,4,1,0,69,0,0
55200,-83.3333333333333,4,1,0,69,0,0
55257,-84.2696392501013,4,1,0,69,0,0
55314,-85.227296939573,4,1,0,69,0,0
55371,-86.2068965517241,4,1,0,69,0,0
55429,-87.2092769740474,4,1,0,69,0,0
55486,-88.2353200692118,4,1,0,69,0,0
55543,-89.2857142857143,4,1,0,69,0,0
55657,-91.4634425193422,4,1,0,69,0,0
55714,-92.5925925925926,4,1,0,69,0,0
55885,-96.1538461538461,4,1,0,69,0,0
56000,-98.6842429882378,4,1,0,69,0,0
56057,-100,4,1,0,69,0,0
56229,-83.3333333333333,4,1,0,69,0,0
56343,-85.7142612244968,4,1,0,69,0,0
56400,-86.9565217391304,4,1,0,69,0,0
56571,-90.9090909090909,4,1,0,69,0,0
56657,-93.0232558139535,4,1,0,69,0,0
56743,-95.2380952380952,4,1,0,69,0,0
56828,-97.5609756097561,4,1,0,69,0,0
56914,-100,4,1,0,69,0,0
57600,-90.9090909090909,4,1,0,69,0,0
57771,-95.2380952380952,4,1,0,69,0,0
57943,-100,4,1,0,69,0,0
58029,-97.6095423088561,4,1,0,69,0,0
58114,-95.3307022059524,4,1,0,69,0,0
58200,-93.1559271856011,4,1,0,69,0,0
58286,-91.0780821506086,4,1,0,69,0,0
58457,-95.2380952380952,4,1,0,69,0,0
58629,-100,4,1,0,69,0,0
58714,-97.5609756097561,4,1,0,69,0,0
58800,-95.2380952380952,4,1,0,69,0,0
58886,-93.0232558139535,4,1,0,69,0,0
58971,-90.9090909090909,4,1,0,69,0,0
59143,-88.8991616809054,4,1,0,69,0,0
59314,-86.9761102717917,4,1,0,69,0,0
59486,-85.1345679548378,4,1,0,69,0,0
59657,-83.3693210902706,4,1,0,69,0,0
59829,-81.6758579232116,4,1,0,69,0,0
60000,-80.049758930151,4,1,0,69,0,0
60171,-78.4872061929545,4,1,0,69,0,0
60343,-76.9230769230769,4,1,0,69,0,0
60686,-78.4313725490196,4,1,0,69,0,0
60857,-79.2079207920792,4,1,0,69,0,0
61029,-80,4,1,0,69,0,0
61371,-81.6326530612245,4,1,0,69,0,0
61543,-82.4742268041237,4,1,0,69,0,0
61714,-83.3333333333333,4,1,0,69,0,0
62057,-85.1063829787234,4,1,0,69,0,0
62229,-86.0215053763441,4,1,0,69,0,0
62400,-86.9565217391304,4,1,0,69,0,0
62743,-88.8888888888889,4,1,0,69,0,0
62914,-89.8876404494382,4,1,0,69,0,0
63086,-90.9090909090909,4,1,0,69,0,0
63429,-93.0232558139535,4,1,0,69,0,0
63600,-94.1176470588235,4,1,0,69,0,0
63771,-95.2380952380952,4,1,0,69,0,0
64114,-97.5609756097561,4,1,0,69,0,0
64286,-98.7654320987654,4,1,0,69,0,0
64457,-100,4,1,0,69,0,0
64800,-102.564102564103,4,1,0,69,0,0
64971,-103.896103896104,4,1,0,69,0,0
65143,-105.263157894737,4,1,0,69,0,0
65486,-108.108108108108,4,1,0,69,0,0
65657,-109.58904109589,4,1,0,69,0,0
65829,-111.111111111111,4,1,0,69,0,0
66171,-114.285714285714,4,1,0,69,0,0
66514,-117.647058823529,4,1,0,69,0,0
66857,-121.212121212121,4,1,0,69,0,0
67200,-125,4,1,0,69,0,0
67543,-129.032258064516,4,1,0,69,0,0
67886,-133.333333333333,4,1,0,69,0,0
68229,-137.931034482759,4,1,0,69,0,0
68571,-142.857142857143,4,1,0,69,0,0
68743,-145.454545454545,4,1,0,69,0,0
68914,-148.148148148148,4,1,0,69,0,0
69086,-150.943396226415,4,1,0,69,0,0
69257,-153.846153846154,4,1,0,69,0,0
69429,-156.862745098039,4,1,0,69,0,0
69600,-160,4,1,0,69,0,0
69771,-163.265306122449,4,1,0,69,0,0
69943,-166.666666666667,4,1,0,69,0,0
70029,-168.421052631579,4,1,0,69,0,0
70114,-170.212765957447,4,1,0,69,0,0
70200,-172.043010752688,4,1,0,69,0,0
70286,-173.913043478261,4,1,0,60,0,0
70371,-175.824175824176,4,1,0,60,0,0
70457,-177.777777777778,4,1,0,60,0,0
70543,-179.775280898876,4,1,0,60,0,0
70629,-181.818181818182,4,1,0,50,0,0
70714,-183.908045977012,4,1,0,50,0,0
70800,-186.046511627907,4,1,0,50,0,0
70886,-188.235294117647,4,1,0,50,0,0
70971,-190.47619047619,4,1,0,50,0,0
71057,-192.771084337349,4,1,0,40,0,0
71143,-195.121951219512,4,1,0,40,0,0
71229,-197.530864197531,4,1,0,40,0,0
71314,-100,4,1,0,42,0,0
80914,-100,4,1,0,30,0,0
81000,-100.625690543801,4,1,0,30,0,0
81086,-101.259157625068,4,1,0,30,0,0
81171,-101.900754778891,4,1,0,30,0,0
81257,-102.550429173546,4,1,0,30,0,0
81343,-103.208547319055,4,1,0,30,0,0
81429,-103.875166979331,4,1,0,30,0,0
81514,-104.550344650211,4,1,0,30,0,0
81600,-105.23446765566,4,1,0,30,0,0
81686,-105.927602720645,4,1,0,30,0,0
81771,-106.629815402464,4,1,0,30,0,0
81857,-107.341515619264,4,1,0,30,0,0
81943,-108.062663377239,4,1,0,30,0,0
82029,-108.793684744188,4,1,0,30,0,0
82114,-109.534663887407,4,1,0,30,0,0
82200,-110.285684035927,4,1,0,30,0,0
82286,-90.866301141826,4,1,0,50,0,0
90514,-90.9090909090909,4,1,0,30,0,0
90686,-93.0120078502135,4,1,0,30,0,0
90857,-95.2146089678832,4,1,0,30,0,0
91029,-97.5239640760726,4,1,0,30,0,0
91200,-99.948226818508,4,1,0,30,0,0
91371,-102.495982157499,4,1,0,30,0,0
91543,-105.177134070345,4,1,0,30,0,0
91714,-108.002207565123,4,1,0,30,0,0
91886,-111.111111111111,4,1,0,40,0,0
91971,-108.843537414966,4,1,0,40,0,0
92057,-106.666666666667,4,1,0,40,0,0
92143,-104.575163398693,4,1,0,40,0,0
92229,-102.564102564103,4,1,0,40,0,0
92314,-100.62893081761,4,1,0,40,0,0
92400,-98.7654320987654,4,1,0,40,0,0
92486,-96.969696969697,4,1,0,40,0,0
92571,-95.2380952380952,4,1,0,35,0,0
92657,-93.5672514619883,4,1,0,35,0,0
92743,-91.9540229885058,4,1,0,35,0,0
92829,-90.3954802259887,4,1,0,35,0,0
92914,-88.8888888888889,4,1,0,35,0,0
93000,-87.431693989071,4,1,0,35,0,0
93086,-86.0215053763441,4,1,0,35,0,0
93171,-84.6560846560847,4,1,0,35,0,0
93257,-83.3333333333333,4,1,0,69,0,0
93343,-90.9090909090909,4,1,0,69,0,0
103029,-83.3333333333333,4,1,0,69,0,0
104143,-76.9230769230769,4,1,0,69,0,0
104314,-83.3333333333333,4,1,0,69,0,0
113829,-83.3333333333333,4,1,0,69,0,0
114000,-85.1063829787234,4,1,0,69,0,0
114171,-86.9565217391304,4,1,0,69,0,0
114343,-88.8888888888889,4,1,0,69,0,0
114514,-90.9090909090909,4,1,0,69,0,0
114600,-91.9540229885058,4,1,0,69,0,0
114686,-93.0232558139535,4,1,0,69,0,0
114771,-94.1176470588235,4,1,0,69,0,0
114857,-95.2380952380952,4,1,0,69,0,0
114943,-96.3855421686747,4,1,0,69,0,0
115029,-97.5609756097561,4,1,0,69,0,0
115114,-98.7654320987654,4,1,0,69,0,0
115200,-76.9230769230769,4,1,0,69,0,0
115286,-83.3333333333333,4,1,0,69,0,0
126257,-90.9090909090909,4,1,0,50,0,0
137143,-90.9090909090909,4,1,0,50,0,0
137314,-92.2173193347443,4,1,0,50,0,0
137486,-93.5636621191608,4,1,0,50,0,0
137657,-94.9499898403511,4,1,0,50,0,0
137829,-96.3780177162072,4,1,0,50,0,0
138000,-97.8495602151516,4,1,0,50,0,0
138171,-99.3668345303725,4,1,0,50,0,0
138343,-100.931904272145,4,1,0,50,0,0
138514,-102.546958816116,4,1,0,50,0,0
138686,-104.214648827898,4,1,0,50,0,0
138857,-105.937477819341,4,1,0,50,0,0
139029,-107.718110322734,4,1,0,50,0,0
139200,-109.559745120209,4,1,0,50,0,0
139371,-111.465447383293,4,1,0,50,0,0
139543,-113.438619497376,4,1,0,50,0,0
139714,-115.482775743998,4,1,0,50,0,0
139886,-117.602093317261,4,1,0,40,0,0
140057,-119.800651715545,4,1,0,40,0,0
140229,-122.082830759013,4,1,0,40,0,0
140400,-124.453803370458,4,1,0,40,0,0
140571,-126.918693346668,4,1,0,40,0,0
140743,-129.483026070112,4,1,0,40,0,0
140915,-132.153292533207,4,1,0,40,0,0
141086,-134.936013342473,4,1,0,40,0,0
141257,-137.838255077961,4,1,0,35,0,0
141343,-139.3368957133,4,1,0,35,0,0
141429,-140.868283928478,4,1,0,35,0,0
141600,-144.03452219428,4,1,0,35,0,0
141686,-145.671516557025,4,1,0,35,0,0
141771,-147.346148519024,4,1,0,35,0,0
141943,-150.813867033446,4,1,0,35,0,0
142029,-152.609546948038,4,1,0,35,0,0
142114,-154.448741551654,4,1,0,35,0,0
142286,-158.262906340012,4,1,0,35,0,0
142543,-166.48630650129,4,1,0,20,0,0
142629,-166.666666666667,4,1,0,20,0,0
142971,-163.265306122449,4,1,0,20,0,0
143314,-160,4,1,0,20,0,0
143657,-156.862745098039,4,1,0,20,0,0
144000,-153.846153846154,4,1,0,20,0,0
144343,-150.943396226415,4,1,0,20,0,0
144686,-148.148148148148,4,1,0,20,0,0
145029,-145.454545454545,4,1,0,20,0,0
145371,-142.857142857143,4,1,0,20,0,0
145714,-140.350877192982,4,1,0,20,0,0
146057,-137.931034482759,4,1,0,20,0,0
146400,-135.593220338983,4,1,0,20,0,0
146743,-133.333333333333,4,1,0,30,0,0
147086,-131.147540983607,4,1,0,30,0,0
147429,-129.032258064516,4,1,0,30,0,0
147771,-126.984126984127,4,1,0,30,0,0
148114,-125,4,1,0,40,0,0
148457,-123.711391221192,4,1,0,40,0,0
148629,-123.076923076923,4,1,0,40,0,0
148800,-122.448929612682,4,1,0,40,0,0
149143,-121.212121212121,4,1,0,40,0,0
149314,-120.602966591772,4,1,0,40,0,0
149486,-120.000048000019,4,1,0,40,0,0
149829,-118.811834133927,4,1,0,40,0,0
150000,-118.226647577004,4,1,0,40,0,0
150171,-117.647058823529,4,1,0,40,0,0
150514,-116.504899613553,4,1,0,40,0,0
150686,-115.942028985507,4,1,0,40,0,0
150857,-115.384571005934,4,1,0,40,0,0
151200,-114.285714285714,4,1,0,40,0,0
151371,-113.744032703684,4,1,0,40,0,0
151543,-113.207589889657,4,1,0,40,0,0
151886,-112.149490785237,4,1,0,40,0,0
152057,-111.627948512725,4,1,0,40,0,0
152229,-111.111111111111,4,1,0,40,0,0
152571,-110.091783519921,4,1,0,40,0,0
152743,-109.58904109589,4,1,0,40,0,0
152914,-109.090869421502,4,1,0,40,0,0
153257,-108.108108108108,4,1,0,40,0,0
153429,-107.623279776402,4,1,0,40,0,0
153600,-107.142895408177,4,1,0,50,0,0
153686,-106.9041935308,4,1,0,50,0,0
153771,-106.666666666667,4,1,0,50,0,0
153943,-106.194652674459,4,1,0,50,0,0
154286,-105.263157894737,4,1,0,50,0,0
154371,-105.032859530104,4,1,0,50,0,0
154457,-104.80345683722,4,1,0,50,0,0
154629,-104.347862381865,4,1,0,50,0,0
154971,-103.448240190262,4,1,0,50,0,0
155057,-103.225806451613,4,1,0,50,0,0
155143,-103.004327211786,4,1,0,50,0,0
155314,-102.564102564103,4,1,0,50,0,0
155486,-102.127624807617,4,1,0,50,0,0
155657,-101.694949727102,4,1,0,50,0,0
155743,-101.479881106171,4,1,0,50,0,0
155829,-101.26582278481,4,1,0,50,0,0
156000,-100.840302238554,4,1,0,50,0,0
156171,-100.418443654709,4,1,0,50,0,0
156343,-100,4,1,0,60,0,0
156429,-99.7921329869881,4,1,0,60,0,0
156514,-99.5850291833928,4,1,0,60,0,0
156686,-99.173586503665,4,1,0,60,0,0
156857,-98.7654320987654,4,1,0,60,0,0
156943,-98.5626607187386,4,1,0,60,0,0
157029,-98.3606234883202,4,1,0,60,0,0
157200,-97.959215660152,4,1,0,60,0,0
157371,-97.5609756097561,4,1,0,60,0,0
157543,-97.1659604320776,4,1,0,60,0,0
157714,-96.774224765879,4,1,0,60,0,0
157800,-96.5794457691925,4,1,0,60,0,0
157886,-96.3855421686747,4,1,0,60,0,0
157971,-96.1924156127986,4,1,0,60,0,0
158057,-95.9999692800098,4,1,0,60,0,0
158229,-95.6175603561945,4,1,0,60,0,0
158314,-95.4274050330322,4,1,0,60,0,0
158400,-95.2380952380952,4,1,0,60,0,0
158571,-94.861630083279,4,1,0,60,0,0
158743,-94.4882187364469,4,1,0,60,0,0
158914,-94.1176470588235,4,1,0,60,0,0
159086,-93.7499707031342,4,1,0,60,0,0
159257,-93.3852430771185,4,1,0,60,0,0
159429,-93.0232558139535,4,1,0,60,0,0
159600,-92.6640640419879,4,1,0,60,0,0
159771,-92.3077207100679,4,1,0,60,0,0
159943,-91.9540229885058,4,1,0,60,0,0
160114,-91.6030254647251,4,1,0,60,0,0
160286,-91.2547806098192,4,1,0,60,0,0
160457,-90.9090909090909,4,1,0,60,0,0
160543,-90.7372675197785,4,1,0,60,0,0
160629,-90.5660103951667,4,1,0,60,0,0
160800,-90.2255910452905,4,1,0,60,0,0
160971,-89.8876404494382,4,1,0,60,0,0
161143,-89.5522120739665,4,1,0,60,0,0
161314,-89.2193573886565,4,1,0,60,0,0
161486,-88.8888888888889,4,1,0,60,0,0
161657,-88.5608594654289,4,1,0,60,0,0
161829,-88.2353200692118,4,1,0,60,0,0
162000,-87.9120879120879,4,1,0,60,0,0
162171,-87.591215301835,4,1,0,60,0,0
162257,-87.431693989071,4,1,0,60,0,0
162343,-87.2727526611644,4,1,0,60,0,0
162514,-86.9565217391304,4,1,0,60,0,0
162686,-86.6425742548522,4,1,0,60,0,0
162857,-86.3309600952403,4,1,0,60,0,0
163029,-86.0215053763441,4,1,0,60,0,0
163200,-85.7142612244968,4,1,0,60,0,0
163286,-85.5614973262032,4,1,0,60,0,0
163371,-85.4092769848475,4,1,0,60,0,0
163543,-85.1063829787234,4,1,0,60,0,0
163714,-84.8056297369244,4,1,0,60,0,0
163886,-84.5070660583285,4,1,0,60,0,0
164057,-84.2105263157895,4,1,0,60,0,0
164229,-83.91606044306,4,1,0,60,0,0
164400,-83.6237166895378,4,1,0,60,0,0
164571,-83.3333333333333,4,1,0,69,0,0
165343,-80,4,1,0,69,0,0
165514,-83.3333333333333,4,1,0,69,0,0
165857,-76.9230769230769,4,1,0,69,0,0
166029,-83.3333333333333,4,1,0,69,0,0
167229,-76.9230769230769,4,1,0,69,0,0
167400,-83.3333333333333,4,1,0,69,0,0
168086,-80,4,1,0,69,0,0
168257,-83.3333333333333,4,1,0,69,0,0
168600,-76.9230769230769,4,1,0,69,0,0
168771,-83.3333333333333,4,1,0,69,0,0
169886,-83.3333333333333,4,1,0,69,0,0
170057,-78.0141954630064,4,1,0,60,0,0
170229,-85.9375268554771,4,1,0,60,0,0
170400,-87.301552658114,4,1,0,60,0,0
170571,-88.7096559573413,4,1,0,60,0,0
170743,-90.1639270357437,4,1,0,60,0,0
170914,-91.6666743055562,4,1,0,60,0,0
171086,-93.2203626831431,4,1,0,60,0,0
171257,-94.8276270808737,4,1,0,60,0,0
171429,-96.4911942136161,4,1,0,45,0,0
171600,-98.2142681760236,4,1,0,45,0,0
171771,-100,4,1,0,45,0,0
171943,-101.851870713309,4,1,0,45,0,0
172114,-103.773624065519,4,1,0,45,0,0
172286,-105.769179918663,4,1,0,45,0,0
172457,-107.843105536342,4,1,0,45,0,0
172629,-109.999989000001,4,1,0,45,0,0
172800,-112.244909412746,4,1,0,30,0,0
175543,-166.666666666667,4,1,0,20,0,0
175629,-160,4,1,0,20,0,0
175714,-153.846153846154,4,1,0,20,0,0
175800,-148.148148148148,4,1,0,20,0,0
175886,-142.857142857143,4,1,0,25,0,0
175971,-137.931034482759,4,1,0,25,0,0
176057,-133.333333333333,4,1,0,25,0,0
176143,-129.032258064516,4,1,0,25,0,0
176229,-125,4,1,0,30,0,0
176314,-121.212121212121,4,1,0,30,0,0
176400,-117.647058823529,4,1,0,30,0,0
176486,-114.285714285714,4,1,0,30,0,0
176571,-111.111111111111,4,1,0,35,0,0
176657,-108.108108108108,4,1,0,35,0,0
176743,-105.263157894737,4,1,0,35,0,0
176829,-102.564102564103,4,1,0,35,0,0
176914,-100,4,1,0,40,0,0
177257,-83.3333333333333,4,1,0,40,0,0
177600,-71.4285714285714,4,1,0,40,0,0
177771,-76.8621193499617,4,1,0,69,0,0
177943,-83.1903845225953,4,1,0,69,0,0
178114,-90.6541878155332,4,1,0,69,0,0
178293,-71.2187812472403,4,1,0,69,0,1
178371,-83.0479252967302,4,1,0,69,0,1
187886,-83.3333333333333,4,1,0,40,0,1
187971,-85.1063829787234,4,1,0,40,0,1
188057,-86.9565217391304,4,1,0,40,0,1
188143,-88.8888888888889,4,1,0,40,0,1
188229,-90.9090909090909,4,1,0,40,0,1
188314,-93.0232558139535,4,1,0,40,0,1
188400,-95.2380952380952,4,1,0,40,0,1
188486,-97.5609756097561,4,1,0,40,0,1
188571,-100,4,1,0,30,0,1
188657,-102.564102564103,4,1,0,30,0,1
188743,-105.263157894737,4,1,0,30,0,1
188829,-108.108108108108,4,1,0,30,0,1
188914,-111.111111111111,4,1,0,30,0,1
189000,-114.285714285714,4,1,0,30,0,1
189086,-117.647058823529,4,1,0,30,0,1
189171,-121.212121212121,4,1,0,30,0,1
189257,-71.4285714285714,4,1,0,69,0,1
189343,-83.3333333333333,4,1,0,69,0,1
198857,-83.3333333333333,4,1,0,69,0,1
199029,-85.0969679950303,4,1,0,69,0,1
199114,-86.0071523547898,4,1,0,69,0,1
199200,-86.936942027839,4,1,0,69,0,1
199371,-88.8581637105037,4,1,0,69,0,1
199457,-89.8510539079368,4,1,0,69,0,1
199543,-90.8663011418259,4,1,0,69,0,1
199714,-92.9672160409353,4,1,0,69,0,1
199800,-94.0546193985771,4,1,0,69,0,1
199886,-95.1676711614358,4,1,0,69,0,1
200057,-97.474722367622,4,1,0,69,0,1
200143,-98.6707082188753,4,1,0,69,0,1
200229,-71.3757533710768,4,1,0,69,0,1
200314,-83.2614509473488,4,1,0,69,0,1
210171,-83.3333333333333,4,1,0,69,0,1
210257,-82.199527845912,4,1,0,69,0,1
210343,-81.0962263492993,4,1,0,69,0,1
210429,-80.0220860957624,4,1,0,69,0,1
210514,-78.9760284060979,4,1,0,69,0,1
210600,-77.9569661955207,4,1,0,69,0,1
210686,-76.9639270074116,4,1,0,69,0,1
210771,-75.9958111108916,4,1,0,69,0,1
210857,-75.0517481803704,4,1,0,69,0,1
210943,-74.130852816157,4,1,0,69,0,1
211029,-73.2323361774332,4,1,0,69,0,1
211200,-71.4989979415438,4,1,0,69,0,1
211286,-83.4292073975009,4,1,0,69,0,1
220800,-83.3333333333333,4,1,0,69,0,1
220971,-81.6326530612245,4,1,0,69,0,1
221143,-80,4,1,0,69,0,1
221229,-79.2079207920792,4,1,0,69,0,1
221314,-78.4313725490196,4,1,0,69,0,1
221400,-77.6699029126214,4,1,0,69,0,1
221486,-76.9230769230769,4,1,0,69,0,1
221571,-76.1904761904762,4,1,0,69,0,1
221657,-75.4716981132076,4,1,0,69,0,1
221743,-74.7663551401869,4,1,0,69,0,1
221829,-74.0740740740741,4,1,0,69,0,1
221886,-73.6196499680123,4,1,0,69,0,1
221943,-73.1707138608015,4,1,0,69,0,1
222000,-72.7272727272727,4,1,0,69,0,1
222051,-72.202166064982,4,1,0,69,0,1
222065,-71.9424460431655,4,1,0,69,0,1
222179,-71.4285714285714,4,1,0,69,0,0
222514,-83.3333333333333,4,1,0,40,0,0
224743,-100,4,1,0,40,0,0
226114,-111.111111111111,4,1,0,40,0,0
227229,-125,4,1,0,40,0,0
228686,-142.857142857143,4,1,0,40,0,0
230143,-166.666666666667,4,1,0,40,0,0
231771,-166.666666666667,4,1,0,40,0,0
232114,-142.962935429361,4,1,0,40,0,0
232457,-125.162084899945,4,1,0,50,0,0
232543,-121.383676808677,4,1,0,50,0,0
232629,-117.826571070042,4,1,0,50,0,0
232714,-114.472140342844,4,1,0,50,0,0
232800,-111.303294800133,4,1,0,50,0,0
232971,-105.464428430257,4,1,0,50,0,0
233143,-71.5344935751296,4,1,0,69,0,0
233464,-83.3333333333333,4,1,0,69,0,0
233521,-85.6643311714512,4,1,0,69,0,0
233578,-88.1294868925014,4,1,0,69,0,0
233635,-90.7407256172865,4,1,0,69,0,0
233692,-93.5114289668483,4,1,0,69,0,0
233750,-96.4566644320873,4,1,0,69,0,0
233807,-99.5934594983278,4,1,0,69,0,0
235371,-124.365425416811,4,1,0,69,0,0
235543,-117.647058823529,4,1,0,69,0,0
235714,-111.111111111111,4,1,0,69,0,0
235864,-90.9090909090909,4,1,0,69,0,0
235921,-92.3077207100679,4,1,0,69,0,0
235978,-93.7499707031342,4,1,0,69,0,0
236035,-95.2380952380952,4,1,0,69,0,0
236207,-83.3333333333333,4,1,0,69,0,0
236264,-84.5070660583285,4,1,0,69,0,0
236321,-85.7142612244968,4,1,0,69,0,0
236378,-86.9565217391304,4,1,0,69,0,0
236550,-76.9230769230769,4,1,0,69,0,0
236664,-78.9473476454348,4,1,0,69,0,0
236778,-81.0811029948927,4,1,0,69,0,0
236892,-83.3333333333333,4,1,0,69,0,0
237007,-85.7142612244968,4,1,0,69,0,0
237121,-88.2353200692118,4,1,0,69,0,0
237235,-90.9090909090909,4,1,0,69,0,0
237292,-92.2509225092251,4,1,0,69,0,0
237350,-93.6329588014981,4,1,0,69,0,0
237407,-95.0570342205323,4,1,0,69,0,0
237921,-95.2380952380952,4,1,0,69,0,0
238035,-93.0455867547746,4,1,0,69,0,0
238150,-90.9516728286425,4,1,0,69,0,0
238264,-88.9500074273256,4,1,0,69,0,0
238378,-87.0345501053553,4,1,0,69,0,0
238492,-85.1998490258675,4,1,0,69,0,0
238607,-71.5075361792379,4,1,0,69,0,0
238950,-83.3333333333333,4,1,0,69,0,0
239007,-85.7142612244968,4,1,0,69,0,0
239064,-88.2353200692118,4,1,0,69,0,0
239121,-90.9090909090909,4,1,0,69,0,0
239178,-93.7499707031342,4,1,0,69,0,0
239235,-96.774224765879,4,1,0,69,0,0
239292,-100,4,1,0,69,0,0
239978,-83.3333333333333,4,1,0,69,0,0
240321,-90.8239640845716,4,1,0,69,0,0
240407,-92.9118480259484,4,1,0,69,0,0
240492,-95.0980746443807,4,1,0,69,0,0
240578,-97.3895699666149,4,1,0,69,0,0
240664,-99.7942243094739,4,1,0,69,0,0
241328,-90.9090909090909,4,1,0,69,0,0
241385,-92.3077207100679,4,1,0,69,0,0
241442,-93.7499707031342,4,1,0,69,0,0
241499,-95.2380952380952,4,1,0,69,0,0
241671,-83.3333333333333,4,1,0,69,0,0
241728,-84.5070660583285,4,1,0,69,0,0
241785,-85.7142612244968,4,1,0,69,0,0
241842,-86.9565217391304,4,1,0,69,0,0
242014,-76.9230769230769,4,1,0,69,0,0
242128,-78.9473476454348,4,1,0,69,0,0
242242,-81.0811029948927,4,1,0,69,0,0
242356,-83.3333333333333,4,1,0,69,0,0
242471,-85.7142612244968,4,1,0,69,0,0
242585,-88.2353200692118,4,1,0,69,0,0
242699,-90.9090909090909,4,1,0,69,0,0
243064,-83.3333333333333,4,1,0,69,0,0
243407,-71.4285714285714,4,1,0,69,0,0
243578,-76.9230769230769,4,1,0,69,0,0
243750,-83.3333333333333,4,1,0,69,0,0
243921,-90.9090909090909,4,1,0,69,0,0
244092,-71.4285714285714,4,1,0,69,0,0
244414,-83.3333333333333,4,1,0,69,0,0
244471,-85.6643311714512,4,1,0,69,0,0
244528,-88.1294868925014,4,1,0,69,0,0
244585,-90.7407256172865,4,1,0,69,0,0
244642,-93.5114289668483,4,1,0,69,0,0
244700,-96.4566644320873,4,1,0,69,0,0
244757,-99.5934594983278,4,1,0,69,0,0
246314,-124.365425416811,4,1,0,69,0,0
246486,-117.647058823529,4,1,0,69,0,0
246657,-111.111111111111,4,1,0,69,0,0
246814,-90.9090909090909,4,1,0,69,0,0
246871,-92.3077207100679,4,1,0,69,0,0
246928,-93.7499707031342,4,1,0,69,0,0
246985,-95.2380952380952,4,1,0,69,0,0
247157,-83.3333333333333,4,1,0,69,0,0
247214,-84.5070660583285,4,1,0,69,0,0
247271,-85.7142612244968,4,1,0,69,0,0
247328,-86.9565217391304,4,1,0,69,0,0
247500,-76.9230769230769,4,1,0,69,0,0
247614,-78.9473476454348,4,1,0,69,0,0
247728,-81.0811029948927,4,1,0,69,0,0
247842,-83.3333333333333,4,1,0,69,0,0
247957,-85.7142612244968,4,1,0,69,0,0
248071,-88.2353200692118,4,1,0,69,0,0
248185,-90.9090909090909,4,1,0,69,0,0
248242,-92.2509225092251,4,1,0,69,0,0
248300,-93.6329588014981,4,1,0,69,0,0
248357,-95.0570342205323,4,1,0,69,0,0
248871,-95.2380952380952,4,1,0,69,0,0
248985,-93.0455867547746,4,1,0,69,0,0
249100,-90.9516728286425,4,1,0,69,0,0
249214,-88.9500074273256,4,1,0,69,0,0
249328,-87.0345501053553,4,1,0,69,0,0
249442,-85.1998490258675,4,1,0,69,0,0
249557,-71.5075361792379,4,1,0,69,0,0
249921,-83.3333333333333,4,1,0,69,0,0
249978,-84.2696392501013,4,1,0,69,0,0
250035,-85.227296939573,4,1,0,69,0,0
250092,-86.2068965517241,4,1,0,69,0,0
250150,-87.2092769740474,4,1,0,69,0,0
250207,-88.2353200692118,4,1,0,69,0,0
250264,-89.2857142857143,4,1,0,69,0,0
250378,-91.4634425193422,4,1,0,69,0,0
250435,-92.5925925925926,4,1,0,69,0,0
250606,-96.1538461538461,4,1,0,69,0,0
250721,-98.6842429882378,4,1,0,69,0,0
250778,-100,4,1,0,69,0,0
250950,-83.3333333333333,4,1,0,69,0,0
251064,-85.7142612244968,4,1,0,69,0,0
251121,-86.9565217391304,4,1,0,69,0,0
251292,-90.9090909090909,4,1,0,69,0,0
251378,-93.0232558139535,4,1,0,69,0,0
251464,-95.2380952380952,4,1,0,69,0,0
251549,-97.5609756097561,4,1,0,69,0,0
251635,-100,4,1,0,69,0,0
252321,-90.9090909090909,4,1,0,69,0,0
252492,-95.2380952380952,4,1,0,69,0,0
252664,-100,4,1,0,69,0,0
252750,-97.6095423088561,4,1,0,69,0,0
252835,-95.3307022059524,4,1,0,69,0,0
252921,-93.1559271856011,4,1,0,69,0,0
253007,-91.0780821506086,4,1,0,69,0,0
253178,-95.2380952380952,4,1,0,69,0,0
253350,-100,4,1,0,69,0,0
253435,-97.5609756097561,4,1,0,69,0,0
253521,-95.2380952380952,4,1,0,69,0,0
253607,-93.0232558139535,4,1,0,69,0,0
253692,-90.9090909090909,4,1,0,69,0,0
253864,-88.8991616809054,4,1,0,69,0,0
254035,-86.9761102717917,4,1,0,69,0,0
254207,-85.1345679548378,4,1,0,69,0,0
254378,-83.3693210902706,4,1,0,69,0,0
254550,-81.6758579232116,4,1,0,69,0,0
254721,-80.049758930151,4,1,0,69,0,0
254892,-78.4872061929545,4,1,0,69,0,0
255064,-76.9230769230769,4,1,0,69,0,0
256200,-90.9090909090909,4,1,0,40,0,0
257571,-111.111111111111,4,1,0,40,0,0
258943,-125,4,1,0,40,0,0
260571,-142.857142857143,4,1,0,40,0,0
260914,-140.350877192982,4,1,0,40,0,0
261085,-139.130434782609,4,1,0,40,0,0
261428,-136.752136752137,4,1,0,40,0,0
261942,-133.333333333333,4,1,0,40,0,0
262285,-131.147540983607,4,1,0,40,0,0
262456,-130.081300813008,4,1,0,40,0,0
262799,-128,4,1,0,40,0,0
263314,-125,4,1,0,40,0,0
263656,-123.076923076923,4,1,0,40,0,0
263828,-122.137404580153,4,1,0,40,0,0
264171,-120.300751879699,4,1,0,40,0,0
264685,-117.647058823529,4,1,0,40,0,0
265028,-115.942028985507,4,1,0,40,0,0
265199,-115.107913669065,4,1,0,40,0,0
265542,-113.475177304965,4,1,0,40,0,0
266056,-111.111111111111,4,1,0,50,0,0
266399,-109.58904109589,4,1,0,50,0,0
266571,-108.843537414966,4,1,0,50,0,0
266743,-108.108108108108,4,1,0,50,0,0
266914,-107.38255033557,4,1,0,50,0,0
267085,-106.666666666667,4,1,0,50,0,0
267428,-105.263157894737,4,1,0,50,0,0
267771,-103.896103896104,4,1,0,50,0,0
267942,-103.225806451613,4,1,0,50,0,0
268114,-102.564102564103,4,1,0,50,0,0
268285,-101.910828025478,4,1,0,50,0,0
268799,-100,4,1,0,50,0,0
269142,-98.7654320987654,4,1,0,50,0,0
269314,-98.159509202454,4,1,0,50,0,0
269486,-97.5609756097561,4,1,0,50,0,0
269656,-96.969696969697,4,1,0,50,0,0
269828,-96.3855421686747,4,1,0,50,0,0
270171,-95.2380952380952,4,1,0,50,0,0
270514,-94.1176470588235,4,1,0,50,0,0
270685,-93.5672514619883,4,1,0,50,0,0
270857,-93.0232558139535,4,1,0,50,0,0
271028,-92.485549132948,4,1,0,50,0,0
271199,-91.9540229885058,4,1,0,50,0,0
271542,-90.9090909090909,4,1,0,50,0,0
271886,-89.8876404494382,4,1,0,50,0,0
272057,-89.3854748603352,4,1,0,50,0,0
272229,-88.8888888888889,4,1,0,50,0,0
272399,-88.3977900552486,4,1,0,50,0,0
272571,-87.9120879120879,4,1,0,50,0,0
272743,-87.431693989071,4,1,0,50,0,0
272914,-86.9565217391304,4,1,0,50,0,0
273086,-86.4864864864865,4,1,0,50,0,0
273257,-86.0215053763441,4,1,0,50,0,0
273428,-85.5614973262032,4,1,0,50,0,0
273600,-85.1063829787234,4,1,0,50,0,0
273771,-84.6560846560847,4,1,0,50,0,0
273943,-84.2105263157895,4,1,0,50,0,0
274114,-83.7696335078534,4,1,0,50,0,0
274285,-83.3333333333333,4,1,0,30,0,0
274457,-83.3333333333333,4,1,0,30,0,0
274628,-85.5855894407923,4,1,0,30,0,0
274799,-87.9629711076825,4,1,0,30,0,0
274971,-90.4762034013624,4,1,0,30,0,0
275143,-93.1372731641712,4,1,0,30,0,0
275314,-95.9596201918233,4,1,0,30,0,0
275486,-98.9583642578222,4,1,0,30,0,0
275656,-102.150576078174,4,1,0,30,0,0
275743,-103.825125265014,4,1,0,30,0,0
275829,-105.555602469157,4,1,0,30,0,0
275914,-107.344626703693,4,1,0,30,0,0
275999,-109.19545877926,4,1,0,30,0,0
276086,-111.111111111111,4,1,0,30,0,0
276171,-113.095177508536,4,1,0,30,0,0
276257,-115.151522130395,4,1,0,30,0,0
276343,-117.283892699312,4,1,0,30,0,0
276429,-119.496870376965,4,1,0,30,0,0
276514,-121.794817143351,4,1,0,30,0,0
276600,-124.183030885562,4,1,0,30,0,0
276685,-126.66661600002,4,1,0,30,0,0
276771,-129.251735850812,4,1,0,30,0,0
276857,-131.944398630417,4,1,0,30,0,0
276943,-134.751820833979,4,1,0,30,0,0
277029,-137.681119512719,4,1,0,40,0,0
277114,-140.740803292209,4,1,0,40,0,0
277200,-143.939361225903,4,1,0,40,0,0
277286,-147.286901628551,4,1,0,40,0,0
277371,-150.793626858154,4,1,0,40,0,0
277457,-154.47164518481,4,1,0,40,0,0
277543,-158.33332013889,4,1,0,40,0,0
277629,-162.393287311076,4,1,0,40,0,0
277714,-166.666666666667,4,1,0,40,0,0
279771,-166.666666666667,4,1,0,20,0,0
279857,-160,4,1,0,20,0,0
279943,-153.846153846154,4,1,0,20,0,0
280029,-148.148148148148,4,1,0,20,0,0
280114,-142.857142857143,4,1,0,25,0,0
280200,-137.931034482759,4,1,0,25,0,0
280285,-133.333333333333,4,1,0,25,0,0
280371,-129.032258064516,4,1,0,25,0,0
280456,-125,4,1,0,30,0,0
280543,-121.212121212121,4,1,0,30,0,0
280628,-117.647058823529,4,1,0,30,0,0
280714,-114.285714285714,4,1,0,30,0,0
280799,-111.111111111111,4,1,0,35,0,0
280886,-108.108108108108,4,1,0,35,0,0
280971,-105.263157894737,4,1,0,35,0,0
281057,-102.564102564103,4,1,0,35,0,0
281142,-100,4,1,0,40,0,0
281829,-71.4285714285714,4,1,0,69,0,0
282000,-76.9230769230769,4,1,0,69,0,0
282171,-83.3333333333333,4,1,0,69,0,0
282343,-90.9090909090909,4,1,0,69,0,0
282522,-71.4285714285714,4,1,0,69,0,1
282600,-83.3333333333333,4,1,0,69,0,1
292114,-83.3333333333333,4,1,0,40,0,1
292200,-84.2059171497981,4,1,0,40,0,1
292371,-86.0071523547898,4,1,0,40,0,1
292457,-86.936942027839,4,1,0,40,0,1
292629,-88.8581637105037,4,1,0,40,0,1
292714,-89.8510539079368,4,1,0,40,0,1
292800,-90.8663011418259,4,1,0,40,0,1
292886,-91.9047535895699,4,1,0,40,0,1
292971,-92.9672160409353,4,1,0,40,0,1
293143,-95.1676711614358,4,1,0,40,0,1
293229,-96.3073823460863,4,1,0,40,0,1
293314,-97.474722367622,4,1,0,40,0,1
293486,-71.3757533710768,4,1,0,69,0,1
293571,-83.2614509473488,4,1,0,69,0,1
303086,-83.3333333333333,4,1,0,40,0,1
303257,-85.1063829787234,4,1,0,40,0,1
303343,-86.0215053763441,4,1,0,40,0,1
303429,-86.9565217391304,4,1,0,40,0,1
303514,-87.9120879120879,4,1,0,40,0,1
303600,-88.8888888888889,4,1,0,40,0,1
303771,-90.9090909090909,4,1,0,40,0,1
303943,-93.0232558139535,4,1,0,40,0,1
304114,-83.3333333333333,4,1,0,40,0,1
304171,-84.4827921224865,4,1,0,40,0,1
304229,-85.6643311714512,4,1,0,40,0,1
304286,-86.8794634324339,4,1,0,69,0,1
304371,-88.7680853877967,4,1,0,69,0,1
304457,-71.3245903650464,4,1,0,69,0,1
304543,-83.1918378824017,4,1,0,69,0,1
314057,-83.3333333333333,4,1,0,69,0,1
314229,-81.6413170377265,4,1,0,69,0,1
314400,-80.016579435259,4,1,0,69,0,1
314486,-79.2282534289988,4,1,0,69,0,1
314571,-78.4553091099951,4,1,0,69,0,1
314657,-77.6972402717228,4,1,0,69,0,1
314743,-76.9537400287191,4,1,0,50,0,1
314829,-76.2243343138324,4,1,0,50,0,1
314914,-75.5086261054463,4,1,0,50,0,1
315000,-74.806177194888,4,1,0,50,0,1
315086,-74.1167323711499,4,1,0,50,0,1
315171,-73.4398799111084,4,1,0,50,0,1
315257,-72.7752779469803,4,1,0,50,0,1
315429,-71.4814677146803,4,1,0,69,0,1
315514,-83.3333333333333,4,1,0,69,0,1
325029,-83.3333333333333,4,1,0,40,0,1
325200,-85.1063829787234,4,1,0,40,0,1
325286,-86.0215053763441,4,1,0,40,0,1
325457,-87.9120879120879,4,1,0,40,0,1
325543,-88.8888888888889,4,1,0,40,0,1
325714,-90.9090909090909,4,1,0,50,0,1
325771,-88.9092787501489,4,1,0,50,0,1
325829,-86.9954805847836,4,1,0,50,0,1
325886,-85.1624089720301,4,1,0,50,0,1
325971,-82.5532055409711,4,1,0,50,0,1
326057,-80.0990665254787,4,1,0,50,0,1
326114,-78.5425024897973,4,1,0,50,0,1
326171,-77.045282594392,4,1,0,50,0,1
326229,-75.6040765718087,4,1,0,50,0,1
326286,-74.2157436825704,4,1,0,50,0,1
326343,-72.8775329497546,4,1,0,60,0,1
326408,-71.5867269617806,4,1,0,60,0,0
326486,-83.5486800561781,4,1,0,60,0,0
333257,-83.3333333333333,4,1,0,60,0,0
333343,-83.7673880155673,4,1,0,60,0,0
333514,-84.6491335737933,4,1,0,60,0,0
333600,-85.0969679950303,4,1,0,60,0,0
333686,-85.5496393227206,4,1,0,60,0,0
333771,-86.0071523547898,4,1,0,60,0,0
333943,-86.936942027839,4,1,0,60,0,0
334029,-87.4094547310804,4,1,0,60,0,0
334114,-87.8870545884074,4,1,0,60,0,0
334200,-88.3699803641904,4,1,0,60,0,0
334286,-88.8581637105037,4,1,0,60,0,0
334371,-89.3518506108539,4,1,0,60,0,0
334457,-89.8510539079368,4,1,0,60,0,0
334543,-90.3557849387749,4,1,0,60,0,0
334629,-90.8663011418259,4,1,0,60,0,0
334714,-89.3854748603352,4,1,0,60,0,0
334800,-87.9120879120879,4,1,0,60,0,0
334886,-86.4864864864865,4,1,0,60,0,0
334971,-85.1063829787234,4,1,0,60,0,0
335057,-83.7696335078534,4,1,0,60,0,0
335143,-82.4742268041237,4,1,0,60,0,0
335229,-81.2182741116751,4,1,0,60,0,0
335314,-80,4,1,0,60,0,0
335400,-78.8177339901478,4,1,0,60,0,0
335486,-77.6699029126214,4,1,0,60,0,0
335571,-76.555023923445,4,1,0,60,0,0
335657,-75.4716981132076,4,1,0,60,0,0
335743,-74.4186046511628,4,1,0,60,0,0
335829,-73.394495412844,4,1,0,60,0,0
335914,-72.3981900452489,4,1,0,60,0,0
336000,-71.4285714285714,4,1,0,60,0,0
336171,-78.4313725490196,4,1,0,60,0,0
336343,-86.9565217391304,4,1,0,60,0,0
336514,-95.2380952380952,4,1,0,60,0,0
336686,-99.5892937525644,4,1,0,60,0,0
336771,-95.2380952380952,4,1,0,60,0,0
336857,-90.9090909090909,4,1,0,60,0,0
336943,-86.9565217391304,4,1,0,60,0,0
337029,-83.3333333333333,4,1,0,60,0,0
337086,-81.0811029948927,4,1,0,60,0,0
337143,-78.9473476454348,4,1,0,60,0,0
337200,-76.9230769230769,4,1,0,60,0,0
337286,-74.0740740740741,4,1,0,60,0,0
337371,-71.4285714285714,4,1,0,60,0,0
337457,-83.3333333333333,4,1,0,60,0,0
346971,-71.4285714285714,4,1,0,60,0,0
347229,-83.3333333333333,4,1,0,60,0,0
347486,-100,4,1,0,60,0,0
347657,-100,4,1,0,60,0,0
347743,-95.2848301786114,4,1,0,60,0,0
347829,-90.9943774574169,4,1,0,60,0,0
347914,-87.0735789156553,4,1,0,60,0,0
348000,-83.4767742570985,4,1,0,60,0,0
348086,-80.165268717989,4,1,0,60,0,0
348171,-77.1065311545084,4,1,0,60,0,0
348257,-74.272574406265,4,1,0,60,0,0
348343,-71.6396012253237,4,1,0,60,0,0
348429,-83.6207098394817,4,1,0,60,0,0
359314,-83.3333333333333,4,1,0,60,0,0
359400,-82.478648339911,4,1,0,60,0,0
359486,-81.6413170377265,4,1,0,60,0,0
359571,-80.8207508894324,4,1,0,60,0,0
359657,-80.016579435259,4,1,0,60,0,0
359743,-79.2282534289988,4,1,0,60,0,0
359829,-78.4553091099951,4,1,0,60,0,0
359914,-77.6972402717228,4,1,0,60,0,0
360000,-76.9537400287191,4,1,0,60,0,0
360086,-76.2243343138324,4,1,0,60,0,0
360171,-75.5086261054463,4,1,0,60,0,0
360257,-74.806177194888,4,1,0,60,0,0
360343,-74.1167323711499,4,1,0,60,0,0
360429,-73.4398799111084,4,1,0,60,0,0
360514,-72.7752779469803,4,1,0,60,0,0
360600,-72.1225968750721,4,1,0,60,0,0
360693,-71.4814677146803,4,1,0,60,0,1
360771,-83.4053399434845,4,1,0,60,0,1
371143,-100.103707440908,4,1,0,60,0,1
371571,-71.4814677146803,4,1,0,60,0,1
371743,-83.4053399434845,4,1,0,60,0,1
379886,-83.3333333333333,4,1,0,50,0,1
380057,-85.1016752264768,4,1,0,50,0,1
380143,-86.0143282668027,4,1,0,50,0,1
380229,-86.9466929825324,4,1,0,50,0,1
380400,-88.873484151636,4,1,0,50,0,1
380571,-90.887608383473,4,1,0,50,0,1
380743,-92.9951410038825,4,1,0,50,0,1
380829,-94.0860341513487,4,1,0,50,0,1
380914,-95.2027342225269,4,1,0,50,0,1
381086,-97.5176872705287,4,1,0,50,0,1
381257,-99.9481269221274,4,1,0,50,0,1
381429,-102.50270607144,4,1,0,50,0,1
381600,-105.191295630669,4,1,0,50,0,1
381771,-108.024724698989,4,1,0,50,0,1
381943,-111.015021442551,4,1,0,50,0,1
382114,-114.17558377976,4,1,0,50,0,1
382286,-117.521380077071,4,1,0,50,0,1
382457,-121.069186197144,4,1,0,50,0,1
382636,-125,4,1,0,50,0,0
382979,-123.076923076923,4,1,0,40,0,0
383322,-121.212121212121,4,1,0,40,0,0
383665,-119.402985074627,4,1,0,40,0,0
384008,-117.647058823529,4,1,0,40,0,0
384351,-115.942028985507,4,1,0,40,0,0
384694,-114.285714285714,4,1,0,40,0,0
385037,-112.676056338028,4,1,0,40,0,0
385379,-111.111111111111,4,1,0,40,0,0
385722,-109.58904109589,4,1,0,40,0,0
386065,-108.108108108108,4,1,0,40,0,0
386408,-106.666666666667,4,1,0,40,0,0
386693,-105.263157894737,4,1,0,40,0,0
387094,-103.896103896104,4,1,0,40,0,0
387437,-102.564102564103,4,1,0,40,0,0
387779,-101.26582278481,4,1,0,40,0,0
388122,-100,4,1,0,50,0,0
389408,-83.3333333333333,4,1,0,50,0,0
389609,-100,4,1,0,50,0,0
390779,-90.9090909090909,4,1,0,50,0,0
390951,-100,4,1,0,50,0,0
393522,-83.3333333333333,4,1,0,50,0,0
393763,-100,4,1,0,50,0,0
396265,-83.3333333333333,4,1,0,50,0,0
396456,-100,4,1,0,50,0,0
399008,-83.3333333333333,4,1,0,50,0,0
399209,-100,4,1,0,50,0,0
400465,-92.5925925925926,4,1,0,60,0,0
400637,-101.694949727102,4,1,0,60,0,0
400722,-102.564102564103,4,1,0,60,0,0
400808,-103.448240190262,4,1,0,60,0,0
401151,-107.142895408177,4,1,0,60,0,0
401322,-109.090869421502,4,1,0,60,0,0
401494,-111.111111111111,4,1,0,60,0,0
401665,-113.207589889657,4,1,0,60,0,0
401836,-93.7499707031342,4,1,0,60,0,0
402179,-120.000048000019,4,1,0,60,0,0
402522,-125,4,1,0,60,0,0
402865,-130.434725897945,4,1,0,60,0,0
403037,-133.333333333333,4,1,0,60,0,0
403208,-120.000048000019,4,1,0,60,0,0
403551,-142.857142857143,4,1,0,60,0,0
403894,-149.999925000038,4,1,0,60,0,0
404237,-157.894819944642,4,1,0,60,0,0
404408,-162.162074506987,4,1,0,60,0,0
404579,-166.666666666667,4,1,0,60,0,0

[HitObjects]
318,93,8,5,0,0:0:0:0:
318,93,351,1,8,0:0:0:0:
318,93,522,1,0,0:0:0:0:
318,93,865,1,8,0:0:0:0:
324,90,1379,1,0,0:0:0:0:
325,90,1722,1,8,0:0:0:0:
325,89,1894,1,0,0:0:0:0:
324,90,2237,1,8,0:0:0:0:
325,90,2751,1,0,0:0:0:0:
330,84,3094,1,8,0:0:0:0:
330,85,3265,1,0,0:0:0:0:
325,90,3608,1,8,0:0:0:0:
318,83,4122,1,0,0:0:0:0:
317,83,4465,1,0,0:0:0:0:
317,83,4637,1,8,0:0:0:0:
312,91,4979,1,0,0:0:0:0:
317,83,5494,1,0,0:0:0:0:
317,78,5837,1,8,0:0:0:0:
317,83,6008,1,0,0:0:0:0:
317,83,6351,1,8,0:0:0:0:
317,78,6865,1,0,0:0:0:0:
319,74,7208,1,8,0:0:0:0:
319,74,7379,1,0,0:0:0:0:
317,78,7722,1,8,0:0:0:0:
319,74,8237,1,0,0:0:0:0:
317,78,8579,1,8,0:0:0:0:
317,78,8751,1,0,0:0:0:0:
319,74,9094,1,8,0:0:0:0:
317,78,9608,1,0,0:0:0:0:
319,74,9951,1,0,0:0:0:0:
319,74,10122,1,8,0:0:0:0:
317,78,10465,1,0,0:0:0:0:
319,74,10979,1,8,0:0:0:0:
317,78,11322,1,0,0:0:0:0:
317,78,11494,1,8,0:0:0:0:
319,74,11837,1,0,0:0:0:0:
327,71,12008,1,0,0:0:0:0:
317,78,12351,1,8,0:0:0:0:
319,74,12694,1,0,0:0:0:0:
319,74,12865,1,8,0:0:0:0:
317,78,13208,1,0,0:0:0:0:
328,87,13722,1,8,0:0:0:0:
324,85,14065,1,0,0:0:0:0:
320,85,14237,1,8,0:0:0:0:
320,85,14579,1,0,0:0:0:0:
321,84,14751,1,0,0:0:0:0:
324,85,15094,1,0,0:0:0:0:
320,85,15437,1,0,0:0:0:0:
320,85,15608,1,8,0:0:0:0:
324,85,15951,1,0,0:0:0:0:
317,88,16122,1,0,0:0:0:0:
320,85,16465,1,8,0:0:0:0:
324,85,16808,1,0,0:0:0:0:
324,85,16979,1,8,0:0:0:0:
320,85,17322,1,0,0:0:0:0:
320,85,17494,1,0,0:0:0:0:
324,85,17837,1,8,0:0:0:0:
320,85,18179,1,0,0:0:0:0:
320,85,18351,1,8,0:0:0:0:
320,76,18694,1,0,0:0:0:0:
320,76,19208,1,8,0:0:0:0:
320,76,19551,1,0,0:0:0:0:
320,76,19722,1,8,0:0:0:0:
320,76,20065,1,0,0:0:0:0:
309,78,20237,1,0,0:0:0:0:
320,76,20579,1,0,0:0:0:0:
320,76,20922,1,0,0:0:0:0:
320,76,21094,1,8,0:0:0:0:
320,76,21437,1,0,0:0:0:0:
308,74,21608,1,0,0:0:0:0:
333,118,24694,1,0,0:0:0:0:
333,118,24865,1,0,0:0:0:0:
333,118,25037,1,0,0:0:0:0:
333,118,25208,1,0,0:0:0:0:
333,118,25379,1,0,0:0:0:0:
333,118,25551,1,0,0:0:0:0:
333,118,25722,1,0,0:0:0:0:
333,118,25894,1,0,0:0:0:0:
333,118,26065,1,0,0:0:0:0:
335,111,26408,1,0,0:0:0:0:
343,121,26751,1,8,0:0:0:0:
335,111,27094,1,8,0:0:0:0:
335,111,27437,1,4,0:0:0:0:
367,112,27608,1,0,0:0:0:0:
367,124,27779,1,0,0:0:0:0:
366,123,27865,1,0,0:0:0:0:
361,121,27951,1,0,0:0:0:0:
363,121,28037,1,0,0:0:0:0:
344,128,28294,1,0,0:0:0:0:
341,124,28551,1,0,0:0:0:0:
341,124,28722,1,0,0:0:0:0:
340,126,28808,1,0,0:0:0:0:
353,109,28979,1,0,0:0:0:0:
353,109,29151,1,0,0:0:0:0:
353,109,29237,1,0,0:0:0:0:
351,107,29322,1,0,0:0:0:0:
350,108,29408,1,0,0:0:0:0:
350,108,29665,1,0,0:0:0:0:
353,109,29922,1,0,0:0:0:0:
353,109,30094,1,0,0:0:0:0:
353,109,30179,1,0,0:0:0:0:
351,107,30351,1,0,0:0:0:0:
350,108,30522,1,0,0:0:0:0:
350,108,30608,1,0,0:0:0:0:
350,108,30694,1,0,0:0:0:0:
353,109,30779,1,0,0:0:0:0:
353,109,31037,1,0,0:0:0:0:
351,107,31294,1,0,0:0:0:0:
350,108,31465,1,0,0:0:0:0:
350,108,31551,1,0,0:0:0:0:
342,114,31722,1,0,0:0:0:0:
342,114,31894,1,0,0:0:0:0:
342,114,31979,1,0,0:0:0:0:
342,114,32065,1,0,0:0:0:0:
342,114,32151,1,0,0:0:0:0:
341,114,32237,1,8,0:0:0:0:
343,114,32322,1,8,0:0:0:0:
341,115,32408,1,0,0:0:0:0:
350,108,32494,1,0,0:0:0:0:
342,114,32579,1,8,0:0:0:0:
342,114,32665,1,0,0:0:0:0:
342,114,32751,1,8,0:0:0:0:
342,114,32837,1,0,0:0:0:0:
342,114,32922,1,12,0:0:0:0:
332,114,33094,1,8,0:0:0:0:
341,114,33265,1,0,0:0:0:0:
341,115,33351,1,0,0:0:0:0:
343,111,33437,1,0,0:0:0:0:
349,120,33522,1,0,0:0:0:0:
373,112,33608,1,8,0:0:0:0:
332,106,33779,1,8,0:0:0:0:
342,114,33951,1,0,0:0:0:0:
341,114,34122,1,0,0:0:0:0:
336,108,34294,1,8,0:0:0:0:
331,114,34465,1,8,0:0:0:0:
335,115,34637,1,0,0:0:0:0:
337,113,34722,1,0,0:0:0:0:
335,115,34808,1,0,0:0:0:0:
342,114,34894,1,0,0:0:0:0:
341,114,34979,1,8,0:0:0:0:
336,108,35151,1,8,0:0:0:0:
336,108,35322,1,0,0:0:0:0:
338,111,35494,1,0,0:0:0:0:
335,115,35665,1,8,0:0:0:0:
335,115,35837,1,0,0:0:0:0:
336,108,36008,1,8,0:0:0:0:
336,108,36094,1,0,0:0:0:0:
336,108,36179,1,0,0:0:0:0:
336,108,36265,1,0,0:0:0:0:
336,108,36351,1,8,0:0:0:0:
338,111,36522,1,0,0:0:0:0:
335,115,36694,1,8,0:0:0:0:
335,115,36865,1,8,0:0:0:0:
336,108,37037,1,4,0:0:0:0:
343,103,37722,1,0,0:0:0:0:
342,104,37808,1,8,0:0:0:0:
342,104,37894,1,0,0:0:0:0:
342,104,37979,1,0,0:0:0:0:
342,104,38065,1,8,0:0:0:0:
343,103,38237,1,0,0:0:0:0:
343,103,38408,1,12,0:0:0:0:
334,104,38751,1,8,0:0:0:0:
342,104,38808,1,8,0:0:0:0:
342,104,38865,1,8,0:0:0:0:
342,104,38922,1,0,0:0:0:0:
342,104,38979,1,0,0:0:0:0:
336,98,39037,1,0,0:0:0:0:
343,103,39094,1,8,0:0:0:0:
353,101,39265,1,0,0:0:0:0:
343,103,39437,1,8,0:0:0:0:
344,103,39551,1,0,0:0:0:0:
355,101,39608,1,8,0:0:0:0:
356,102,39779,1,0,0:0:0:0:
349,101,39951,1,0,0:0:0:0:
349,101,40122,1,8,0:0:0:0:
353,101,40294,1,0,0:0:0:0:
343,103,40465,1,8,0:0:0:0:
347,88,40579,1,0,0:0:0:0:
347,88,40637,1,0,0:0:0:0:
347,89,40808,1,8,0:0:0:0:
350,93,40922,1,0,0:0:0:0:
350,93,40979,1,8,0:0:0:0:
348,93,41151,1,0,0:0:0:0:
348,94,41208,1,0,0:0:0:0:
343,93,41265,1,0,0:0:0:0:
342,92,41322,1,0,0:0:0:0:
343,103,41494,1,8,0:0:0:0:
341,100,41551,1,8,0:0:0:0:
341,99,41608,1,8,0:0:0:0:
341,99,41665,1,8,0:0:0:0:
347,89,41837,1,8,0:0:0:0:
344,87,41951,1,0,0:0:0:0:
348,93,42065,1,0,0:0:0:0:
345,86,42179,1,8,0:0:0:0:
342,78,42294,1,8,0:0:0:0:
344,86,42408,1,8,0:0:0:0:
330,86,42522,1,0,0:0:0:0:
341,100,42579,1,0,0:0:0:0:
341,99,42637,1,0,0:0:0:0:
341,99,42694,1,0,0:0:0:0:
347,89,42865,1,0,0:0:0:0:
344,87,42922,1,0,0:0:0:0:
335,90,43037,1,0,0:0:0:0:
335,90,43094,1,0,0:0:0:0:
336,89,43208,1,8,0:0:0:0:
315,92,43322,1,0,0:0:0:0:
323,90,43437,1,0,0:0:0:0:
323,90,43551,1,0,0:0:0:0:
324,90,43665,1,8,0:0:0:0:
324,90,43779,1,8,0:0:0:0:
324,90,43894,1,4,0:0:0:0:
315,66,44237,1,8,0:0:0:0:
315,66,44294,1,8,0:0:0:0:
316,66,44351,1,8,0:0:0:0:
316,66,44408,1,0,0:0:0:0:
315,66,44465,1,0,0:0:0:0:
305,65,44522,1,0,0:0:0:0:
305,65,44579,1,8,0:0:0:0:
329,76,44751,1,0,0:0:0:0:
321,63,44922,1,8,0:0:0:0:
302,75,45037,1,0,0:0:0:0:
319,80,45094,1,8,0:0:0:0:
304,76,45265,1,0,0:0:0:0:
320,71,45608,1,0,0:0:0:0:
315,69,45694,1,8,0:0:0:0:
313,71,45779,1,8,0:0:0:0:
311,72,45865,1,0,0:0:0:0:
315,69,45951,1,8,0:0:0:0:
314,68,46122,1,0,0:0:0:0:
311,69,46294,1,8,0:0:0:0:
320,59,46408,1,0,0:0:0:0:
317,55,46465,1,8,0:0:0:0:
360,56,46637,1,0,0:0:0:0:
345,53,46694,1,0,0:0:0:0:
343,60,46751,1,0,0:0:0:0:
345,54,46808,1,0,0:0:0:0:
345,53,46979,1,8,0:0:0:0:
345,54,47037,1,8,0:0:0:0:
345,54,47094,1,8,0:0:0:0:
345,54,47151,1,8,0:0:0:0:
344,55,47322,1,8,0:0:0:0:
344,55,47437,1,0,0:0:0:0:
345,55,47551,1,0,0:0:0:0:
345,54,47665,1,8,0:0:0:0:
343,60,47779,1,8,0:0:0:0:
345,53,47894,1,8,0:0:0:0:
345,53,48008,1,0,0:0:0:0:
344,55,48351,1,0,0:0:0:0:
345,54,48694,1,12,0:0:0:0:
345,53,48865,1,0,0:0:0:0:
345,53,49037,1,8,0:0:0:0:
344,55,49208,1,0,0:0:0:0:
344,55,49379,1,4,0:0:0:0:
334,104,49722,1,8,0:0:0:0:
342,104,49779,1,8,0:0:0:0:
342,104,49836,1,8,0:0:0:0:
342,104,49893,1,0,0:0:0:0:
342,104,49950,1,0,0:0:0:0:
336,98,50008,1,0,0:0:0:0:
343,103,50065,1,8,0:0:0:0:
353,101,50236,1,0,0:0:0:0:
343,103,50408,1,8,0:0:0:0:
344,103,50522,1,0,0:0:0:0:
355,101,50579,1,8,0:0:0:0:
356,102,50750,1,0,0:0:0:0:
349,101,50922,1,0,0:0:0:0:
349,101,51093,1,8,0:0:0:0:
353,101,51265,1,0,0:0:0:0:
343,103,51436,1,8,0:0:0:0:
347,88,51550,1,0,0:0:0:0:
347,88,51608,1,0,0:0:0:0:
347,89,51779,1,8,0:0:0:0:
350,93,51893,1,0,0:0:0:0:
350,93,51950,1,8,0:0:0:0:
348,93,52122,1,0,0:0:0:0:
348,94,52179,1,0,0:0:0:0:
343,93,52236,1,0,0:0:0:0:
342,92,52293,1,0,0:0:0:0:
343,103,52465,1,8,0:0:0:0:
341,100,52522,1,0,0:0:0:0:
341,99,52579,1,8,0:0:0:0:
341,99,52636,1,8,0:0:0:0:
347,89,52808,1,8,0:0:0:0:
344,87,52922,1,0,0:0:0:0:
348,93,53036,1,0,0:0:0:0:
345,86,53150,1,8,0:0:0:0:
342,78,53265,1,8,0:0:0:0:
344,86,53379,1,8,0:0:0:0:
330,86,53493,1,0,0:0:0:0:
341,100,53550,1,0,0:0:0:0:
341,99,53608,1,0,0:0:0:0:
341,99,53665,1,0,0:0:0:0:
347,89,53836,1,0,0:0:0:0:
344,87,53893,1,0,0:0:0:0:
335,90,54008,1,0,0:0:0:0:
335,90,54065,1,0,0:0:0:0:
336,89,54179,1,8,0:0:0:0:
315,92,54293,1,0,0:0:0:0:
323,90,54408,1,0,0:0:0:0:
323,90,54522,1,0,0:0:0:0:
324,90,54637,1,8,0:0:0:0:
324,90,54751,1,8,0:0:0:0:
324,90,54865,1,4,0:0:0:0:
315,66,55208,1,0,0:0:0:0:
316,66,55322,1,0,0:0:0:0:
315,66,55437,1,0,0:0:0:0:
305,65,55551,1,8,0:0:0:0:
313,70,55665,1,0,0:0:0:0:
329,76,55722,1,0,0:0:0:0:
321,63,55893,1,8,0:0:0:0:
302,75,56008,1,0,0:0:0:0:
319,80,56065,1,8,0:0:0:0:
304,76,56237,1,0,0:0:0:0:
328,75,56351,1,8,0:0:0:0:
329,76,56408,1,8,0:0:0:0:
320,71,56579,1,0,0:0:0:0:
315,69,56665,1,8,0:0:0:0:
313,71,56751,1,8,0:0:0:0:
311,72,56836,1,0,0:0:0:0:
315,69,56922,1,8,0:0:0:0:
314,68,57093,1,0,0:0:0:0:
311,69,57265,1,8,0:0:0:0:
320,59,57379,1,0,0:0:0:0:
317,55,57436,1,0,0:0:0:0:
360,56,57608,1,8,0:0:0:0:
344,54,57779,1,0,0:0:0:0:
345,54,57951,1,0,0:0:0:0:
353,54,58037,1,0,0:0:0:0:
353,54,58122,1,0,0:0:0:0:
353,54,58208,1,0,0:0:0:0:
352,53,58294,1,8,0:0:0:0:
349,52,58465,1,0,0:0:0:0:
344,54,58637,1,0,0:0:0:0:
344,54,58722,1,0,0:0:0:0:
345,54,58808,1,0,0:0:0:0:
353,54,58894,1,0,0:0:0:0:
353,54,58979,1,8,0:0:0:0:
353,54,59151,1,0,0:0:0:0:
349,52,59322,1,8,0:0:0:0:
344,54,59494,1,8,0:0:0:0:
344,54,59665,1,8,0:0:0:0:
353,54,59837,1,0,0:0:0:0:
353,54,60008,1,8,0:0:0:0:
349,52,60179,1,0,0:0:0:0:
344,54,60351,1,8,0:0:0:0:
353,54,60694,1,0,0:0:0:0:
353,54,60865,1,0,0:0:0:0:
349,52,61037,1,8,0:0:0:0:
353,54,61379,1,0,0:0:0:0:
353,54,61551,1,0,0:0:0:0:
353,54,61722,1,8,0:0:0:0:
353,54,62065,1,0,0:0:0:0:
353,54,62237,1,0,0:0:0:0:
353,54,62408,1,8,0:0:0:0:
347,70,62751,1,0,0:0:0:0:
347,70,62922,1,0,0:0:0:0:
347,70,63094,1,8,0:0:0:0:
347,70,63437,1,0,0:0:0:0:
347,70,63608,1,0,0:0:0:0:
347,70,63779,1,8,0:0:0:0:
340,75,64122,1,0,0:0:0:0:
335,75,64294,1,0,0:0:0:0:
335,75,64465,1,8,0:0:0:0:
340,75,64808,1,0,0:0:0:0:
340,75,64979,1,0,0:0:0:0:
335,75,65151,1,8,0:0:0:0:
329,77,65494,1,0,0:0:0:0:
329,77,65665,1,0,0:0:0:0:
329,77,65837,1,8,0:0:0:0:
329,77,66179,1,8,0:0:0:0:
329,77,66522,1,8,0:0:0:0:
329,77,66865,1,8,0:0:0:0:
329,77,67208,1,8,0:0:0:0:
329,77,67551,1,8,0:0:0:0:
329,77,67894,1,8,0:0:0:0:
329,77,68237,1,8,0:0:0:0:
321,83,68579,1,8,0:0:0:0:
321,82,68751,1,8,0:0:0:0:
321,82,68922,1,8,0:0:0:0:
321,82,69094,1,8,0:0:0:0:
321,82,69265,1,8,0:0:0:0:
332,72,69437,1,8,0:0:0:0:
331,72,69608,1,8,0:0:0:0:
331,72,69779,1,8,0:0:0:0:
331,71,69951,1,8,0:0:0:0:
331,71,70037,1,8,0:0:0:0:
329,66,70122,1,8,0:0:0:0:
331,71,70208,1,8,0:0:0:0:
332,72,70294,1,8,0:0:0:0:
331,72,70379,1,8,0:0:0:0:
331,72,70465,1,8,0:0:0:0:
331,72,70551,1,8,0:0:0:0:
331,72,70637,1,8,0:0:0:0:
331,71,70722,1,8,0:0:0:0:
331,71,70808,1,8,0:0:0:0:
331,71,70894,1,8,0:0:0:0:
329,66,70979,1,8,0:0:0:0:
331,71,71065,1,8,0:0:0:0:
332,72,71151,1,8,0:0:0:0:
328,65,71237,1,8,0:0:0:0:
325,65,71322,1,4,0:0:0:0:
325,65,71494,1,8,0:0:0:0:
327,65,71579,1,0,0:0:0:0:
331,71,71665,1,8,0:0:0:0:
324,63,71751,1,8,0:0:0:0:
331,71,71837,1,0,0:0:0:0:
333,72,71922,1,8,0:0:0:0:
331,71,72008,1,0,0:0:0:0:
332,72,72094,1,8,0:0:0:0:
328,65,72179,1,0,0:0:0:0:
330,69,72265,1,0,0:0:0:0:
325,65,72351,1,8,0:0:0:0:
325,65,72437,1,0,0:0:0:0:
321,67,72522,1,0,0:0:0:0:
324,63,72608,1,0,0:0:0:0:
319,67,72694,1,8,0:0:0:0:
333,72,72779,1,0,0:0:0:0:
333,72,72865,1,8,0:0:0:0:
318,74,72951,1,0,0:0:0:0:
332,72,73037,1,8,0:0:0:0:
328,65,73122,1,8,0:0:0:0:
338,65,73208,1,0,0:0:0:0:
339,66,73294,1,8,0:0:0:0:
339,66,73379,1,0,0:0:0:0:
338,67,73465,1,8,0:0:0:0:
338,67,73551,1,0,0:0:0:0:
338,67,73637,1,0,0:0:0:0:
333,72,73722,1,8,0:0:0:0:
333,72,73808,1,0,0:0:0:0:
336,74,73894,1,8,0:0:0:0:
332,72,73979,1,8,0:0:0:0:
336,74,74065,1,0,0:0:0:0:
333,71,74151,1,0,0:0:0:0:
329,68,74237,1,8,0:0:0:0:
339,66,74322,1,0,0:0:0:0:
338,67,74408,1,8,0:0:0:0:
338,67,74494,1,8,0:0:0:0:
338,67,74579,1,0,0:0:0:0:
335,62,74665,1,8,0:0:0:0:
335,61,74751,1,0,0:0:0:0:
335,63,74837,1,8,0:0:0:0:
322,73,74922,1,0,0:0:0:0:
322,73,75008,1,0,0:0:0:0:
322,72,75094,1,8,0:0:0:0:
322,74,75179,1,0,0:0:0:0:
322,74,75265,1,0,0:0:0:0:
322,74,75351,1,0,0:0:0:0:
325,76,75437,1,8,0:0:0:0:
316,66,75522,1,0,0:0:0:0:
325,76,75608,1,8,0:0:0:0:
316,66,75694,1,0,0:0:0:0:
324,63,75779,1,8,0:0:0:0:
315,65,75865,1,8,0:0:0:0:
313,64,75951,1,0,0:0:0:0:
313,63,76037,1,8,0:0:0:0:
313,62,76122,1,0,0:0:0:0:
312,63,76208,1,8,0:0:0:0:
314,66,76294,1,0,0:0:0:0:
313,62,76379,1,8,0:0:0:0:
316,66,76465,1,8,0:0:0:0:
316,67,76551,1,0,0:0:0:0:
316,66,76637,1,8,0:0:0:0:
316,67,76722,1,0,0:0:0:0:
315,65,76808,1,8,0:0:0:0:
313,71,76894,1,8,0:0:0:0:
325,65,76979,1,0,0:0:0:0:
327,65,77064,1,0,0:0:0:0:
331,71,77150,1,8,0:0:0:0:
324,63,77236,1,0,0:0:0:0:
331,71,77322,1,8,0:0:0:0:
333,72,77407,1,8,0:0:0:0:
331,71,77493,1,0,0:0:0:0:
332,72,77579,1,8,0:0:0:0:
328,65,77664,1,0,0:0:0:0:
330,69,77750,1,0,0:0:0:0:
325,65,77836,1,8,0:0:0:0:
325,65,77922,1,0,0:0:0:0:
321,67,78007,1,0,0:0:0:0:
324,63,78093,1,0,0:0:0:0:
319,67,78179,1,8,0:0:0:0:
333,72,78264,1,0,0:0:0:0:
333,72,78350,1,8,0:0:0:0:
318,74,78436,1,0,0:0:0:0:
332,72,78522,1,8,0:0:0:0:
328,65,78607,1,8,0:0:0:0:
338,65,78693,1,0,0:0:0:0:
339,66,78779,1,8,0:0:0:0:
339,66,78864,1,0,0:0:0:0:
338,67,78950,1,8,0:0:0:0:
338,67,79036,1,0,0:0:0:0:
338,67,79122,1,0,0:0:0:0:
333,72,79207,1,8,0:0:0:0:
333,72,79293,1,0,0:0:0:0:
336,74,79379,1,8,0:0:0:0:
332,72,79464,1,8,0:0:0:0:
336,74,79550,1,0,0:0:0:0:
333,71,79636,1,0,0:0:0:0:
329,68,79722,1,8,0:0:0:0:
339,66,79807,1,0,0:0:0:0:
338,67,79893,1,8,0:0:0:0:
338,67,79979,1,8,0:0:0:0:
338,67,80064,1,0,0:0:0:0:
335,62,80150,1,8,0:0:0:0:
335,61,80236,1,0,0:0:0:0:
335,63,80322,1,8,0:0:0:0:
322,73,80407,1,0,0:0:0:0:
322,73,80493,1,0,0:0:0:0:
322,72,80579,1,8,0:0:0:0:
322,74,80664,1,0,0:0:0:0:
322,74,80750,1,0,0:0:0:0:
322,74,80836,1,0,0:0:0:0:
325,76,80922,1,8,0:0:0:0:
338,67,81008,1,8,0:0:0:0:
342,60,81094,1,0,0:0:0:0:
322,61,81179,1,0,0:0:0:0:
322,61,81265,1,8,0:0:0:0:
319,57,81351,1,0,0:0:0:0:
320,48,81437,1,8,0:0:0:0:
337,62,81522,1,8,0:0:0:0:
313,60,81608,1,0,0:0:0:0:
314,60,81694,1,0,0:0:0:0:
337,62,81779,1,8,0:0:0:0:
348,59,81865,1,0,0:0:0:0:
319,42,81951,1,8,0:0:0:0:
320,42,82037,1,0,0:0:0:0:
337,55,82122,1,8,0:0:0:0:
335,53,82208,1,8,0:0:0:0:
337,55,82294,1,4,0:0:0:0:
401,65,82465,1,0,0:0:0:0:
353,59,82551,1,0,0:0:0:0:
345,58,82637,1,8,0:0:0:0:
341,67,82722,1,0,0:0:0:0:
342,67,82808,1,8,0:0:0:0:
347,57,82894,1,8,0:0:0:0:
342,67,82979,1,0,0:0:0:0:
342,66,83065,1,0,0:0:0:0:
342,67,83151,1,8,0:0:0:0:
341,67,83237,1,0,0:0:0:0:
341,68,83322,1,8,0:0:0:0:
341,68,83408,1,8,0:0:0:0:
341,68,83494,1,0,0:0:0:0:
340,70,83579,1,0,0:0:0:0:
341,67,83665,1,0,0:0:0:0:
342,67,83751,1,0,0:0:0:0:
339,68,83837,1,8,0:0:0:0:
342,67,83922,1,0,0:0:0:0:
328,74,84008,1,8,0:0:0:0:
334,76,84094,1,0,0:0:0:0:
328,74,84179,1,8,0:0:0:0:
328,74,84265,1,8,0:0:0:0:
327,74,84351,1,8,0:0:0:0:
327,74,84437,1,8,0:0:0:0:
327,73,84522,1,0,0:0:0:0:
327,72,84608,1,0,0:0:0:0:
327,73,84694,1,8,0:0:0:0:
346,84,84779,1,0,0:0:0:0:
345,84,84865,1,0,0:0:0:0:
345,84,84951,1,0,0:0:0:0:
343,85,85037,1,8,0:0:0:0:
343,86,85122,1,8,0:0:0:0:
343,87,85208,1,0,0:0:0:0:
342,80,85294,1,8,0:0:0:0:
344,82,85379,1,0,0:0:0:0:
337,79,85465,1,0,0:0:0:0:
336,78,85551,1,8,0:0:0:0:
341,90,85594,1,8,0:0:0:0:
336,78,85637,1,8,0:0:0:0:
336,78,85722,1,0,0:0:0:0:
338,77,85808,1,8,0:0:0:0:
345,84,85851,1,8,0:0:0:0:
343,85,85894,1,8,0:0:0:0:
339,77,85979,1,0,0:0:0:0:
339,77,86065,1,8,0:0:0:0:
343,87,86151,1,0,0:0:0:0:
334,83,86237,1,8,0:0:0:0:
334,83,86322,1,8,0:0:0:0:
326,67,86408,1,0,0:0:0:0:
344,80,86494,1,0,0:0:0:0:
343,80,86579,1,8,0:0:0:0:
343,80,86665,1,8,0:0:0:0:
338,77,86751,1,0,0:0:0:0:
344,81,86837,1,8,0:0:0:0:
339,77,86922,1,8,0:0:0:0:
344,81,87008,1,0,0:0:0:0:
343,87,87094,1,8,0:0:0:0:
326,104,87137,1,8,0:0:0:0:
338,75,87179,1,0,0:0:0:0:
337,75,87265,1,0,0:0:0:0:
337,75,87351,1,8,0:0:0:0:
325,105,87394,1,8,0:0:0:0:
337,75,87437,1,0,0:0:0:0:
337,75,87522,1,8,0:0:0:0:
337,76,87608,1,0,0:0:0:0:
332,97,87651,1,0,0:0:0:0:
341,67,87694,1,8,0:0:0:0:
344,93,87779,1,0,0:0:0:0:
344,92,87865,1,0,0:0:0:0:
343,93,87951,1,8,0:0:0:0:
343,93,88037,1,0,0:0:0:0:
343,93,88122,1,8,0:0:0:0:
329,97,88208,1,8,0:0:0:0:
330,95,88294,1,0,0:0:0:0:
330,95,88379,1,0,0:0:0:0:
332,97,88465,1,8,0:0:0:0:
331,95,88551,1,0,0:0:0:0:
333,97,88637,1,0,0:0:0:0:
343,93,88722,1,0,0:0:0:0:
335,103,88808,1,8,0:0:0:0:
333,103,88894,1,8,0:0:0:0:
334,102,88979,1,0,0:0:0:0:
334,102,89065,1,0,0:0:0:0:
332,101,89151,1,8,0:0:0:0:
332,101,89237,1,0,0:0:0:0:
332,97,89322,1,8,0:0:0:0:
331,95,89408,1,0,0:0:0:0:
331,100,89494,1,8,0:0:0:0:
335,103,89579,1,8,0:0:0:0:
333,103,89665,1,0,0:0:0:0:
333,103,89751,1,0,0:0:0:0:
334,102,89837,1,8,0:0:0:0:
313,96,89922,1,0,0:0:0:0:
312,95,90008,1,8,0:0:0:0:
312,97,90094,1,0,0:0:0:0:
312,95,90179,1,8,0:0:0:0:
323,120,90265,1,8,0:0:0:0:
323,120,90351,1,0,0:0:0:0:
323,120,90437,1,8,0:0:0:0:
323,120,90522,1,0,0:0:0:0:
323,120,90694,1,0,0:0:0:0:
323,120,90865,1,0,0:0:0:0:
323,120,91037,1,0,0:0:0:0:
323,120,91208,1,0,0:0:0:0:
323,120,91379,1,0,0:0:0:0:
323,120,91551,1,0,0:0:0:0:
323,120,91722,1,0,0:0:0:0:
323,120,91894,1,0,0:0:0:0:
323,120,91979,1,0,0:0:0:0:
323,120,92065,1,0,0:0:0:0:
323,120,92151,1,0,0:0:0:0:
323,120,92237,1,0,0:0:0:0:
323,120,92322,1,0,0:0:0:0:
323,120,92408,1,0,0:0:0:0:
323,120,92494,1,0,0:0:0:0:
323,120,92579,1,8,0:0:0:0:
323,120,92665,1,0,0:0:0:0:
323,120,92751,1,0,0:0:0:0:
323,120,92837,1,8,0:0:0:0:
323,120,92922,1,0,0:0:0:0:
323,120,93008,1,0,0:0:0:0:
323,120,93094,1,8,0:0:0:0:
323,120,93179,1,0,0:0:0:0:
323,120,93265,1,12,0:0:0:0:
338,101,93437,1,0,0:0:0:0:
339,101,93522,1,0,0:0:0:0:
331,111,93608,1,8,0:0:0:0:
329,99,93694,1,8,0:0:0:0:
331,111,93779,1,0,0:0:0:0:
332,100,93865,1,0,0:0:0:0:
344,97,93951,1,8,0:0:0:0:
345,105,94037,1,0,0:0:0:0:
319,96,94122,1,8,0:0:0:0:
345,105,94208,1,0,0:0:0:0:
341,101,94294,1,8,0:0:0:0:
329,100,94379,1,8,0:0:0:0:
338,101,94465,1,0,0:0:0:0:
330,100,94551,1,0,0:0:0:0:
329,99,94637,1,0,0:0:0:0:
339,103,94722,1,0,0:0:0:0:
331,100,94808,1,8,0:0:0:0:
332,100,94894,1,0,0:0:0:0:
331,100,94979,1,8,0:0:0:0:
318,92,95065,1,0,0:0:0:0:
315,92,95151,1,8,0:0:0:0:
329,98,95237,1,8,0:0:0:0:
315,91,95322,1,8,0:0:0:0:
315,91,95408,1,8,0:0:0:0:
315,91,95494,1,0,0:0:0:0:
315,91,95579,1,0,0:0:0:0:
314,91,95665,1,8,0:0:0:0:
315,92,95751,1,8,0:0:0:0:
315,92,95837,1,0,0:0:0:0:
318,92,95922,1,8,0:0:0:0:
318,92,96008,1,0,0:0:0:0:
318,92,96094,1,0,0:0:0:0:
316,99,96179,1,8,0:0:0:0:
316,99,96265,1,0,0:0:0:0:
313,101,96351,1,8,0:0:0:0:
310,101,96437,1,8,0:0:0:0:
310,101,96522,1,0,0:0:0:0:
310,101,96608,1,0,0:0:0:0:
310,101,96694,1,8,0:0:0:0:
310,100,96779,1,0,0:0:0:0:
310,100,96865,1,8,0:0:0:0:
309,100,96951,1,0,0:0:0:0:
310,100,97037,1,8,0:0:0:0:
318,92,97122,1,8,0:0:0:0:
316,99,97208,1,0,0:0:0:0:
316,99,97294,1,0,0:0:0:0:
313,101,97379,1,0,0:0:0:0:
321,100,97465,1,0,0:0:0:0:
321,100,97551,1,8,0:0:0:0:
319,99,97637,1,0,0:0:0:0:
321,100,97722,1,8,0:0:0:0:
319,99,97808,1,0,0:0:0:0:
320,100,97894,1,8,0:0:0:0:
319,100,97979,1,8,0:0:0:0:
322,100,98065,1,8,0:0:0:0:
322,100,98151,1,8,0:0:0:0:
316,99,98237,1,0,0:0:0:0:
341,89,98322,1,0,0:0:0:0:
322,100,98408,1,8,0:0:0:0:
322,81,98494,1,8,0:0:0:0:
324,82,98579,1,0,0:0:0:0:
324,81,98665,1,0,0:0:0:0:
324,81,98751,1,8,0:0:0:0:
324,82,98837,1,0,0:0:0:0:
323,82,98922,1,0,0:0:0:0:
323,82,99008,1,0,0:0:0:0:
323,82,99094,1,8,0:0:0:0:
325,78,99179,1,8,0:0:0:0:
323,82,99265,1,0,0:0:0:0:
323,82,99351,1,0,0:0:0:0:
322,81,99437,1,8,0:0:0:0:
322,81,99522,1,0,0:0:0:0:
337,100,99608,1,8,0:0:0:0:
337,99,99694,1,0,0:0:0:0:
337,100,99779,1,8,0:0:0:0:
337,100,99865,1,8,0:0:0:0:
337,100,99951,1,0,0:0:0:0:
337,100,100037,1,0,0:0:0:0:
337,100,100122,1,0,0:0:0:0:
338,99,100208,1,0,0:0:0:0:
338,99,100294,1,8,0:0:0:0:
338,99,100379,1,0,0:0:0:0:
340,98,100465,1,8,0:0:0:0:
341,93,100551,1,0,0:0:0:0:
337,100,100637,1,8,0:0:0:0:
337,99,100722,1,8,0:0:0:0:
338,93,100808,1,8,0:0:0:0:
338,93,100894,1,8,0:0:0:0:
338,93,100979,1,0,0:0:0:0:
338,93,101065,1,0,0:0:0:0:
338,93,101151,1,8,0:0:0:0:
338,99,101237,1,8,0:0:0:0:
338,99,101322,1,0,0:0:0:0:
345,88,101408,1,8,0:0:0:0:
345,88,101494,1,0,0:0:0:0:
341,93,101579,1,0,0:0:0:0:
342,88,101665,1,8,0:0:0:0:
342,83,101751,1,0,0:0:0:0:
342,84,101837,1,8,0:0:0:0:
341,83,101922,1,8,0:0:0:0:
342,83,102008,1,0,0:0:0:0:
342,83,102094,1,0,0:0:0:0:
342,83,102179,1,8,0:0:0:0:
342,84,102265,1,0,0:0:0:0:
345,88,102351,1,8,0:0:0:0:
345,88,102437,1,0,0:0:0:0:
345,88,102522,1,8,0:0:0:0:
350,75,102608,1,8,0:0:0:0:
348,78,102694,1,0,0:0:0:0:
348,78,102779,1,0,0:0:0:0:
346,77,102865,1,8,0:0:0:0:
259,233,103037,2,0,L|311:206,12,41.9999987182618
299,116,104237,5,12,0:0:0:0:
310,101,104408,1,0,0:0:0:0:
310,103,104494,1,0,0:0:0:0:
312,97,104579,1,8,0:0:0:0:
305,101,104665,1,0,0:0:0:0:
304,101,104751,1,8,0:0:0:0:
308,110,104837,1,8,0:0:0:0:
308,110,104922,1,0,0:0:0:0:
305,98,105008,1,0,0:0:0:0:
304,98,105094,1,8,0:0:0:0:
303,97,105179,1,0,0:0:0:0:
304,98,105265,1,8,0:0:0:0:
303,97,105351,1,8,0:0:0:0:
303,98,105437,1,0,0:0:0:0:
302,98,105522,1,0,0:0:0:0:
304,87,105608,1,8,0:0:0:0:
305,101,105694,1,0,0:0:0:0:
304,101,105779,1,8,0:0:0:0:
305,87,105865,1,0,0:0:0:0:
307,87,105951,1,0,0:0:0:0:
307,88,106037,1,0,0:0:0:0:
305,90,106122,1,8,0:0:0:0:
308,90,106208,1,8,0:0:0:0:
310,72,106294,1,8,0:0:0:0:
307,89,106379,1,0,0:0:0:0:
309,77,106465,1,0,0:0:0:0:
308,89,106551,1,0,0:0:0:0:
314,74,106637,1,8,0:0:0:0:
308,83,106722,1,8,0:0:0:0:
309,84,106808,1,0,0:0:0:0:
305,87,106894,1,8,0:0:0:0:
307,75,106979,1,0,0:0:0:0:
307,75,107065,1,8,0:0:0:0:
310,101,107151,1,0,0:0:0:0:
310,103,107237,1,0,0:0:0:0:
312,97,107322,1,8,0:0:0:0:
305,101,107408,1,0,0:0:0:0:
304,101,107494,1,8,0:0:0:0:
308,110,107580,1,8,0:0:0:0:
308,110,107665,1,0,0:0:0:0:
305,98,107751,1,0,0:0:0:0:
304,98,107837,1,8,0:0:0:0:
303,97,107922,1,0,0:0:0:0:
304,98,108008,1,8,0:0:0:0:
303,97,108094,1,8,0:0:0:0:
303,98,108180,1,0,0:0:0:0:
302,98,108265,1,0,0:0:0:0:
304,87,108351,1,8,0:0:0:0:
305,101,108437,1,0,0:0:0:0:
304,101,108522,1,8,0:0:0:0:
305,87,108608,1,0,0:0:0:0:
307,87,108694,1,0,0:0:0:0:
307,88,108780,1,0,0:0:0:0:
305,90,108865,1,8,0:0:0:0:
308,90,108951,1,8,0:0:0:0:
310,72,109037,1,8,0:0:0:0:
307,89,109122,1,0,0:0:0:0:
309,77,109208,1,0,0:0:0:0:
308,89,109294,1,0,0:0:0:0:
314,74,109380,1,8,0:0:0:0:
308,83,109465,1,8,0:0:0:0:
309,84,109551,1,0,0:0:0:0:
305,87,109637,1,8,0:0:0:0:
307,75,109722,1,0,0:0:0:0:
307,75,109808,1,8,0:0:0:0:
310,101,109894,1,0,0:0:0:0:
310,103,109980,1,0,0:0:0:0:
312,97,110065,1,8,0:0:0:0:
305,101,110151,1,0,0:0:0:0:
304,101,110237,1,8,0:0:0:0:
308,110,110323,1,8,0:0:0:0:
308,110,110408,1,0,0:0:0:0:
305,98,110494,1,0,0:0:0:0:
304,98,110580,1,8,0:0:0:0:
303,97,110665,1,0,0:0:0:0:
304,98,110751,1,8,0:0:0:0:
303,97,110837,1,8,0:0:0:0:
303,98,110923,1,0,0:0:0:0:
302,98,111008,1,0,0:0:0:0:
304,87,111094,1,8,0:0:0:0:
305,101,111180,1,0,0:0:0:0:
304,101,111265,1,8,0:0:0:0:
305,87,111351,1,0,0:0:0:0:
307,87,111437,1,0,0:0:0:0:
307,88,111523,1,0,0:0:0:0:
305,90,111608,1,8,0:0:0:0:
308,90,111694,1,8,0:0:0:0:
310,72,111780,1,8,0:0:0:0:
307,89,111865,1,0,0:0:0:0:
309,77,111951,1,0,0:0:0:0:
308,89,112037,1,0,0:0:0:0:
314,74,112123,1,8,0:0:0:0:
308,83,112208,1,8,0:0:0:0:
309,84,112294,1,0,0:0:0:0:
305,87,112380,1,8,0:0:0:0:
307,75,112465,1,0,0:0:0:0:
307,75,112551,1,8,0:0:0:0:
310,101,112637,1,0,0:0:0:0:
310,103,112723,1,0,0:0:0:0:
312,97,112808,1,8,0:0:0:0:
305,101,112894,1,0,0:0:0:0:
304,101,112980,1,8,0:0:0:0:
308,110,113066,1,8,0:0:0:0:
308,110,113151,1,0,0:0:0:0:
305,98,113237,1,0,0:0:0:0:
304,98,113323,1,8,0:0:0:0:
303,97,113408,1,0,0:0:0:0:
304,98,113494,1,8,0:0:0:0:
303,97,113580,1,8,0:0:0:0:
303,98,113666,1,0,0:0:0:0:
302,98,113751,1,0,0:0:0:0:
305,101,113837,1,8,0:0:0:0:
305,97,114008,1,8,0:0:0:0:
305,98,114179,1,8,0:0:0:0:
303,97,114351,1,8,0:0:0:0:
304,98,114522,1,8,0:0:0:0:
315,97,114608,1,8,0:0:0:0:
314,98,114694,1,8,0:0:0:0:
312,92,114779,1,8,0:0:0:0:
314,98,114865,1,8,0:0:0:0:
314,94,114951,1,8,0:0:0:0:
313,94,115037,1,8,0:0:0:0:
311,91,115122,1,8,0:0:0:0:
312,90,115208,1,4,0:0:0:0:
329,110,115379,1,0,0:0:0:0:
319,98,115465,1,0,0:0:0:0:
316,98,115551,1,8,0:0:0:0:
301,101,115637,1,0,0:0:0:0:
314,98,115722,1,8,0:0:0:0:
314,98,115808,1,8,0:0:0:0:
314,98,115894,1,0,0:0:0:0:
314,94,115979,1,0,0:0:0:0:
313,94,116065,1,8,0:0:0:0:
311,91,116151,1,0,0:0:0:0:
307,97,116237,1,8,0:0:0:0:
307,96,116322,1,0,0:0:0:0:
308,97,116408,1,8,0:0:0:0:
308,97,116494,1,8,0:0:0:0:
295,95,116579,1,0,0:0:0:0:
293,95,116665,1,0,0:0:0:0:
293,95,116751,1,8,0:0:0:0:
293,95,116837,1,0,0:0:0:0:
293,95,116922,1,0,0:0:0:0:
293,95,117008,1,0,0:0:0:0:
292,93,117094,1,8,0:0:0:0:
292,93,117179,1,8,0:0:0:0:
295,83,117265,1,0,0:0:0:0:
295,83,117351,1,0,0:0:0:0:
295,83,117437,1,8,0:0:0:0:
295,83,117522,1,0,0:0:0:0:
294,83,117608,1,8,0:0:0:0:
294,83,117694,1,0,0:0:0:0:
303,90,117779,1,8,0:0:0:0:
301,93,117822,1,8,0:0:0:0:
293,95,117865,1,8,0:0:0:0:
302,86,117951,1,0,0:0:0:0:
308,97,118037,1,0,0:0:0:0:
309,97,118122,1,8,0:0:0:0:
309,97,118208,1,0,0:0:0:0:
312,97,118294,1,8,0:0:0:0:
312,97,118379,1,0,0:0:0:0:
312,97,118465,1,0,0:0:0:0:
312,97,118551,1,8,0:0:0:0:
312,97,118637,1,0,0:0:0:0:
336,88,118679,1,0,0:0:0:0:
315,98,118722,1,0,0:0:0:0:
315,99,118808,1,8,0:0:0:0:
315,99,118894,1,0,0:0:0:0:
336,88,118937,1,0,0:0:0:0:
315,98,118979,1,0,0:0:0:0:
315,99,119065,1,8,0:0:0:0:
309,97,119151,1,0,0:0:0:0:
309,97,119237,1,8,0:0:0:0:
312,85,119322,1,0,0:0:0:0:
325,99,119408,1,8,0:0:0:0:
327,98,119494,1,0,0:0:0:0:
327,98,119579,1,0,0:0:0:0:
327,99,119665,1,8,0:0:0:0:
328,98,119751,1,0,0:0:0:0:
328,98,119837,1,8,0:0:0:0:
328,98,119922,1,8,0:0:0:0:
328,98,120008,1,0,0:0:0:0:
328,97,120094,1,0,0:0:0:0:
328,97,120179,1,8,0:0:0:0:
327,98,120265,1,0,0:0:0:0:
328,97,120351,1,8,0:0:0:0:
325,87,120408,1,8,0:0:0:0:
325,87,120465,1,0,0:0:0:0:
325,87,120522,1,0,0:0:0:0:
325,87,120579,1,8,0:0:0:0:
325,87,120637,1,8,0:0:0:0:
327,99,120694,1,0,0:0:0:0:
358,70,120779,1,0,0:0:0:0:
347,75,120865,1,8,0:0:0:0:
343,76,120951,1,0,0:0:0:0:
343,77,121037,1,8,0:0:0:0:
345,73,121122,1,8,0:0:0:0:
345,73,121208,1,0,0:0:0:0:
345,74,121294,1,0,0:0:0:0:
346,73,121379,1,8,0:0:0:0:
347,74,121465,1,0,0:0:0:0:
346,73,121551,1,8,0:0:0:0:
347,74,121637,1,0,0:0:0:0:
347,73,121722,1,8,0:0:0:0:
347,75,121808,1,8,0:0:0:0:
343,76,121894,1,0,0:0:0:0:
343,76,121979,1,0,0:0:0:0:
349,74,122065,1,8,0:0:0:0:
345,73,122151,1,0,0:0:0:0:
345,73,122237,1,0,0:0:0:0:
345,74,122322,1,0,0:0:0:0:
346,73,122408,1,8,0:0:0:0:
347,74,122494,1,0,0:0:0:0:
346,73,122579,1,8,0:0:0:0:
347,73,122665,1,8,0:0:0:0:
347,73,122751,1,0,0:0:0:0:
351,76,122837,1,0,0:0:0:0:
351,76,122922,1,8,0:0:0:0:
352,76,123008,1,0,0:0:0:0:
349,74,123094,1,8,0:0:0:0:
352,76,123179,1,0,0:0:0:0:
352,76,123265,1,8,0:0:0:0:
334,84,123308,1,8,0:0:0:0:
352,76,123351,1,8,0:0:0:0:
364,65,123437,1,0,0:0:0:0:
354,91,123522,1,0,0:0:0:0:
337,61,123608,1,8,0:0:0:0:
347,65,123694,1,0,0:0:0:0:
346,65,123779,1,8,0:0:0:0:
347,65,123865,1,8,0:0:0:0:
347,65,123951,1,0,0:0:0:0:
347,65,124037,1,8,0:0:0:0:
347,65,124122,1,0,0:0:0:0:
344,70,124165,1,0,0:0:0:0:
344,70,124208,1,0,0:0:0:0:
344,64,124294,1,8,0:0:0:0:
344,64,124379,1,0,0:0:0:0:
345,69,124422,1,0,0:0:0:0:
345,65,124465,1,0,0:0:0:0:
345,65,124551,1,8,0:0:0:0:
347,65,124637,1,0,0:0:0:0:
347,65,124722,1,8,0:0:0:0:
346,65,124808,1,0,0:0:0:0:
347,65,124894,1,8,0:0:0:0:
347,65,124979,1,0,0:0:0:0:
347,65,125065,1,0,0:0:0:0:
347,65,125151,1,8,0:0:0:0:
344,64,125237,1,0,0:0:0:0:
344,64,125322,1,8,0:0:0:0:
345,65,125408,1,8,0:0:0:0:
345,65,125494,1,0,0:0:0:0:
347,65,125579,1,0,0:0:0:0:
347,65,125665,1,8,0:0:0:0:
342,77,125751,1,0,0:0:0:0:
346,65,125837,1,8,0:0:0:0:
352,84,125894,1,8,0:0:0:0:
353,84,125951,1,0,0:0:0:0:
353,84,126008,1,0,0:0:0:0:
353,84,126065,1,8,0:0:0:0:
353,84,126122,1,8,0:0:0:0:
351,84,126179,1,0,0:0:0:0:
326,83,126351,1,8,0:0:0:0:
323,98,126408,1,0,0:0:0:0:
317,96,126465,1,0,0:0:0:0:
346,74,126522,1,8,0:0:0:0:
341,76,126608,1,8,0:0:0:0:
346,74,126694,1,0,0:0:0:0:
352,84,126865,1,8,0:0:0:0:
353,84,127037,1,0,0:0:0:0:
344,59,127079,1,0,0:0:0:0:
344,59,127122,1,0,0:0:0:0:
344,58,127165,1,0,0:0:0:0:
345,58,127208,1,8,0:0:0:0:
345,59,127379,1,8,0:0:0:0:
362,71,127551,1,0,0:0:0:0:
352,84,127722,1,0,0:0:0:0:
352,84,127779,1,0,0:0:0:0:
353,84,127837,1,0,0:0:0:0:
359,71,127894,1,8,0:0:0:0:
359,71,128065,1,0,0:0:0:0:
359,70,128237,1,8,0:0:0:0:
345,59,128351,1,0,0:0:0:0:
350,61,128465,1,0,0:0:0:0:
345,58,128579,1,8,0:0:0:0:
345,58,128694,1,8,0:0:0:0:
345,58,128808,1,8,0:0:0:0:
345,58,128922,1,0,0:0:0:0:
352,57,129094,1,8,0:0:0:0:
352,58,129151,1,0,0:0:0:0:
345,59,129208,1,0,0:0:0:0:
357,56,129265,1,8,0:0:0:0:
350,61,129351,1,8,0:0:0:0:
350,61,129437,1,0,0:0:0:0:
364,55,129608,1,8,0:0:0:0:
363,56,129779,1,0,0:0:0:0:
368,63,129822,1,0,0:0:0:0:
367,63,129865,1,0,0:0:0:0:
367,63,129908,1,0,0:0:0:0:
361,52,129951,1,8,0:0:0:0:
360,52,130122,1,8,0:0:0:0:
345,52,130294,1,0,0:0:0:0:
344,56,130465,1,8,0:0:0:0:
330,60,130522,1,0,0:0:0:0:
330,60,130579,1,0,0:0:0:0:
331,61,130637,1,8,0:0:0:0:
338,49,130808,1,8,0:0:0:0:
350,52,130979,1,0,0:0:0:0:
350,56,131037,1,8,0:0:0:0:
345,52,131094,1,8,0:0:0:0:
345,52,131151,1,0,0:0:0:0:
362,55,131237,1,0,0:0:0:0:
360,57,131322,1,8,0:0:0:0:
358,57,131494,1,0,0:0:0:0:
378,58,131537,1,0,0:0:0:0:
378,58,131579,1,0,0:0:0:0:
378,58,131665,1,8,0:0:0:0:
360,63,131837,1,8,0:0:0:0:
370,65,131894,1,0,0:0:0:0:
363,63,131951,1,0,0:0:0:0:
362,63,132008,1,8,0:0:0:0:
364,53,132094,1,8,0:0:0:0:
369,54,132179,1,0,0:0:0:0:
358,57,132351,1,8,0:0:0:0:
362,53,132522,1,0,0:0:0:0:
356,87,132565,1,0,0:0:0:0:
361,83,132608,1,0,0:0:0:0:
361,83,132651,1,0,0:0:0:0:
361,83,132694,1,8,0:0:0:0:
355,59,132865,1,0,0:0:0:0:
355,59,133037,1,8,0:0:0:0:
360,66,133208,1,0,0:0:0:0:
346,70,133265,1,0,0:0:0:0:
351,70,133322,1,0,0:0:0:0:
350,69,133379,1,8,0:0:0:0:
350,70,133551,1,8,0:0:0:0:
348,66,133722,1,0,0:0:0:0:
349,66,133894,1,8,0:0:0:0:
349,66,134065,1,8,0:0:0:0:
361,53,134237,1,0,0:0:0:0:
351,58,134294,1,8,0:0:0:0:
348,57,134408,1,0,0:0:0:0:
363,60,134579,1,0,0:0:0:0:
348,66,134637,1,0,0:0:0:0:
349,66,134694,1,0,0:0:0:0:
349,66,134751,1,8,0:0:0:0:
354,81,134922,1,0,0:0:0:0:
319,58,134979,1,8,0:0:0:0:
342,66,135037,1,8,0:0:0:0:
361,70,135094,1,0,0:0:0:0:
360,68,135208,1,0,0:0:0:0:
360,68,135322,1,0,0:0:0:0:
360,68,135437,1,8,0:0:0:0:
360,68,135551,1,8,0:0:0:0:
360,68,135665,1,8,0:0:0:0:
359,68,135779,1,0,0:0:0:0:
350,58,135951,1,0,0:0:0:0:
360,57,136122,1,8,0:0:0:0:
342,50,136294,1,0,0:0:0:0:
353,54,136465,1,8,0:0:0:0:
353,54,136637,1,0,0:0:0:0:
366,64,136679,1,0,0:0:0:0:
365,64,136722,1,0,0:0:0:0:
365,64,136765,1,0,0:0:0:0:
365,64,136808,1,8,0:0:0:0:
352,54,136979,1,0,0:0:0:0:
353,49,137151,1,8,0:0:0:0:
353,54,137322,1,0,0:0:0:0:
371,81,137494,1,0,0:0:0:0:
367,80,137665,1,8,0:0:0:0:
367,80,137837,1,0,0:0:0:0:
367,80,138008,1,0,0:0:0:0:
353,74,138179,1,8,0:0:0:0:
350,74,138351,1,0,0:0:0:0:
353,74,138522,1,8,0:0:0:0:
350,74,138694,1,0,0:0:0:0:
362,61,138865,1,0,0:0:0:0:
359,67,139037,1,8,0:0:0:0:
359,67,139208,1,0,0:0:0:0:
359,67,139379,1,0,0:0:0:0:
359,67,139551,1,8,0:0:0:0:
359,67,139722,1,0,0:0:0:0:
359,67,139894,1,8,0:0:0:0:
359,67,140065,1,8,0:0:0:0:
359,67,140237,1,8,0:0:0:0:
359,67,140408,1,8,0:0:0:0:
359,67,140579,1,8,0:0:0:0:
359,67,140751,1,8,0:0:0:0:
359,67,140923,1,8,0:0:0:0:
359,67,141094,1,8,0:0:0:0:
359,67,141265,1,8,0:0:0:0:
359,67,141351,1,8,0:0:0:0:
353,72,141437,1,0,0:0:0:0:
353,72,141608,1,8,0:0:0:0:
359,67,141694,1,0,0:0:0:0:
354,72,141779,1,0,0:0:0:0:
342,73,141951,1,0,0:0:0:0:
342,73,142037,1,0,0:0:0:0:
342,74,142122,1,0,0:0:0:0:
342,74,142294,1,0,0:0:0:0:
340,72,142637,1,0,0:0:0:0:
331,76,142979,1,0,0:0:0:0:
330,76,143322,1,0,0:0:0:0:
330,76,143665,1,0,0:0:0:0:
330,76,144008,1,0,0:0:0:0:
330,76,144351,1,0,0:0:0:0:
330,76,144694,1,0,0:0:0:0:
330,76,145037,1,0,0:0:0:0:
330,76,145379,1,0,0:0:0:0:
330,76,145722,1,0,0:0:0:0:
330,76,146065,1,0,0:0:0:0:
330,76,146408,1,0,0:0:0:0:
330,76,146751,1,0,0:0:0:0:
330,76,147094,1,0,0:0:0:0:
330,76,147437,1,0,0:0:0:0:
330,76,147779,1,0,0:0:0:0:
330,76,148122,1,0,0:0:0:0:
332,100,148465,1,0,0:0:0:0:
332,100,148637,1,8,0:0:0:0:
332,98,148808,1,0,0:0:0:0:
332,100,149151,1,0,0:0:0:0:
309,117,149322,1,8,0:0:0:0:
332,100,149494,1,0,0:0:0:0:
332,100,149837,1,0,0:0:0:0:
309,117,150008,1,8,0:0:0:0:
332,100,150179,1,0,0:0:0:0:
338,109,150522,1,0,0:0:0:0:
309,117,150694,1,8,0:0:0:0:
338,109,150865,1,0,0:0:0:0:
327,104,151208,1,0,0:0:0:0:
309,117,151379,1,8,0:0:0:0:
328,101,151551,1,0,0:0:0:0:
327,104,151894,1,0,0:0:0:0:
309,117,152065,1,8,0:0:0:0:
308,116,152237,1,0,0:0:0:0:
308,117,152579,1,0,0:0:0:0:
309,118,152751,1,8,0:0:0:0:
308,116,152922,1,0,0:0:0:0:
308,117,153265,1,0,0:0:0:0:
308,117,153437,1,8,0:0:0:0:
308,116,153608,1,0,0:0:0:0:
309,118,153694,1,0,0:0:0:0:
308,116,153779,1,0,0:0:0:0:
324,116,153951,1,8,0:0:0:0:
314,101,154294,1,0,0:0:0:0:
313,112,154379,1,0,0:0:0:0:
309,104,154465,1,0,0:0:0:0:
309,118,154637,1,8,0:0:0:0:
314,101,154979,1,0,0:0:0:0:
314,101,155065,1,0,0:0:0:0:
314,101,155151,1,0,0:0:0:0:
316,98,155322,1,8,0:0:0:0:
316,98,155494,1,0,0:0:0:0:
314,101,155665,1,0,0:0:0:0:
314,101,155751,1,0,0:0:0:0:
314,101,155837,1,8,0:0:0:0:
314,101,156008,1,8,0:0:0:0:
316,98,156179,1,0,0:0:0:0:
316,98,156351,1,8,0:0:0:0:
314,101,156437,1,0,0:0:0:0:
314,101,156522,1,0,0:0:0:0:
314,101,156694,1,8,0:0:0:0:
314,101,156865,1,0,0:0:0:0:
314,101,156951,1,0,0:0:0:0:
316,98,157037,1,0,0:0:0:0:
302,94,157208,1,0,0:0:0:0:
302,94,157379,1,8,0:0:0:0:
307,95,157551,1,0,0:0:0:0:
307,95,157722,1,8,0:0:0:0:
306,95,157808,1,0,0:0:0:0:
306,94,157894,1,0,0:0:0:0:
306,95,157979,1,0,0:0:0:0:
302,94,158065,1,8,0:0:0:0:
302,94,158237,1,0,0:0:0:0:
307,95,158322,1,0,0:0:0:0:
295,88,158408,1,0,0:0:0:0:
295,89,158579,1,0,0:0:0:0:
295,89,158751,1,8,0:0:0:0:
293,89,158922,1,8,0:0:0:0:
296,89,159094,1,0,0:0:0:0:
297,85,159265,1,0,0:0:0:0:
295,89,159437,1,8,0:0:0:0:
295,89,159608,1,8,0:0:0:0:
310,93,159779,1,0,0:0:0:0:
307,93,159951,1,0,0:0:0:0:
300,94,160122,1,8,0:0:0:0:
300,94,160294,1,8,0:0:0:0:
295,89,160465,1,0,0:0:0:0:
317,80,160551,1,0,0:0:0:0:
293,92,160637,1,0,0:0:0:0:
294,92,160808,1,8,0:0:0:0:
300,94,160979,1,8,0:0:0:0:
300,94,161151,1,0,0:0:0:0:
307,91,161322,1,0,0:0:0:0:
305,93,161494,1,8,0:0:0:0:
304,93,161665,1,8,0:0:0:0:
304,93,161837,1,0,0:0:0:0:
289,82,162008,1,0,0:0:0:0:
293,80,162179,1,8,0:0:0:0:
290,84,162265,1,0,0:0:0:0:
298,81,162351,1,8,0:0:0:0:
310,88,162522,1,0,0:0:0:0:
289,83,162694,1,0,0:0:0:0:
289,82,162865,1,8,0:0:0:0:
293,80,163037,1,8,0:0:0:0:
290,84,163208,1,0,0:0:0:0:
288,74,163294,1,0,0:0:0:0:
285,81,163379,1,0,0:0:0:0:
289,83,163551,1,8,0:0:0:0:
289,82,163722,1,8,0:0:0:0:
285,81,163894,1,0,0:0:0:0:
290,84,164065,1,0,0:0:0:0:
285,81,164237,1,8,0:0:0:0:
289,83,164408,1,8,0:0:0:0:
289,82,164579,1,0,0:0:0:0:
285,81,164751,1,8,0:0:0:0:
285,81,165094,1,8,0:0:0:0:
289,83,165265,1,8,0:0:0:0:
279,78,165437,1,4,0:0:0:0:
285,81,165608,1,8,0:0:0:0:
285,81,165779,1,0,0:0:0:0:
274,80,165951,1,12,0:0:0:0:
275,80,166122,1,8,0:0:0:0:
279,78,166294,1,0,0:0:0:0:
275,80,166465,1,8,0:0:0:0:
275,81,166637,1,0,0:0:0:0:
255,80,166808,1,8,0:0:0:0:
253,80,166979,1,8,0:0:0:0:
253,80,167151,1,0,0:0:0:0:
253,80,167322,1,4,0:0:0:0:
253,78,167494,1,0,0:0:0:0:
253,78,167579,1,0,0:0:0:0:
255,80,167665,1,8,0:0:0:0:
253,80,167837,1,8,0:0:0:0:
253,80,168008,1,8,0:0:0:0:
278,72,168179,1,4,0:0:0:0:
275,77,168351,1,8,0:0:0:0:
273,70,168522,1,0,0:0:0:0:
273,71,168694,1,12,0:0:0:0:
273,71,168865,1,8,0:0:0:0:
278,72,169037,1,8,0:0:0:0:
275,77,169208,1,8,0:0:0:0:
273,70,169379,1,8,0:0:0:0:
273,71,169551,1,0,0:0:0:0:
273,71,169722,1,8,0:0:0:0:
267,68,169894,1,0,0:0:0:0:
259,58,170065,1,4,0:0:0:0:
284,77,170237,1,8,0:0:0:0:
284,77,170408,1,8,0:0:0:0:
284,78,170579,1,8,0:0:0:0:
296,80,170751,1,0,0:0:0:0:
293,78,170922,1,8,0:0:0:0:
293,78,171094,1,8,0:0:0:0:
292,78,171265,1,8,0:0:0:0:
292,78,171437,1,0,0:0:0:0:
288,77,171608,1,8,0:0:0:0:
293,78,171779,1,8,0:0:0:0:
284,73,171951,1,0,0:0:0:0:
282,78,172122,1,8,0:0:0:0:
274,82,172294,1,0,0:0:0:0:
275,81,172465,1,8,0:0:0:0:
274,82,172637,1,8,0:0:0:0:
256,192,172808,12,0,175379,0:0:0:0:
353,144,175551,5,0,0:0:0:0:
353,144,175637,1,0,0:0:0:0:
353,144,175722,1,0,0:0:0:0:
353,144,175808,1,0,0:0:0:0:
353,144,175894,1,0,0:0:0:0:
353,144,175979,1,0,0:0:0:0:
353,144,176065,1,0,0:0:0:0:
353,144,176151,1,0,0:0:0:0:
353,144,176237,1,0,0:0:0:0:
353,144,176322,1,0,0:0:0:0:
353,144,176408,1,0,0:0:0:0:
353,144,176494,1,0,0:0:0:0:
353,144,176579,1,0,0:0:0:0:
353,144,176665,1,0,0:0:0:0:
353,144,176751,1,0,0:0:0:0:
353,144,176837,1,0,0:0:0:0:
353,144,176922,1,0,0:0:0:0:
353,144,177265,1,0,0:0:0:0:
344,129,177608,1,8,0:0:0:0:
353,144,177779,1,0,0:0:0:0:
353,144,177951,1,0,0:0:0:0:
361,134,178122,1,8,0:0:0:0:
356,132,178294,1,4,0:0:0:0:
377,139,178465,1,8,0:0:0:0:
377,139,178551,1,0,0:0:0:0:
377,139,178637,1,8,0:0:0:0:
372,129,178808,1,0,0:0:0:0:
372,130,178979,1,8,0:0:0:0:
372,129,179151,1,0,0:0:0:0:
360,118,179237,1,8,0:0:0:0:
357,126,179408,1,0,0:0:0:0:
357,126,179494,1,0,0:0:0:0:
357,125,179665,1,0,0:0:0:0:
354,111,179837,1,8,0:0:0:0:
355,111,179922,1,0,0:0:0:0:
354,112,180008,1,8,0:0:0:0:
354,112,180094,1,8,0:0:0:0:
360,118,180179,1,0,0:0:0:0:
353,110,180351,1,8,0:0:0:0:
352,111,180522,1,0,0:0:0:0:
358,110,180608,1,8,0:0:0:0:
355,111,180779,1,0,0:0:0:0:
355,111,180865,1,0,0:0:0:0:
354,112,181037,1,8,0:0:0:0:
358,110,181122,1,0,0:0:0:0:
353,110,181208,1,8,0:0:0:0:
339,95,181294,1,8,0:0:0:0:
352,111,181379,1,0,0:0:0:0:
365,95,181551,1,0,0:0:0:0:
365,95,181637,1,0,0:0:0:0:
365,95,181722,1,8,0:0:0:0:
365,95,181894,1,0,0:0:0:0:
365,96,181979,1,8,0:0:0:0:
365,96,182151,1,0,0:0:0:0:
364,96,182237,1,0,0:0:0:0:
365,95,182408,1,0,0:0:0:0:
365,95,182579,1,8,0:0:0:0:
352,93,182751,1,8,0:0:0:0:
350,94,182922,1,0,0:0:0:0:
348,96,183094,1,8,0:0:0:0:
349,96,183265,1,8,0:0:0:0:
349,95,183437,1,0,0:0:0:0:
349,95,183522,1,8,0:0:0:0:
352,93,183608,1,0,0:0:0:0:
352,93,183694,1,0,0:0:0:0:
350,94,183779,1,8,0:0:0:0:
348,96,183951,1,0,0:0:0:0:
348,96,184037,1,8,0:0:0:0:
349,96,184122,1,0,0:0:0:0:
349,95,184294,1,0,0:0:0:0:
349,95,184465,1,8,0:0:0:0:
352,93,184637,1,0,0:0:0:0:
350,94,184722,1,8,0:0:0:0:
348,96,184894,1,0,0:0:0:0:
348,96,184979,1,0,0:0:0:0:
349,95,185151,1,0,0:0:0:0:
349,95,185322,1,8,0:0:0:0:
349,95,185408,1,8,0:0:0:0:
352,93,185494,1,0,0:0:0:0:
350,94,185665,1,0,0:0:0:0:
348,96,185837,1,8,0:0:0:0:
349,95,186008,1,0,0:0:0:0:
349,95,186094,1,8,0:0:0:0:
349,95,186265,1,0,0:0:0:0:
349,95,186351,1,0,0:0:0:0:
350,94,186522,1,0,0:0:0:0:
350,94,186608,1,0,0:0:0:0:
348,96,186694,1,8,0:0:0:0:
348,96,186779,1,8,0:0:0:0:
354,78,186865,1,0,0:0:0:0:
345,80,187037,1,0,0:0:0:0:
339,79,187208,1,8,0:0:0:0:
351,82,187379,1,0,0:0:0:0:
351,82,187465,1,8,0:0:0:0:
350,82,187637,1,0,0:0:0:0:
350,82,187722,1,0,0:0:0:0:
350,83,187894,1,0,0:0:0:0:
350,83,187979,1,8,0:0:0:0:
350,83,188065,1,0,0:0:0:0:
350,83,188151,1,0,0:0:0:0:
351,82,188237,1,8,0:0:0:0:
351,82,188322,1,0,0:0:0:0:
351,82,188408,1,8,0:0:0:0:
350,82,188494,1,8,0:0:0:0:
350,82,188579,1,0,0:0:0:0:
350,82,188665,1,0,0:0:0:0:
350,83,188751,1,0,0:0:0:0:
350,83,188837,1,0,0:0:0:0:
350,83,188922,1,0,0:0:0:0:
350,83,189008,1,0,0:0:0:0:
350,83,189094,1,0,0:0:0:0:
350,88,189179,1,0,0:0:0:0:
350,88,189265,1,12,0:0:0:0:
357,85,189437,1,0,0:0:0:0:
350,82,189522,1,0,0:0:0:0:
350,82,189608,1,8,0:0:0:0:
354,69,189694,1,8,0:0:0:0:
354,70,189779,1,0,0:0:0:0:
353,70,189951,1,8,0:0:0:0:
353,75,190122,1,0,0:0:0:0:
356,79,190208,1,8,0:0:0:0:
352,74,190379,1,0,0:0:0:0:
353,75,190465,1,0,0:0:0:0:
348,78,190637,1,0,0:0:0:0:
344,76,190808,1,8,0:0:0:0:
343,76,190894,1,8,0:0:0:0:
344,78,190979,1,0,0:0:0:0:
344,78,191065,1,0,0:0:0:0:
348,78,191151,1,0,0:0:0:0:
352,74,191322,1,8,0:0:0:0:
348,78,191494,1,0,0:0:0:0:
348,78,191579,1,8,0:0:0:0:
344,76,191751,1,0,0:0:0:0:
343,76,191837,1,0,0:0:0:0:
365,83,192008,1,0,0:0:0:0:
352,74,192179,1,8,0:0:0:0:
352,98,192265,1,0,0:0:0:0:
351,97,192351,1,8,0:0:0:0:
351,97,192437,1,8,0:0:0:0:
352,97,192522,1,0,0:0:0:0:
352,94,192694,1,8,0:0:0:0:
352,95,192865,1,0,0:0:0:0:
352,94,192951,1,8,0:0:0:0:
352,98,193122,1,0,0:0:0:0:
352,98,193208,1,0,0:0:0:0:
357,103,193379,1,0,0:0:0:0:
354,104,193551,1,8,0:0:0:0:
354,104,193637,1,0,0:0:0:0:
355,104,193722,1,8,0:0:0:0:
355,105,193894,1,0,0:0:0:0:
354,104,194065,1,8,0:0:0:0:
353,105,194151,1,8,0:0:0:0:
357,103,194237,1,0,0:0:0:0:
357,103,194322,1,0,0:0:0:0:
354,104,194408,1,8,0:0:0:0:
354,104,194494,1,0,0:0:0:0:
354,104,194579,1,8,0:0:0:0:
355,104,194665,1,0,0:0:0:0:
355,105,194751,1,8,0:0:0:0:
356,124,194922,1,0,0:0:0:0:
346,93,195008,1,0,0:0:0:0:
353,105,195094,1,8,0:0:0:0:
357,103,195179,1,8,0:0:0:0:
344,118,195265,1,0,0:0:0:0:
348,110,195437,1,8,0:0:0:0:
348,110,195608,1,0,0:0:0:0:
349,110,195694,1,8,0:0:0:0:
349,110,195865,1,0,0:0:0:0:
349,110,195951,1,0,0:0:0:0:
349,110,196122,1,0,0:0:0:0:
348,110,196294,1,8,0:0:0:0:
348,110,196379,1,8,0:0:0:0:
348,110,196465,1,0,0:0:0:0:
348,110,196551,1,0,0:0:0:0:
349,110,196637,1,0,0:0:0:0:
349,110,196808,1,8,0:0:0:0:
349,110,196979,1,0,0:0:0:0:
349,110,197065,1,8,0:0:0:0:
348,110,197237,1,0,0:0:0:0:
345,118,197322,1,0,0:0:0:0:
333,118,197494,1,0,0:0:0:0:
333,118,197579,1,8,0:0:0:0:
332,119,197665,1,0,0:0:0:0:
332,119,197751,1,0,0:0:0:0:
315,122,197837,1,8,0:0:0:0:
350,119,197922,1,8,0:0:0:0:
315,122,198008,1,0,0:0:0:0:
340,125,198179,1,8,0:0:0:0:
341,125,198351,1,0,0:0:0:0:
341,124,198437,1,8,0:0:0:0:
341,125,198608,1,0,0:0:0:0:
341,124,198694,1,0,0:0:0:0:
340,124,198865,1,0,0:0:0:0:
340,125,199037,1,8,0:0:0:0:
340,125,199122,1,8,0:0:0:0:
341,125,199208,1,0,0:0:0:0:
341,124,199379,1,8,0:0:0:0:
341,125,199465,1,0,0:0:0:0:
341,125,199551,1,0,0:0:0:0:
342,132,199722,1,0,0:0:0:0:
344,132,199808,1,0,0:0:0:0:
340,125,199894,1,8,0:0:0:0:
335,133,200065,1,0,0:0:0:0:
335,133,200151,1,8,0:0:0:0:
334,135,200237,1,4,0:0:0:0:
334,135,200408,1,0,0:0:0:0:
341,141,200579,1,8,0:0:0:0:
349,136,200665,1,8,0:0:0:0:
344,132,200751,1,0,0:0:0:0:
335,133,200922,1,8,0:0:0:0:
335,133,201008,1,0,0:0:0:0:
334,135,201179,1,8,0:0:0:0:
334,135,201265,1,8,0:0:0:0:
334,135,201351,1,0,0:0:0:0:
329,112,201437,1,8,0:0:0:0:
339,133,201608,1,0,0:0:0:0:
335,133,201779,1,8,0:0:0:0:
335,133,201865,1,0,0:0:0:0:
330,144,202037,1,0,0:0:0:0:
334,135,202122,1,0,0:0:0:0:
325,145,202294,1,8,0:0:0:0:
329,135,202379,1,0,0:0:0:0:
338,124,202465,1,0,0:0:0:0:
334,124,202551,1,8,0:0:0:0:
334,124,202637,1,8,0:0:0:0:
329,126,202808,1,8,0:0:0:0:
329,126,202979,1,0,0:0:0:0:
330,126,203151,1,0,0:0:0:0:
330,126,203322,1,8,0:0:0:0:
330,126,203408,1,8,0:0:0:0:
334,124,203494,1,8,0:0:0:0:
330,116,203579,1,8,0:0:0:0:
329,126,203665,1,0,0:0:0:0:
345,129,203837,1,0,0:0:0:0:
343,129,204008,1,8,0:0:0:0:
330,126,204094,1,8,0:0:0:0:
330,126,204179,1,0,0:0:0:0:
330,126,204265,1,0,0:0:0:0:
330,126,204351,1,8,0:0:0:0:
349,124,204522,1,0,0:0:0:0:
350,124,204694,1,8,0:0:0:0:
350,124,204779,1,8,0:0:0:0:
349,121,204865,1,8,0:0:0:0:
348,121,205037,1,0,0:0:0:0:
345,115,205122,1,8,0:0:0:0:
360,117,205294,1,8,0:0:0:0:
360,117,205379,1,0,0:0:0:0:
360,117,205465,1,0,0:0:0:0:
360,121,205551,1,8,0:0:0:0:
360,121,205637,1,8,0:0:0:0:
350,124,205722,1,0,0:0:0:0:
348,123,205894,1,8,0:0:0:0:
348,121,205979,1,0,0:0:0:0:
360,117,206065,1,0,0:0:0:0:
344,115,206237,1,8,0:0:0:0:
344,116,206322,1,0,0:0:0:0:
345,114,206408,1,8,0:0:0:0:
345,95,206494,1,8,0:0:0:0:
338,122,206665,1,8,0:0:0:0:
348,123,206837,1,0,0:0:0:0:
348,121,206922,1,8,0:0:0:0:
344,115,207094,1,0,0:0:0:0:
336,113,207265,1,0,0:0:0:0:
336,113,207351,1,0,0:0:0:0:
337,113,207437,1,8,0:0:0:0:
337,113,207608,1,0,0:0:0:0:
337,114,207694,1,0,0:0:0:0:
341,115,207865,1,8,0:0:0:0:
344,115,207951,1,0,0:0:0:0:
336,123,208122,1,8,0:0:0:0:
336,123,208294,1,8,0:0:0:0:
326,124,208379,1,8,0:0:0:0:
330,126,208465,1,0,0:0:0:0:
329,126,208551,1,0,0:0:0:0:
326,115,208637,1,8,0:0:0:0:
344,105,208808,1,8,0:0:0:0:
333,104,208894,1,8,0:0:0:0:
344,105,208979,1,8,0:0:0:0:
344,105,209065,1,8,0:0:0:0:
333,104,209151,1,0,0:0:0:0:
322,104,209322,1,8,0:0:0:0:
339,111,209494,1,0,0:0:0:0:
326,105,209579,1,8,0:0:0:0:
325,108,209665,1,0,0:0:0:0:
325,108,209751,1,0,0:0:0:0:
322,111,209837,1,8,0:0:0:0:
325,112,210008,1,0,0:0:0:0:
325,112,210179,1,8,0:0:0:0:
322,104,210265,1,8,0:0:0:0:
321,106,210351,1,8,0:0:0:0:
321,106,210437,1,8,0:0:0:0:
326,105,210522,1,0,0:0:0:0:
318,107,210608,1,0,0:0:0:0:
318,107,210694,1,8,0:0:0:0:
322,111,210779,1,0,0:0:0:0:
318,107,210865,1,8,0:0:0:0:
314,109,210951,1,8,0:0:0:0:
314,109,211037,1,0,0:0:0:0:
314,101,211208,1,12,0:0:0:0:
329,109,211379,1,0,0:0:0:0:
329,109,211551,1,8,0:0:0:0:
329,109,211637,1,8,0:0:0:0:
329,109,211722,1,0,0:0:0:0:
322,106,211894,1,8,0:0:0:0:
332,111,211979,1,0,0:0:0:0:
332,111,212151,1,8,0:0:0:0:
329,109,212322,1,0,0:0:0:0:
329,109,212408,1,0,0:0:0:0:
329,109,212579,1,8,0:0:0:0:
330,107,212751,1,0,0:0:0:0:
330,107,212837,1,8,0:0:0:0:
332,111,213008,1,8,0:0:0:0:
332,111,213094,1,0,0:0:0:0:
329,109,213265,1,0,0:0:0:0:
329,109,213351,1,0,0:0:0:0:
328,118,213522,1,8,0:0:0:0:
327,118,213608,1,0,0:0:0:0:
327,118,213779,1,0,0:0:0:0:
337,91,213865,1,8,0:0:0:0:
326,103,213951,1,0,0:0:0:0:
329,109,214122,1,0,0:0:0:0:
329,109,214294,1,8,0:0:0:0:
325,104,214379,1,8,0:0:0:0:
324,104,214465,1,0,0:0:0:0:
324,104,214551,1,0,0:0:0:0:
324,104,214637,1,8,0:0:0:0:
324,104,214808,1,0,0:0:0:0:
329,109,214979,1,8,0:0:0:0:
329,109,215065,1,0,0:0:0:0:
329,109,215151,1,8,0:0:0:0:
329,109,215237,1,8,0:0:0:0:
325,104,215322,1,0,0:0:0:0:
324,104,215494,1,8,0:0:0:0:
324,104,215665,1,0,0:0:0:0:
312,111,215751,1,8,0:0:0:0:
313,110,215837,1,8,0:0:0:0:
313,110,215922,1,0,0:0:0:0:
315,112,216008,1,8,0:0:0:0:
315,112,216179,1,0,0:0:0:0:
315,112,216265,1,8,0:0:0:0:
315,112,216437,1,0,0:0:0:0:
317,116,216522,1,8,0:0:0:0:
315,112,216608,1,8,0:0:0:0:
319,122,216694,1,0,0:0:0:0:
319,121,216865,1,0,0:0:0:0:
319,122,217037,1,8,0:0:0:0:
324,128,217122,1,0,0:0:0:0:
324,128,217208,1,0,0:0:0:0:
320,128,217379,1,8,0:0:0:0:
324,128,217465,1,0,0:0:0:0:
324,128,217637,1,8,0:0:0:0:
324,128,217808,1,0,0:0:0:0:
324,128,217894,1,0,0:0:0:0:
324,128,218065,1,8,0:0:0:0:
325,122,218237,1,0,0:0:0:0:
325,122,218322,1,0,0:0:0:0:
309,128,218408,1,8,0:0:0:0:
307,129,218494,1,8,0:0:0:0:
307,129,218579,1,8,0:0:0:0:
307,129,218751,1,0,0:0:0:0:
324,128,218837,1,0,0:0:0:0:
324,128,219008,1,8,0:0:0:0:
317,139,219094,1,8,0:0:0:0:
329,128,219179,1,0,0:0:0:0:
325,129,219265,1,8,0:0:0:0:
309,128,219351,1,8,0:0:0:0:
307,129,219437,1,0,0:0:0:0:
314,146,219608,1,0,0:0:0:0:
314,124,219694,1,0,0:0:0:0:
317,134,219779,1,8,0:0:0:0:
308,138,219865,1,8,0:0:0:0:
324,128,219951,1,0,0:0:0:0:
316,136,220122,1,0,0:0:0:0:
316,137,220208,1,8,0:0:0:0:
307,129,220379,1,0,0:0:0:0:
306,125,220551,1,0,0:0:0:0:
306,124,220637,1,8,0:0:0:0:
306,124,220722,1,8,0:0:0:0:
306,124,220808,1,0,0:0:0:0:
306,124,220979,1,0,0:0:0:0:
306,124,221151,1,8,0:0:0:0:
307,129,221237,1,8,0:0:0:0:
307,129,221322,1,8,0:0:0:0:
306,125,221408,1,8,0:0:0:0:
306,125,221494,1,0,0:0:0:0:
306,124,221579,1,0,0:0:0:0:
306,124,221665,1,0,0:0:0:0:
318,113,221751,1,0,0:0:0:0:
315,124,221837,1,8,0:0:0:0:
314,123,221894,1,0,0:0:0:0:
289,107,221951,1,0,0:0:0:0:
308,102,222008,1,8,0:0:0:0:
309,102,222051,1,8,0:0:0:0:
310,106,222094,1,8,0:0:0:0:
301,106,222179,1,4,0:0:0:0:
332,117,231779,5,0,0:0:0:0:
332,117,232122,1,0,0:0:0:0:
332,117,232465,1,8,0:0:0:0:
332,117,232551,1,0,0:0:0:0:
332,117,232637,1,0,0:0:0:0:
332,117,232722,1,0,0:0:0:0:
332,117,232808,1,8,0:0:0:0:
332,117,232979,1,0,0:0:0:0:
343,122,233151,1,4,0:0:0:0:
334,104,233494,1,8,0:0:0:0:
342,104,233551,1,8,0:0:0:0:
342,104,233608,1,8,0:0:0:0:
342,104,233665,1,0,0:0:0:0:
342,104,233722,1,0,0:0:0:0:
336,98,233780,1,0,0:0:0:0:
343,103,233837,1,8,0:0:0:0:
353,101,234008,1,0,0:0:0:0:
343,103,234180,1,8,0:0:0:0:
344,103,234294,1,0,0:0:0:0:
355,101,234351,1,8,0:0:0:0:
356,102,234522,1,0,0:0:0:0:
349,101,234694,1,0,0:0:0:0:
349,101,234865,1,8,0:0:0:0:
323,115,234979,1,0,0:0:0:0:
324,114,235037,1,8,0:0:0:0:
333,101,235379,1,0,0:0:0:0:
333,101,235551,1,0,0:0:0:0:
333,103,235722,1,8,0:0:0:0:
348,93,235894,1,0,0:0:0:0:
348,94,235951,1,0,0:0:0:0:
343,93,236008,1,0,0:0:0:0:
342,92,236065,1,0,0:0:0:0:
343,103,236237,1,8,0:0:0:0:
341,100,236294,1,8,0:0:0:0:
341,99,236351,1,8,0:0:0:0:
341,99,236408,1,8,0:0:0:0:
347,89,236580,1,8,0:0:0:0:
344,87,236694,1,0,0:0:0:0:
348,93,236808,1,0,0:0:0:0:
345,86,236922,1,8,0:0:0:0:
342,78,237037,1,8,0:0:0:0:
344,86,237151,1,8,0:0:0:0:
330,86,237265,1,0,0:0:0:0:
341,100,237322,1,0,0:0:0:0:
341,99,237380,1,0,0:0:0:0:
341,99,237437,1,0,0:0:0:0:
347,89,237608,1,0,0:0:0:0:
344,87,237665,1,0,0:0:0:0:
335,90,237780,1,0,0:0:0:0:
335,90,237837,1,0,0:0:0:0:
336,89,237951,1,8,0:0:0:0:
315,92,238065,1,0,0:0:0:0:
323,90,238180,1,0,0:0:0:0:
323,90,238294,1,0,0:0:0:0:
324,90,238408,1,8,0:0:0:0:
324,90,238522,1,8,0:0:0:0:
324,90,238637,1,4,0:0:0:0:
315,66,238980,1,8,0:0:0:0:
315,66,239037,1,8,0:0:0:0:
316,66,239094,1,8,0:0:0:0:
316,66,239151,1,0,0:0:0:0:
315,66,239208,1,0,0:0:0:0:
305,65,239265,1,0,0:0:0:0:
305,65,239322,1,8,0:0:0:0:
329,76,239494,1,0,0:0:0:0:
321,63,239665,1,8,0:0:0:0:
302,75,239780,1,0,0:0:0:0:
319,80,239837,1,8,0:0:0:0:
304,76,240008,1,0,0:0:0:0:
320,71,240351,1,0,0:0:0:0:
315,69,240437,1,8,0:0:0:0:
313,71,240522,1,8,0:0:0:0:
311,72,240608,1,0,0:0:0:0:
315,69,240694,1,8,0:0:0:0:
314,68,240865,1,0,0:0:0:0:
311,69,241037,1,8,0:0:0:0:
314,82,241094,1,0,0:0:0:0:
314,82,241151,1,8,0:0:0:0:
317,55,241208,1,8,0:0:0:0:
360,56,241379,1,0,0:0:0:0:
345,53,241436,1,0,0:0:0:0:
343,60,241493,1,0,0:0:0:0:
345,54,241550,1,0,0:0:0:0:
345,53,241722,1,8,0:0:0:0:
345,54,241779,1,8,0:0:0:0:
345,54,241836,1,8,0:0:0:0:
345,54,241894,1,8,0:0:0:0:
344,55,242065,1,8,0:0:0:0:
344,55,242180,1,0,0:0:0:0:
345,55,242294,1,0,0:0:0:0:
345,54,242408,1,8,0:0:0:0:
343,60,242522,1,8,0:0:0:0:
345,53,242637,1,8,0:0:0:0:
345,53,242751,1,0,0:0:0:0:
344,55,243094,1,0,0:0:0:0:
345,54,243437,1,12,0:0:0:0:
345,53,243608,1,0,0:0:0:0:
345,53,243780,1,8,0:0:0:0:
344,55,243951,1,0,0:0:0:0:
344,55,244122,1,4,0:0:0:0:
334,104,244465,1,8,0:0:0:0:
342,104,244522,1,8,0:0:0:0:
342,104,244579,1,8,0:0:0:0:
342,104,244636,1,0,0:0:0:0:
342,104,244693,1,0,0:0:0:0:
336,98,244751,1,0,0:0:0:0:
343,103,244808,1,8,0:0:0:0:
353,101,244979,1,0,0:0:0:0:
343,103,245151,1,8,0:0:0:0:
344,103,245265,1,0,0:0:0:0:
355,101,245322,1,8,0:0:0:0:
356,102,245493,1,0,0:0:0:0:
349,101,245665,1,0,0:0:0:0:
349,101,245836,1,8,0:0:0:0:
342,110,245951,1,0,0:0:0:0:
342,110,246008,1,8,0:0:0:0:
339,104,246351,1,0,0:0:0:0:
339,104,246522,1,0,0:0:0:0:
338,104,246694,1,8,0:0:0:0:
348,93,246865,1,0,0:0:0:0:
348,94,246922,1,0,0:0:0:0:
343,93,246979,1,0,0:0:0:0:
342,92,247036,1,0,0:0:0:0:
343,103,247208,1,8,0:0:0:0:
341,100,247265,1,8,0:0:0:0:
341,99,247322,1,8,0:0:0:0:
341,99,247379,1,8,0:0:0:0:
347,89,247551,1,8,0:0:0:0:
344,87,247665,1,0,0:0:0:0:
348,93,247779,1,0,0:0:0:0:
345,86,247893,1,8,0:0:0:0:
342,78,248008,1,8,0:0:0:0:
344,86,248122,1,8,0:0:0:0:
330,86,248236,1,0,0:0:0:0:
341,100,248293,1,0,0:0:0:0:
341,99,248351,1,0,0:0:0:0:
341,99,248408,1,0,0:0:0:0:
347,89,248579,1,0,0:0:0:0:
344,87,248636,1,0,0:0:0:0:
335,90,248751,1,0,0:0:0:0:
335,90,248808,1,0,0:0:0:0:
336,89,248922,1,8,0:0:0:0:
315,92,249036,1,0,0:0:0:0:
323,90,249151,1,0,0:0:0:0:
323,90,249265,1,0,0:0:0:0:
324,90,249380,1,8,0:0:0:0:
324,90,249494,1,8,0:0:0:0:
324,90,249608,1,4,0:0:0:0:
315,66,249951,1,0,0:0:0:0:
316,66,250065,1,0,0:0:0:0:
315,66,250180,1,0,0:0:0:0:
305,65,250294,1,8,0:0:0:0:
313,70,250408,1,0,0:0:0:0:
329,76,250465,1,0,0:0:0:0:
321,63,250636,1,8,0:0:0:0:
302,75,250751,1,0,0:0:0:0:
319,80,250808,1,8,0:0:0:0:
304,76,250980,1,0,0:0:0:0:
328,75,251094,1,8,0:0:0:0:
329,76,251151,1,8,0:0:0:0:
320,71,251322,1,0,0:0:0:0:
315,69,251408,1,8,0:0:0:0:
313,71,251494,1,8,0:0:0:0:
311,72,251579,1,0,0:0:0:0:
315,69,251665,1,8,0:0:0:0:
314,68,251836,1,0,0:0:0:0:
311,69,252008,1,8,0:0:0:0:
320,59,252122,1,0,0:0:0:0:
317,55,252179,1,8,0:0:0:0:
360,56,252351,1,0,0:0:0:0:
344,54,252522,1,8,0:0:0:0:
345,54,252694,1,0,0:0:0:0:
353,54,252780,1,0,0:0:0:0:
353,54,252865,1,0,0:0:0:0:
353,54,252951,1,0,0:0:0:0:
352,53,253037,1,8,0:0:0:0:
349,52,253208,1,0,0:0:0:0:
344,54,253380,1,0,0:0:0:0:
344,54,253465,1,0,0:0:0:0:
345,54,253551,1,0,0:0:0:0:
353,54,253637,1,0,0:0:0:0:
353,54,253722,1,8,0:0:0:0:
353,54,253894,1,0,0:0:0:0:
349,52,254065,1,0,0:0:0:0:
344,54,254237,1,0,0:0:0:0:
344,54,254408,1,8,0:0:0:0:
353,54,254580,1,0,0:0:0:0:
353,54,254751,1,0,0:0:0:0:
349,52,254922,1,0,0:0:0:0:
344,54,255094,1,12,0:0:0:0:
317,83,260579,5,0,0:0:0:0:
317,78,260922,1,8,0:0:0:0:
317,83,261093,1,0,0:0:0:0:
317,83,261436,1,8,0:0:0:0:
317,78,261950,1,0,0:0:0:0:
319,74,262293,1,8,0:0:0:0:
319,74,262464,1,0,0:0:0:0:
317,78,262807,1,8,0:0:0:0:
319,74,263322,1,0,0:0:0:0:
317,78,263664,1,8,0:0:0:0:
317,78,263836,1,0,0:0:0:0:
319,74,264179,1,8,0:0:0:0:
317,78,264693,1,0,0:0:0:0:
319,74,265036,1,0,0:0:0:0:
319,74,265207,1,8,0:0:0:0:
317,78,265550,1,0,0:0:0:0:
319,74,266064,1,8,0:0:0:0:
317,78,266407,1,0,0:0:0:0:
317,78,266579,1,0,0:0:0:0:
319,74,266751,1,8,0:0:0:0:
319,74,266922,1,0,0:0:0:0:
327,71,267093,1,0,0:0:0:0:
317,78,267436,1,8,0:0:0:0:
319,74,267779,1,0,0:0:0:0:
319,74,267950,1,0,0:0:0:0:
327,80,268122,1,8,0:0:0:0:
317,78,268293,1,0,0:0:0:0:
328,87,268807,1,8,0:0:0:0:
324,85,269150,1,0,0:0:0:0:
320,85,269322,1,0,0:0:0:0:
325,78,269494,1,8,0:0:0:0:
320,85,269664,1,0,0:0:0:0:
321,84,269836,1,0,0:0:0:0:
307,83,270179,1,8,0:0:0:0:
320,85,270522,1,0,0:0:0:0:
320,85,270693,1,8,0:0:0:0:
307,83,270865,1,8,0:0:0:0:
324,85,271036,1,0,0:0:0:0:
317,88,271207,1,0,0:0:0:0:
320,85,271550,1,8,0:0:0:0:
304,86,271894,1,8,0:0:0:0:
304,86,272065,1,0,0:0:0:0:
332,80,272237,1,8,0:0:0:0:
320,85,272407,1,0,0:0:0:0:
320,85,272579,1,0,0:0:0:0:
327,99,272751,1,0,0:0:0:0:
324,85,272922,1,8,0:0:0:0:
317,86,273094,1,0,0:0:0:0:
306,82,273265,1,8,0:0:0:0:
320,85,273436,1,8,0:0:0:0:
310,91,273608,1,0,0:0:0:0:
324,85,273779,1,8,0:0:0:0:
317,86,273951,1,0,0:0:0:0:
321,87,274122,1,0,0:0:0:0:
320,76,274293,1,8,0:0:0:0:
324,81,274465,1,0,0:0:0:0:
320,76,274636,1,0,0:0:0:0:
320,76,274807,1,8,0:0:0:0:
314,69,274979,1,0,0:0:0:0:
320,76,275151,1,8,0:0:0:0:
324,81,275322,1,8,0:0:0:0:
327,75,275494,1,0,0:0:0:0:
320,76,275664,1,0,0:0:0:0:
326,60,275751,1,0,0:0:0:0:
326,60,275837,1,0,0:0:0:0:
326,60,275922,1,0,0:0:0:0:
320,76,276007,1,0,0:0:0:0:
326,60,276094,1,0,0:0:0:0:
326,60,276179,1,0,0:0:0:0:
326,60,276265,1,0,0:0:0:0:
326,60,276351,1,0,0:0:0:0:
326,60,276437,1,0,0:0:0:0:
320,76,276522,1,0,0:0:0:0:
326,60,276608,1,0,0:0:0:0:
308,74,276693,1,0,0:0:0:0:
319,75,276779,1,0,0:0:0:0:
319,75,276865,1,0,0:0:0:0:
320,76,276951,1,0,0:0:0:0:
321,72,277037,1,0,0:0:0:0:
319,75,277122,1,0,0:0:0:0:
319,75,277208,1,0,0:0:0:0:
321,71,277294,1,0,0:0:0:0:
319,75,277379,1,0,0:0:0:0:
320,76,277465,1,0,0:0:0:0:
321,71,277551,1,0,0:0:0:0:
319,75,277637,1,0,0:0:0:0:
256,192,277722,12,0,279608,0:0:0:0:
333,118,279779,5,0,0:0:0:0:
318,118,279865,1,0,0:0:0:0:
318,118,279951,1,0,0:0:0:0:
318,118,280037,1,0,0:0:0:0:
333,118,280122,1,0,0:0:0:0:
318,118,280208,1,0,0:0:0:0:
333,118,280293,1,0,0:0:0:0:
318,118,280379,1,0,0:0:0:0:
333,118,280464,1,0,0:0:0:0:
318,117,280551,1,0,0:0:0:0:
333,118,280636,1,0,0:0:0:0:
318,118,280722,1,0,0:0:0:0:
333,118,280807,1,0,0:0:0:0:
318,118,280894,1,0,0:0:0:0:
318,118,280979,1,0,0:0:0:0:
318,117,281065,1,0,0:0:0:0:
333,118,281150,1,0,0:0:0:0:
335,111,281493,1,0,0:0:0:0:
343,121,281837,1,8,0:0:0:0:
309,119,282008,1,0,0:0:0:0:
309,119,282179,1,0,0:0:0:0:
313,112,282351,1,8,0:0:0:0:
321,100,282522,1,4,0:0:0:0:
332,120,282694,1,8,0:0:0:0:
332,120,282779,1,0,0:0:0:0:
336,121,282865,1,8,0:0:0:0:
329,122,283037,1,0,0:0:0:0:
329,122,283208,1,8,0:0:0:0:
329,123,283294,1,0,0:0:0:0:
328,112,283379,1,0,0:0:0:0:
328,112,283465,1,8,0:0:0:0:
328,111,283637,1,0,0:0:0:0:
332,120,283722,1,8,0:0:0:0:
335,109,283894,1,0,0:0:0:0:
335,109,283979,1,0,0:0:0:0:
335,109,284065,1,8,0:0:0:0:
335,109,284151,1,0,0:0:0:0:
335,109,284237,1,8,0:0:0:0:
334,109,284408,1,0,0:0:0:0:
328,111,284494,1,0,0:0:0:0:
328,111,284579,1,8,0:0:0:0:
334,109,284751,1,0,0:0:0:0:
335,109,284837,1,0,0:0:0:0:
335,109,285008,1,0,0:0:0:0:
335,109,285094,1,8,0:0:0:0:
335,109,285179,1,8,0:0:0:0:
335,109,285265,1,0,0:0:0:0:
334,109,285437,1,8,0:0:0:0:
333,102,285522,1,0,0:0:0:0:
332,101,285608,1,8,0:0:0:0:
334,109,285694,1,8,0:0:0:0:
334,109,285779,1,0,0:0:0:0:
332,102,285951,1,8,0:0:0:0:
335,109,286037,1,0,0:0:0:0:
332,102,286122,1,0,0:0:0:0:
335,109,286208,1,8,0:0:0:0:
334,109,286379,1,0,0:0:0:0:
334,109,286465,1,8,0:0:0:0:
332,109,286637,1,8,0:0:0:0:
332,101,286722,1,0,0:0:0:0:
331,101,286808,1,0,0:0:0:0:
332,102,286979,1,8,0:0:0:0:
331,102,287065,1,8,0:0:0:0:
335,92,287151,1,0,0:0:0:0:
334,91,287208,1,0,0:0:0:0:
334,92,287265,1,0,0:0:0:0:
333,91,287322,1,8,0:0:0:0:
336,80,287408,1,0,0:0:0:0:
334,80,287579,1,8,0:0:0:0:
339,92,287665,1,8,0:0:0:0:
339,92,287751,1,0,0:0:0:0:
339,92,287837,1,8,0:0:0:0:
339,92,287922,1,0,0:0:0:0:
339,92,288008,1,8,0:0:0:0:
335,92,288179,1,0,0:0:0:0:
333,91,288351,1,8,0:0:0:0:
339,92,288437,1,0,0:0:0:0:
339,92,288522,1,0,0:0:0:0:
339,92,288694,1,8,0:0:0:0:
339,92,288779,1,0,0:0:0:0:
339,92,288865,1,0,0:0:0:0:
339,92,288951,1,8,0:0:0:0:
335,92,289122,1,0,0:0:0:0:
341,89,289208,1,0,0:0:0:0:
328,105,289379,1,8,0:0:0:0:
335,81,289465,1,8,0:0:0:0:
328,105,289551,1,0,0:0:0:0:
334,82,289637,1,0,0:0:0:0:
335,81,289722,1,8,0:0:0:0:
334,82,289808,1,8,0:0:0:0:
335,81,289979,1,8,0:0:0:0:
335,81,290065,1,0,0:0:0:0:
336,81,290151,1,0,0:0:0:0:
336,81,290237,1,8,0:0:0:0:
338,82,290322,1,0,0:0:0:0:
338,81,290408,1,8,0:0:0:0:
338,72,290579,1,8,0:0:0:0:
338,74,290751,1,0,0:0:0:0:
338,74,290837,1,0,0:0:0:0:
335,81,290922,1,8,0:0:0:0:
335,81,291094,1,8,0:0:0:0:
338,71,291265,1,0,0:0:0:0:
339,72,291351,1,8,0:0:0:0:
338,72,291437,1,0,0:0:0:0:
338,72,291522,1,0,0:0:0:0:
338,74,291608,1,8,0:0:0:0:
338,74,291694,1,0,0:0:0:0:
338,74,291779,1,8,0:0:0:0:
338,74,291865,1,8,0:0:0:0:
339,74,291951,1,0,0:0:0:0:
335,81,292037,1,8,0:0:0:0:
343,68,292122,1,0,0:0:0:0:
338,71,292208,1,0,0:0:0:0:
339,72,292379,1,8,0:0:0:0:
338,72,292465,1,0,0:0:0:0:
338,74,292637,1,8,0:0:0:0:
350,75,292722,1,0,0:0:0:0:
351,75,292808,1,0,0:0:0:0:
353,74,292894,1,0,0:0:0:0:
352,74,292979,1,8,0:0:0:0:
352,73,293151,1,0,0:0:0:0:
352,73,293237,1,8,0:0:0:0:
352,73,293322,1,0,0:0:0:0:
347,70,293494,1,12,0:0:0:0:
341,83,293665,1,0,0:0:0:0:
341,83,293751,1,0,0:0:0:0:
340,86,293837,1,8,0:0:0:0:
339,85,294008,1,0,0:0:0:0:
352,73,294179,1,8,0:0:0:0:
352,73,294265,1,0,0:0:0:0:
352,73,294351,1,0,0:0:0:0:
347,70,294437,1,8,0:0:0:0:
349,75,294608,1,0,0:0:0:0:
339,74,294694,1,0,0:0:0:0:
340,86,294865,1,8,0:0:0:0:
320,67,294922,1,8,0:0:0:0:
321,67,294979,1,8,0:0:0:0:
321,67,295037,1,0,0:0:0:0:
332,66,295122,1,0,0:0:0:0:
325,65,295208,1,8,0:0:0:0:
325,65,295294,1,0,0:0:0:0:
333,66,295379,1,8,0:0:0:0:
334,66,295465,1,8,0:0:0:0:
335,66,295551,1,0,0:0:0:0:
335,66,295637,1,0,0:0:0:0:
335,66,295722,1,0,0:0:0:0:
330,54,295894,1,8,0:0:0:0:
329,54,295979,1,0,0:0:0:0:
338,55,296151,1,0,0:0:0:0:
338,55,296237,1,8,0:0:0:0:
338,55,296408,1,0,0:0:0:0:
337,55,296494,1,0,0:0:0:0:
337,56,296579,1,8,0:0:0:0:
338,55,296665,1,8,0:0:0:0:
337,56,296837,1,8,0:0:0:0:
338,56,297008,1,0,0:0:0:0:
338,55,297179,1,0,0:0:0:0:
338,55,297265,1,8,0:0:0:0:
338,55,297351,1,0,0:0:0:0:
338,55,297437,1,8,0:0:0:0:
337,56,297608,1,0,0:0:0:0:
350,74,297665,1,8,0:0:0:0:
350,74,297722,1,8,0:0:0:0:
350,74,297779,1,0,0:0:0:0:
352,69,297865,1,0,0:0:0:0:
352,69,297951,1,8,0:0:0:0:
324,53,298037,1,8,0:0:0:0:
324,54,298208,1,0,0:0:0:0:
324,54,298294,1,8,0:0:0:0:
324,58,298465,1,0,0:0:0:0:
324,58,298551,1,8,0:0:0:0:
323,50,298722,1,8,0:0:0:0:
325,50,298808,1,0,0:0:0:0:
325,50,298894,1,0,0:0:0:0:
325,50,298979,1,8,0:0:0:0:
324,54,299151,1,0,0:0:0:0:
324,54,299237,1,8,0:0:0:0:
324,54,299322,1,8,0:0:0:0:
330,52,299408,1,0,0:0:0:0:
324,58,299579,1,8,0:0:0:0:
323,50,299665,1,0,0:0:0:0:
325,50,299837,1,0,0:0:0:0:
325,50,299922,1,0,0:0:0:0:
325,50,300008,1,8,0:0:0:0:
324,54,300094,1,8,0:0:0:0:
324,54,300179,1,8,0:0:0:0:
324,54,300265,1,8,0:0:0:0:
324,54,300351,1,0,0:0:0:0:
330,52,300437,1,0,0:0:0:0:
326,49,300522,1,8,0:0:0:0:
323,50,300694,1,0,0:0:0:0:
328,61,300779,1,8,0:0:0:0:
327,40,300951,1,0,0:0:0:0:
327,40,301037,1,0,0:0:0:0:
327,40,301122,1,0,0:0:0:0:
326,40,301208,1,8,0:0:0:0:
330,52,301379,1,0,0:0:0:0:
330,52,301465,1,8,0:0:0:0:
323,50,301637,1,8,0:0:0:0:
323,50,301722,1,0,0:0:0:0:
320,47,301894,1,8,0:0:0:0:
340,63,301951,1,0,0:0:0:0:
340,63,302008,1,0,0:0:0:0:
342,63,302065,1,8,0:0:0:0:
274,78,302151,1,0,0:0:0:0:
340,65,302237,1,8,0:0:0:0:
340,65,302322,1,8,0:0:0:0:
337,65,302408,1,0,0:0:0:0:
337,66,302579,1,8,0:0:0:0:
337,67,302665,1,0,0:0:0:0:
335,68,302751,1,8,0:0:0:0:
334,68,302837,1,8,0:0:0:0:
328,89,302922,1,0,0:0:0:0:
334,68,303008,1,0,0:0:0:0:
322,82,303094,1,8,0:0:0:0:
322,82,303265,1,0,0:0:0:0:
323,86,303351,1,8,0:0:0:0:
326,78,303437,1,0,0:0:0:0:
336,76,303522,1,0,0:0:0:0:
324,69,303608,1,8,0:0:0:0:
334,68,303779,1,0,0:0:0:0:
340,70,303951,1,0,0:0:0:0:
328,70,304122,1,8,0:0:0:0:
316,64,304179,1,8,0:0:0:0:
317,64,304237,1,8,0:0:0:0:
318,64,304294,1,0,0:0:0:0:
348,63,304379,1,0,0:0:0:0:
339,69,304465,1,12,0:0:0:0:
334,135,304637,1,0,0:0:0:0:
341,141,304808,1,8,0:0:0:0:
349,136,304894,1,8,0:0:0:0:
344,132,304980,1,0,0:0:0:0:
326,94,305065,1,0,0:0:0:0:
335,133,305151,1,8,0:0:0:0:
335,133,305237,1,0,0:0:0:0:
334,135,305408,1,8,0:0:0:0:
334,135,305494,1,8,0:0:0:0:
334,135,305580,1,0,0:0:0:0:
329,112,305666,1,8,0:0:0:0:
339,133,305837,1,0,0:0:0:0:
335,133,306008,1,8,0:0:0:0:
335,133,306094,1,0,0:0:0:0:
343,122,306179,1,8,0:0:0:0:
330,144,306266,1,0,0:0:0:0:
334,135,306351,1,0,0:0:0:0:
325,145,306523,1,8,0:0:0:0:
329,135,306608,1,0,0:0:0:0:
338,124,306694,1,0,0:0:0:0:
334,124,306780,1,8,0:0:0:0:
334,124,306866,1,8,0:0:0:0:
329,126,307037,1,8,0:0:0:0:
329,126,307208,1,0,0:0:0:0:
330,126,307380,1,0,0:0:0:0:
330,126,307551,1,8,0:0:0:0:
330,126,307637,1,8,0:0:0:0:
334,124,307723,1,8,0:0:0:0:
330,116,307808,1,8,0:0:0:0:
329,126,307894,1,0,0:0:0:0:
345,129,308066,1,0,0:0:0:0:
343,129,308237,1,8,0:0:0:0:
330,126,308323,1,8,0:0:0:0:
330,126,308408,1,0,0:0:0:0:
330,126,308494,1,0,0:0:0:0:
330,126,308580,1,8,0:0:0:0:
349,124,308751,1,0,0:0:0:0:
350,124,308923,1,8,0:0:0:0:
350,124,309008,1,8,0:0:0:0:
349,121,309094,1,8,0:0:0:0:
348,121,309266,1,0,0:0:0:0:
345,115,309351,1,8,0:0:0:0:
360,117,309523,1,8,0:0:0:0:
360,117,309608,1,0,0:0:0:0:
360,117,309694,1,0,0:0:0:0:
360,121,309780,1,8,0:0:0:0:
360,121,309866,1,8,0:0:0:0:
350,124,309951,1,0,0:0:0:0:
348,123,310123,1,8,0:0:0:0:
348,121,310208,1,0,0:0:0:0:
360,117,310294,1,8,0:0:0:0:
344,115,310466,1,0,0:0:0:0:
344,116,310551,1,0,0:0:0:0:
345,114,310637,1,8,0:0:0:0:
345,95,310723,1,0,0:0:0:0:
338,122,310894,1,8,0:0:0:0:
348,123,311066,1,0,0:0:0:0:
348,121,311151,1,0,0:0:0:0:
344,115,311322,1,8,0:0:0:0:
336,113,311494,1,0,0:0:0:0:
336,113,311580,1,0,0:0:0:0:
337,113,311666,1,8,0:0:0:0:
337,113,311837,1,0,0:0:0:0:
337,114,311923,1,0,0:0:0:0:
341,115,312094,1,8,0:0:0:0:
344,115,312180,1,0,0:0:0:0:
336,123,312351,1,8,0:0:0:0:
336,123,312523,1,8,0:0:0:0:
326,124,312608,1,8,0:0:0:0:
330,126,312694,1,0,0:0:0:0:
329,126,312780,1,0,0:0:0:0:
326,115,312866,1,8,0:0:0:0:
344,105,313037,1,8,0:0:0:0:
333,104,313123,1,8,0:0:0:0:
344,105,313208,1,8,0:0:0:0:
344,105,313294,1,8,0:0:0:0:
333,104,313380,1,0,0:0:0:0:
322,104,313551,1,8,0:0:0:0:
339,111,313723,1,0,0:0:0:0:
326,105,313808,1,8,0:0:0:0:
325,108,313894,1,0,0:0:0:0:
325,108,313980,1,0,0:0:0:0:
322,111,314065,1,8,0:0:0:0:
325,112,314237,1,0,0:0:0:0:
325,112,314408,1,8,0:0:0:0:
322,104,314494,1,8,0:0:0:0:
321,106,314579,1,8,0:0:0:0:
321,106,314665,1,8,0:0:0:0:
326,105,314751,1,0,0:0:0:0:
318,107,314837,1,0,0:0:0:0:
318,107,314922,1,8,0:0:0:0:
322,111,315008,1,0,0:0:0:0:
318,107,315094,1,8,0:0:0:0:
314,109,315179,1,8,0:0:0:0:
314,109,315265,1,0,0:0:0:0:
314,101,315437,1,12,0:0:0:0:
329,109,315608,1,0,0:0:0:0:
329,109,315780,1,8,0:0:0:0:
329,109,315866,1,8,0:0:0:0:
329,109,315951,1,0,0:0:0:0:
332,104,316037,1,0,0:0:0:0:
322,106,316123,1,8,0:0:0:0:
332,111,316208,1,0,0:0:0:0:
332,111,316380,1,8,0:0:0:0:
329,109,316551,1,0,0:0:0:0:
329,109,316637,1,0,0:0:0:0:
329,109,316808,1,8,0:0:0:0:
330,107,316980,1,0,0:0:0:0:
330,107,317066,1,8,0:0:0:0:
332,111,317237,1,8,0:0:0:0:
332,111,317323,1,0,0:0:0:0:
339,114,317408,1,8,0:0:0:0:
329,109,317494,1,0,0:0:0:0:
329,109,317580,1,0,0:0:0:0:
328,118,317751,1,8,0:0:0:0:
327,118,317837,1,0,0:0:0:0:
327,118,318008,1,0,0:0:0:0:
337,91,318094,1,8,0:0:0:0:
326,103,318180,1,0,0:0:0:0:
329,109,318351,1,0,0:0:0:0:
329,109,318523,1,8,0:0:0:0:
325,104,318608,1,8,0:0:0:0:
324,104,318694,1,0,0:0:0:0:
324,104,318780,1,0,0:0:0:0:
324,104,318866,1,8,0:0:0:0:
324,104,319037,1,0,0:0:0:0:
329,109,319208,1,8,0:0:0:0:
329,109,319294,1,0,0:0:0:0:
329,109,319380,1,8,0:0:0:0:
329,109,319466,1,8,0:0:0:0:
325,104,319551,1,0,0:0:0:0:
324,104,319723,1,8,0:0:0:0:
324,104,319894,1,0,0:0:0:0:
312,111,319980,1,8,0:0:0:0:
313,110,320066,1,8,0:0:0:0:
313,110,320151,1,0,0:0:0:0:
315,112,320237,1,8,0:0:0:0:
315,112,320408,1,0,0:0:0:0:
315,112,320494,1,8,0:0:0:0:
315,112,320666,1,0,0:0:0:0:
317,116,320751,1,8,0:0:0:0:
315,112,320837,1,8,0:0:0:0:
319,122,320923,1,0,0:0:0:0:
319,121,321094,1,0,0:0:0:0:
319,122,321266,1,8,0:0:0:0:
324,128,321351,1,0,0:0:0:0:
324,128,321437,1,0,0:0:0:0:
320,128,321608,1,8,0:0:0:0:
324,128,321694,1,0,0:0:0:0:
357,106,321779,1,0,0:0:0:0:
324,128,321866,1,8,0:0:0:0:
324,128,322037,1,0,0:0:0:0:
324,128,322123,1,0,0:0:0:0:
324,128,322294,1,8,0:0:0:0:
325,122,322466,1,0,0:0:0:0:
325,122,322551,1,0,0:0:0:0:
309,128,322637,1,8,0:0:0:0:
307,129,322723,1,8,0:0:0:0:
307,129,322808,1,8,0:0:0:0:
307,129,322980,1,0,0:0:0:0:
324,128,323066,1,0,0:0:0:0:
324,128,323237,1,8,0:0:0:0:
317,139,323323,1,8,0:0:0:0:
329,128,323408,1,0,0:0:0:0:
358,105,323494,1,0,0:0:0:0:
309,128,323580,1,8,0:0:0:0:
307,129,323666,1,0,0:0:0:0:
314,146,323837,1,0,0:0:0:0:
314,124,323923,1,0,0:0:0:0:
317,134,324008,1,8,0:0:0:0:
308,138,324094,1,8,0:0:0:0:
324,128,324180,1,0,0:0:0:0:
316,136,324351,1,0,0:0:0:0:
316,137,324437,1,8,0:0:0:0:
347,110,324608,1,8,0:0:0:0:
347,110,324694,1,0,0:0:0:0:
306,125,324780,1,0,0:0:0:0:
306,124,324866,1,8,0:0:0:0:
306,124,324951,1,8,0:0:0:0:
306,124,325037,1,0,0:0:0:0:
333,113,325208,1,8,0:0:0:0:
331,113,325294,1,0,0:0:0:0:
323,120,325465,1,8,0:0:0:0:
324,120,325551,1,0,0:0:0:0:
325,116,325722,1,0,0:0:0:0:
306,107,325779,1,0,0:0:0:0:
306,107,325837,1,0,0:0:0:0:
306,107,325894,1,8,0:0:0:0:
332,101,325979,1,8,0:0:0:0:
313,96,326065,1,0,0:0:0:0:
337,91,326122,1,0,0:0:0:0:
337,91,326179,1,0,0:0:0:0:
337,91,326237,1,0,0:0:0:0:
337,91,326294,1,0,0:0:0:0:
336,90,326351,1,0,0:0:0:0:
337,92,326408,1,8,0:0:0:0:
339,110,326579,1,0,0:0:0:0:
319,80,326751,1,8,0:0:0:0:
325,76,326837,1,0,0:0:0:0:
330,58,326922,1,8,0:0:0:0:
325,77,327008,1,0,0:0:0:0:
331,76,327094,1,0,0:0:0:0:
326,77,327179,1,8,0:0:0:0:
327,76,327351,1,0,0:0:0:0:
336,79,327437,1,8,0:0:0:0:
326,83,327608,1,8,0:0:0:0:
336,78,327694,1,0,0:0:0:0:
327,83,327779,1,0,0:0:0:0:
313,70,327951,1,0,0:0:0:0:
325,83,328037,1,0,0:0:0:0:
326,67,328122,1,8,0:0:0:0:
326,77,328208,1,0,0:0:0:0:
316,77,328294,1,8,0:0:0:0:
325,66,328379,1,8,0:0:0:0:
322,63,328465,1,0,0:0:0:0:
322,62,328551,1,8,0:0:0:0:
320,62,328722,1,0,0:0:0:0:
319,62,328808,1,8,0:0:0:0:
313,70,328979,1,0,0:0:0:0:
314,63,329065,1,0,0:0:0:0:
314,63,329151,1,8,0:0:0:0:
313,61,329237,1,0,0:0:0:0:
314,63,329408,1,0,0:0:0:0:
322,62,329494,1,8,0:0:0:0:
320,62,329579,1,8,0:0:0:0:
320,62,329665,1,0,0:0:0:0:
336,57,329751,1,0,0:0:0:0:
335,57,329837,1,8,0:0:0:0:
335,57,329922,1,0,0:0:0:0:
335,57,330008,1,0,0:0:0:0:
335,58,330179,1,8,0:0:0:0:
335,58,330351,1,8,0:0:0:0:
333,59,330437,1,0,0:0:0:0:
333,59,330522,1,0,0:0:0:0:
331,58,330694,1,8,0:0:0:0:
336,57,330779,1,8,0:0:0:0:
335,57,330865,1,0,0:0:0:0:
339,46,330951,1,8,0:0:0:0:
335,57,331037,1,8,0:0:0:0:
339,45,331122,1,0,0:0:0:0:
346,46,331208,1,8,0:0:0:0:
346,48,331379,1,0,0:0:0:0:
347,49,331465,1,8,0:0:0:0:
347,49,331637,1,0,0:0:0:0:
347,50,331722,1,8,0:0:0:0:
347,50,331808,1,8,0:0:0:0:
343,50,331894,1,0,0:0:0:0:
370,64,332065,1,0,0:0:0:0:
367,63,332151,1,0,0:0:0:0:
325,64,332237,1,8,0:0:0:0:
355,72,332408,1,8,0:0:0:0:
355,71,332494,1,0,0:0:0:0:
376,71,332579,1,0,0:0:0:0:
376,71,332665,1,8,0:0:0:0:
373,71,332837,1,0,0:0:0:0:
365,70,332922,1,8,0:0:0:0:
353,67,333094,1,0,0:0:0:0:
348,77,333179,1,0,0:0:0:0:
361,65,333265,1,0,0:0:0:0:
342,63,333351,1,8,0:0:0:0:
369,76,333522,1,8,0:0:0:0:
376,71,333608,1,0,0:0:0:0:
366,65,333694,1,8,0:0:0:0:
357,61,333779,1,8,0:0:0:0:
357,61,333951,1,0,0:0:0:0:
353,67,334037,1,0,0:0:0:0:
353,67,334122,1,8,0:0:0:0:
361,65,334208,1,0,0:0:0:0:
361,65,334294,1,8,0:0:0:0:
365,56,334379,1,8,0:0:0:0:
363,71,334465,1,0,0:0:0:0:
363,71,334551,1,0,0:0:0:0:
352,79,334637,1,8,0:0:0:0:
351,71,334722,1,0,0:0:0:0:
351,71,334808,1,0,0:0:0:0:
351,71,334894,1,0,0:0:0:0:
356,58,334979,1,8,0:0:0:0:
356,58,335065,1,8,0:0:0:0:
354,59,335151,1,0,0:0:0:0:
354,59,335237,1,8,0:0:0:0:
350,70,335322,1,0,0:0:0:0:
349,57,335408,1,0,0:0:0:0:
349,57,335494,1,8,0:0:0:0:
349,57,335579,1,0,0:0:0:0:
349,57,335665,1,8,0:0:0:0:
349,57,335751,1,8,0:0:0:0:
349,56,335837,1,0,0:0:0:0:
349,57,335922,1,0,0:0:0:0:
356,58,336008,1,8,0:0:0:0:
354,59,336179,1,8,0:0:0:0:
362,59,336351,1,0,0:0:0:0:
362,59,336522,1,0,0:0:0:0:
362,58,336694,1,0,0:0:0:0:
362,58,336779,1,0,0:0:0:0:
362,58,336865,1,0,0:0:0:0:
359,59,336951,1,0,0:0:0:0:
356,58,337037,1,8,0:0:0:0:
356,34,337094,1,8,0:0:0:0:
356,34,337151,1,8,0:0:0:0:
362,59,337208,1,0,0:0:0:0:
362,59,337294,1,0,0:0:0:0:
362,59,337379,1,12,0:0:0:0:
362,80,337551,1,0,0:0:0:0:
369,62,337637,1,0,0:0:0:0:
369,62,337722,1,8,0:0:0:0:
369,61,337894,1,0,0:0:0:0:
369,61,337979,1,8,0:0:0:0:
369,61,338065,1,0,0:0:0:0:
368,60,338151,1,0,0:0:0:0:
370,61,338237,1,8,0:0:0:0:
370,61,338322,1,0,0:0:0:0:
371,60,338408,1,8,0:0:0:0:
371,60,338494,1,8,0:0:0:0:
371,61,338579,1,0,0:0:0:0:
369,62,338665,1,0,0:0:0:0:
369,62,338751,1,0,0:0:0:0:
369,61,338922,1,8,0:0:0:0:
382,72,339008,1,0,0:0:0:0:
381,72,339094,1,0,0:0:0:0:
374,72,339179,1,0,0:0:0:0:
375,71,339265,1,8,0:0:0:0:
374,72,339437,1,0,0:0:0:0:
385,59,339522,1,0,0:0:0:0:
387,66,339694,1,0,0:0:0:0:
387,66,339779,1,8,0:0:0:0:
387,67,339951,1,8,0:0:0:0:
389,68,340037,1,8,0:0:0:0:
389,68,340122,1,0,0:0:0:0:
389,67,340294,1,8,0:0:0:0:
389,67,340379,1,0,0:0:0:0:
389,68,340465,1,8,0:0:0:0:
389,69,340551,1,8,0:0:0:0:
394,65,340722,1,8,0:0:0:0:
394,64,340894,1,8,0:0:0:0:
395,64,340979,1,0,0:0:0:0:
389,68,341065,1,0,0:0:0:0:
394,64,341151,1,8,0:0:0:0:
398,63,341322,1,8,0:0:0:0:
400,64,341408,1,0,0:0:0:0:
401,62,341494,1,0,0:0:0:0:
401,72,341665,1,0,0:0:0:0:
401,72,341751,1,0,0:0:0:0:
401,71,341837,1,8,0:0:0:0:
394,64,341922,1,0,0:0:0:0:
396,63,342008,1,8,0:0:0:0:
394,64,342094,1,8,0:0:0:0:
394,64,342179,1,0,0:0:0:0:
398,63,342265,1,8,0:0:0:0:
383,64,342437,1,0,0:0:0:0:
392,64,342522,1,8,0:0:0:0:
394,64,342608,1,0,0:0:0:0:
395,64,342694,1,0,0:0:0:0:
395,63,342779,1,8,0:0:0:0:
401,71,342865,1,0,0:0:0:0:
412,109,343037,1,8,0:0:0:0:
406,106,343122,1,0,0:0:0:0:
417,97,343294,1,0,0:0:0:0:
410,94,343379,1,8,0:0:0:0:
388,81,343551,1,8,0:0:0:0:
394,81,343722,1,0,0:0:0:0:
395,81,343808,1,0,0:0:0:0:
364,78,343979,1,0,0:0:0:0:
377,85,344065,1,8,0:0:0:0:
387,92,344151,1,0,0:0:0:0:
388,92,344237,1,8,0:0:0:0:
395,97,344408,1,8,0:0:0:0:
392,98,344494,1,0,0:0:0:0:
396,80,344579,1,8,0:0:0:0:
394,81,344665,1,0,0:0:0:0:
401,88,344751,1,8,0:0:0:0:
398,87,344837,1,0,0:0:0:0:
398,87,344922,1,0,0:0:0:0:
390,86,345094,1,8,0:0:0:0:
391,86,345179,1,0,0:0:0:0:
392,84,345265,1,8,0:0:0:0:
392,83,345351,1,0,0:0:0:0:
384,85,345437,1,8,0:0:0:0:
384,86,345522,1,8,0:0:0:0:
384,86,345608,1,0,0:0:0:0:
299,78,345779,1,0,0:0:0:0:
345,74,345865,1,8,0:0:0:0:
345,74,345951,1,0,0:0:0:0:
345,74,346037,1,0,0:0:0:0:
345,74,346122,1,8,0:0:0:0:
329,122,346294,1,8,0:0:0:0:
339,83,346379,1,0,0:0:0:0:
329,122,346465,1,0,0:0:0:0:
338,84,346551,1,8,0:0:0:0:
338,84,346722,1,0,0:0:0:0:
329,85,346808,1,0,0:0:0:0:
361,87,346979,1,12,0:0:0:0:
370,92,347237,1,8,0:0:0:0:
370,91,347494,1,8,0:0:0:0:
371,93,347665,1,0,0:0:0:0:
371,93,347751,1,0,0:0:0:0:
371,93,347837,1,0,0:0:0:0:
371,93,347922,1,0,0:0:0:0:
371,93,348008,1,0,0:0:0:0:
339,81,348094,1,0,0:0:0:0:
339,81,348179,1,0,0:0:0:0:
354,84,348265,1,0,0:0:0:0:
358,94,348351,1,12,0:0:0:0:
396,92,348522,1,0,0:0:0:0:
381,92,348608,1,0,0:0:0:0:
416,98,348694,1,8,0:0:0:0:
405,97,348779,1,8,0:0:0:0:
393,93,348865,1,0,0:0:0:0:
388,93,349037,1,8,0:0:0:0:
385,96,349122,1,0,0:0:0:0:
385,92,349208,1,0,0:0:0:0:
383,89,349294,1,0,0:0:0:0:
382,87,349379,1,8,0:0:0:0:
380,85,349551,1,8,0:0:0:0:
384,85,349637,1,0,0:0:0:0:
371,100,349722,1,0,0:0:0:0:
386,83,349894,1,8,0:0:0:0:
388,105,349979,1,0,0:0:0:0:
385,84,350065,1,8,0:0:0:0:
380,90,350151,1,0,0:0:0:0:
385,92,350237,1,8,0:0:0:0:
372,88,350408,1,0,0:0:0:0:
372,88,350494,1,0,0:0:0:0:
372,88,350665,1,0,0:0:0:0:
372,88,350751,1,8,0:0:0:0:
372,87,350837,1,0,0:0:0:0:
372,88,350922,1,8,0:0:0:0:
372,88,351008,1,8,0:0:0:0:
385,84,351094,1,0,0:0:0:0:
379,80,351265,1,0,0:0:0:0:
390,83,351351,1,0,0:0:0:0:
379,81,351437,1,8,0:0:0:0:
379,103,351608,1,0,0:0:0:0:
387,101,351694,1,8,0:0:0:0:
387,101,351779,1,8,0:0:0:0:
376,107,351865,1,0,0:0:0:0:
375,105,351951,1,0,0:0:0:0:
376,105,352037,1,8,0:0:0:0:
382,95,352122,1,0,0:0:0:0:
382,95,352208,1,0,0:0:0:0:
382,95,352294,1,8,0:0:0:0:
380,95,352379,1,0,0:0:0:0:
379,94,352465,1,8,0:0:0:0:
383,93,352551,1,8,0:0:0:0:
384,94,352637,1,0,0:0:0:0:
383,93,352722,1,0,0:0:0:0:
387,101,352808,1,8,0:0:0:0:
388,89,352979,1,8,0:0:0:0:
388,85,353151,1,0,0:0:0:0:
390,89,353237,1,0,0:0:0:0:
390,89,353322,1,8,0:0:0:0:
390,89,353408,1,0,0:0:0:0:
390,89,353494,1,8,0:0:0:0:
383,93,353579,1,8,0:0:0:0:
394,86,353665,1,8,0:0:0:0:
394,86,353751,1,8,0:0:0:0:
395,86,353837,1,0,0:0:0:0:
395,87,354008,1,0,0:0:0:0:
400,84,354094,1,0,0:0:0:0:
400,84,354179,1,8,0:0:0:0:
396,78,354351,1,0,0:0:0:0:
396,78,354437,1,8,0:0:0:0:
396,78,354522,1,8,0:0:0:0:
395,75,354608,1,0,0:0:0:0:
393,76,354694,1,8,0:0:0:0:
393,76,354779,1,0,0:0:0:0:
389,74,354865,1,8,0:0:0:0:
393,75,354951,1,8,0:0:0:0:
393,75,355037,1,0,0:0:0:0:
392,65,355122,1,8,0:0:0:0:
392,65,355208,1,0,0:0:0:0:
392,65,355379,1,0,0:0:0:0:
381,57,355465,1,0,0:0:0:0:
388,65,355551,1,8,0:0:0:0:
381,71,355722,1,8,0:0:0:0:
389,59,355808,1,0,0:0:0:0:
389,59,355979,1,0,0:0:0:0:
387,56,356065,1,0,0:0:0:0:
386,55,356151,1,0,0:0:0:0:
387,55,356237,1,8,0:0:0:0:
392,65,356408,1,0,0:0:0:0:
390,62,356494,1,8,0:0:0:0:
388,65,356579,1,0,0:0:0:0:
390,61,356665,1,0,0:0:0:0:
389,61,356751,1,8,0:0:0:0:
389,59,356837,1,0,0:0:0:0:
389,59,356922,1,8,0:0:0:0:
389,62,357094,1,0,0:0:0:0:
387,63,357179,1,8,0:0:0:0:
390,63,357265,1,0,0:0:0:0:
392,65,357351,1,0,0:0:0:0:
392,65,357437,1,8,0:0:0:0:
390,62,357522,1,0,0:0:0:0:
388,65,357608,1,0,0:0:0:0:
387,72,357694,1,8,0:0:0:0:
387,72,357779,1,8,0:0:0:0:
387,69,357865,1,0,0:0:0:0:
379,70,357951,1,8,0:0:0:0:
379,69,358122,1,0,0:0:0:0:
378,83,358208,1,0,0:0:0:0:
378,71,358294,1,8,0:0:0:0:
392,65,358465,1,8,0:0:0:0:
390,62,358551,1,0,0:0:0:0:
388,65,358637,1,0,0:0:0:0:
390,63,358722,1,0,0:0:0:0:
390,61,358808,1,8,0:0:0:0:
391,64,358979,1,8,0:0:0:0:
392,64,359065,1,8,0:0:0:0:
392,64,359151,1,8,0:0:0:0:
392,64,359237,1,8,0:0:0:0:
392,54,359322,1,0,0:0:0:0:
392,54,359408,1,0,0:0:0:0:
392,54,359494,1,0,0:0:0:0:
392,52,359579,1,0,0:0:0:0:
392,52,359665,1,0,0:0:0:0:
392,52,359751,1,0,0:0:0:0:
392,52,359837,1,0,0:0:0:0:
392,52,359922,1,0,0:0:0:0:
392,52,360008,1,8,0:0:0:0:
392,51,360094,1,0,0:0:0:0:
390,50,360179,1,0,0:0:0:0:
392,54,360265,1,8,0:0:0:0:
392,54,360351,1,0,0:0:0:0:
392,54,360437,1,0,0:0:0:0:
392,52,360522,1,8,0:0:0:0:
392,52,360608,1,0,0:0:0:0:
392,52,360694,1,12,0:0:0:0:
350,101,360865,1,0,0:0:0:0:
350,101,360951,1,0,0:0:0:0:
358,92,361037,1,8,0:0:0:0:
367,73,361208,1,8,0:0:0:0:
356,91,361379,1,8,0:0:0:0:
356,90,361465,1,0,0:0:0:0:
356,90,361551,1,0,0:0:0:0:
356,90,361637,1,0,0:0:0:0:
348,87,361722,1,8,0:0:0:0:
367,73,361894,1,8,0:0:0:0:
348,80,362065,1,0,0:0:0:0:
367,73,362151,1,0,0:0:0:0:
367,73,362237,1,8,0:0:0:0:
355,74,362322,1,8,0:0:0:0:
355,74,362408,1,0,0:0:0:0:
353,72,362494,1,0,0:0:0:0:
353,72,362579,1,8,0:0:0:0:
352,71,362751,1,0,0:0:0:0:
349,70,362837,1,0,0:0:0:0:
349,70,362922,1,0,0:0:0:0:
354,68,363008,1,8,0:0:0:0:
345,54,363094,1,0,0:0:0:0:
348,53,363179,1,8,0:0:0:0:
362,55,363265,1,0,0:0:0:0:
362,55,363351,1,0,0:0:0:0:
361,54,363437,1,8,0:0:0:0:
361,53,363608,1,0,0:0:0:0:
358,47,363694,1,8,0:0:0:0:
367,54,363779,1,0,0:0:0:0:
369,53,363951,1,8,0:0:0:0:
368,54,364122,1,0,0:0:0:0:
369,54,364208,1,0,0:0:0:0:
369,54,364294,1,8,0:0:0:0:
369,54,364379,1,0,0:0:0:0:
369,54,364465,1,8,0:0:0:0:
369,54,364637,1,8,0:0:0:0:
369,53,364808,1,0,0:0:0:0:
368,54,364979,1,8,0:0:0:0:
368,54,365065,1,0,0:0:0:0:
368,54,365151,1,8,0:0:0:0:
369,54,365322,1,0,0:0:0:0:
369,54,365408,1,8,0:0:0:0:
369,54,365494,1,0,0:0:0:0:
369,54,365579,1,0,0:0:0:0:
369,54,365665,1,8,0:0:0:0:
362,41,365751,1,0,0:0:0:0:
362,41,365837,1,8,0:0:0:0:
365,60,366008,1,0,0:0:0:0:
371,43,366179,1,8,0:0:0:0:
362,61,366351,1,0,0:0:0:0:
358,59,366437,1,0,0:0:0:0:
357,59,366522,1,8,0:0:0:0:
360,52,366694,1,8,0:0:0:0:
357,59,366865,1,8,0:0:0:0:
360,53,366951,1,0,0:0:0:0:
360,53,367037,1,0,0:0:0:0:
360,53,367122,1,0,0:0:0:0:
359,46,367208,1,8,0:0:0:0:
359,46,367379,1,8,0:0:0:0:
357,59,367551,1,0,0:0:0:0:
360,52,367722,1,8,0:0:0:0:
357,59,367808,1,8,0:0:0:0:
360,53,367894,1,0,0:0:0:0:
360,53,367979,1,0,0:0:0:0:
360,53,368065,1,8,0:0:0:0:
354,56,368237,1,0,0:0:0:0:
358,54,368322,1,0,0:0:0:0:
357,59,368494,1,0,0:0:0:0:
353,37,368579,1,8,0:0:0:0:
353,36,368751,1,0,0:0:0:0:
361,39,368922,1,8,0:0:0:0:
364,37,369094,1,0,0:0:0:0:
364,37,369179,1,0,0:0:0:0:
362,36,369265,1,8,0:0:0:0:
361,38,369437,1,0,0:0:0:0:
361,38,369608,1,8,0:0:0:0:
362,39,369694,1,8,0:0:0:0:
361,39,369779,1,0,0:0:0:0:
327,45,369865,1,0,0:0:0:0:
326,47,369951,1,8,0:0:0:0:
353,37,370122,1,0,0:0:0:0:
362,36,370294,1,8,0:0:0:0:
364,31,370465,1,0,0:0:0:0:
359,30,370551,1,0,0:0:0:0:
364,31,370637,1,8,0:0:0:0:
365,32,370808,1,0,0:0:0:0:
365,31,370894,1,8,0:0:0:0:
365,31,370979,1,0,0:0:0:0:
354,38,371322,1,8,0:0:0:0:
354,38,371408,1,0,0:0:0:0:
354,38,371494,1,0,0:0:0:0:
354,38,371665,1,12,0:0:0:0:
359,83,371837,1,0,0:0:0:0:
359,83,371922,1,0,0:0:0:0:
359,83,372008,1,8,0:0:0:0:
359,83,372179,1,0,0:0:0:0:
349,80,372265,1,8,0:0:0:0:
348,80,372351,1,0,0:0:0:0:
359,83,372437,1,8,0:0:0:0:
359,83,372522,1,0,0:0:0:0:
348,76,372608,1,0,0:0:0:0:
350,77,372694,1,8,0:0:0:0:
336,77,372865,1,8,0:0:0:0:
348,79,373037,1,0,0:0:0:0:
347,79,373122,1,0,0:0:0:0:
348,79,373208,1,0,0:0:0:0:
349,80,373294,1,0,0:0:0:0:
348,80,373379,1,8,0:0:0:0:
343,77,373465,1,0,0:0:0:0:
341,78,373551,1,8,0:0:0:0:
341,78,373722,1,0,0:0:0:0:
352,81,373894,1,8,0:0:0:0:
348,79,373979,1,0,0:0:0:0:
347,79,374065,1,8,0:0:0:0:
356,68,374237,1,0,0:0:0:0:
348,69,374408,1,8,0:0:0:0:
348,70,374579,1,0,0:0:0:0:
348,70,374665,1,0,0:0:0:0:
354,69,374751,1,8,0:0:0:0:
354,69,374922,1,8,0:0:0:0:
354,67,375094,1,0,0:0:0:0:
356,68,375179,1,0,0:0:0:0:
356,68,375265,1,8,0:0:0:0:
348,69,375351,1,0,0:0:0:0:
348,69,375437,1,8,0:0:0:0:
348,70,375608,1,8,0:0:0:0:
345,61,375779,1,0,0:0:0:0:
344,59,375951,1,8,0:0:0:0:
344,59,376037,1,8,0:0:0:0:
345,59,376122,1,0,0:0:0:0:
342,57,376294,1,8,0:0:0:0:
344,55,376379,1,0,0:0:0:0:
341,57,376465,1,0,0:0:0:0:
344,55,376551,1,0,0:0:0:0:
345,61,376637,1,8,0:0:0:0:
345,61,376808,1,8,0:0:0:0:
344,59,376979,1,0,0:0:0:0:
345,59,377151,1,8,0:0:0:0:
342,57,377322,1,0,0:0:0:0:
341,57,377408,1,0,0:0:0:0:
341,57,377494,1,8,0:0:0:0:
354,50,377665,1,0,0:0:0:0:
360,48,377837,1,8,0:0:0:0:
371,54,377922,1,0,0:0:0:0:
353,53,378008,1,0,0:0:0:0:
353,53,378094,1,0,0:0:0:0:
345,59,378179,1,8,0:0:0:0:
358,49,378351,1,0,0:0:0:0:
358,49,378522,1,8,0:0:0:0:
354,50,378694,1,8,0:0:0:0:
360,48,378865,1,8,0:0:0:0:
357,44,378951,1,8,0:0:0:0:
356,45,379037,1,0,0:0:0:0:
356,45,379122,1,0,0:0:0:0:
354,46,379208,1,8,0:0:0:0:
358,49,379294,1,0,0:0:0:0:
358,49,379465,1,0,0:0:0:0:
354,50,379551,1,8,0:0:0:0:
354,50,379722,1,0,0:0:0:0:
349,53,379894,1,8,0:0:0:0:
354,55,380065,1,0,0:0:0:0:
360,55,380151,1,0,0:0:0:0:
355,56,380237,1,8,0:0:0:0:
355,56,380408,1,8,0:0:0:0:
360,55,380579,1,0,0:0:0:0:
375,68,380751,1,0,0:0:0:0:
360,55,380837,1,0,0:0:0:0:
360,56,380922,1,8,0:0:0:0:
361,54,381094,1,8,0:0:0:0:
355,56,381265,1,8,0:0:0:0:
360,55,381437,1,0,0:0:0:0:
375,72,381608,1,8,0:0:0:0:
375,68,381779,1,0,0:0:0:0:
357,70,381951,1,8,0:0:0:0:
340,68,382122,1,0,0:0:0:0:
339,68,382294,1,8,0:0:0:0:
339,68,382465,1,0,0:0:0:0:
347,67,382637,1,4,0:0:0:0:
347,126,382979,1,0,0:0:0:0:
347,107,383322,1,0,0:0:0:0:
321,103,383665,1,0,0:0:0:0:
329,119,384008,1,0,0:0:0:0:
330,119,384351,1,0,0:0:0:0:
330,119,384694,1,0,0:0:0:0:
329,119,385037,1,0,0:0:0:0:
330,119,385379,1,0,0:0:0:0:
330,119,385722,1,0,0:0:0:0:
329,119,386065,1,0,0:0:0:0:
330,119,386408,1,0,0:0:0:0:
330,119,386750,1,0,0:0:0:0:
329,119,387094,1,0,0:0:0:0:
330,119,387437,1,0,0:0:0:0:
330,119,387779,1,0,0:0:0:0:
329,119,388122,1,0,0:0:0:0:
335,124,388294,1,8,0:0:0:0:
334,124,388465,1,0,0:0:0:0:
341,113,388551,1,0,0:0:0:0:
341,113,388637,1,8,0:0:0:0:
330,119,388808,1,0,0:0:0:0:
345,108,388979,1,8,0:0:0:0:
346,108,389151,1,0,0:0:0:0:
350,108,389322,1,0,0:0:0:0:
341,113,389494,1,12,0:0:0:0:
338,104,389837,1,0,0:0:0:0:
337,105,390179,1,0,0:0:0:0:
338,106,390522,1,0,0:0:0:0:
338,104,390865,1,12,0:0:0:0:
337,105,391037,1,8,0:0:0:0:
337,105,391122,1,8,0:0:0:0:
338,106,391208,1,0,0:0:0:0:
338,104,391551,1,0,0:0:0:0:
343,102,391894,1,0,0:0:0:0:
338,104,392237,1,0,0:0:0:0:
338,104,392579,1,0,0:0:0:0:
338,104,392922,1,0,0:0:0:0:
338,104,393265,1,0,0:0:0:0:
338,104,393608,1,12,0:0:0:0:
338,104,393951,1,0,0:0:0:0:
343,91,394294,1,0,0:0:0:0:
343,90,394637,1,0,0:0:0:0:
344,90,394979,1,0,0:0:0:0:
343,91,395322,1,0,0:0:0:0:
344,90,395665,1,0,0:0:0:0:
343,91,396008,1,0,0:0:0:0:
343,91,396179,1,8,0:0:0:0:
343,91,396351,1,12,0:0:0:0:
344,90,396694,1,0,0:0:0:0:
343,91,397037,1,0,0:0:0:0:
343,91,397379,1,0,0:0:0:0:
322,99,397722,1,8,0:0:0:0:
343,91,398065,1,0,0:0:0:0:
348,114,398408,1,0,0:0:0:0:
347,114,398579,1,8,0:0:0:0:
347,113,398751,1,0,0:0:0:0:
351,114,398922,1,0,0:0:0:0:
348,114,399094,1,12,0:0:0:0:
348,114,399437,1,0,0:0:0:0:
351,114,399779,1,0,0:0:0:0:
348,114,400122,1,0,0:0:0:0:
351,114,400465,1,12,0:0:0:0:
351,114,400637,1,8,0:0:0:0:
351,114,400722,1,0,0:0:0:0:
351,114,400808,1,0,0:0:0:0:
348,114,401151,1,0,0:0:0:0:
351,114,401322,1,8,0:0:0:0:
340,106,401494,1,0,0:0:0:0:
340,106,401665,1,0,0:0:0:0:
339,106,401836,1,12,0:0:0:0:
354,132,402179,1,0,0:0:0:0:
351,132,402522,1,0,0:0:0:0:
346,131,402865,1,0,0:0:0:0:
343,136,403037,1,8,0:0:0:0:
343,136,403208,1,12,0:0:0:0:
337,124,403551,1,0,0:0:0:0:
336,124,403894,1,0,0:0:0:0:
336,124,404237,1,0,0:0:0:0:
337,124,404408,1,0,0:0:0:0:
337,124,404579,1,8,0:0:0:0:
340,110,405094,1,8,0:0:0:0:
340,110,405437,1,8,0:0:0:0:
