osu file format v14

[General]
AudioFilename: audio.mp3
AudioLeadIn: 0
PreviewTime: 175542
Countdown: 0
SampleSet: Soft
StackLeniency: 0.2
Mode: 0
LetterboxInBreaks: 0
WidescreenStoryboard: 1

[Editor]
Bookmarks: 38239,71324
DistanceSpacing: 1.2
BeatDivisor: 4
GridSize: 32
TimelineZoom: 3.199998

[Metadata]
Title:So Damn Tough
TitleUnicode:So Damn Tough
Artist:Crazy Astronaut
ArtistUnicode:Crazy Astronaut
Creator:Akali
Version:Through The Hitech Space
Source:
Tags:hitech psychedelic trance psystep drumstep psytrance electronic russian
BeatmapID:1106704
BeatmapSetID:520980

[Difficulty]
HPDrainRate:6
CircleSize:4
OverallDifficulty:9
ApproachRate:9.4
SliderMultiplier:2
SliderTickRate:1

[Events]
//Background and Video events
0,0,"funky-wallpaper-11.jpg",0,0
//Break Periods
//Storyboard Layer 0 (Background)
//Storyboard Layer 1 (Fail)
//Storyboard Layer 2 (Pass)
//Storyboard Layer 3 (Foreground)
//Storyboard Sound Samples

[TimingPoints]
-1371,342.857142857143,4,2,1,66,1,0
0,-166.666666666667,4,2,0,66,0,0
257,-166.666666666667,4,2,0,6,0,0
343,-166.666666666667,4,2,0,66,0,0
5743,-166.666666666667,4,2,0,6,0,0
5829,-166.666666666667,4,2,0,66,0,0
12600,-166.666666666667,4,2,0,6,0,0
12686,-166.666666666667,4,2,0,66,0,0
15343,-166.666666666667,4,2,0,6,0,0
15429,-166.666666666667,4,2,0,66,0,0
26743,-166.666666666667,4,2,0,66,0,0
27000,-166.666666666667,4,2,0,6,0,0
27086,-166.666666666667,4,2,0,66,0,0
27343,-166.666666666667,4,2,0,6,0,0
27429,-100,4,2,0,66,0,0
28029,-166.666666666667,4,2,0,66,0,0
28800,-100,4,2,0,66,0,0
29143,-166.666666666667,4,2,0,66,0,0
30171,-100,4,2,0,66,0,0
30514,-125,4,2,0,66,0,0
31543,-100,4,2,0,66,0,0
33857,-166.666666666667,4,2,0,6,0,0
33943,-100,4,2,0,66,0,0
35229,-166.666666666667,4,2,0,6,0,0
35314,-100,4,2,0,66,0,0
35657,-83.3333333333333,4,2,0,66,0,0
37029,-125,4,2,0,66,0,0
37629,-166.666666666667,4,2,0,6,0,0
37714,-125,4,2,0,66,0,0
38657,-166.666666666667,4,2,0,6,0,0
38743,-83.3333333333333,4,2,0,66,0,0
41057,-166.666666666667,4,2,0,6,0,0
41143,-125,4,2,0,66,0,0
41400,-166.666666666667,4,2,0,6,0,0
41486,-125,4,2,0,66,0,0
41743,-166.666666666667,4,2,0,6,0,0
41829,-83.3333333333333,4,2,0,66,0,0
42514,-100,4,2,0,66,0,0
42771,-166.666666666667,4,2,0,6,0,0
42857,-100,4,2,0,66,0,0
44143,-166.666666666667,4,2,0,6,0,0
44229,-83.3333333333333,4,2,0,66,0,0
45514,-166.666666666667,4,2,0,6,0,0
45600,-83.3333333333333,4,2,0,66,0,0
46886,-166.666666666667,4,2,0,6,0,0
46971,-125,4,2,0,66,0,0
47314,-83.3333333333333,4,2,0,66,0,0
49371,-100,4,2,0,66,0,0
49629,-166.666666666667,4,2,0,6,0,0
49714,-83.3333333333333,4,2,0,66,0,0
49971,-166.666666666667,4,2,0,6,0,0
50057,-83.3333333333333,4,2,0,66,0,0
52029,-166.666666666667,4,2,0,6,0,0
52114,-125,4,2,0,66,0,0
52371,-166.666666666667,4,2,0,6,0,0
52457,-200,4,2,0,66,0,0
52714,-166.666666666667,4,2,0,6,0,0
52800,-83.3333333333333,4,2,0,66,0,0
53486,-100,4,2,0,66,0,0
53743,-166.666666666667,4,2,0,6,0,0
53829,-100,4,2,0,66,0,0
54857,-83.3333333333333,4,2,0,66,0,0
55114,-166.666666666667,4,2,0,6,0,0
55200,-83.3333333333333,4,2,0,66,0,0
55800,-166.666666666667,4,2,0,6,0,0
55886,-125,4,2,0,66,0,0
56229,-83.3333333333333,4,2,0,66,0,0
56486,-166.666666666667,4,2,0,6,0,0
56571,-83.3333333333333,4,2,0,66,0,0
57600,-100,4,2,0,66,0,0
57857,-166.666666666667,4,2,0,6,0,0
57943,-100,4,2,0,66,0,0
58543,-166.666666666667,4,2,0,6,0,0
58629,-100,4,2,0,66,0,0
61286,-166.666666666667,4,2,0,6,0,0
61371,-100,4,2,0,66,0,0
61971,-166.666666666667,4,2,0,6,0,0
62057,-100,4,2,0,66,0,0
62657,-166.666666666667,4,2,0,6,0,0
62743,-100,4,2,0,66,0,0
63343,-166.666666666667,4,2,0,6,0,0
63429,-100,4,2,0,66,0,0
63771,-125,4,2,0,66,0,0
64029,-166.666666666667,4,2,0,6,0,0
64114,-125,4,2,0,66,0,0
64457,-166.666666666667,4,2,0,66,0,0
64714,-166.666666666667,4,2,0,6,0,0
64800,-166.666666666667,4,2,0,66,0,0
65143,-250.000000000001,4,2,0,66,0,0
65400,-166.666666666667,4,2,0,6,0,0
65486,-250.000000000001,4,2,0,66,0,0
65829,-166.666666666667,4,2,0,66,0,0
66086,-166.666666666667,4,2,0,6,0,0
66171,-125,4,2,0,66,0,0
66429,-166.666666666667,4,2,0,6,0,0
66514,-125,4,2,0,66,0,0
66771,-166.666666666667,4,2,0,6,0,0
66857,-125,4,2,0,66,0,0
67114,-166.666666666667,4,2,0,6,0,0
67200,-100,4,2,0,66,0,0
67457,-166.666666666667,4,2,0,6,0,0
67543,-100,4,2,0,66,0,0
67800,-166.666666666667,4,2,0,6,0,0
67886,-100,4,2,0,66,0,0
68143,-166.666666666667,4,2,0,6,0,0
68229,-100,4,2,0,66,0,0
68486,-166.666666666667,4,2,0,6,0,0
68571,-100,4,2,0,66,0,0
70971,-250.000000000001,4,2,0,66,0,0
71314,-100,4,2,0,66,0,0
80914,-166.666666666667,4,2,0,66,0,0
82286,-100,4,2,0,66,0,0
85543,-75.187969924812,4,2,0,66,0,0
86057,-100,4,2,0,66,0,0
87086,-75.187969924812,4,2,0,66,0,0
87771,-100,4,2,0,66,0,0
90171,-83.3333333333333,4,2,0,66,0,0
90514,-125,4,2,0,66,0,0
91200,-100,4,2,0,66,0,0
95657,-75.187969924812,4,2,0,66,0,0
96000,-100,4,2,0,66,0,0
98400,-75.187969924812,4,2,0,66,0,0
98743,-100,4,2,0,66,0,0
106629,-75.187969924812,4,2,0,66,0,0
106971,-100,4,2,0,66,0,0
109371,-75.187969924812,4,2,0,66,0,0
109714,-100,4,2,0,66,0,0
117600,-75.187969924812,4,2,0,66,0,0
117943,-100,4,2,0,66,0,0
120343,-75.187969924812,4,2,0,66,0,0
120686,-100,4,2,0,66,0,0
125829,-75.187969924812,4,2,0,66,0,0
126086,-166.666666666667,4,2,0,6,0,0
126171,-100,4,2,0,66,0,0
127800,-166.666666666667,4,2,0,6,0,0
127886,-100,4,2,0,66,0,0
130286,-125,4,2,0,66,0,0
130629,-83.3333333333333,4,2,0,66,0,0
131229,-166.666666666667,4,2,0,6,0,0
131314,-100,4,2,0,66,0,0
133371,-125,4,2,0,66,0,0
134057,-166.666666666667,4,2,0,66,0,0
134400,-83.3333333333334,4,2,0,66,0,0
134657,-166.666666666667,4,2,0,6,0,0
134743,-125,4,2,0,66,0,0
135086,-83.3333333333333,4,2,0,66,0,0
135771,-100,4,2,0,66,0,0
139886,-166.666666666667,4,2,0,66,0,0
142629,-125,4,2,0,66,0,0
172114,-200,4,2,0,66,0,0
175543,-50,4,2,0,66,0,0
175586,-50,4,2,0,6,0,0
175629,-47.6190476190476,4,2,0,66,0,0
175671,-50,4,2,0,6,0,0
175714,-45.4545454545455,4,2,0,66,0,0
175757,-50,4,2,0,6,0,0
175800,-43.4782608695652,4,2,0,66,0,0
175843,-50,4,2,0,6,0,0
175886,-41.6666666666667,4,2,0,66,0,0
175929,-50,4,2,0,6,0,0
175971,-40,4,2,0,66,0,0
176014,-50,4,2,0,6,0,0
176057,-38.4615384615385,4,2,0,66,0,0
176100,-50,4,2,0,6,0,0
176143,-37.037037037037,4,2,0,66,0,0
176186,-50,4,2,0,6,0,0
176228,-35.7142857142857,4,2,0,66,0,0
176271,-50,4,2,0,6,0,0
176314,-34.4827586206897,4,2,0,66,0,0
176357,-50,4,2,0,6,0,0
176400,-33.3333333333333,4,2,0,66,0,0
176443,-50,4,2,0,6,0,0
176485,-32.258064516129,4,2,0,66,0,0
176529,-50,4,2,0,6,0,0
176571,-31.25,4,2,0,66,0,0
176614,-50,4,2,0,6,0,0
176657,-30.3030303030303,4,2,0,66,0,0
176700,-50,4,2,0,6,0,0
176742,-29.4117647058824,4,2,0,66,0,0
176786,-50,4,2,0,6,0,0
176828,-28.5714285714286,4,2,0,66,0,0
176871,-50,4,2,0,6,0,0
177600,-100,4,2,0,66,0,0
178286,-100,4,2,0,66,0,1
183429,-75.187969924812,4,2,0,66,0,1
183771,-100,4,2,0,66,0,1
194400,-75.187969924812,4,2,0,66,0,1
194743,-100,4,2,0,66,0,1
199543,-125,4,2,0,66,0,1
200229,-83.3333333333333,4,2,0,66,0,1
203657,-60.2409638554217,4,2,0,66,0,1
204000,-83.3333333333333,4,2,0,66,0,1
205029,-100,4,2,0,66,0,1
205714,-83.3333333333333,4,2,0,66,0,1
208800,-60.2409638554217,4,2,0,66,0,1
209143,-83.3333333333333,4,2,0,66,0,1
210857,-60.2409638554217,4,2,0,66,0,1
211029,-41.6666666666667,4,2,0,66,0,1
211200,-83.3333333333333,4,2,0,66,0,1
214629,-60.2409638554217,4,2,0,66,0,1
214971,-83.3333333333333,4,2,0,66,0,1
220800,-60.2409638554217,4,2,0,66,0,0
221143,-83.3333333333333,4,2,0,66,0,0
223543,-166.666666666667,4,2,0,66,0,0
224914,-125,4,2,0,66,0,0
226286,-100,4,2,0,66,0,0
233486,-83.3333333333333,4,2,0,66,0,0
233743,-166.666666666667,4,2,0,6,0,0
233829,-83.3333333333333,4,2,0,66,0,0
234514,-83.3333333333333,4,2,0,66,0,0
234771,-166.666666666667,4,2,0,6,0,0
234857,-100,4,2,0,66,0,0
234857,-100,4,2,0,66,0,0
235886,-83.3333333333333,4,2,0,66,0,0
236143,-100,4,2,0,6,0,0
236229,-125,4,2,0,66,0,0
236486,-100,4,2,0,6,0,0
236571,-83.3333333333333,4,2,0,66,0,0
237514,-100,4,2,0,6,0,0
237600,-100,4,2,0,66,0,0
238886,-100,4,2,0,6,0,0
238971,-83.3333333333333,4,2,0,66,0,0
240257,-100,4,2,0,6,0,0
240343,-83.3333333333333,4,2,0,66,0,0
240943,-100,4,2,0,6,0,0
241029,-200,4,2,0,66,0,0
241286,-100,4,2,0,6,0,0
241371,-83.3333333333333,4,2,0,66,0,0
241629,-100,4,2,0,6,0,0
241714,-125,4,2,0,66,0,0
241971,-100,4,2,0,6,0,0
242057,-83.3333333333333,4,2,0,66,0,0
244114,-83.3333333333333,4,2,0,66,0,0
244371,-100,4,2,0,6,0,0
244457,-83.3333333333333,4,2,0,66,0,0
247114,-100,4,2,0,6,0,0
247200,-125,4,2,0,66,0,0
247543,-83.3333333333333,4,2,0,66,0,0
248486,-100,4,2,0,6,0,0
248571,-125,4,2,0,66,0,0
248914,-100,4,2,0,66,0,0
249857,-100,4,2,0,6,0,0
249943,-100,4,2,0,66,0,0
250000,-100,4,2,0,6,0,0
250057,-100,4,2,0,66,0,0
250114,-100,4,2,0,6,0,0
250171,-100,4,2,0,66,0,0
250229,-100,4,2,0,6,0,0
250286,-83.3333333333333,4,2,0,66,0,0
250543,-100,4,2,0,6,0,0
250629,-83.3333333333333,4,2,0,66,0,0
250886,-100,4,2,0,6,0,0
250971,-83.3333333333333,4,2,0,66,0,0
251229,-100,4,2,0,6,0,0
251314,-83.3333333333333,4,2,0,66,0,0
252343,-100,4,2,0,66,0,0
252600,-100,4,2,0,6,0,0
252686,-100,4,2,0,66,0,0
253286,-100,4,2,0,6,0,0
253371,-100,4,2,0,66,0,0
260571,-166.666666666667,4,2,0,66,0,0
260829,-100,4,2,0,6,0,0
260914,-166.666666666667,4,2,0,66,0,0
262200,-100,4,2,0,6,0,0
262286,-166.666666666667,4,2,0,66,0,0
263571,-100,4,2,0,6,0,0
263657,-166.666666666667,4,2,0,66,0,0
265457,-100,4,2,0,6,0,0
265543,-166.666666666667,4,2,0,66,0,0
272743,-125,4,2,0,66,0,0
279771,-50,4,2,0,66,0,0
279814,-50,4,2,0,6,0,0
279857,-47.6190476190476,4,2,0,66,0,0
279899,-50,4,2,0,6,0,0
279942,-45.4545454545455,4,2,0,66,0,0
279985,-50,4,2,0,6,0,0
280028,-43.4782608695652,4,2,0,66,0,0
280071,-50,4,2,0,6,0,0
280114,-41.6666666666667,4,2,0,66,0,0
280157,-50,4,2,0,6,0,0
280199,-40,4,2,0,66,0,0
280242,-50,4,2,0,6,0,0
280285,-38.4615384615385,4,2,0,66,0,0
280328,-50,4,2,0,6,0,0
280371,-37.037037037037,4,2,0,66,0,0
280414,-50,4,2,0,6,0,0
280456,-35.7142857142857,4,2,0,66,0,0
280499,-50,4,2,0,6,0,0
280542,-34.4827586206897,4,2,0,66,0,0
280585,-50,4,2,0,6,0,0
280628,-33.3333333333333,4,2,0,66,0,0
280671,-50,4,2,0,6,0,0
280713,-32.258064516129,4,2,0,66,0,0
280757,-50,4,2,0,6,0,0
280799,-31.25,4,2,0,66,0,0
280842,-50,4,2,0,6,0,0
280885,-30.3030303030303,4,2,0,66,0,0
280928,-50,4,2,0,6,0,0
280970,-29.4117647058824,4,2,0,66,0,0
281014,-50,4,2,0,6,0,0
281057,-28.5714285714286,4,2,0,66,0,0
282000,-50,4,2,0,66,0,0
282514,-83.3333333333333,4,2,0,66,0,1
289714,-60.2409638554217,4,2,0,66,0,1
290057,-100,4,2,0,66,0,1
290743,-83.3333333333333,4,2,0,66,0,1
292114,-83.3333333333333,4,2,0,66,0,0
293486,-83.3333333333333,4,2,0,66,0,1
297600,-60.2409638554217,4,2,0,66,0,1
297943,-83.3333333333333,4,2,0,66,0,1
302743,-60.2409638554217,4,2,0,66,0,1
303086,-100,4,2,0,66,0,1
303771,-60.2409638554217,4,2,0,66,0,1
304286,-83.3333333333333,4,2,0,66,0,1
325029,-83.3333333333333,4,2,0,66,0,0
326400,-100,4,2,0,66,0,0
347143,-100,4,2,0,6,0,0
347229,-100,4,2,0,66,0,0
347400,-100,4,2,0,6,0,0
347486,-100,4,2,0,66,0,0
347571,-100,4,2,0,6,0,0
347657,-100,4,2,0,66,0,0
350743,-75.187969924812,4,2,0,66,0,0
351086,-100,4,2,0,66,0,0
353486,-83.3333333333333,4,2,0,66,0,0
353743,-100,4,2,0,6,0,0
353829,-100,4,2,0,66,0,0
356229,-75.187969924812,4,2,0,66,0,0
356571,-100,4,2,0,66,0,0
364800,-83.3333333333333,4,2,0,66,0,0
365486,-100,4,2,0,66,0,0
365829,-75.187969924812,4,2,0,66,0,0
366171,-100,4,2,0,66,0,0
368571,-83.3333333333333,4,2,0,66,0,0
368914,-100,4,2,0,66,0,0
370971,-75.187969924812,4,2,0,66,0,0
371314,-100,4,2,0,66,0,0
374057,-75.187969924812,4,2,0,66,0,0
374400,-100,4,2,0,66,0,0
376800,-75.187969924812,4,2,0,66,0,0
377143,-100,4,2,0,66,0,0
380571,-125,4,2,0,66,0,0
425829,-100,4,2,0,66,0,0
426171,-100,4,2,0,66,0,0
426514,-100,4,2,0,66,0,0

[Colours]
Combo1 : 75,150,150
Combo2 : 255,255,0
Combo3 : 0,255,0
Combo4 : 255,0,255

[HitObjects]
66,65,0,6,0,P|63:112|90:157,1,89.9999972534181
108,164,343,1,0,0:0:0:0:
167,266,514,2,0,L|36:276,2,119.999996337891
360,328,1371,2,0,P|404:310|429:269,1,89.9999972534181
432,246,1714,1,0,0:0:0:0:
340,168,1886,2,0,L|328:37,2,119.999996337891
256,358,2743,6,0,P|273:320|245:243,1,119.999996337891
155,168,3257,2,0,P|131:114|149:58,2,119.999996337891
224,95,4114,6,0,P|208:117|235:114,1,59.9999981689454
330,77,4457,1,0,0:0:0:0:
434,104,4629,2,0,P|457:157|439:213,2,119.999996337891
262,198,5486,6,0,L|277:296,1,89.9999972534181
299,305,5829,1,0,0:0:0:0:
180,250,6000,2,0,B|131:246|131:246|106:261|106:261|38:258,2,119.999996337891
73,168,6857,6,0,P|66:132|124:54,1,119.999996337891
359,113,7371,2,0,L|235:122,2,119.999996337891
446,189,8229,5,0,0:0:0:0:
349,345,8571,1,0,0:0:0:0:
314,255,8743,1,0,0:0:0:0:
46,321,9086,2,0,P|87:348|166:342,1,119.999996337891
222,114,9600,6,0,L|232:244,1,119.999996337891
148,184,10114,1,0,0:0:0:0:
405,203,10457,1,0,0:0:0:0:
66,195,10971,5,0,0:0:0:0:
163,39,11314,1,0,0:0:0:0:
198,129,11486,1,0,0:0:0:0:
466,63,11829,2,0,P|425:36|346:42,1,119.999996337891
198,129,12343,6,0,L|305:139,1,89.9999972534181
326,108,12686,1,0,0:0:0:0:
202,245,12857,1,0,0:0:0:0:
455,323,13200,2,0,L|337:348,1,119.999996337891
75,253,13714,6,0,P|125:284|184:279,1,119.999996337891
155,93,14229,2,0,P|105:124|46:118,2,119.999996337891
211,15,15086,6,0,L|302:28,1,89.9999972534181
274,68,15429,1,0,0:0:0:0:
236,156,15600,2,0,L|252:285,2,119.999996337891
256,192,16457,12,0,21857,0:0:0:0:
100,30,21943,6,0,P|80:80|108:141,1,119.999996337891
189,183,22457,1,0,0:0:0:0:
189,183,22800,1,0,0:0:0:0:
256,250,22971,1,0,0:0:0:0:
163,276,23143,1,0,0:0:0:0:
274,87,23314,5,0,0:0:0:0:
274,87,23657,1,0,0:0:0:0:
370,81,23829,1,0,0:0:0:0:
449,133,24000,1,0,0:0:0:0:
476,224,24171,2,0,P|476:267|466:291,2,59.9999981689454
87,87,26743,6,0,L|185:96,1,89.9999972534181
195,67,27086,6,0,L|106:59,1,89.9999972534181
28,20,27429,2,0,L|23:84,1,50
66,252,27600,2,0,L|69:202,1,50
195,67,27771,1,0,0:0:0:0:
194,83,27857,1,0,0:0:0:0:
193,100,27943,1,0,0:0:0:0:
165,124,28029,6,0,L|246:140,1,59.9999981689454
250,221,28286,2,0,L|191:209,1,59.9999981689454
217,294,28543,2,0,L|276:306,1,59.9999981689454
374,252,28800,6,0,L|307:239,1,50
115,342,28971,2,0,L|164:351,1,50
250,221,29143,1,0,3:0:0:0:
242,206,29229,1,0,3:0:0:0:
235,191,29315,1,0,3:0:0:0:
247,156,29401,6,0,L|168:182,1,59.9999981689454,0|0,3:0|3:0,3:0:0:0:
61,132,29657,2,0,L|139:158,1,59.9999981689454,0|0,3:0|3:0,3:0:0:0:
215,82,29914,2,0,L|158:62,1,59.9999981689454,0|0,3:0|3:0,3:0:0:0:
61,132,30171,6,0,L|127:127,1,50
338,20,30343,2,0,L|288:23,1,50
247,156,30514,1,0,0:0:0:0:
259,171,30599,1,0,0:0:0:0:
275,183,30685,1,0,0:0:0:0:
322,170,30771,6,0,L|310:275,1,80
226,345,31029,2,0,B|217:306|217:306|220:266,1,80
402,241,31286,2,0,L|395:295,1,40
146,210,31457,5,0,0:0:0:0:
142,201,31543,2,0,L|149:127,1,50
221,23,31714,2,0,L|225:72,1,50
328,246,31886,1,0,0:0:0:0:
296,250,31972,1,0,0:0:0:0:
265,243,32058,1,0,0:0:0:0:
239,224,32143,1,0,0:0:0:0:
227,195,32229,6,0,L|230:157,3,25
336,148,32400,2,0,L|334:172,3,25
329,228,32571,1,0,0:0:0:0:
76,116,32743,1,0,0:0:0:0:
74,354,32914,6,0,L|149:365,1,50
256,192,33086,2,0,L|181:181,1,50
2,250,33257,1,0,0:0:0:0:
25,256,33343,1,0,0:0:0:0:
50,255,33429,1,0,0:0:0:0:
73,245,33514,1,0,0:0:0:0:
92,228,33600,2,0,B|99:180|99:180|74:132|74:132|82:58,1,150
162,58,33943,6,0,L|155:108,1,50
335,191,34114,2,0,L|327:240,1,50
181,286,34286,6,0,L|188:236,1,50
319,57,34457,2,0,L|311:106,1,50
428,256,34629,1,0,0:0:0:0:
431,231,34714,1,0,0:0:0:0:
435,206,34800,1,0,0:0:0:0:
438,181,34886,1,0,0:0:0:0:
475,111,34971,2,0,B|445:152|445:152|469:224|469:224|458:285,1,150
460,325,35314,6,0,P|425:314|395:284,1,50
314,110,35486,2,0,P|321:145|310:186,1,50
200,342,35657,6,0,L|205:283,1,59.9999981689454
6,100,35829,2,0,L|11:159,1,59.9999981689454
106,224,36000,1,0,0:0:0:0:
159,198,36086,1,0,0:0:0:0:
189,147,36171,1,0,0:0:0:0:
186,88,36257,1,0,0:0:0:0:
150,42,36343,6,0,L|155:101,1,59.9999981689454
350,250,36514,2,0,L|355:191,1,59.9999981689454
495,65,36686,6,0,L|480:121,1,59.9999981689454
267,244,36857,2,0,L|272:185,1,59.9999981689454
312,67,37029,6,0,B|339:26|380:54|383:106|326:142|326:142|316:167|316:167|304:299,1,280
340,324,37714,5,0,0:0:0:0:
260,315,37800,1,0,0:0:0:0:
242,237,37886,1,0,0:0:0:0:
313,197,37971,1,0,0:0:0:0:
372,250,38057,1,0,0:0:0:0:
30,329,38229,1,0,0:0:0:0:
106,159,38400,6,0,B|111:221|111:221|90:276,1,120
33,134,38743,6,0,P|92:81|178:132,1,179.999994506836
188,256,39086,6,0,L|185:197,1,59.9999981689454
324,57,39257,2,0,L|320:116,1,59.9999981689454
456,316,39429,6,0,L|459:256,1,59.9999981689454
320,116,39600,2,0,L|323:175,1,59.9999981689454
232,384,39771,6,0,L|228:324,1,59.9999981689454
323,175,39943,2,0,L|319:234,1,59.9999981689454
459,256,40114,6,0,L|462:196,1,59.9999981689454
324,57,40286,2,0,L|320:116,1,59.9999981689454
188,256,40457,6,0,L|185:197,1,59.9999981689454
320,116,40629,2,0,L|323:175,1,59.9999981689454
135,362,40800,2,0,B|106:329|106:329|96:280|96:280|109:230|109:230|112:289,1,179.999994506836
16,148,41143,6,0,B|61:105|61:105|136:103,1,120
211,186,41486,2,0,B|166:229|166:229|91:231,1,120
141,33,41829,6,0,L|222:56,1,79.9999975585938
336,39,42057,1,0,0:0:0:0:
421,83,42171,6,0,L|348:126,1,79.9999975585938,0|0,3:0|3:0,3:0:0:0:
233,138,42400,1,0,3:0:0:0:
325,198,42514,6,0,B|319:242|319:242|294:290|294:290|302:360,1,150
380,365,42857,2,0,L|370:295,1,50
222,331,43029,2,0,L|212:261,1,50
404,171,43200,5,0,0:0:0:0:
290,182,43314,5,0,0:0:0:0:
393,250,43429,5,0,0:0:0:0:
300,103,43543,6,0,L|309:36,2,66.6666666666667
396,219,43886,6,0,B|386:175|386:175|399:107|399:107|391:70,1,150
159,113,44229,6,0,P|174:172|179:103,1,179.999994506836
39,62,44571,6,0,L|33:128,1,59.9999981689454
239,329,44743,2,0,L|233:269,1,59.9999981689454
33,121,44914,2,0,L|39:187,1,59.9999981689454
121,336,45086,2,0,L|115:276,1,59.9999981689454
231,32,45257,6,0,P|289:98|287:186,1,179.999994506836
317,269,45600,5,0,0:0:0:0:
335,325,45686,1,0,0:0:0:0:
387,353,45771,1,0,0:0:0:0:
446,341,45857,1,0,0:0:0:0:
484,272,45943,6,0,L|473:180,1,59.9999981689454
286,186,46114,2,0,L|296:94,1,59.9999981689454
445,44,46286,2,0,L|353:33,1,59.9999981689454
139,166,46457,2,0,L|230:176,1,59.9999981689454
220,349,46629,6,0,B|177:319|177:319|130:314|130:314|97:328|97:328|29:319,1,179.999994506836
63,137,46971,6,0,P|63:195|111:242,1,120
275,219,47314,6,0,P|287:180|263:105,1,79.9999975585938
229,33,47543,1,0,0:0:0:0:
206,134,47657,6,0,P|245:146|320:122,1,79.9999975585938
392,88,47886,1,0,0:0:0:0:
333,32,48000,5,0,0:0:0:0:
330,41,48343,5,0,0:0:0:0:
327,50,48686,5,0,0:0:0:0:
501,214,48857,1,0,0:0:0:0:
200,338,49029,5,0,0:0:0:0:
374,174,49200,1,0,0:0:0:0:
512,298,49371,6,0,B|449:289|449:289|407:299|407:299|326:288,1,150
208,128,49714,6,0,B|178:209|203:245|203:245|207:207|255:167,1,179.999994506836
354,255,50057,6,0,L|295:258,1,59.9999981689454
55,270,50229,2,0,L|114:267,1,59.9999981689454
370,152,50400,6,0,L|310:154,1,59.9999981689454
32,166,50571,2,0,L|91:163,1,59.9999981689454
354,255,50743,6,0,L|295:258,1,59.9999981689454
55,270,50914,2,0,L|114:267,1,59.9999981689454
370,152,51086,6,0,L|310:154,1,59.9999981689454
32,166,51257,2,0,L|91:163,1,59.9999981689454
344,59,51429,6,0,L|341:0,1,59.9999981689454
56,10,51600,2,0,L|59:70,1,59.9999981689454
189,222,51771,6,0,B|233:103|155:144|192:20,1,179.999994506836
307,56,52114,6,0,P|302:97|287:49,1,120
392,56,52457,6,0,P|389:114|369:143,1,75
302,192,52800,6,0,L|307:287,1,79.9999975585938
398,350,53029,1,0,0:0:0:0:
386,267,53143,6,0,L|291:272,1,79.9999975585938
228,363,53371,1,0,0:0:0:0:
220,228,53486,6,0,B|219:207|219:207|222:195|222:195|218:186|218:186|216:160|216:160|229:140|229:140|228:55,1,150
306,91,53829,2,0,L|305:41,1,50
151,42,54000,2,0,L|151:91,1,50
217,257,54171,5,0,0:0:0:0:
111,180,54286,5,0,0:0:0:0:
192,180,54400,5,0,0:0:0:0:
87,256,54514,6,0,L|-31:246,2,66.6666666666667
225,273,54857,6,0,B|274:275|274:275|322:268|322:268|356:304|413:294,1,179.999994506836
210,179,55200,6,0,P|227:188|247:192,1,39.9999987792969
323,190,55314,6,0,P|342:186|360:176,1,39.9999987792969
427,138,55429,6,0,P|450:127|476:125,1,39.9999987792969
471,197,55543,6,0,P|396:207|358:112,1,179.999994506836
352,33,55886,6,0,B|323:56|323:56|364:40|402:67,1,120
258,25,56229,6,0,P|263:100|364:117,1,179.999994506836
240,133,56571,5,0,0:0:0:0:
180,140,56657,1,0,0:0:0:0:
120,129,56743,1,0,0:0:0:0:
71,93,56829,1,0,0:0:0:0:
137,53,56914,6,0,L|150:124,1,59.9999981689454
77,314,57086,2,0,L|67:255,1,59.9999981689454
225,40,57257,2,0,L|239:110,1,59.9999981689454
377,259,57429,2,0,L|364:200,1,59.9999981689454
179,318,57600,6,0,P|252:360|332:357,1,150
446,312,57943,2,0,P|459:285|461:235,3,50
402,103,58286,6,0,P|329:145|249:142,1,150
135,97,58629,2,0,P|122:70|120:20,3,50
25,32,58971,6,0,L|33:175,1,100
124,311,59314,2,0,L|129:211,1,100
487,32,59657,6,0,L|479:175,1,100
388,311,60000,2,0,L|382:211,1,100
135,97,60343,6,0,B|204:128|204:128|300:119,1,150
337,40,60686,1,0,0:0:0:0:
335,49,60857,1,0,0:0:0:0:
382,211,61029,6,0,B|313:242|313:242|217:233,1,150
180,154,61371,1,0,0:0:0:0:
182,163,61543,1,0,0:0:0:0:
29,241,61714,6,0,B|42:356|42:356|76:312,1,150
139,238,62057,1,0,0:0:0:0:
134,245,62229,1,0,0:0:0:0:
193,337,62400,6,0,L|352:352,1,150
432,270,62743,1,0,0:0:0:0:
437,277,62914,1,0,0:0:0:0:
238,235,63086,6,0,B|269:165|269:165|265:82,1,150
262,11,63429,1,0,0:0:0:0:
262,20,63600,1,0,0:0:0:0:
170,207,63771,6,0,B|194:151|194:151|191:84,1,120
188,11,64114,1,0,0:0:0:0:
188,20,64286,1,0,0:0:0:0:
102,180,64457,6,0,B|120:138|120:138|118:88,1,89.9999972534181
115,13,64800,1,0,0:0:0:0:
115,22,64971,1,0,0:0:0:0:
31,150,65143,6,0,B|44:125|44:125|43:93,1,60
40,13,65486,1,0,0:0:0:0:
40,22,65657,1,0,0:0:0:0:
28,245,65829,6,0,P|45:294|79:318,1,89.9999972534181
203,200,66171,6,0,P|144:202|104:245,1,120
255,259,66514,6,0,P|282:207|266:150,1,120
178,274,66857,6,0,P|209:323|265:337,1,120
394,286,67200,6,0,B|330:249|330:249|255:259,1,150
63,173,67543,6,0,B|127:210|127:210|202:200,1,150
421,166,67886,6,0,L|281:85,1,150
143,110,68229,6,0,L|291:91,1,150
421,166,68571,5,0,0:0:0:0:
143,110,68743,1,0,0:0:0:0:
168,333,68914,5,0,0:0:0:0:
224,55,69086,1,0,0:0:0:0:
456,172,69257,5,0,0:0:0:0:
133,107,69429,1,0,0:0:0:0:
162,365,69600,5,0,0:0:0:0:
227,43,69771,1,0,0:0:0:0:
289,190,69943,5,0,0:0:0:0:
299,226,70029,1,0,0:0:0:0:
295,263,70114,1,0,0:0:0:0:
277,296,70200,1,0,0:0:0:0:
208,270,70286,5,0,0:0:0:0:
202,246,70371,1,0,0:0:0:0:
203,221,70457,1,0,0:0:0:0:
213,198,70543,1,0,0:0:0:0:
306,190,70629,5,0,0:0:0:0:
303,202,70714,1,0,0:0:0:0:
301,214,70800,1,0,0:0:0:0:
299,226,70886,1,0,0:0:0:0:
296,239,70971,6,0,L|295:272,3,20
408,321,71314,5,0,0:0:0:0:
433,289,71400,1,0,0:0:0:0:
446,253,71486,1,0,0:0:0:0:
445,212,71571,1,0,0:0:0:0:
431,175,71657,2,0,P|421:140|424:99,1,50
312,12,71829,2,0,P|309:36|301:60,1,50
138,181,72000,5,0,0:0:0:0:
98,183,72086,1,0,0:0:0:0:
61,167,72171,1,0,0:0:0:0:
35,137,72257,1,0,0:0:0:0:
24,99,72343,2,0,L|114:87,1,50
253,125,72514,2,0,L|203:132,1,50
53,249,72686,5,0,0:0:0:0:
50,288,72771,1,0,0:0:0:0:
66,325,72857,1,0,0:0:0:0:
96,351,72943,1,0,0:0:0:0:
134,362,73029,2,0,L|146:272,1,50
319,251,73200,5,0,0:0:0:0:
345,282,73286,1,0,0:0:0:0:
370,312,73371,2,0,L|378:362,1,50
213,277,73543,1,0,0:0:0:0:
187,248,73629,1,0,0:0:0:0:
158,221,73714,2,0,L|165:171,1,50
316,39,73886,1,0,0:0:0:0:
392,60,73971,1,0,0:0:0:0:
468,81,74057,5,0,0:0:0:0:
448,115,74143,1,0,0:0:0:0:
414,135,74229,1,0,0:0:0:0:
374,137,74314,1,0,0:0:0:0:
339,119,74400,5,0,0:0:0:0:
386,135,74486,1,0,0:0:0:0:
423,168,74571,1,0,0:0:0:0:
444,214,74657,1,0,0:0:0:0:
445,263,74743,5,0,0:0:0:0:
407,250,74829,1,0,0:0:0:0:
370,238,74914,1,0,0:0:0:0:
332,225,75000,1,0,0:0:0:0:
294,212,75086,2,0,L|269:129,1,50
107,92,75257,2,0,L|121:139,1,50
178,301,75429,1,0,3:0:0:0:
199,268,75514,1,0,3:0:0:0:
222,235,75600,2,0,L|193:152,1,50,0|0,3:0|3:0,3:0:0:0:
34,211,75771,5,0,0:0:0:0:
13,256,75857,1,0,0:0:0:0:
16,305,75943,1,0,0:0:0:0:
42,347,76029,1,0,0:0:0:0:
84,373,76114,5,0,0:0:0:0:
90,334,76200,1,0,0:0:0:0:
96,294,76286,1,0,0:0:0:0:
102,254,76371,1,0,0:0:0:0:
108,215,76457,5,0,0:0:0:0:
155,161,76543,1,0,0:0:0:0:
222,140,76629,1,0,0:0:0:0:
291,144,76714,1,0,0:0:0:0:
349,182,76800,6,0,B|341:237,1,50
206,317,76971,2,0,B|198:267,1,50
214,90,77143,2,0,L|222:140,1,50
108,215,77314,5,0,0:0:0:0:
100,208,77400,1,0,0:0:0:0:
92,201,77486,2,0,P|82:164|99:123,1,50
181,14,77657,2,0,P|153:41|109:46,1,50
22,47,77829,1,0,0:0:0:0:
171,156,78000,5,0,0:0:0:0:
179,163,78086,1,0,0:0:0:0:
187,170,78171,2,0,P|197:207|180:248,1,50
98,357,78343,2,0,P|125:329|169:324,1,50
256,327,78514,1,0,0:0:0:0:
341,156,78686,5,0,0:0:0:0:
333,163,78771,1,0,0:0:0:0:
325,170,78857,2,0,P|315:207|332:248,1,50
471,327,79029,2,0,P|481:290|464:249,1,50
401,95,79200,1,0,0:0:0:0:
377,353,79371,5,0,0:0:0:0:
381,344,79457,1,0,0:0:0:0:
385,335,79543,2,0,L|371:286,1,50
195,218,79714,2,0,L|208:169,1,50
256,30,79886,1,0,0:0:0:0:
58,295,80057,5,0,0:0:0:0:
67,299,80143,1,0,0:0:0:0:
76,303,80229,2,0,L|124:289,1,50
425,192,80400,2,0,L|376:178,1,50
111,95,80571,2,0,L|180:90,1,50
426,46,80743,2,0,L|376:42,1,50
256,30,80914,6,0,L|263:74,1,29.9999990844727
277,167,81086,1,0,0:0:0:0:
278,173,81171,1,0,0:0:0:0:
279,179,81257,2,0,L|274:208,1,29.9999990844727
152,256,81429,5,0,0:0:0:0:
158,255,81514,1,0,0:0:0:0:
164,254,81600,2,0,L|193:258,1,29.9999990844727
366,292,81771,5,0,0:0:0:0:
360,293,81857,1,0,0:0:0:0:
354,294,81943,2,0,L|324:289,1,29.9999990844727
13,231,82114,5,0,0:0:0:0:
19,232,82200,1,0,0:0:0:0:
25,233,82286,2,0,B|71:212|71:212|129:224,1,100
214,367,82543,1,0,0:0:0:0:
204,364,82629,2,0,P|182:351|166:333,1,50
39,132,82800,1,0,0:0:0:0:
48,134,82886,1,0,0:0:0:0:
57,136,82971,2,0,L|85:13,1,100
426,93,83314,2,0,P|433:133|424:162,1,50
241,239,83486,2,0,P|234:279|243:308,1,50
340,350,83657,5,0,0:0:0:0:
349,346,83743,1,0,0:0:0:0:
358,342,83829,2,0,L|356:259,1,50
353,120,84000,1,0,0:0:0:0:
58,233,84171,2,0,P|148:271|241:239,1,200
266,207,84600,1,0,0:0:0:0:
284,172,84686,1,0,0:0:0:0:
276,133,84771,1,0,0:0:0:0:
247,107,84857,1,0,0:0:0:0:
208,105,84943,1,0,0:0:0:0:
175,127,85029,6,0,L|182:206,2,50
320,56,85286,1,0,0:0:0:0:
322,61,85371,2,0,L|315:140,1,50
300,268,85543,6,0,L|379:245,1,66.4999972602845
98,178,85714,2,0,L|19:155,2,66.4999972602845
252,357,86057,5,0,0:0:0:0:
214,368,86143,1,0,0:0:0:0:
176,357,86229,1,0,0:0:0:0:
150,328,86314,1,0,0:0:0:0:
141,288,86400,2,0,L|148:220,1,50
292,179,86571,5,0,0:0:0:0:
318,150,86657,1,0,0:0:0:0:
327,110,86743,2,0,L|320:42,1,50
164,78,86914,2,0,L|158:127,1,50
344,271,87086,6,0,P|336:313|313:260,1,132.999994520569
102,246,87343,2,0,P|132:289|145:237,1,132.999994520569
64,85,87600,2,0,B|31:97|31:97|68:110,1,66.4999972602845
292,179,87771,6,0,P|349:187|393:151,1,100
164,78,88114,2,0,P|128:123|137:179,1,100
408,377,88457,2,0,L|395:277,1,100
39,11,88800,2,0,L|26:110,1,100
105,338,89143,6,0,P|130:301|131:282,1,50
256,256,89314,2,0,P|260:212|250:195,1,50
345,109,89486,2,0,P|326:68|310:58,1,50
164,78,89657,2,0,P|148:119|153:138,1,50
256,256,89829,6,0,L|334:249,1,50
434,213,90000,2,0,L|384:217,1,50
239,274,90171,6,0,L|332:265,1,59.9999981689454
452,223,90343,2,0,L|392:227,1,59.9999981689454
125,207,90514,6,0,L|167:205,2,40
358,140,90857,6,0,L|316:138,2,40
71,77,91200,6,0,L|123:74,2,50
412,10,91543,6,0,L|359:7,2,50
237,99,91886,5,0,0:0:0:0:
234,168,91971,1,0,0:0:0:0:
270,215,92057,1,0,0:0:0:0:
297,257,92143,1,0,0:0:0:0:
298,297,92229,1,0,0:0:0:0:
291,326,92314,1,0,0:0:0:0:
280,342,92400,1,0,0:0:0:0:
272,348,92486,1,0,0:0:0:0:
267,349,92571,5,0,0:0:0:0:
216,299,92657,1,0,0:0:0:0:
232,230,92743,1,0,0:0:0:0:
309,212,92829,5,0,0:0:0:0:
350,154,92914,1,0,0:0:0:0:
321,89,93000,1,0,0:0:0:0:
243,72,93086,5,0,0:0:0:0:
244,111,93171,1,0,0:0:0:0:
245,151,93257,6,0,B|214:112|214:112|210:17,1,100
375,77,93514,1,0,0:0:0:0:
370,87,93600,2,0,L|321:88,1,50
52,58,93771,2,0,L|101:57,1,50
350,6,93943,5,0,0:0:0:0:
330,180,94114,1,0,0:0:0:0:
101,56,94286,1,0,0:0:0:0:
109,317,94457,2,0,L|106:224,1,50
231,134,94629,1,0,0:0:0:0:
238,142,94714,1,0,0:0:0:0:
244,150,94800,2,0,L|243:200,1,50
236,356,94971,1,0,0:0:0:0:
62,123,95143,6,0,P|103:194|141:122,1,200
101,56,95571,5,0,0:0:0:0:
99,46,95657,2,0,P|108:31|145:62,1,66.4999972602845
396,86,95829,2,0,P|391:69|347:89,1,66.4999972602845
275,272,96000,6,0,B|318:297|318:297|367:292,1,100
445,218,96257,1,0,0:0:0:0:
439,210,96343,2,0,L|374:216,1,50
216,364,96514,2,0,L|280:357,1,50
467,338,96686,1,0,0:0:0:0:
206,188,96857,1,0,0:0:0:0:
265,359,97029,1,0,0:0:0:0:
399,135,97200,2,0,L|395:75,1,50
237,14,97371,5,0,0:0:0:0:
228,19,97457,1,0,0:0:0:0:
218,22,97543,2,0,L|214:71,1,50
198,283,97714,1,0,0:0:0:0:
141,79,97886,6,0,P|203:144|286:82,1,200
468,340,98400,6,0,B|407:342|407:342|363:311|363:311|323:334|268:311,1,199.499991780854
316,230,98743,6,0,L|436:210,1,100
467,123,99000,1,0,0:0:0:0:
459,118,99086,2,0,L|405:127,1,50
182,210,99257,2,0,L|235:219,1,50
414,213,99429,5,0,0:0:0:0:
119,157,99600,1,0,0:0:0:0:
405,42,99771,1,0,0:0:0:0:
197,4,99943,2,0,L|246:12,1,50
414,213,100114,5,0,0:0:0:0:
414,223,100200,1,0,0:0:0:0:
414,233,100286,2,0,L|361:242,1,50
136,276,100457,1,0,0:0:0:0:
114,22,100629,2,0,B|121:94|121:94|160:128|160:128|168:205,1,200
136,276,101057,1,0,0:0:0:0:
131,285,101143,2,0,L|134:334,1,50
362,160,101314,2,0,L|365:110,1,50
194,5,101486,6,0,L|197:54,1,50
299,209,101657,1,0,0:0:0:0:
317,244,101743,1,0,0:0:0:0:
318,283,101829,1,0,0:0:0:0:
302,319,101914,1,0,0:0:0:0:
271,345,102000,2,0,L|211:322,1,50
10,241,102171,5,0,0:0:0:0:
248,133,102343,1,0,0:0:0:0:
131,285,102514,2,0,P|145:255|141:224,1,50
31,44,102686,2,0,P|28:77|43:104,1,50
215,220,102857,6,0,B|341:260|416:126|337:-11|213:7|160:87|160:87|374:197|374:197|364:224|319:245,1,750
285,312,104229,6,0,P|326:326|348:324,1,50
497,204,104400,1,0,0:0:0:0:
499,195,104486,1,0,0:0:0:0:
499,185,104571,2,0,L|450:188,1,50
157,275,104743,2,0,L|206:272,1,50
395,263,104914,5,0,0:0:0:0:
95,203,105086,1,0,0:0:0:0:
133,362,105257,1,0,0:0:0:0:
193,62,105429,2,0,L|180:130,1,50
278,203,105600,2,0,P|314:153|298:87,1,100
283,20,105857,1,0,0:0:0:0:
281,29,105943,1,0,0:0:0:0:
449,188,106114,6,0,B|444:244|444:244|364:293|364:293|291:275,1,200
128,220,106543,1,0,0:0:0:0:
132,211,106629,2,0,B|163:198|163:198|230:220,1,66.4999972602845
195,359,106800,2,0,B|164:372|164:372|97:350,1,66.4999972602845
10,161,106971,6,0,L|108:125,1,100
252,66,107229,1,0,0:0:0:0:
261,60,107314,2,0,L|213:45,1,50
15,40,107486,2,0,L|62:54,1,50
312,130,107657,1,0,0:0:0:0:
132,211,107829,1,0,0:0:0:0:
373,34,108000,1,0,0:0:0:0:
251,226,108171,2,0,L|258:288,1,50
398,365,108343,6,0,B|393:318|393:318|363:275,1,100
385,173,108600,1,0,0:0:0:0:
395,174,108686,2,0,L|443:212,1,50
235,373,108857,2,0,B|175:333|175:333|153:191,1,200
373,34,109371,6,0,B|405:54|405:54|300:127|300:127|290:56,1,199.499991780854,0|0,3:0|0:0,0:0:0:0:
213,73,109714,6,0,L|223:137,1,50
248,284,109886,1,0,0:0:0:0:
256,278,109971,1,0,0:0:0:0:
265,273,110057,2,0,L|257:223,1,50
141,117,110229,5,0,0:0:0:0:
52,363,110400,1,0,0:0:0:0:
257,223,110571,1,0,0:0:0:0:
11,134,110743,1,0,0:0:0:0:
148,350,110914,2,0,L|198:342,1,50
389,239,111086,6,0,L|339:231,1,50
141,117,111257,1,0,0:0:0:0:
142,126,111343,1,0,0:0:0:0:
144,135,111429,2,0,L|194:143,1,50
387,81,111600,2,0,P|317:19|228:56,1,200
299,110,112029,1,0,0:0:0:0:
305,117,112114,2,0,P|311:101|294:112,1,50
83,47,112286,2,0,P|77:31|94:42,1,50
29,194,112457,5,0,0:0:0:0:
29,243,112543,1,0,0:0:0:0:
52,287,112629,1,0,0:0:0:0:
91,317,112714,1,0,0:0:0:0:
140,325,112800,2,0,L|210:308,1,50
305,117,112971,2,0,L|374:134,1,50
483,194,113143,5,0,0:0:0:0:
482,243,113229,1,0,0:0:0:0:
459,287,113314,1,0,0:0:0:0:
420,317,113400,1,0,0:0:0:0:
371,325,113486,2,0,L|302:308,1,50
207,117,113657,2,0,L|137:134,1,50
29,194,113829,5,0,0:0:0:0:
305,117,114000,1,0,0:0:0:0:
121,86,114171,1,0,0:0:0:0:
162,233,114343,1,0,0:0:0:0:
207,117,114514,5,0,0:0:0:0:
213,92,114600,1,0,0:0:0:0:
212,67,114686,1,0,0:0:0:0:
204,44,114771,1,0,0:0:0:0:
186,26,114857,1,0,0:0:0:0:
202,35,114943,1,0,0:0:0:0:
219,39,115029,1,0,0:0:0:0:
236,38,115114,1,0,0:0:0:0:
314,15,115200,6,0,P|312:72|280:108,1,100
131,180,115457,1,0,0:0:0:0:
124,187,115543,2,0,L|213:200,1,50
403,163,115714,2,0,L|353:155,1,50
83,118,115886,1,0,0:0:0:0:
216,340,116057,1,0,0:0:0:0:
360,284,116229,2,0,P|366:251|360:222,1,50
207,117,116400,2,0,P|201:84|207:55,1,50
407,23,116571,5,0,0:0:0:0:
416,29,116657,1,0,0:0:0:0:
426,33,116743,2,0,L|418:83,1,50
282,252,116914,2,0,L|274:202,1,50
444,279,117086,1,0,0:0:0:0:
431,327,117171,1,0,0:0:0:0:
394,359,117257,1,0,0:0:0:0:
346,366,117343,1,0,0:0:0:0:
302,344,117429,1,0,0:0:0:0:
277,301,117514,1,0,0:0:0:0:
282,251,117600,6,0,P|261:224|244:257,1,66.4999972602845
51,328,117771,2,0,P|72:355|89:322,1,66.4999972602845
191,164,117943,6,0,L|203:45,1,100
109,85,118200,1,0,0:0:0:0:
108,90,118286,2,0,L|102:139,1,50
282,251,118457,1,0,0:0:0:0:
329,235,118543,1,0,0:0:0:0:
364,199,118629,2,0,B|374:170|374:170|376:119,1,50
380,40,118800,1,0,0:0:0:0:
333,56,118886,1,0,0:0:0:0:
298,92,118971,2,0,B|288:121|288:121|286:172,1,50
459,279,119143,2,0,B|458:259|458:259|448:230,1,50
191,164,119314,5,0,0:0:0:0:
140,226,119400,1,0,0:0:0:0:
128,305,119486,1,0,0:0:0:0:
137,305,119571,1,0,0:0:0:0:
146,307,119657,2,0,P|184:296|202:279,1,50
287,140,119829,5,0,0:0:0:0:
259,98,119914,1,0,0:0:0:0:
216,74,120000,1,0,0:0:0:0:
167,73,120086,1,0,0:0:0:0:
122,95,120171,2,0,L|112:190,1,50
268,319,120343,6,0,B|290:265|290:265|262:225|262:225|288:178|288:178|285:94,1,199.499991780854
390,220,120686,2,0,B|403:272|403:272|383:336,1,100
496,230,120943,1,0,0:0:0:0:
504,224,121029,2,0,L|491:175,1,50
399,43,121200,2,0,L|411:91,1,50
471,310,121371,1,0,0:0:0:0:
286,139,121543,1,0,0:0:0:0:
268,319,121714,2,0,L|275:250,1,50
116,144,121886,2,0,L|109:75,1,50
283,0,122057,5,0,0:0:0:0:
292,6,122143,1,0,0:0:0:0:
301,11,122229,2,0,L|295:60,1,50
143,164,122400,2,0,L|148:213,1,50
268,319,122571,1,0,0:0:0:0:
299,280,122657,1,0,0:0:0:0:
313,232,122743,1,0,0:0:0:0:
309,183,122829,1,0,0:0:0:0:
286,139,122914,2,0,P|246:127|220:99,1,50
101,25,123086,1,0,0:0:0:0:
92,29,123171,1,0,0:0:0:0:
82,32,123257,2,0,L|64:94,1,50
24,299,123429,6,0,L|57:176,1,100
120,247,123686,1,0,0:0:0:0:
126,255,123771,2,0,L|109:329,1,50
286,139,123943,1,0,0:0:0:0:
280,147,124029,1,0,0:0:0:0:
274,155,124114,2,0,L|291:229,1,50
437,324,124286,1,0,0:0:0:0:
443,316,124371,1,0,0:0:0:0:
449,308,124457,2,0,B|453:282|453:282|447:219,1,50
405,111,124629,2,0,B|402:85|402:85|407:22,1,50
363,272,124800,5,0,0:0:0:0:
325,342,124886,1,0,0:0:0:0:
256,383,124971,1,0,0:0:0:0:
253,375,125057,1,0,0:0:0:0:
247,366,125143,2,0,P|242:326|251:303,1,50
274,155,125314,5,0,0:0:0:0:
263,106,125400,1,0,0:0:0:0:
230,70,125486,1,0,0:0:0:0:
183,54,125571,1,0,0:0:0:0:
134,64,125657,2,0,L|118:158,1,50
73,324,125829,6,0,B|86:274|86:274|63:241|63:241|77:175|77:175|120:247,1,199.499991780854
125,113,126171,5,0,0:0:0:0:
256,300,126343,1,0,0:0:0:0:
132,123,126514,1,0,0:0:0:0:
139,133,126600,1,0,0:0:0:0:
146,143,126686,2,0,L|206:133,1,50
387,98,126857,1,0,0:0:0:0:
264,290,127029,6,0,L|284:257,3,25
306,226,127200,1,0,0:0:0:0:
270,34,127371,1,0,0:0:0:0:
153,153,127543,6,0,B|225:138|225:138|251:141|251:141|316:125,1,150
298,119,127886,2,0,L|236:133,1,50
19,187,128057,2,0,L|67:175,1,50
233,215,128229,5,0,0:0:0:0:
117,242,128343,5,0,0:0:0:0:
212,291,128457,5,0,0:0:0:0:
111,317,128571,6,0,L|33:296,2,66.6666666666667
335,374,128914,5,0,0:0:0:0:
479,201,129086,1,0,0:0:0:0:
319,130,129257,1,0,0:0:0:0:
309,125,129343,1,0,0:0:0:0:
298,119,129429,2,0,L|301:58,1,50
375,5,129600,1,0,0:0:0:0:
364,208,129771,6,0,L|363:233,3,25
361,281,129943,1,0,0:0:0:0:
375,18,130114,1,0,0:0:0:0:
172,116,130286,6,0,L|212:117,1,40
404,209,130457,2,0,L|364:208,1,40
148,259,130629,6,0,L|146:200,1,59.9999981689454
357,319,130800,2,0,L|354:402,1,59.9999981689454
85,309,130971,2,0,B|57:273|74:227|74:227|69:94,1,179.999994506836
11,41,131314,2,0,L|11:106,1,50
129,87,131486,2,0,L|158:86,2,25
19,32,131657,5,0,0:0:0:0:
267,24,131829,1,0,0:0:0:0:
146,200,132000,1,0,0:0:0:0:
158,199,132086,1,0,0:0:0:0:
170,199,132171,1,0,0:0:0:0:
394,192,132343,5,0,0:0:0:0:
265,36,132514,2,0,L|259:66,3,25
249,106,132686,1,0,0:0:0:0:
378,262,132857,1,0,0:0:0:0:
436,8,133029,6,0,L|414:105,1,100
386,228,133371,1,0,0:0:0:0:
171,295,133543,2,0,L|258:271,1,80
386,228,133886,1,0,0:0:0:0:
215,181,134057,2,0,L|276:197,1,59.9999981689454
368,313,134400,6,0,B|329:333|329:333|308:292|308:292|268:313|268:313|248:273,1,179.999994506836
49,310,134743,6,0,P|106:309|134:259,1,120
107,185,135086,6,0,L|123:105,1,79.9999975585938
224,43,135314,1,0,0:0:0:0:
321,169,135429,6,0,L|305:89,1,79.9999975585938
204,27,135657,1,0,0:0:0:0:
243,188,135771,6,0,P|274:237|342:244,1,100
491,215,136114,1,0,0:0:0:0:
311,248,136286,2,0,L|213:266,1,100
372,362,136629,2,0,L|368:326,1,25
379,344,136714,2,0,L|375:308,1,25
386,326,136800,1,0,0:0:0:0:
352,129,136971,1,0,0:0:0:0:
114,283,137143,5,0,0:0:0:0:
213,266,137314,1,0,0:0:0:0:
312,249,137486,1,0,0:0:0:0:
184,96,137657,5,0,0:0:0:0:
149,189,137829,1,0,0:0:0:0:
114,283,138000,1,0,0:0:0:0:
312,249,138171,5,0,0:0:0:0:
184,96,138343,1,0,0:0:0:0:
133,266,138514,5,0,0:0:0:0:
209,253,138686,1,0,0:0:0:0:
285,240,138857,1,0,0:0:0:0:
187,123,139029,5,0,0:0:0:0:
160,194,139200,1,0,0:0:0:0:
133,266,139371,1,0,0:0:0:0:
285,240,139543,5,0,0:0:0:0:
187,123,139714,1,0,0:0:0:0:
362,185,139886,6,0,L|398:159,1,29.9999990844727
360,171,140057,2,0,L|396:145,1,29.9999990844727
358,157,140229,2,0,L|394:131,1,29.9999990844727
356,143,140400,2,0,L|392:117,1,29.9999990844727
172,141,140571,6,0,L|136:115,1,29.9999990844727
174,127,140743,2,0,L|138:101,1,29.9999990844727
176,113,140914,2,0,L|140:87,1,29.9999990844727
178,99,141086,2,0,L|142:73,1,29.9999990844727
273,58,141257,6,0,B|271:73|271:73|287:75|287:75|288:59|288:59|273:58|273:58|268:113|268:113|266:129|266:129|250:128|250:128|252:112|252:112|268:113|268:113|263:169|263:169|261:185|261:185|277:186|277:186|279:170|279:170|263:169|263:169|259:217|259:217|261:185|261:185|255:257,1,449.99998626709
88,235,142629,6,0,L|171:243,1,80
424,267,142971,2,0,L|344:259,1,80
88,235,143314,6,0,L|171:243,1,80
424,267,143657,2,0,L|344:259,1,80
88,235,144000,6,0,L|171:243,1,80
424,267,144343,2,0,L|344:259,1,80
88,235,144686,6,0,L|171:243,1,80
424,267,145029,2,0,L|344:259,1,80
168,243,145371,6,0,L|251:251,1,80
345,260,145714,1,0,0:0:0:0:
271,98,145886,1,0,0:0:0:0:
169,246,146057,6,0,L|253:251,1,80
347,256,146400,1,0,0:0:0:0:
267,97,146571,1,0,0:0:0:0:
171,249,146743,6,0,L|255:251,1,80
349,253,147086,1,0,0:0:0:0:
264,97,147257,1,0,0:0:0:0:
173,251,147429,6,0,L|257:251,1,80
351,250,147771,1,0,0:0:0:0:
261,96,147943,1,0,0:0:0:0:
352,246,148114,6,0,L|298:161,1,80
175,253,148457,1,0,0:0:0:0:
352,246,148629,1,0,0:0:0:0:
257,95,148800,6,0,L|214:186,1,80,0|0,3:0|3:0,3:0:0:0:
356,242,149143,1,0,3:0:0:0:
257,95,149314,1,0,3:0:0:0:
182,257,149486,6,0,L|282:246,1,80,0|0,3:0|3:0,3:0:0:0:
253,95,149829,1,0,3:0:0:0:
182,257,150000,1,0,3:0:0:0:
358,236,150171,6,0,L|295:157,1,80
182,261,150514,1,0,0:0:0:0:
358,236,150686,1,0,0:0:0:0:
247,96,150857,6,0,L|213:191,1,80,0|0,3:0|3:0,3:0:0:0:
361,231,151200,1,0,3:0:0:0:
247,96,151371,1,0,3:0:0:0:
189,264,151543,6,0,L|288:243,1,80,0|0,3:0|3:0,3:0:0:0:
243,95,151886,1,0,3:0:0:0:
189,264,152057,1,0,3:0:0:0:
359,232,152229,6,0,L|294:155,1,80
184,264,152571,1,0,0:0:0:0:
359,232,152743,1,0,0:0:0:0:
244,96,152914,6,0,L|213:192,1,80,0|0,3:0|3:0,3:0:0:0:
362,227,153257,1,0,3:0:0:0:
244,96,153429,1,0,3:0:0:0:
295,358,153600,6,0,L|279:280,1,80,0|0,3:0|3:0,3:0:0:0:
403,133,153943,1,0,0:0:0:0:
386,310,154114,1,0,0:0:0:0:
226,116,154286,1,0,0:0:0:0:
403,133,154457,1,0,0:0:0:0:
226,116,154629,1,0,0:0:0:0:
403,133,154800,1,0,0:0:0:0:
386,310,154971,6,0,L|394:223,1,80
226,116,155314,2,0,L|262:119,4,20
49,99,155657,1,0,0:0:0:0:
226,116,155829,1,0,0:0:0:0:
403,133,156000,1,0,0:0:0:0:
226,116,156171,1,0,0:0:0:0:
209,293,156343,6,0,L|217:206,1,80
49,99,156686,1,0,0:0:0:0:
32,276,156857,1,0,0:0:0:0:
226,116,157029,1,0,0:0:0:0:
49,99,157200,1,0,0:0:0:0:
226,116,157371,1,0,0:0:0:0:
49,99,157543,1,0,0:0:0:0:
209,293,157714,5,0,0:0:0:0:
32,276,157886,2,0,L|22:252,1,20
40,260,157971,2,0,L|28:230,1,20
48,244,158057,2,0,L|20:162,1,80
209,293,158400,2,0,L|181:211,1,80
386,310,158743,2,0,L|358:228,1,80
183,217,159086,5,0,0:0:0:0:
395,144,159257,1,0,0:0:0:0:
209,293,159429,1,0,0:0:0:0:
256,64,159600,1,0,0:0:0:0:
89,111,159771,6,0,L|169:105,1,80
422,111,160114,2,0,L|343:105,1,80
2,70,160457,5,0,0:0:0:0:
162,59,160629,1,0,0:0:0:0:
100,271,160800,5,0,0:0:0:0:
89,111,160971,1,0,0:0:0:0:
249,100,161143,5,0,0:0:0:0:
260,260,161314,1,0,0:0:0:0:
48,198,161486,5,0,0:0:0:0:
208,187,161657,1,0,0:0:0:0:
144,358,161829,5,0,0:0:0:0:
135,239,162000,1,0,0:0:0:0:
377,239,162171,5,0,0:0:0:0:
368,358,162343,1,0,0:0:0:0:
208,187,162514,5,0,0:0:0:0:
303,195,162686,1,0,0:0:0:0:
295,290,162857,5,0,0:0:0:0:
200,282,163029,1,0,0:0:0:0:
496,310,163200,5,0,0:0:0:0:
455,155,163371,1,0,0:0:0:0:
208,187,163543,5,0,0:0:0:0:
383,200,163714,1,0,0:0:0:0:
307,42,163886,5,0,0:0:0:0:
132,55,164057,1,0,0:0:0:0:
200,283,164229,5,0,0:0:0:0:
217,49,164400,1,0,0:0:0:0:
200,283,164571,5,0,0:0:0:0:
208,187,164743,1,0,0:0:0:0:
113,180,164914,1,0,0:0:0:0:
200,283,165086,1,0,0:0:0:0:
296,291,165257,1,0,0:0:0:0:
504,115,165429,1,0,0:0:0:0:
296,291,165600,2,0,L|374:225,1,80
192,379,165943,5,0,0:0:0:0:
208,187,166114,1,0,0:0:0:0:
200,283,166286,1,0,0:0:0:0:
157,136,166457,2,0,P|218:116|279:196,1,160
200,283,166971,1,0,0:0:0:0:
105,276,167143,1,0,0:0:0:0:
18,173,167314,6,0,L|28:83,1,80
122,100,167571,1,0,0:0:0:0:
121,108,167657,1,0,0:0:0:0:
105,276,167829,1,0,0:0:0:0:
390,100,168000,1,0,0:0:0:0:
407,276,168171,2,0,L|402:232,1,40
312,149,168343,2,0,L|323:263,1,80
390,100,168686,5,0,0:0:0:0:
122,100,168857,1,0,0:0:0:0:
407,276,169029,5,0,0:0:0:0:
105,276,169200,1,0,0:0:0:0:
390,100,169371,5,0,0:0:0:0:
105,276,169543,2,0,L|201:276,2,80
122,100,170057,5,0,0:0:0:0:
249,147,170229,1,0,0:0:0:0:
357,50,170400,1,0,0:0:0:0:
200,83,170571,1,0,0:0:0:0:
284,279,170743,5,0,0:0:0:0:
387,192,170914,1,0,0:0:0:0:
357,50,171086,1,0,0:0:0:0:
308,202,171257,1,0,0:0:0:0:
491,148,171429,5,0,0:0:0:0:
417,118,171600,1,0,0:0:0:0:
387,192,171771,1,0,0:0:0:0:
461,222,171943,1,0,0:0:0:0:
334,277,172114,6,0,L|329:328,1,50
473,351,172457,2,0,L|468:301,1,50
459,203,172800,5,0,0:0:0:0:
457,203,172886,1,0,0:0:0:0:
455,204,172971,1,0,0:0:0:0:
453,205,173057,1,0,0:0:0:0:
451,206,173143,1,0,0:0:0:0:
449,207,173229,1,0,0:0:0:0:
447,208,173314,1,0,0:0:0:0:
446,209,173400,1,0,0:0:0:0:
444,210,173486,1,0,0:0:0:0:
256,192,173571,12,0,175457,0:0:0:0:
247,194,175543,6,0,L|197:194,1,50
250,198,175629,6,0,L|197:194,1,52.4999983978272
252,203,175714,6,0,L|197:194,1,55.0000016784668
253,208,175800,6,0,L|197:194,1,57.5000010967255
254,214,175886,6,0,L|197:194,1,59.9999981689454
255,220,175971,6,0,L|197:193,1,62.5
254,226,176057,6,0,L|197:193,1,64.9999970245363,0|0,0:3|0:3,0:0:0:0:
253,233,176143,6,0,L|197:193,1,67.5000002574921
251,238,176229,6,0,L|197:193,1,69.9999978637696
249,245,176314,6,0,L|197:193,1,72.5000022125245
246,251,176400,6,0,L|197:193,1,75.0000028610231
242,257,176486,6,0,L|197:193,1,77.5000005912781
237,263,176571,6,0,L|197:193,1,80
233,269,176657,6,0,L|197:193,1,82.5000007867813
227,273,176743,6,0,L|197:193,1,85.0000016212464
220,279,176829,6,0,L|197:193,1,87.500000834465
357,119,177771,5,0,0:0:0:0:
341,192,177943,1,0,0:0:0:0:
413,170,178114,1,0,0:0:0:0:
66,95,178286,6,0,L|163:117,1,100
413,170,178543,1,0,0:0:0:0:
405,176,178629,2,0,L|307:153,1,100
127,195,178886,1,0,0:0:0:0:
135,200,178971,2,0,L|206:184,1,50
310,29,179143,1,0,0:0:0:0:
301,33,179229,2,0,L|279:102,1,50
332,244,179400,1,0,0:0:0:0:
337,252,179486,2,0,L|317:322,1,50
152,341,179657,6,0,L|200:328,1,50
455,247,179829,2,0,L|407:234,1,50
173,163,180000,1,0,0:0:0:0:
145,203,180086,1,0,0:0:0:0:
140,252,180171,1,0,0:0:0:0:
160,298,180257,1,0,0:0:0:0:
200,327,180343,2,0,L|212:278,1,50,0|0,3:0|3:0,3:0:0:0:
49,141,180514,1,0,0:0:0:0:
45,150,180600,2,0,L|57:198,1,50,0|0,3:0|3:0,3:0:0:0:
266,147,180771,1,0,3:0:0:0:
244,102,180857,1,0,3:0:0:0:
205,73,180943,1,0,3:0:0:0:
155,61,181029,6,0,L|82:71,1,50
201,260,181200,1,0,0:0:0:0:
207,269,181286,1,0,0:0:0:0:
212,278,181371,2,0,L|311:289,1,100
487,199,181629,1,0,0:0:0:0:
480,192,181714,2,0,L|407:182,1,50
238,110,181886,1,0,0:0:0:0:
244,102,181971,2,0,L|317:92,1,50
381,264,182143,1,0,0:0:0:0:
387,273,182229,2,0,P|388:297|382:321,1,50
136,334,182400,5,0,0:0:0:0:
350,178,182571,1,0,0:0:0:0:
155,61,182743,1,0,0:0:0:0:
256,288,182914,2,0,L|266:230,1,50
48,189,183086,1,0,0:0:0:0:
52,213,183171,1,0,0:0:0:0:
57,238,183257,1,0,0:0:0:0:
61,262,183343,1,0,0:0:0:0:
66,287,183429,6,0,B|86:256|86:256|99:190,1,66.4999972602845
66,37,183600,2,0,B|46:68|46:68|33:134,1,66.4999972602845
136,334,183771,6,0,L|193:219,1,100
155,61,184029,1,0,0:0:0:0:
149,69,184114,2,0,L|158:146,1,50
327,185,184286,2,0,L|407:214,1,50
471,51,184457,2,0,L|394:60,1,50
230,78,184629,1,0,0:0:0:0:
238,83,184714,2,0,L|287:77,1,50
489,148,184886,1,0,0:0:0:0:
498,154,184971,2,0,L|480:201,1,50
294,351,185143,5,0,0:0:0:0:
269,309,185229,1,0,0:0:0:0:
266,259,185314,1,0,0:0:0:0:
287,214,185400,1,0,0:0:0:0:
326,185,185486,2,0,P|339:147|337:121,1,50
161,36,185657,2,0,P|148:74|150:100,1,50
179,320,185829,2,0,L|162:194,1,100
76,175,186086,1,0,0:0:0:0:
79,199,186171,1,0,0:0:0:0:
82,223,186257,1,0,0:0:0:0:
85,248,186343,1,0,0:0:0:0:
88,273,186429,1,0,0:0:0:0:
92,298,186514,6,0,L|78:374,1,50
256,276,186686,1,0,3:0:0:0:
261,267,186771,1,0,3:0:0:0:
266,259,186857,2,0,L|259:209,1,50,0|0,3:0|3:0,3:0:0:0:
161,36,187029,1,0,3:0:0:0:
170,41,187114,1,0,3:0:0:0:
178,46,187200,2,0,L|227:39,1,50,0|0,3:0|3:0,3:0:0:0:
473,67,187371,1,0,3:0:0:0:
465,72,187457,2,0,L|415:65,1,50,0|0,3:0|3:0,3:0:0:0:
209,126,187629,1,0,3:0:0:0:
217,131,187714,2,0,L|266:124,1,50,0|0,3:0|3:0,3:0:0:0:
484,150,187886,5,0,0:0:0:0:
481,154,187971,1,0,0:0:0:0:
479,158,188057,1,0,0:0:0:0:
476,163,188143,1,0,0:0:0:0:
473,166,188229,5,0,0:0:0:0:
403,163,188314,1,0,0:0:0:0:
347,205,188400,1,0,0:0:0:0:
327,272,188486,1,0,0:0:0:0:
352,336,188571,5,0,0:0:0:0:
355,324,188657,1,0,0:0:0:0:
357,311,188743,1,0,0:0:0:0:
357,299,188829,1,0,0:0:0:0:
285,309,188914,5,0,0:0:0:0:
214,293,189000,1,0,0:0:0:0:
177,266,189086,1,0,0:0:0:0:
158,237,189171,1,0,0:0:0:0:
155,214,189257,6,0,L|210:208,1,50
459,182,189429,1,0,0:0:0:0:
466,174,189514,1,0,0:0:0:0:
473,165,189600,2,0,L|418:159,1,50
342,3,189771,2,0,L|336:58,1,50
145,117,189943,2,0,B|138:169|138:169|155:214,1,100
210,271,190200,1,0,0:0:0:0:
289,283,190286,2,0,L|344:277,1,50
242,160,190457,1,0,0:0:0:0:
235,154,190543,1,0,0:0:0:0:
227,149,190629,6,0,L|241:50,1,100
469,111,190886,1,0,0:0:0:0:
478,115,190971,2,0,L|472:170,1,50
344,327,191143,2,0,L|338:277,1,50
138,165,191314,2,0,L|154:213,1,50
205,365,191486,1,0,0:0:0:0:
201,356,191571,2,0,L|151:325,1,50
30,251,191743,1,0,0:0:0:0:
13,204,191829,1,0,0:0:0:0:
31,159,191914,1,0,0:0:0:0:
72,130,192000,6,0,L|83:75,1,50
232,224,192171,1,0,0:0:0:0:
239,231,192257,2,0,L|229:280,1,50
346,355,192429,1,0,0:0:0:0:
378,316,192514,1,0,0:0:0:0:
378,267,192600,1,0,0:0:0:0:
350,226,192686,2,0,L|359:170,1,50
211,46,192857,1,0,0:0:0:0:
212,55,192943,2,0,L|255:90,1,50
438,24,193114,1,0,0:0:0:0:
429,20,193200,2,0,L|376:39,1,50
154,118,193371,5,0,0:0:0:0:
454,182,193543,1,0,0:0:0:0:
94,334,193714,1,0,0:0:0:0:
251,268,193886,2,0,L|245:212,1,50
154,118,194057,2,0,B|145:170|145:170|167:230,1,100
255,279,194314,1,0,0:0:0:0:
255,279,194400,6,0,P|231:302|226:285,1,66.4999972602845
250,86,194571,2,0,P|274:63|279:80,1,66.4999972602845
454,182,194743,6,0,L|440:310,1,100
265,336,195000,1,0,0:0:0:0:
259,328,195086,2,0,L|254:276,1,50
154,118,195257,2,0,L|149:167,1,50
6,285,195429,2,0,B|52:300|52:300|103:292,1,100
177,262,195686,1,0,0:0:0:0:
254,278,195771,2,0,L|303:273,1,50
454,182,195943,2,0,L|404:177,1,50
212,55,196114,5,0,0:0:0:0:
253,28,196200,1,0,0:0:0:0:
302,25,196286,1,0,0:0:0:0:
347,47,196371,1,0,0:0:0:0:
374,89,196457,2,0,L|324:93,1,50
90,143,196629,1,0,0:0:0:0:
94,153,196714,1,0,0:0:0:0:
99,163,196800,2,0,L|148:167,1,50
360,190,196971,1,0,0:0:0:0:
355,200,197057,2,0,L|306:204,1,50
113,264,197229,1,0,0:0:0:0:
118,274,197314,2,0,L|167:278,1,50
414,346,197486,6,0,P|426:297|415:244,1,100
251,123,197743,1,0,0:0:0:0:
245,116,197829,2,0,L|249:67,1,50
491,40,198000,1,0,0:0:0:0:
497,48,198086,1,0,0:0:0:0:
503,55,198171,2,0,L|499:104,1,50
311,197,198343,1,0,0:0:0:0:
305,204,198429,2,0,L|309:253,1,50
186,298,198600,1,0,0:0:0:0:
192,305,198686,2,0,L|188:354,1,50
320,367,198857,5,0,0:0:0:0:
295,90,199029,1,0,0:0:0:0:
118,230,199200,5,0,0:0:0:0:
394,263,199371,1,0,0:0:0:0:
217,110,199543,6,0,P|181:129|154:170,1,80
320,367,199886,2,0,P|321:326|299:282,1,80
50,277,200229,6,0,P|73:301|132:308,1,59.9999981689454
289,147,200400,2,0,P|298:115|274:60,1,59.9999981689454
85,14,200571,1,0,0:0:0:0:
62,56,200657,1,0,0:0:0:0:
60,104,200743,2,0,P|67:136|115:171,1,59.9999981689454
217,110,200914,5,0,0:0:0:0:
216,97,201000,1,0,0:0:0:0:
236,342,201171,1,0,0:0:0:0:
438,203,201343,1,0,0:0:0:0:
428,211,201429,1,0,0:0:0:0:
171,231,201600,6,0,L|297:221,1,119.999996337891
503,47,201857,6,0,L|377:37,1,119.999996337891
102,81,202114,6,0,P|156:104|215:96,1,119.999996337891
290,221,202371,6,0,P|281:279|245:326,1,119.999996337891
112,229,202629,6,0,P|141:224|171:231,1,59.9999981689454
398,291,202800,6,0,P|427:297|456:292,1,59.9999981689454
461,122,202971,6,0,L|371:116,1,59.9999981689454
102,81,203143,2,0,L|161:77,1,59.9999981689454
290,50,203314,1,0,0:0:0:0:
262,89,203400,1,0,0:0:0:0:
252,135,203486,1,0,0:0:0:0:
261,182,203571,1,0,0:0:0:0:
290,221,203657,6,0,P|284:256|271:238,1,83.0000012031555
62,165,203829,2,0,P|32:150|42:182,1,83.0000012031555
216,319,204000,1,0,0:0:0:0:
281,347,204086,1,0,0:0:0:0:
351,329,204171,1,0,0:0:0:0:
390,268,204257,1,0,0:0:0:0:
395,195,204343,6,0,L|388:122,1,59.9999981689454
167,17,204514,2,0,L|161:76,1,59.9999981689454
62,165,204686,1,0,0:0:0:0:
133,159,204771,1,0,0:0:0:0:
205,153,204857,1,0,0:0:0:0:
278,148,204943,1,0,0:0:0:0:
283,123,205029,6,0,L|227:139,1,50
71,188,205200,2,0,L|127:204,1,50
246,235,205371,5,0,0:0:0:0:
244,225,205457,1,0,0:0:0:0:
179,282,205543,5,0,0:0:0:0:
181,292,205629,1,0,0:0:0:0:
265,350,205714,6,0,P|328:361|389:345,1,119.999996337891
449,298,205971,1,0,0:0:0:0:
474,214,206057,2,0,L|469:146,1,59.9999981689454
325,18,206229,1,0,0:0:0:0:
298,85,206314,1,0,0:0:0:0:
311,155,206400,1,0,0:0:0:0:
377,184,206486,2,0,P|381:140|369:113,1,59.9999981689454
148,19,206657,1,0,0:0:0:0:
181,292,206829,1,0,0:0:0:0:
179,282,206914,1,0,0:0:0:0:
148,19,207086,6,0,L|164:163,1,119.999996337891
40,356,207343,6,0,L|54:237,1,119.999996337891
294,306,207600,6,0,P|235:314|180:291,1,119.999996337891
376,125,207857,6,0,P|434:116|489:139,1,119.999996337891
414,285,208114,6,0,L|421:226,1,59.9999981689454
235,41,208286,6,0,L|242:101,1,59.9999981689454
294,306,208457,5,0,0:0:0:0:
302,277,208543,1,0,0:0:0:0:
302,247,208629,1,0,0:0:0:0:
294,218,208714,1,0,0:0:0:0:
233,180,208800,6,0,P|189:177|176:252,1,83.0000012031555
40,356,208971,2,0,P|79:360|107:331,1,83.0000012031555
102,167,209143,5,0,0:0:0:0:
93,138,209229,1,0,0:0:0:0:
93,108,209314,1,0,0:0:0:0:
101,79,209400,1,0,0:0:0:0:
118,54,209486,5,0,0:0:0:0:
169,103,209571,1,0,0:0:0:0:
236,130,209657,1,0,0:0:0:0:
308,125,209743,1,0,0:0:0:0:
373,94,209829,5,0,0:0:0:0:
358,92,209914,1,0,0:0:0:0:
343,90,210000,1,0,0:0:0:0:
328,88,210086,1,0,0:0:0:0:
313,86,210171,5,0,0:0:0:0:
286,139,210257,1,0,0:0:0:0:
276,198,210343,1,0,0:0:0:0:
280,257,210429,1,0,0:0:0:0:
297,315,210514,6,0,L|333:267,1,59.9999981689454
455,106,210686,2,0,L|395:98,1,59.9999981689454
180,76,210857,2,0,B|122:68|122:68|137:104,1,83.0000012031555
231,309,211029,2,0,B|260:362|260:362|305:304,1,119.999996337891
314,178,211200,6,0,P|283:190|254:251,1,59.9999981689454
98,249,211371,2,0,P|92:281|131:337,1,59.9999981689454
373,384,211543,1,0,0:0:0:0:
399,343,211629,1,0,0:0:0:0:
401,295,211714,2,0,P|391:260|338:216,1,59.9999981689454
165,166,211886,5,0,0:0:0:0:
176,164,211971,1,0,0:0:0:0:
455,106,212143,1,0,0:0:0:0:
92,31,212314,1,0,0:0:0:0:
103,33,212400,1,0,0:0:0:0:
358,34,212571,6,0,P|335:88|343:147,1,119.999996337891
392,354,212829,6,0,P|400:295|377:240,1,119.999996337891
98,249,213086,6,0,L|226:258,1,119.999996337891
335,90,213343,6,0,L|207:99,1,119.999996337891
47,156,213600,6,0,P|85:143|120:146,1,59.9999981689454
274,347,213771,6,0,P|236:360|201:357,1,59.9999981689454
109,219,213943,6,0,L|213:227,1,59.9999981689454
344,121,214114,2,0,L|284:125,1,59.9999981689454
97,31,214286,1,0,0:0:0:0:
62,63,214371,1,0,0:0:0:0:
44,107,214457,1,0,0:0:0:0:
46,155,214543,1,0,0:0:0:0:
71,231,214629,6,0,P|100:252|109:218,1,83.0000012031555
284,125,214800,2,0,P|255:146|247:112,1,83.0000012031555
358,248,214971,1,0,0:0:0:0:
286,244,215057,1,0,0:0:0:0:
214,239,215143,1,0,0:0:0:0:
142,235,215229,1,0,0:0:0:0:
71,231,215314,6,0,B|124:270|124:270|208:275,1,119.999996337891
256,241,215571,1,0,0:0:0:0:
334,271,215657,2,0,P|366:276|409:267,1,59.9999981689454
464,65,215829,2,0,P|432:76|400:106,1,59.9999981689454
256,241,216000,6,0,L|256:151,1,59.9999981689454
268,4,216171,5,0,0:0:0:0:
256,2,216257,2,0,L|178:46,1,59.9999981689454
46,110,216429,5,0,0:0:0:0:
50,121,216514,2,0,L|127:166,1,59.9999981689454
256,241,216686,6,0,P|244:210|183:181,1,59.9999981689454
54,342,216857,2,0,P|79:362|147:357,1,59.9999981689454
303,254,217029,1,0,0:0:0:0:
347,275,217114,1,0,0:0:0:0:
374,314,217200,2,0,P|381:342|376:372,1,59.9999981689454
169,262,217371,5,0,0:0:0:0:
167,273,217457,1,0,0:0:0:0:
204,32,217629,1,0,0:0:0:0:
428,257,217800,1,0,0:0:0:0:
426,246,217886,1,0,0:0:0:0:
399,40,218057,6,0,L|409:117,1,59.9999981689454
289,184,218229,1,0,0:0:0:0:
291,173,218314,1,0,0:0:0:0:
293,162,218400,5,0,0:0:0:0:
235,119,218486,1,0,0:0:0:0:
164,103,218571,1,0,0:0:0:0:
94,120,218657,1,0,0:0:0:0:
37,164,218743,5,0,0:0:0:0:
87,216,218829,2,0,L|176:205,1,59.9999981689454
424,214,219000,5,0,3:0:0:0:
362,251,219086,2,0,L|278:217,1,59.9999981689454,0|0,3:0|3:0,3:0:0:0:
164,103,219257,2,0,L|227:94,1,59.9999981689454,0|0,3:0|3:0,3:0:0:0:
424,214,219429,5,0,0:0:0:0:
434,260,219514,1,0,0:0:0:0:
413,302,219600,1,0,0:0:0:0:
371,323,219686,1,0,0:0:0:0:
325,313,219771,5,0,0:0:0:0:
272,264,219857,1,0,0:0:0:0:
202,244,219943,1,0,0:0:0:0:
132,263,220029,1,0,0:0:0:0:
79,311,220114,5,0,0:0:0:0:
89,321,220200,1,0,0:0:0:0:
102,329,220286,1,0,0:0:0:0:
116,333,220371,1,0,0:0:0:0:
131,335,220457,5,0,0:0:0:0:
164,270,220543,1,0,0:0:0:0:
167,197,220629,1,0,0:0:0:0:
141,130,220714,1,0,0:0:0:0:
72,105,220800,6,0,P|77:166|105:194,1,83.0000012031555
396,111,220971,2,0,P|391:50|363:22,1,83.0000012031555
212,139,221143,5,0,0:0:0:0:
250,167,221229,1,0,0:0:0:0:
295,183,221314,1,0,0:0:0:0:
343,183,221400,1,0,0:0:0:0:
318,141,221486,5,0,0:0:0:0:
311,154,221571,1,0,0:0:0:0:
308,169,221657,1,0,0:0:0:0:
307,184,221743,1,0,0:0:0:0:
336,205,221829,6,0,L|338:234,1,29.9999990844727
332,217,221914,2,0,L|337:270,1,29.9999990844727
328,229,222000,2,0,L|333:282,1,29.9999990844727
324,241,222086,2,0,L|329:294,1,29.9999990844727
320,253,222171,5,0,0:0:0:0:
94,337,223543,6,0,P|102:302|86:259,1,59.9999981689454
86,258,223800,2,0,P|69:227|73:181,1,59.9999981689454
73,179,224057,1,0,0:0:0:0:
304,186,224229,6,0,P|269:177|226:193,1,59.9999981689454
225,194,224486,2,0,P|194:211|148:207,1,59.9999981689454
146,207,224743,1,0,0:0:0:0:
273,262,224914,6,0,P|333:263|367:239,1,80
374,234,225171,2,0,P|411:220|450:226,1,80
475,247,225429,1,0,0:0:0:0:
304,186,225600,6,0,L|310:84,1,80
276,101,225857,2,0,L|270:-1,1,80
302,29,226114,1,0,0:0:0:0:
59,52,226286,5,0,0:0:0:0:
157,120,226457,1,0,0:0:0:0:
155,129,226543,1,0,0:0:0:0:
58,200,226714,1,0,0:0:0:0:
60,209,226800,1,0,0:0:0:0:
84,326,226971,5,0,0:0:0:0:
187,230,227143,1,0,0:0:0:0:
189,239,227229,1,0,0:0:0:0:
267,354,227400,1,0,0:0:0:0:
269,345,227486,1,0,0:0:0:0:
298,208,227657,5,0,0:0:0:0:
182,319,227829,1,0,0:0:0:0:
191,315,227914,1,0,0:0:0:0:
348,284,228086,1,0,0:0:0:0:
339,280,228171,1,0,0:0:0:0:
195,207,228343,5,0,0:0:0:0:
333,92,228514,1,0,0:0:0:0:
332,102,228600,1,0,0:0:0:0:
434,249,228771,1,0,0:0:0:0:
433,239,228857,1,0,0:0:0:0:
426,58,229029,5,0,0:0:0:0:
238,127,229200,1,0,0:0:0:0:
247,130,229286,1,0,0:0:0:0:
443,162,229457,1,0,0:0:0:0:
434,165,229543,1,0,0:0:0:0:
235,258,229714,5,0,0:0:0:0:
339,40,229886,1,0,0:0:0:0:
340,49,229971,1,0,0:0:0:0:
155,203,230143,1,0,0:0:0:0:
156,194,230229,1,0,0:0:0:0:
387,260,230400,5,0,0:0:0:0:
239,46,230571,1,0,0:0:0:0:
240,55,230657,1,0,0:0:0:0:
57,240,230829,1,0,0:0:0:0:
56,231,230914,1,0,0:0:0:0:
283,355,231086,5,0,0:0:0:0:
128,122,231257,1,0,0:0:0:0:
137,124,231343,1,0,0:0:0:0:
416,96,231514,1,0,0:0:0:0:
407,98,231600,1,0,0:0:0:0:
172,324,232457,5,0,0:0:0:0:
252,315,232543,1,0,0:0:0:0:
270,237,232629,1,0,0:0:0:0:
199,197,232714,1,0,0:0:0:0:
140,250,232800,1,0,0:0:0:0:
482,329,232971,1,0,0:0:0:0:
440,92,233143,6,0,B|422:161|422:161|439:238,1,150
252,315,233486,6,0,P|289:263|264:326,1,179.999994506836,0|0,0:0|0:0,0:0:0:0:
80,256,233829,6,0,L|183:230,1,59.9999981689454
355,104,234000,2,0,L|252:78,1,59.9999981689454
100,40,234171,2,0,L|126:143,1,59.9999981689454
252,315,234343,2,0,L|278:212,1,59.9999981689454
227,55,234514,6,0,B|207:121|256:153|256:153|244:191|244:191|268:254,1,179.999994506836
327,189,234857,6,0,L|345:236,1,50
162,192,235029,2,0,L|180:239,2,50
105,36,235371,1,0,0:0:0:0:
92,115,235543,1,0,0:0:0:0:
167,86,235714,1,0,0:0:0:0:
87,221,235886,6,0,B|91:271|91:271|118:304|118:304|152:316|152:316|155:356|208:388,1,179.999994506836
350,323,236229,6,0,B|327:319|327:319|321:313|321:313|290:307|290:307|282:310|282:310|235:303,1,120
281,224,236571,6,0,L|376:241,1,79.9999975585938
458,110,236800,1,0,0:0:0:0:
468,273,236914,6,0,L|485:178,1,79.9999975585938
354,96,237143,1,0,0:0:0:0:
281,224,237257,6,0,P|278:141|389:105,1,179.999994506836
399,198,237600,2,0,L|352:179,1,50
174,101,237771,2,0,L|220:82,1,50
199,245,237943,5,0,0:0:0:0:
79,197,238057,5,0,0:0:0:0:
156,176,238171,5,0,0:0:0:0:
74,279,238286,6,0,L|70:358,2,66.6666666666667
42,57,238629,6,0,B|47:80|47:80|61:105|61:105|64:128|64:128|57:155|57:155|79:197,1,150
254,116,238971,2,0,P|196:54|197:107,1,179.999994506836
190,155,239314,6,0,L|203:251,1,59.9999981689454
434,324,239486,2,0,L|425:383,1,59.9999981689454
215,316,239657,2,0,L|223:375,1,59.9999981689454
459,163,239829,2,0,L|446:259,1,59.9999981689454
326,335,240000,6,0,B|337:272|337:272|314:227|314:227|326:132,1,179.999994506836
439,72,240343,1,0,0:0:0:0:
430,131,240429,1,0,0:0:0:0:
422,190,240514,1,0,0:0:0:0:
414,250,240600,1,0,0:0:0:0:
336,276,240686,6,0,B|314:224|314:224|322:163|322:163|280:216,1,179.999994506836
212,134,241029,6,0,B|248:119|248:119|222:151,1,75
131,182,241371,6,0,P|118:123|214:41,1,179.999994506836
356,115,241714,2,0,B|321:157|321:157|315:170|315:170|284:210,1,120
235,339,242057,6,0,L|215:246,1,79.9999975585938
131,182,242286,1,0,0:0:0:0:
40,248,242400,6,0,L|60:155,1,79.9999975585938
144,91,242629,1,0,0:0:0:0:
119,268,242743,5,0,0:0:0:0:
117,279,243086,5,0,0:0:0:0:
116,291,243429,5,0,0:0:0:0:
397,259,243600,1,0,0:0:0:0:
324,338,243771,5,0,0:0:0:0:
292,57,243943,1,0,0:0:0:0:
443,90,244114,6,0,B|456:203|456:203|435:180|396:177,1,179.999994506836
252,230,244457,2,0,P|316:287|397:259,1,179.999994506836
331,123,244800,6,0,L|237:130,1,59.9999981689454
45,145,244971,2,0,L|104:140,1,59.9999981689454
306,23,245143,6,0,L|212:30,1,59.9999981689454
55,42,245314,2,0,L|114:37,1,59.9999981689454
331,123,245486,6,0,L|237:130,1,59.9999981689454
45,145,245657,2,0,L|104:140,1,59.9999981689454
306,23,245829,6,0,L|212:30,1,59.9999981689454
55,42,246000,2,0,L|114:37,2,59.9999981689454
186,95,246343,5,0,0:0:0:0:
201,262,246514,1,0,0:0:0:0:
193,178,246686,1,0,0:0:0:0:
133,311,246857,6,0,B|124:336|124:336|49:225|49:225|107:223,1,179.999994506836
278,184,247200,6,0,P|254:238|201:262,1,120
186,95,247543,6,0,L|286:105,1,79.9999975585938
378,61,247771,1,0,0:0:0:0:
397,228,247886,6,0,L|407:128,1,79.9999975585938
363,36,248114,1,0,0:0:0:0:
278,184,248229,6,0,B|291:232|291:232|336:301|336:301|333:376,1,179.999994506836
235,358,248571,2,0,L|240:293,1,40
428,335,248743,2,0,L|430:274,1,40
279,95,248914,5,0,0:0:0:0:
395,154,249029,5,0,0:0:0:0:
266,174,249143,5,0,0:0:0:0:
359,82,249257,6,0,L|447:66,2,66.6666666666667
208,56,249600,6,0,B|190:90|204:124|204:124|102:112,1,150
59,210,249943,6,0,L|116:218,1,33.3333333333333
165,224,250057,6,0,L|222:232,1,33.3333333333333
271,238,250171,6,0,L|328:246,1,33.3333333333333
241,331,250286,6,0,B|211:364|211:364|117:349|117:349|89:289,1,179.999994506836
198,110,250629,2,0,B|190:169|190:169|173:190|173:190|184:216|184:216|175:283,1,179.999994506836
72,59,250971,6,0,P|41:122|49:54,1,179.999994506836
198,110,251314,5,0,0:0:0:0:
250,137,251400,1,0,0:0:0:0:
309,134,251486,1,0,0:0:0:0:
358,101,251571,1,0,0:0:0:0:
299,59,251657,6,0,L|307:161,1,59.9999981689454
190,362,251829,2,0,L|194:302,1,59.9999981689454
213,59,252000,6,0,L|205:161,1,59.9999981689454
322,362,252171,2,0,L|317:302,1,59.9999981689454
22,185,252343,6,0,P|77:237|167:217,1,150
283,200,252686,2,0,L|234:196,3,50
86,48,253029,6,0,P|141:100|231:80,1,150
347,63,253371,2,0,L|297:58,3,50
307,168,253714,6,0,L|425:180,1,100
244,357,254057,2,0,L|362:344,1,100
29,139,254400,2,0,L|147:151,1,100
35,379,254743,2,0,L|153:366,1,100
453,335,255086,5,0,0:0:0:0:
256,192,259200,12,0,260486,0:0:0:0:
168,268,260571,6,0,P|147:238|141:173,1,89.9999972534181
167,164,260914,1,0,0:0:0:0:
331,232,261086,2,0,L|320:353,2,119.999996337891
391,52,261943,6,0,P|394:88|366:147,1,89.9999972534181
339,142,262286,1,0,0:0:0:0:
290,15,262457,1,0,0:0:0:0:
474,205,262800,2,0,B|416:224|416:224|340:216,1,119.999996337891
197,67,263314,6,0,L|285:51,1,89.9999972534181
290,15,263657,1,0,0:0:0:0:
98,47,263829,2,0,P|57:103|59:178,2,119.999996337891
344,99,264686,5,0,0:0:0:0:
344,99,265029,1,0,0:0:0:0:
159,136,265200,2,0,P|209:169|264:170,1,89.9999972534181
273,170,265543,2,0,B|252:227|252:227|259:306,1,119.999996337891
387,341,266057,5,0,0:0:0:0:
331,45,266743,5,0,0:0:0:0:
35,101,267429,5,0,0:0:0:0:
232,330,268114,5,0,0:0:0:0:
461,133,268800,5,0,0:0:0:0:
165,190,269486,5,0,0:0:0:0:
438,318,270171,5,0,0:0:0:0:
293,54,270857,5,0,0:0:0:0:
256,353,271543,5,0,0:0:0:0:
453,239,271886,1,0,0:0:0:0:
339,41,272229,1,0,0:0:0:0:
142,155,272571,1,0,0:0:0:0:
444,123,272914,6,0,L|364:131,1,80
68,261,273257,2,0,L|147:252,1,80
444,261,273600,6,0,L|364:252,1,80
68,123,273943,2,0,L|147:131,1,80
342,143,274286,5,0,0:0:0:0:
168,239,274457,1,0,0:0:0:0:
342,239,274629,5,0,0:0:0:0:
168,143,274800,1,0,0:0:0:0:
320,155,274971,5,0,0:0:0:0:
190,227,275143,1,0,0:0:0:0:
320,227,275314,5,0,0:0:0:0:
190,155,275486,1,0,0:0:0:0:
127,269,275657,5,0,0:0:0:0:
129,273,275743,1,0,0:0:0:0:
132,277,275829,1,0,0:0:0:0:
135,281,275914,1,0,0:0:0:0:
138,285,276000,1,0,0:0:0:0:
142,288,276086,1,0,0:0:0:0:
146,291,276171,1,0,0:0:0:0:
150,293,276257,1,0,0:0:0:0:
183,309,276343,5,0,0:0:0:0:
179,299,276429,1,0,0:0:0:0:
178,289,276514,1,0,0:0:0:0:
178,279,276600,1,0,0:0:0:0:
179,269,276686,5,0,0:0:0:0:
187,250,276771,1,0,0:0:0:0:
191,231,276857,1,0,0:0:0:0:
192,211,276943,1,0,0:0:0:0:
190,191,277029,5,0,0:0:0:0:
183,160,277114,1,0,0:0:0:0:
185,127,277200,1,0,0:0:0:0:
198,98,277286,1,0,0:0:0:0:
211,83,277371,5,0,0:0:0:0:
209,87,277457,1,0,0:0:0:0:
207,91,277543,1,0,0:0:0:0:
205,96,277629,1,0,0:0:0:0:
203,101,277714,1,0,0:0:0:0:
201,105,277800,1,0,0:0:0:0:
200,110,277886,1,0,0:0:0:0:
197,114,277971,1,0,0:0:0:0:
158,116,278057,5,0,0:0:0:0:
170,88,278143,1,0,0:0:0:0:
191,63,278229,1,0,0:0:0:0:
216,44,278314,1,0,0:0:0:0:
247,35,278400,1,0,0:0:0:0:
278,33,278486,1,0,0:0:0:0:
309,41,278571,1,0,0:0:0:0:
337,57,278657,1,0,0:0:0:0:
358,79,278743,5,0,0:0:0:0:
354,79,278829,1,0,0:0:0:0:
349,78,278914,1,0,0:0:0:0:
344,77,279000,1,0,0:0:0:0:
339,77,279086,1,0,0:0:0:0:
334,77,279171,1,0,0:0:0:0:
329,75,279257,1,0,0:0:0:0:
324,75,279343,1,0,0:0:0:0:
319,75,279429,2,0,L|326:135,3,40
292,135,279771,6,0,L|286:85,1,50
288,138,279857,6,0,L|286:84,1,52.4999983978272
283,140,279942,6,0,L|286:84,1,55.0000016784668
278,142,280028,6,0,L|286:84,1,57.5000010967255
272,144,280114,6,0,L|285:85,1,59.9999981689454
266,145,280199,6,0,L|286:84,1,62.5
260,145,280285,6,0,L|286:84,1,64.9999970245363,0|0,0:3|0:3,0:0:0:0:
253,145,280371,6,0,L|286:85,1,67.5000002574921
248,143,280457,6,0,L|287:84,1,69.9999978637696
241,142,280542,6,0,L|287:84,1,72.5000022125245
235,139,280628,6,0,L|287:84,1,75.0000028610231
228,136,280714,6,0,L|286:84,1,77.5000005912781
222,132,280799,6,0,L|287:84,1,80
215,128,280885,6,0,L|286:84,1,82.5000007867813
211,123,280971,6,0,L|287:84,1,85.0000016212464
204,117,281057,6,0,L|287:85,1,87.500000834465
142,57,282000,5,0,0:0:0:0:
117,149,282171,1,0,0:0:0:0:
142,57,282343,1,0,0:0:0:0:
91,243,282514,6,0,B|75:302|75:302|96:368,1,119.999996337891
230,271,282771,1,0,0:0:0:0:
238,263,282857,2,0,L|219:201,1,59.9999981689454
271,35,283029,5,0,0:0:0:0:
282,39,283114,1,0,0:0:0:0:
293,43,283200,2,0,P|317:108|284:177,1,119.999996337891
248,374,283457,6,0,P|224:309|257:240,1,119.999996337891
472,172,283714,5,0,0:0:0:0:
455,217,283800,1,0,0:0:0:0:
411,238,283886,2,0,L|338:229,1,59.9999981689454
97,164,284057,5,0,0:0:0:0:
114,119,284143,1,0,0:0:0:0:
158,98,284229,2,0,L|231:107,1,59.9999981689454
450,134,284400,2,0,L|390:141,1,59.9999981689454
240,314,284571,2,0,L|247:373,1,59.9999981689454
61,321,284743,1,0,0:0:0:0:
72,315,284829,1,0,0:0:0:0:
83,310,284914,2,0,L|90:250,1,59.9999981689454
26,51,285086,2,0,L|33:110,1,59.9999981689454
200,225,285257,6,0,L|331:247,1,119.999996337891
397,216,285514,1,0,0:0:0:0:
409,132,285600,2,0,L|291:152,1,119.999996337891
177,35,285857,1,0,0:0:0:0:
188,29,285943,6,0,B|246:38|246:38|299:68,1,119.999996337891
102,211,286200,6,0,B|81:155|81:155|80:94,1,119.999996337891,0|0,3:0|3:0,3:0:0:0:
301,183,286457,6,0,L|302:264,1,59.9999981689454
104,341,286629,5,0,0:0:0:0:
100,294,286714,1,0,0:0:0:0:
126,254,286800,1,0,0:0:0:0:
170,239,286886,1,0,0:0:0:0:
215,255,286971,2,0,L|229:332,1,59.9999981689454
397,301,287143,2,0,L|406:251,1,29.9999990844727
387,282,287229,2,0,L|396:232,1,29.9999990844727
377,263,287314,2,0,L|387:203,1,59.9999981689454
323,16,287486,5,0,0:0:0:0:
256,48,287571,1,0,0:0:0:0:
221,110,287657,1,0,0:0:0:0:
241,179,287743,1,0,0:0:0:0:
254,237,287829,1,0,0:0:0:0:
244,283,287914,1,0,0:0:0:0:
225,314,288000,6,0,L|96:324,1,119.999996337891
42,172,288257,1,0,0:0:0:0:
47,161,288343,2,0,L|106:165,1,59.9999981689454
254,237,288514,2,0,L|313:232,1,59.9999981689454
487,111,288686,6,0,P|430:70|355:85,1,119.999996337891
156,69,288943,6,0,P|212:109|287:94,1,119.999996337891
492,51,289200,6,0,L|487:111,1,59.9999981689454
254,237,289371,2,0,L|259:296,1,59.9999981689454
456,328,289543,1,0,0:0:0:0:
444,325,289629,1,0,0:0:0:0:
467,331,289714,6,0,B|468:288|468:288|459:244,1,83.0000012031555
307,173,289886,2,0,B|284:206|284:206|253:236,1,83.0000012031555
56,78,290057,6,0,L|164:81,1,100
467,331,290400,2,0,P|396:367|314:325,1,150
254,237,290743,6,0,L|259:296,1,59.9999981689454
66,367,290914,2,0,L|71:307,1,59.9999981689454
261,107,291086,2,0,P|220:163|162:177,1,119.999996337891,0|0,3:0|3:0,3:0:0:0:
165,78,291343,1,0,3:0:0:0:
170,67,291429,2,0,L|162:-3,1,59.9999981689454,0|0,3:0|3:0,3:0:0:0:
53,72,291600,5,0,0:0:0:0:
25,111,291686,1,0,0:0:0:0:
14,151,291771,1,0,0:0:0:0:
13,187,291857,1,0,0:0:0:0:
19,216,291943,1,0,0:0:0:0:
32,242,292029,1,0,0:0:0:0:
71,307,292114,6,0,L|130:312,3,59.9999981689454
490,264,292457,6,0,L|430:258,1,59.9999981689454
310,288,292629,2,0,L|250:282,1,59.9999981689454
13,187,292800,5,0,0:0:0:0:
32,185,292886,1,0,0:0:0:0:
52,183,292971,1,0,0:0:0:0:
72,181,293057,1,0,0:0:0:0:
133,142,293143,6,0,P|146:185|140:210,1,59.9999981689454
81,364,293314,2,0,P|68:321|74:296,1,59.9999981689454
84,8,293486,6,0,L|90:78,1,59.9999981689454
234,213,293657,1,0,0:0:0:0:
242,204,293743,1,0,0:0:0:0:
251,196,293829,2,0,L|256:136,1,59.9999981689454
428,8,294000,2,0,L|422:78,1,59.9999981689454
167,108,294171,2,0,P|208:54|281:47,1,119.999996337891
330,84,294429,1,0,0:0:0:0:
352,164,294514,2,0,L|345:258,1,59.9999981689454
177,260,294686,2,0,L|184:354,1,59.9999981689454
339,342,294857,6,0,L|341:312,4,29.9999990844727
421,314,295114,1,0,0:0:0:0:
429,305,295200,2,0,B|444:276|444:276|453:225,1,59.9999981689454
251,196,295371,2,0,B|257:164|257:164|282:118,1,59.9999981689454
375,32,295543,5,0,0:0:0:0:
375,80,295629,1,0,0:0:0:0:
374,128,295714,1,0,0:0:0:0:
374,176,295800,1,0,0:0:0:0:
371,224,295886,2,0,B|366:250|366:250|351:279,1,59.9999981689454
193,115,296057,2,0,B|179:138|179:138|173:170,1,59.9999981689454
181,319,296229,5,0,0:0:0:0:
374,128,296400,1,0,0:0:0:0:
234,33,296571,1,0,0:0:0:0:
223,27,296657,2,0,P|186:21|150:36,1,59.9999981689454
69,192,296829,2,0,P|55:156|24:133,1,59.9999981689454
181,319,297000,2,0,P|196:284|191:246,1,59.9999981689454,0|0,3:0|3:0,3:0:0:0:
193,115,297171,5,0,0:0:0:0:
257,146,297257,1,0,0:0:0:0:
321,177,297343,1,0,0:0:0:0:
385,208,297429,2,0,L|391:319,1,59.9999981689454
378,75,297600,6,0,P|377:35|367:89,1,249.000003609467
430,143,297943,1,0,0:0:0:0:
438,189,298029,1,0,0:0:0:0:
422,234,298114,1,0,0:0:0:0:
388,267,298200,1,0,0:0:0:0:
317,281,298286,6,0,L|246:278,1,59.9999981689454
173,247,298457,1,0,0:0:0:0:
103,305,298543,2,0,L|34:321,1,59.9999981689454,0|0,3:0|3:0,3:0:0:0:
162,188,298714,5,0,0:0:0:0:
167,218,298800,1,0,0:0:0:0:
173,247,298886,1,0,0:0:0:0:
79,229,298971,6,0,P|72:171|120:105,1,119.999996337891
160,76,299229,6,0,L|100:69,1,59.9999981689454
317,148,299400,2,0,L|258:158,1,59.9999981689454
487,177,299571,2,0,L|432:201,1,59.9999981689454,0|0,3:0|3:0,3:0:0:0:
241,288,299743,1,0,0:0:0:0:
277,334,299829,1,0,0:0:0:0:
333,351,299914,1,0,0:0:0:0:
389,331,300000,2,0,B|385:265|385:265|363:234|363:234|356:144,1,179.999994506836
484,56,300343,5,0,0:0:0:0:
480,68,300429,1,0,0:0:0:0:
475,79,300514,2,0,P|447:87|418:82,1,59.9999981689454
191,4,300686,2,0,L|184:63,1,59.9999981689454
266,189,300857,2,0,L|273:249,1,59.9999981689454
79,365,301029,5,0,0:0:0:0:
36,307,301114,1,0,0:0:0:0:
25,241,301200,1,0,0:0:0:0:
43,183,301286,1,0,0:0:0:0:
72,145,301371,1,0,0:0:0:0:
90,114,301457,1,0,0:0:0:0:
86,90,301543,1,0,0:0:0:0:
78,80,301629,1,0,0:0:0:0:
34,139,301714,6,0,P|60:155|97:157,1,59.9999981689454
326,72,301886,2,0,L|318:121,3,29.9999990844727
354,85,302057,2,0,L|340:172,1,59.9999981689454
160,218,302229,2,0,L|168:267,3,29.9999990844727
132,231,302400,2,0,L|146:318,1,59.9999981689454
348,366,302571,2,0,L|357:306,1,59.9999981689454
241,144,302743,6,0,P|236:185|263:168,1,83.0000012031555
224,315,302914,2,0,P|228:356|201:339,1,83.0000012031555
64,81,303086,6,0,L|61:131,2,50
445,11,303429,6,0,L|448:60,2,50
462,245,303771,6,0,L|353:253,1,83.0000012031555
9,350,303943,6,0,L|118:342,1,83.0000012031555
379,251,304114,6,0,P|367:282|368:248,1,83.0000012031555
241,144,304286,5,0,0:0:0:0:
240,156,304371,1,0,0:0:0:0:
237,229,304457,6,0,B|236:307|236:307|260:361,1,119.999996337891
369,258,304714,1,0,0:0:0:0:
379,251,304800,2,0,L|380:162,1,60.9999974868775
190,60,304971,2,0,L|190:0,1,60.9999974868775
362,42,305143,5,0,0:0:0:0:
363,54,305229,1,0,0:0:0:0:
34,171,305400,1,0,0:0:0:0:
254,347,305571,1,0,0:0:0:0:
255,335,305657,1,0,0:0:0:0:
101,76,305829,6,0,P|122:125|180:154,1,119.999996337891
411,308,306086,6,0,P|390:259|327:232,1,119.999996337891
51,265,306343,6,0,L|175:250,1,119.999996337891
310,75,306600,6,0,L|186:59,1,119.999996337891
259,266,306857,6,0,P|249:237|251:207,1,60.9999974868775
391,60,307029,6,0,P|393:90|373:132,1,59.9999981689454
123,149,307200,6,0,L|202:160,1,60.9999974868775
330,228,307371,1,0,0:0:0:0:
334,239,307457,1,0,0:0:0:0:
336,251,307543,1,0,0:0:0:0:
320,322,307629,1,0,0:0:0:0:
251,348,307714,2,0,L|191:340,1,60.9999974868775
28,182,307886,5,0,0:0:0:0:
25,133,307971,1,0,0:0:0:0:
45,89,308057,1,0,0:0:0:0:
83,60,308143,1,0,0:0:0:0:
130,47,308229,5,0,0:0:0:0:
173,106,308314,1,0,0:0:0:0:
237,141,308400,1,0,0:0:0:0:
310,144,308486,1,0,0:0:0:0:
376,114,308571,6,0,L|371:28,1,60.9999974868775
187,85,308743,1,0,0:0:0:0:
180,95,308829,1,0,0:0:0:0:
173,106,308914,2,0,L|169:166,1,60.9999974868775
322,280,309086,1,0,0:0:0:0:
329,290,309171,1,0,0:0:0:0:
336,301,309257,2,0,B|343:333|343:333|340:361,1,60.9999974868775
177,244,309429,2,0,B|209:237|209:237|249:241,1,59.9999981689454
260,364,309600,1,0,0:0:0:0:
187,357,309686,1,0,0:0:0:0:
114,351,309771,1,0,0:0:0:0:
41,345,309857,1,0,0:0:0:0:
46,334,309943,6,0,L|147:340,1,60.9999974868775
389,219,310114,1,0,0:0:0:0:
386,207,310200,1,0,0:0:0:0:
384,194,310286,2,0,L|307:199,1,59.9999981689454
112,109,310457,2,0,L|172:105,1,60.9999974868775
447,87,310629,5,0,0:0:0:0:
446,99,310714,1,0,0:0:0:0:
421,361,310886,1,0,0:0:0:0:
177,244,311057,1,0,0:0:0:0:
176,232,311143,1,0,0:0:0:0:
345,7,311314,6,0,P|362:64|340:123,1,119.999996337891,0|0,3:0|0:0,0:0:0:0:
96,300,311571,6,0,P|79:243|101:184,1,119.999996337891,0|0,3:0|0:0,0:0:0:0:
386,254,311829,6,0,L|263:247,1,119.999996337891
149,67,312086,6,0,L|269:61,1,119.999996337891
446,99,312343,6,0,P|443:129|428:155,1,60.9999974868775
177,243,312514,6,0,P|179:274|194:300,1,60.9999974868775
306,334,312686,5,0,0:0:0:0:
355,337,312771,1,0,0:0:0:0:
404,340,312857,2,0,L|462:323,1,60.9999974868775
386,254,313029,5,0,0:0:0:0:
313,260,313114,1,0,0:0:0:0:
240,266,313200,1,0,0:0:0:0:
167,272,313286,1,0,0:0:0:0:
98,296,313371,6,0,P|94:265|102:236,1,60.9999974868775
320,134,313543,2,0,P|323:103|315:74,1,60.9999974868775
155,40,313714,1,0,0:0:0:0:
100,88,313800,1,0,0:0:0:0:
80,157,313886,1,0,0:0:0:0:
111,224,313971,1,0,0:0:0:0:
167,272,314057,5,0,0:0:0:0:
180,244,314143,1,0,0:0:0:0:
182,214,314229,1,0,0:0:0:0:
172,186,314314,1,0,0:0:0:0:
152,162,314400,5,0,0:0:0:0:
224,167,314486,1,0,0:0:0:0:
297,173,314571,1,0,0:0:0:0:
370,179,314657,1,0,0:0:0:0:
443,185,314743,1,0,0:0:0:0:
80,157,314914,5,0,0:0:0:0:
152,162,315000,1,0,0:0:0:0:
225,168,315086,1,0,0:0:0:0:
443,185,315257,1,0,0:0:0:0:
236,22,315429,6,0,L|232:83,1,59.9999981689454
415,252,315600,2,0,L|419:312,1,59.9999981689454
175,340,315771,1,0,0:0:0:0:
130,325,315857,1,0,0:0:0:0:
99,287,315943,2,0,P|86:258|88:231,1,59.9999981689454
157,55,316114,5,0,0:0:0:0:
155,66,316200,1,0,0:0:0:0:
175,340,316371,1,0,0:0:0:0:
391,121,316543,1,0,0:0:0:0:
393,132,316629,1,0,0:0:0:0:
284,362,316800,6,0,P|255:310|261:251,1,119.999996337891
362,56,317057,6,0,P|360:115|326:163,1,119.999996337891
60,180,317314,6,0,L|180:196,1,119.999996337891
464,276,317571,6,0,L|344:292,1,119.999996337891
92,260,317829,6,0,L|162:270,1,59.9999981689454
436,207,318000,6,0,L|366:217,1,59.9999981689454
178,195,318171,6,0,P|177:149|195:126,1,59.9999981689454
350,56,318343,2,0,P|345:85|326:107,1,59.9999981689454
112,63,318514,1,0,0:0:0:0:
137,47,318600,1,0,0:0:0:0:
166,39,318686,1,0,0:0:0:0:
196,38,318771,1,0,0:0:0:0:
225,46,318857,2,0,L|264:128,1,59.9999981689454
436,207,319029,2,0,L|345:199,1,59.9999981689454,0|0,3:0|3:0,3:0:0:0:
216,314,319200,1,0,3:0:0:0:
239,331,319286,1,0,3:0:0:0:
267,342,319371,1,0,3:0:0:0:
297,346,319457,1,0,3:0:0:0:
326,341,319543,6,0,L|331:258,1,59.9999981689454,0|0,3:0|3:0,3:0:0:0:
178,195,319714,2,0,L|183:112,1,59.9999981689454,0|0,3:0|3:0,3:0:0:0:
342,54,319886,1,0,0:0:0:0:
338,125,319971,1,0,0:0:0:0:
334,197,320057,1,0,0:0:0:0:
330,269,320143,1,0,0:0:0:0:
341,264,320229,6,0,P|334:216|302:186,1,59.9999981689454
126,117,320400,2,0,P|170:135|211:122,1,59.9999981689454
343,30,320571,1,0,0:0:0:0:
272,34,320657,1,0,0:0:0:0:
200,38,320743,1,0,0:0:0:0:
128,42,320829,1,0,0:0:0:0:
56,46,320914,6,0,P|48:85|51:106,1,59.9999981689454
194,325,321086,1,0,0:0:0:0:
205,320,321171,1,0,0:0:0:0:
216,314,321257,2,0,P|223:285|221:255,1,59.9999981689454
55,206,321429,2,0,L|114:202,1,59.9999981689454
409,181,321600,5,0,0:0:0:0:
398,186,321686,1,0,0:0:0:0:
128,282,321857,1,0,0:0:0:0:
272,34,322029,1,0,0:0:0:0:
265,44,322114,1,0,0:0:0:0:
112,196,322286,5,0,0:0:0:0:
150,168,322371,1,0,0:0:0:0:
197,159,322457,1,0,0:0:0:0:
244,169,322543,1,0,0:0:0:0:
267,246,322629,5,0,0:0:0:0:
314,256,322715,1,0,0:0:0:0:
361,247,322801,1,0,0:0:0:0:
399,219,322886,1,0,0:0:0:0:
315,223,322971,5,0,0:0:0:0:
305,245,323057,1,0,0:0:0:0:
301,268,323143,1,0,0:0:0:0:
302,291,323229,1,0,0:0:0:0:
322,359,323314,6,0,P|347:347|367:319,1,59.9999981689454
421,118,323486,2,0,P|423:90|408:59,1,59.9999981689454
244,169,323657,5,0,0:0:0:0:
199,186,323743,1,0,0:0:0:0:
151,190,323829,1,0,0:0:0:0:
104,181,323914,1,0,0:0:0:0:
170,96,324000,5,0,0:0:0:0:
215,79,324086,1,0,0:0:0:0:
263,75,324172,1,0,0:0:0:0:
310,84,324257,1,0,0:0:0:0:
334,152,324343,6,0,L|324:220,1,59.9999981689454
173,357,324514,2,0,L|164:297,1,59.9999981689454
166,152,324686,5,0,0:0:0:0:
155,173,324771,1,0,0:0:0:0:
36,232,324857,5,0,0:0:0:0:
37,208,324943,1,0,0:0:0:0:
35,113,325029,5,0,0:0:0:0:
477,113,325286,5,0,0:0:0:0:
128,256,325543,5,0,0:0:0:0:
384,256,325714,1,0,0:0:0:0:
311,151,326400,6,0,L|383:141,3,50
440,44,326743,2,0,L|391:38,1,50
256,64,326914,1,0,0:0:0:0:
223,87,327000,1,0,0:0:0:0:
183,92,327086,2,0,L|133:85,3,50
50,155,327429,2,0,L|56:204,1,50
158,259,327600,2,0,L|164:308,1,50
347,308,327771,6,0,L|354:259,3,50
462,155,328114,2,0,L|455:204,1,50
277,186,328286,1,0,0:0:0:0:
254,153,328371,1,0,0:0:0:0:
249,113,328457,2,0,L|255:63,3,50
374,99,328800,1,0,0:0:0:0:
369,139,328886,1,0,0:0:0:0:
363,178,328971,1,0,0:0:0:0:
358,218,329057,1,0,0:0:0:0:
354,259,329143,6,0,L|284:277,1,50
131,170,329314,1,0,0:0:0:0:
136,178,329400,2,0,L|198:213,1,50
94,325,329571,2,0,L|94:397,2,50
21,210,329829,2,0,L|20:160,1,50
91,50,330000,1,0,0:0:0:0:
122,74,330086,1,0,0:0:0:0:
159,90,330171,1,0,0:0:0:0:
198,95,330257,1,0,0:0:0:0:
238,90,330343,1,0,0:0:0:0:
275,75,330429,1,0,0:0:0:0:
311,59,330514,6,0,L|310:108,1,50,0|0,3:0|3:0,3:0:0:0:
141,170,330686,1,0,3:0:0:0:
136,178,330771,2,0,L|136:250,1,50,0|0,3:0|3:0,3:0:0:0:
262,271,330943,2,0,L|249:319,2,50,0|0|0,3:0|3:0|3:0,3:0:0:0:
380,218,331200,6,0,B|429:231|429:231|474:269,1,100
415,372,331457,2,0,B|366:359|366:359|321:321,1,100
265,196,331714,2,0,B|288:186|288:186|313:188,1,50
249,319,331886,5,0,0:0:0:0:
214,338,331971,1,0,0:0:0:0:
175,344,332057,1,0,0:0:0:0:
136,334,332143,1,0,0:0:0:0:
104,311,332229,2,0,L|88:238,1,50
10,161,332400,1,0,0:0:0:0:
48,151,332486,1,0,0:0:0:0:
80,127,332571,2,0,L|96:53,3,50
209,12,332914,1,0,0:0:0:0:
165,192,333086,1,0,0:0:0:0:
174,152,333171,1,0,0:0:0:0:
185,114,333257,6,0,L|256:91,3,50
369,65,333600,1,0,0:0:0:0:
408,64,333686,1,0,0:0:0:0:
445,78,333771,1,0,0:0:0:0:
473,107,333857,1,0,0:0:0:0:
490,143,333943,2,0,L|467:214,1,50
331,311,334114,2,0,L|316:263,1,50
20,263,334286,1,0,0:0:0:0:
40,307,334371,1,0,0:0:0:0:
82,334,334457,1,0,0:0:0:0:
131,335,334543,1,0,0:0:0:0:
173,309,334629,5,0,0:0:0:0:
178,301,334714,1,0,0:0:0:0:
180,291,334800,2,0,L|167:232,1,50
127,44,334971,1,0,0:0:0:0:
32,183,335143,5,0,0:0:0:0:
40,187,335229,1,0,0:0:0:0:
50,189,335314,2,0,L|109:176,1,50
368,122,335486,2,0,L|309:135,1,50
127,44,335657,1,0,0:0:0:0:
136,44,335743,1,0,0:0:0:0:
146,45,335829,1,0,0:0:0:0:
156,46,335914,1,0,0:0:0:0:
166,47,336000,5,0,0:0:0:0:
304,56,336171,1,0,0:0:0:0:
187,162,336343,1,0,0:0:0:0:
294,259,336514,1,0,0:0:0:0:
216,329,336686,5,0,0:0:0:0:
208,319,336771,1,0,0:0:0:0:
201,308,336857,1,0,0:0:0:0:
196,297,336943,1,0,0:0:0:0:
192,285,337029,6,0,L|193:246,1,25
205,257,337114,2,0,L|206:218,1,25
218,229,337200,2,0,L|219:190,1,25
231,201,337286,2,0,L|232:162,1,25
244,173,337371,6,0,L|243:59,1,100
156,51,337629,1,0,0:0:0:0:
148,58,337714,2,0,L|148:120,1,50
340,152,337886,2,0,L|339:102,1,50
65,37,338057,5,0,0:0:0:0:
192,285,338229,1,0,0:0:0:0:
243,73,338400,1,0,0:0:0:0:
27,213,338571,2,0,L|27:275,1,50
246,361,338743,5,0,0:0:0:0:
272,331,338829,1,0,0:0:0:0:
285,294,338914,1,0,0:0:0:0:
280,254,339000,1,0,0:0:0:0:
258,221,339086,2,0,L|316:236,1,50
467,332,339257,2,0,B|368:356|368:356|247:325,1,200
186,266,339686,1,0,0:0:0:0:
178,259,339771,2,0,L|162:202,1,50
243,73,339943,1,0,0:0:0:0:
309,49,340029,1,0,0:0:0:0:
376,63,340114,6,0,L|367:130,3,50
277,140,340457,1,0,0:0:0:0:
238,131,340543,1,0,0:0:0:0:
201,143,340629,1,0,0:0:0:0:
173,171,340714,1,0,0:0:0:0:
164,210,340800,2,0,L|178:259,3,50
257,295,341143,1,0,0:0:0:0:
296,286,341229,1,0,0:0:0:0:
334,296,341314,2,0,B|338:323|338:323|333:365,1,50
405,246,341486,6,0,L|413:196,3,50
325,82,341829,2,0,L|333:32,1,50
177,123,342000,5,0,0:0:0:0:
127,130,342086,1,0,0:0:0:0:
83,104,342171,1,0,0:0:0:0:
63,57,342257,1,0,0:0:0:0:
79,9,342343,1,0,0:0:0:0:
98,55,342429,1,0,0:0:0:0:
100,104,342514,1,0,0:0:0:0:
90,153,342600,1,0,0:0:0:0:
69,198,342686,1,0,0:0:0:0:
65,247,342771,1,0,0:0:0:0:
79,294,342857,6,0,L|208:317,1,100
184,304,343114,2,0,L|232:293,1,50
403,248,343286,1,0,0:0:0:0:
413,246,343371,1,0,0:0:0:0:
432,103,343543,6,0,L|303:126,1,100
327,113,343800,2,0,L|278:102,1,50
108,57,343971,1,0,0:0:0:0:
98,55,344057,1,0,0:0:0:0:
264,41,344229,6,0,B|267:92|267:92|244:164,1,100
242,138,344486,2,0,L|251:221,1,50
264,346,344657,1,0,0:0:0:0:
266,356,344743,1,0,0:0:0:0:
100,370,344914,6,0,B|97:319|97:319|120:247,1,100
122,273,345171,2,0,L|113:190,1,50
98,55,345343,1,0,0:0:0:0:
99,64,345429,2,0,L|105:114,1,50
14,182,345600,5,0,0:0:0:0:
342,144,345771,1,0,0:0:0:0:
339,153,345857,1,0,0:0:0:0:
266,356,346029,1,0,0:0:0:0:
264,346,346114,1,0,0:0:0:0:
105,114,346286,5,0,0:0:0:0:
433,76,346457,1,0,0:0:0:0:
430,85,346543,1,0,0:0:0:0:
357,288,346714,1,0,0:0:0:0:
355,278,346800,1,0,0:0:0:0:
105,114,346971,6,0,L|204:122,1,100
450,164,347229,6,0,L|350:172,1,100
164,267,347486,6,0,L|214:272,1,50
256,351,347657,5,0,0:0:0:0:
293,319,347743,1,0,0:0:0:0:
306,271,347829,1,0,0:0:0:0:
293,224,347914,1,0,0:0:0:0:
256,192,348000,1,0,0:0:0:0:
218,159,348086,1,0,0:0:0:0:
205,112,348171,1,0,0:0:0:0:
218,64,348257,1,0,0:0:0:0:
255,32,348343,6,0,L|393:48,1,100
459,158,348600,1,0,0:0:0:0:
450,164,348686,2,0,L|400:158,1,50
209,140,348857,5,0,0:0:0:0:
449,56,349029,1,0,0:0:0:0:
323,328,349200,1,0,0:0:0:0:
352,87,349371,1,0,0:0:0:0:
216,228,349543,2,0,L|221:277,1,50
323,328,349714,6,0,L|329:275,1,50
89,239,349886,1,0,0:0:0:0:
182,383,350057,1,0,0:0:0:0:
153,141,350229,6,0,L|159:88,3,50
100,34,350571,1,0,0:0:0:0:
66,55,350657,1,0,0:0:0:0:
45,89,350743,2,0,P|64:117|80:99,1,66.4999972602845
270,126,350914,2,0,P|251:98|235:116,1,66.4999972602845
89,239,351086,6,0,L|222:226,1,100,0|0,0:0|0:0,0:0:0:0:
268,220,351343,1,0,0:0:0:0:
348,215,351429,2,0,L|409:223,1,50
299,359,351600,1,0,0:0:0:0:
290,355,351686,1,0,0:0:0:0:
280,353,351771,2,0,L|276:304,1,50
260,136,351943,1,0,0:0:0:0:
269,134,352029,2,0,L|273:84,1,50
454,81,352200,1,0,0:0:0:0:
463,83,352286,2,0,L|467:133,1,50
343,262,352457,5,0,0:0:0:0:
275,303,352543,1,0,0:0:0:0:
194,304,352629,1,0,0:0:0:0:
196,296,352714,1,0,0:0:0:0:
195,285,352800,2,0,P|210:247|229:232,1,50
354,135,352971,2,0,L|350:185,1,50
162,185,353143,2,0,L|158:135,1,50
254,0,353314,2,0,L|250:50,1,50
38,67,353486,2,0,B|40:107|40:107|33:134|33:134|44:158|44:158|50:246,1,179.999994506836
186,330,353829,6,0,B|195:281|195:281|190:225,1,100
305,137,354086,1,0,0:0:0:0:
314,141,354171,2,0,L|319:212,1,50
433,345,354343,2,0,L|437:295,1,50
454,133,354514,1,0,0:0:0:0:
335,363,354686,1,0,0:0:0:0:
49,243,354857,1,0,0:0:0:0:
264,145,355029,2,0,L|335:139,1,50
124,153,355200,5,0,0:0:0:0:
410,273,355371,1,0,0:0:0:0:
454,133,355543,1,0,0:0:0:0:
253,217,355714,6,0,P|193:147|250:75,1,200
317,95,356143,1,0,0:0:0:0:
333,164,356229,2,0,B|332:198|332:198|323:241,1,66.4999972602845
138,347,356400,2,0,B|139:313|139:313|148:270,1,66.4999972602845
33,161,356571,6,0,P|48:134|53:109,1,50
152,30,356743,2,0,P|158:54|171:75,1,50
332,80,356914,2,0,P|314:97|292:109,1,50
128,150,357086,2,0,P|145:167|167:179,1,50
325,229,357257,6,0,L|410:222,1,50
220,338,357429,1,0,0:0:0:0:
229,344,357514,2,0,L|278:339,1,50
141,270,357686,2,0,L|91:265,2,50
325,229,357943,5,0,0:0:0:0:
366,161,358029,1,0,0:0:0:0:
367,80,358114,1,0,0:0:0:0:
359,82,358200,1,0,0:0:0:0:
348,81,358286,2,0,P|310:96|295:115,1,50
141,270,358457,2,0,B|146:198|146:198|133:164|133:164|139:63,1,200
75,134,358886,5,0,0:0:0:0:
81,151,358971,5,0,0:0:0:0:
159,135,359057,1,0,0:0:0:0:
232,164,359143,1,0,0:0:0:0:
273,232,359229,1,0,0:0:0:0:
276,311,359314,5,0,0:0:0:0:
246,270,359400,1,0,0:0:0:0:
241,230,359486,1,0,0:0:0:0:
250,201,359571,1,0,0:0:0:0:
264,186,359657,1,0,0:0:0:0:
277,178,359743,1,0,0:0:0:0:
286,174,359829,1,0,0:0:0:0:
295,173,359914,1,0,0:0:0:0:
300,172,360000,5,0,0:0:0:0:
229,145,360086,1,0,0:0:0:0:
181,87,360171,1,0,0:0:0:0:
250,65,360257,5,0,0:0:0:0:
250,140,360343,1,0,0:0:0:0:
213,206,360429,1,0,0:0:0:0:
116,161,360514,5,0,0:0:0:0:
109,91,360600,1,0,0:0:0:0:
132,24,360686,6,0,L|233:15,1,100
350,36,360943,1,0,0:0:0:0:
348,45,361029,1,0,0:0:0:0:
316,282,361200,1,0,0:0:0:0:
498,193,361371,2,0,L|399:180,1,100
160,147,361714,1,0,0:0:0:0:
192,384,361886,1,0,0:0:0:0:
316,282,362057,5,0,0:0:0:0:
312,274,362143,1,0,0:0:0:0:
225,249,362229,5,0,0:0:0:0:
228,239,362314,1,0,0:0:0:0:
275,175,362400,5,0,0:0:0:0:
274,164,362486,1,0,0:0:0:0:
267,84,362571,6,0,B|227:86|204:118|204:118|205:83|232:52|282:43|329:60,1,200
448,186,363086,2,0,L|399:180,1,50
153,192,363257,2,0,L|103:198,1,50
106,340,363429,6,0,L|206:327,1,100
316,282,363686,1,0,0:0:0:0:
312,274,363771,1,0,0:0:0:0:
256,82,363943,1,0,0:0:0:0:
103,198,364114,1,0,0:0:0:0:
342,171,364286,1,0,0:0:0:0:
149,135,364457,1,0,0:0:0:0:
205,327,364629,1,0,0:0:0:0:
37,291,364800,6,0,L|32:231,1,59.9999981689454
256,82,364971,2,0,L|250:167,1,59.9999981689454
32,231,365143,2,0,L|36:171,1,59.9999981689454
251,141,365314,2,0,L|255:200,1,59.9999981689454
205,327,365486,5,0,0:0:0:0:
254,319,365571,1,0,0:0:0:0:
303,312,365657,1,0,0:0:0:0:
353,304,365743,1,0,0:0:0:0:
402,297,365829,6,0,B|413:262|413:262|405:210,1,66.4999972602845
250,140,366000,2,0,B|255:169|255:169|276:200,1,66.4999972602845
480,182,366171,6,0,L|487:50,1,100
379,22,366429,1,0,0:0:0:0:
377,31,366514,1,0,0:0:0:0:
250,140,366686,1,0,0:0:0:0:
485,82,366857,1,0,0:0:0:0:
144,80,367029,1,0,0:0:0:0:
356,200,367200,1,0,0:0:0:0:
123,266,367371,1,0,3:0:0:0:
205,327,367543,6,0,L|199:269,1,50
89,194,367714,2,0,L|95:136,1,50
194,16,367886,1,0,0:0:0:0:
218,47,367971,1,0,0:0:0:0:
224,86,368057,2,0,P|227:184|320:179,1,200
359,136,368486,1,0,0:0:0:0:
349,65,368571,6,0,L|250:56,1,59.9999981689454
52,38,368743,2,0,L|111:43,1,59.9999981689454
188,202,368914,6,0,L|88:193,1,100
4,107,369171,1,0,0:0:0:0:
5,116,369257,1,0,0:0:0:0:
29,355,369429,1,0,0:0:0:0:
345,258,369600,2,0,L|245:266,1,100
174,51,369943,2,0,L|273:59,1,100
471,75,370286,5,0,0:0:0:0:
132,277,370457,1,0,0:0:0:0:
465,66,370629,5,0,0:0:0:0:
126,268,370800,1,0,0:0:0:0:
462,188,370971,6,0,L|395:183,1,66.4999972602845
174,166,371143,2,0,L|240:170,1,66.4999972602845
454,171,371314,6,0,L|404:167,1,50
185,150,371486,2,0,L|234:153,1,50
331,26,371657,6,0,L|325:136,1,100
320,246,371914,1,0,0:0:0:0:
320,235,372000,1,0,0:0:0:0:
432,62,372171,1,0,0:0:0:0:
227,52,372343,1,0,0:0:0:0:
315,330,372514,1,0,0:0:0:0:
325,125,372686,1,0,0:0:0:0:
142,218,372857,1,0,0:0:0:0:
312,235,373029,5,0,0:0:0:0:
288,228,373114,1,0,0:0:0:0:
236,227,373200,1,0,0:0:0:0:
200,248,373286,1,0,0:0:0:0:
156,257,373371,1,0,0:0:0:0:
127,260,373457,1,0,0:0:0:0:
85,273,373543,2,0,B|145:326|145:326|170:312|170:312|204:326|234:310|234:310|292:318,1,200
328,321,373971,1,0,0:0:0:0:
398,329,374057,6,0,B|406:297|406:297|400:241,1,66.4999972602845
222,168,374229,2,0,B|219:135|219:135|233:80,1,66.4999972602845
478,75,374400,2,0,L|441:206,1,100
333,196,374657,1,0,0:0:0:0:
332,186,374743,1,0,0:0:0:0:
321,7,374914,1,0,0:0:0:0:
81,115,375086,2,0,L|209:109,1,100
343,105,375429,1,0,0:0:0:0:
332,284,375600,1,0,0:0:0:0:
103,213,375771,5,0,0:0:0:0:
439,231,375943,1,0,0:0:0:0:
332,284,376114,5,0,0:0:0:0:
293,253,376200,1,0,0:0:0:0:
277,206,376286,1,0,0:0:0:0:
289,158,376371,1,0,0:0:0:0:
318,131,376457,1,0,0:0:0:0:
337,96,376543,1,0,0:0:0:0:
333,57,376629,1,0,0:0:0:0:
308,27,376714,1,0,0:0:0:0:
277,93,376800,6,0,B|278:125|278:125|289:158,1,66.4999972602845
439,231,376971,2,0,B|438:262|438:262|427:295,1,66.4999972602845
195,346,377143,2,0,L|189:218,1,100
186,125,377400,1,0,0:0:0:0:
186,135,377486,1,0,0:0:0:0:
79,250,377657,1,0,0:0:0:0:
301,242,377829,1,0,0:0:0:0:
182,24,378000,1,0,0:0:0:0:
190,246,378171,2,0,L|195:346,1,100
297,131,378514,6,0,L|293:37,1,50
71,28,378686,2,0,L|73:77,1,50
242,189,378857,5,0,0:0:0:0:
276,208,378943,1,0,0:0:0:0:
316,209,379029,1,0,0:0:0:0:
351,191,379114,1,0,0:0:0:0:
374,159,379200,5,0,0:0:0:0:
404,122,379286,1,0,0:0:0:0:
451,132,379371,1,0,0:0:0:0:
465,178,379457,1,0,0:0:0:0:
431,211,379543,5,0,0:0:0:0:
422,203,379629,1,0,0:0:0:0:
413,194,379714,1,0,0:0:0:0:
404,185,379800,1,0,0:0:0:0:
395,177,379886,6,0,L|402:107,1,50
266,69,380057,1,0,0:0:0:0:
274,76,380143,1,0,0:0:0:0:
283,82,380229,2,0,L|278:131,1,50
307,219,380400,2,0,L|302:268,1,50
179,200,380571,6,0,L|184:144,1,40
75,113,380743,1,0,0:0:0:0:
82,119,380829,1,0,0:0:0:0:
89,124,380914,2,0,L|85:163,1,40
108,233,381086,2,0,L|104:272,1,40
256,352,381257,6,0,L|244:262,1,80
296,139,381600,2,0,L|307:219,1,80
438,149,381943,1,0,0:0:0:0:
200,187,382114,1,0,0:0:0:0:
172,170,382200,1,0,0:0:0:0:
156,151,382286,1,0,0:0:0:0:
149,136,382371,1,0,0:0:0:0:
148,127,382457,1,0,0:0:0:0:
148,123,382543,1,0,0:0:0:0:
149,119,382629,6,0,L|207:110,3,40
258,61,382971,2,0,L|297:67,3,40
364,125,383314,2,0,L|355:183,3,40
306,234,383657,2,0,L|312:273,3,40
253,340,384000,6,0,L|213:346,3,40
144,294,384343,2,0,L|104:287,3,40
31,236,384686,2,0,L|24:196,3,40
77,127,385029,2,0,L|83:87,3,40
165,116,385371,6,0,L|171:155,3,40
217,266,385714,2,0,L|222:227,3,40
264,124,386057,6,0,L|270:163,3,40
316,274,386400,2,0,L|320:234,3,40
363,132,386743,6,0,L|369:171,3,40
415,282,387086,6,0,L|419:242,3,40
468,168,387429,2,0,L|472:128,3,40
439,47,387771,2,0,L|443:7,3,40
363,98,388114,6,0,L|311:107,1,40
158,69,388286,1,0,0:0:0:0:
177,72,388371,1,0,0:0:0:0:
197,75,388457,2,0,L|204:109,3,20
211,142,388629,2,0,L|207:190,1,40
121,242,388800,2,0,L|117:202,1,40
63,92,388971,1,0,0:0:0:0:
44,95,389057,1,0,0:0:0:0:
23,97,389143,2,0,L|27:145,1,40
36,277,389314,2,0,L|40:325,1,40
168,318,389486,5,0,0:0:0:0:
184,307,389571,1,0,0:0:0:0:
197,292,389657,1,0,0:0:0:0:
206,274,389743,1,0,0:0:0:0:
210,254,389829,2,0,L|264:259,3,40
354,197,390171,2,0,L|300:202,3,40
240,116,390514,2,0,L|243:155,3,40
366,107,390857,5,0,0:0:0:0:
361,87,390943,1,0,0:0:0:0:
349,70,391029,2,0,L|318:63,3,20
296,31,391200,2,0,L|243:40,3,40
82,71,391543,2,0,L|135:80,3,40
279,109,391886,2,0,L|226:118,3,40
149,168,392229,5,0,0:0:0:0:
138,184,392314,1,0,0:0:0:0:
132,203,392400,1,0,0:0:0:0:
132,223,392486,1,0,0:0:0:0:
139,242,392571,2,0,L|193:252,3,40
304,273,392914,1,0,0:0:0:0:
314,289,393000,1,0,0:0:0:0:
320,308,393086,1,0,0:0:0:0:
320,328,393171,1,0,0:0:0:0:
314,347,393257,2,0,L|260:357,3,40
152,325,393600,6,0,L|206:335,1,40
418,232,393771,2,0,L|364:242,1,40
249,189,393943,1,0,0:0:0:0:
239,173,394029,1,0,0:0:0:0:
233,154,394114,1,0,0:0:0:0:
233,134,394200,1,0,0:0:0:0:
239,115,394286,2,0,L|293:105,3,40
391,45,394629,2,0,L|351:37,3,40
373,151,394971,6,0,L|386:188,3,40
278,257,395314,2,0,L|291:219,3,40
188,132,395657,2,0,L|218:157,3,40
158,271,396000,2,0,L|150:231,3,40
99,151,396343,5,0,0:0:0:0:
93,131,396429,1,0,0:0:0:0:
93,112,396514,1,0,0:0:0:0:
101,93,396600,1,0,0:0:0:0:
113,78,396686,2,0,L|165:68,1,40
233,120,396857,2,0,L|272:127,1,40
348,81,397029,5,0,0:0:0:0:
368,75,397114,1,0,0:0:0:0:
387,75,397200,1,0,0:0:0:0:
406,83,397286,1,0,0:0:0:0:
421,95,397371,2,0,L|431:147,1,40
379,215,397543,2,0,L|371:254,1,40
188,329,397714,6,0,L|231:321,1,40
289,223,397886,2,0,L|249:230,1,40
105,242,398057,5,0,0:0:0:0:
112,272,398143,1,0,0:0:0:0:
131,298,398229,1,0,0:0:0:0:
157,316,398314,1,0,0:0:0:0:
188,329,398400,2,0,L|227:332,1,40
367,297,398571,2,0,L|327:293,1,40
289,223,398743,2,0,L|292:183,1,40
363,150,398914,2,0,L|366:110,1,40
176,19,399086,6,0,L|179:58,1,40
158,172,399257,1,0,0:0:0:0:
137,196,399343,1,0,0:0:0:0:
108,209,399429,2,0,L|62:203,2,40
273,340,399771,2,0,L|267:386,2,40
404,175,400114,2,0,L|450:181,2,40
346,74,400457,6,0,L|340:113,1,40
206,152,400629,2,0,L|208:178,3,20
183,182,400800,2,0,L|202:265,1,80
372,319,401143,2,0,L|354:241,1,80
489,135,401486,2,0,L|471:212,1,80
319,119,401829,5,0,0:0:0:0:
400,98,402000,1,0,0:0:0:0:
489,135,402171,2,0,L|471:212,1,80
372,319,402514,2,0,L|354:241,1,80
183,182,402857,2,0,L|200:259,1,80
256,192,403200,12,0,404486,0:0:0:0:
256,192,404571,5,0,0:0:0:0:
128,64,405086,5,0,0:0:0:0:
129,71,405429,1,0,0:0:0:0:
48,274,405943,6,0,L|129:255,1,80
129,228,406200,2,0,L|171:241,1,40
210,329,406371,2,0,L|252:316,1,40
388,135,406629,6,0,L|407:216,1,80
434,216,406886,2,0,L|421:258,1,40
333,297,407057,2,0,L|346:339,1,40
201,195,407314,6,0,P|190:160|209:106,1,80
236,127,407571,2,0,L|228:81,1,40
138,42,407743,1,0,0:0:0:0:
136,49,407829,1,0,0:0:0:0:
0,213,408000,6,0,P|35:224|89:205,1,80
68,178,408257,2,0,L|114:186,1,40
153,276,408429,1,0,0:0:0:0:
146,278,408514,1,0,0:0:0:0:
282,341,408686,6,0,B|322:350|322:350|374:347,1,80
366,340,408943,2,0,P|333:333|313:321,1,40
253,222,409114,1,0,0:0:0:0:
253,230,409200,1,0,0:0:0:0:
452,256,409371,6,0,B|412:265|412:265|360:262,1,80
359,236,409629,2,0,L|430:228,1,40
481,137,409800,1,0,0:0:0:0:
481,145,409886,1,0,0:0:0:0:
158,171,410057,5,0,0:0:0:0:
60,87,410229,1,0,0:0:0:0:
67,88,410314,1,0,0:0:0:0:
194,104,410486,1,0,0:0:0:0:
201,101,410571,1,0,0:0:0:0:
315,43,410743,5,0,0:0:0:0:
419,116,410914,1,0,0:0:0:0:
419,124,411000,1,0,0:0:0:0:
301,174,411171,1,0,0:0:0:0:
302,181,411257,1,0,0:0:0:0:
324,307,411429,5,0,0:0:0:0:
204,261,411600,1,0,0:0:0:0:
211,259,411686,1,0,0:0:0:0:
227,132,411857,1,0,0:0:0:0:
221,137,411943,1,0,0:0:0:0:
107,195,412114,5,0,0:0:0:0:
118,322,412286,1,0,0:0:0:0:
119,314,412371,1,0,0:0:0:0:
21,230,412543,1,0,0:0:0:0:
21,238,412629,1,0,0:0:0:0:
23,347,412800,5,0,0:0:0:0:
408,280,413486,6,0,L|320:272,1,80
203,263,413829,2,0,B|202:320|202:320|223:292,2,80
145,185,414343,2,0,B|235:137|228:207|321:158,3,160
367,99,415543,5,0,0:0:0:0:
142,61,415886,6,0,L|107:81,2,40
161,240,416400,2,0,L|153:267,3,20
132,221,416571,2,0,L|142:305,1,80
218,323,416914,5,0,0:0:0:0:
296,307,417086,2,0,L|374:322,1,80
387,200,417429,2,0,P|366:171|368:232,2,160
216,257,418286,5,0,0:0:0:0:
229,178,418457,1,0,0:0:0:0:
186,109,418629,2,0,L|178:61,2,40
369,84,419143,2,0,L|389:83,3,20
344,104,419314,2,0,L|423:101,1,80
280,55,419657,5,0,0:0:0:0:
215,102,419829,2,0,P|197:148|208:188,1,80
324,291,420171,6,0,P|327:212|278:152,2,160
91,325,421029,5,0,0:0:0:0:
253,342,421200,1,0,0:0:0:0:
76,247,421371,2,0,L|67:203,2,40
253,342,421886,2,0,L|255:315,3,20
282,371,422057,2,0,L|289:296,1,60
133,160,422400,5,0,0:0:0:0:
176,226,422571,2,0,P|216:242|255:238,1,80
369,180,422914,6,0,B|380:130|380:130|370:102|370:102|388:66|388:66|386:23,6,160
150,86,425314,6,0,L|154:101,1,10
32,320,425829,6,0,P|65:340|168:318,1,150
480,192,426171,6,0,P|447:212|344:190,1,150
256,0,426514,5,0,0:0:0:0:
