osu file format v14

[General]
AudioFilename: Goose [HQ]Nemesis240BPM.mp3
AudioLeadIn: 0
PreviewTime: 42155
Countdown: 0
SampleSet: Normal
StackLeniency: 0.3
Mode: 1
LetterboxInBreaks: 0
WidescreenStoryboard: 0

[Editor]
DistanceSpacing: 0.7
BeatDivisor: 4
GridSize: 4
TimelineZoom: 3.2

[Metadata]
Title:Untan Goose
TitleUnicode:うんたん Goose
Artist:Crash-TM
ArtistUnicode:Crash-TM
Creator:Hanjamon
Version:Speed Nemesis
Source:
Tags:Anime K-ON! けいおん! mad Nico Nico Douga snow jubeat Mutsuhiko Izumi dani titotatin raiden mikkusu lno _gezo_ Unmei Muma ercs mikkusu-8022 windeu zetorux 少々 Uraomote Lovers vocaloid DukeDukeDura Quizmaegi sing216 Maitroxsk JUDYDANNY Sanawieck Konpaku Sariel RuinedChicken game rock Volta IControl _yu68 katacheh TimmyAkmed Nishizumi Raphalge 404 AccNotFound asuasu_yura qoot8123 stu00608 tasuke912 applerss Aldwych lucky star moon AKHTS MidSoul -TheHateD- tkdLolly JustALeaf xWillx Consified
BeatmapID:671506
BeatmapSetID:299271

[Difficulty]
HPDrainRate:7
CircleSize:5
OverallDifficulty:6
ApproachRate:6
SliderMultiplier:1.4
SliderTickRate:1

[Events]
//Background and Video events
0,0,"k-onyuiBGmlg.jpg",0,40
//Break Periods
//Storyboard Layer 0 (Background)
//Storyboard Layer 1 (Fail)
//Storyboard Layer 2 (Pass)
//Storyboard Layer 3 (Foreground)
//Storyboard Sound Samples

[TimingPoints]
280,250,4,1,0,90,1,0
42280,-100,4,1,0,90,0,1
66217,-100,4,1,0,90,0,0
78780,-80,4,1,0,90,0,1
79530,-80,4,1,0,90,0,0

[HitObjects]
276,168,280,5,0,0:0:0:0:
276,168,342,1,0,0:0:0:0:
276,168,405,1,8,0:0:0:0:
276,168,467,1,8,0:0:0:0:
276,168,530,1,0,0:0:0:0:
276,168,655,1,8,0:0:0:0:
276,168,780,1,0,0:0:0:0:
272,152,842,1,0,0:0:0:0:
276,168,905,1,8,0:0:0:0:
276,168,967,1,0,0:0:0:0:
276,168,1030,1,8,0:0:0:0:
276,168,1092,1,8,0:0:0:0:
276,168,1155,1,0,0:0:0:0:
276,168,1280,1,0,0:0:0:0:
304,204,1342,1,0,0:0:0:0:
304,204,1405,1,8,0:0:0:0:
304,204,1467,1,8,0:0:0:0:
304,204,1530,1,0,0:0:0:0:
296,192,1655,1,8,0:0:0:0:
296,192,1780,1,0,0:0:0:0:
264,188,1905,5,8,0:0:0:0:
256,160,1967,1,8,0:0:0:0:
264,188,2030,1,0,0:0:0:0:
264,188,2092,1,0,0:0:0:0:
264,188,2155,1,8,0:0:0:0:
264,188,2280,1,0,0:0:0:0:
256,168,2342,1,0,0:0:0:0:
256,168,2405,1,8,0:0:0:0:
256,168,2467,1,8,0:0:0:0:
256,168,2530,1,0,0:0:0:0:
296,192,2655,1,8,0:0:0:0:
296,192,2780,1,0,0:0:0:0:
292,180,2905,1,8,0:0:0:0:
292,180,3030,1,0,0:0:0:0:
292,180,3092,1,0,0:0:0:0:
292,180,3155,1,8,0:0:0:0:
352,152,3217,1,0,0:0:0:0:
300,180,3280,1,8,0:0:0:0:
300,180,3342,1,8,0:0:0:0:
272,156,3405,1,0,0:0:0:0:
300,180,3467,1,8,0:0:0:0:
252,152,3530,1,0,0:0:0:0:
244,148,3592,1,0,0:0:0:0:
296,176,3655,1,8,0:0:0:0:
248,156,3717,1,8,0:0:0:0:
248,156,3780,1,8,0:0:0:0:
248,152,3842,1,0,0:0:0:0:
248,152,3905,1,0,0:0:0:0:
248,152,3967,1,8,0:0:0:0:
248,152,4030,1,8,0:0:0:0:
248,152,4092,1,0,0:0:0:0:
248,152,4155,1,0,0:0:0:0:
248,152,4217,1,0,0:0:0:0:
248,156,4280,1,8,0:0:0:0:
248,156,4342,1,0,0:0:0:0:
248,156,4405,1,8,0:0:0:0:
248,160,4467,1,8,0:0:0:0:
248,160,4530,1,0,0:0:0:0:
248,160,4592,1,0,0:0:0:0:
248,160,4655,1,8,0:0:0:0:
248,160,4717,1,8,0:0:0:0:
256,160,4780,1,0,0:0:0:0:
252,160,4842,1,8,0:0:0:0:
256,160,4905,1,0,0:0:0:0:
256,160,4967,1,8,0:0:0:0:
256,160,5030,1,0,0:0:0:0:
256,160,5092,1,0,0:0:0:0:
256,160,5155,1,8,0:0:0:0:
256,160,5217,1,8,0:0:0:0:
248,152,5280,1,0,0:0:0:0:
264,144,5405,1,0,0:0:0:0:
260,144,5467,1,0,0:0:0:0:
260,144,5530,1,8,0:0:0:0:
272,172,5592,1,0,0:0:0:0:
260,144,5655,1,8,0:0:0:0:
236,144,5780,1,0,0:0:0:0:
248,160,5905,1,8,0:0:0:0:
248,160,5967,1,0,0:0:0:0:
248,160,6030,1,8,0:0:0:0:
248,160,6092,1,8,0:0:0:0:
248,160,6155,1,0,0:0:0:0:
248,160,6280,1,0,0:0:0:0:
208,168,6342,1,0,0:0:0:0:
208,168,6405,1,8,0:0:0:0:
208,168,6467,1,0,0:0:0:0:
208,168,6530,1,0,0:0:0:0:
256,180,6592,1,0,0:0:0:0:
208,168,6655,1,8,0:0:0:0:
208,168,6780,1,0,0:0:0:0:
232,160,6905,1,0,0:0:0:0:
232,160,6967,1,0,0:0:0:0:
232,160,7030,1,8,0:0:0:0:
232,160,7092,1,8,0:0:0:0:
232,160,7155,1,8,0:0:0:0:
264,184,7217,1,8,0:0:0:0:
232,160,7280,1,0,0:0:0:0:
232,160,7342,1,0,0:0:0:0:
220,140,7405,1,8,0:0:0:0:
220,140,7467,1,8,0:0:0:0:
220,140,7530,1,0,0:0:0:0:
248,152,7655,1,8,0:0:0:0:
248,152,7780,1,0,0:0:0:0:
268,164,7905,1,8,0:0:0:0:
272,160,8030,1,8,0:0:0:0:
272,160,8092,1,8,0:0:0:0:
272,160,8155,1,0,0:0:0:0:
272,160,8217,1,0,0:0:0:0:
272,160,8280,1,8,0:0:0:0:
284,152,8342,1,0,0:0:0:0:
196,168,8405,1,8,0:0:0:0:
276,152,8467,1,0,0:0:0:0:
316,168,8530,1,0,0:0:0:0:
316,168,8592,1,0,0:0:0:0:
288,140,8655,1,8,0:0:0:0:
256,144,8717,1,8,0:0:0:0:
256,144,8780,1,0,0:0:0:0:
276,184,8842,1,8,0:0:0:0:
236,168,8905,1,0,0:0:0:0:
236,168,8967,1,8,0:0:0:0:
236,168,9030,1,8,0:0:0:0:
236,168,9092,1,0,0:0:0:0:
236,168,9155,1,0,0:0:0:0:
236,168,9217,1,0,0:0:0:0:
236,168,9280,1,8,0:0:0:0:
236,168,9342,1,8,0:0:0:0:
236,168,9405,1,0,0:0:0:0:
236,168,9467,1,0,0:0:0:0:
236,168,9530,1,8,0:0:0:0:
236,168,9592,1,0,0:0:0:0:
236,168,9655,1,8,0:0:0:0:
236,168,9717,1,8,0:0:0:0:
236,168,9780,1,0,0:0:0:0:
236,168,9842,1,8,0:0:0:0:
236,168,9905,1,8,0:0:0:0:
236,168,9967,1,0,0:0:0:0:
236,168,10030,1,0,0:0:0:0:
236,168,10092,1,0,0:0:0:0:
236,168,10155,1,8,0:0:0:0:
236,168,10217,1,8,0:0:0:0:
228,140,10280,1,0,0:0:0:0:
232,132,10405,1,8,0:0:0:0:
232,132,10530,1,8,0:0:0:0:
240,132,10592,1,8,0:0:0:0:
236,136,10655,1,8,0:0:0:0:
220,176,10780,1,0,0:0:0:0:
220,172,10905,1,8,0:0:0:0:
416,192,10967,1,8,0:0:0:0:
220,172,11030,1,0,0:0:0:0:
220,176,11155,1,8,0:0:0:0:
240,152,11217,1,8,0:0:0:0:
220,176,11280,1,0,0:0:0:0:
232,144,11405,1,8,0:0:0:0:
232,148,11530,1,8,0:0:0:0:
232,148,11592,1,8,0:0:0:0:
232,148,11655,1,8,0:0:0:0:
228,164,11780,1,0,0:0:0:0:
232,164,11905,1,8,0:0:0:0:
204,176,11967,1,8,0:0:0:0:
264,156,12030,1,0,0:0:0:0:
264,156,12155,1,8,0:0:0:0:
248,148,12217,1,8,0:0:0:0:
264,156,12280,1,0,0:0:0:0:
260,160,12405,1,8,0:0:0:0:
260,160,12530,1,8,0:0:0:0:
260,160,12592,1,8,0:0:0:0:
260,160,12655,1,8,0:0:0:0:
256,176,12780,1,0,0:0:0:0:
256,176,12905,1,8,0:0:0:0:
264,156,12967,1,8,0:0:0:0:
256,176,13030,1,0,0:0:0:0:
256,172,13155,1,8,0:0:0:0:
308,160,13217,1,8,0:0:0:0:
256,172,13280,1,0,0:0:0:0:
360,236,13342,1,0,0:0:0:0:
360,236,13405,1,8,0:0:0:0:
360,236,13467,1,0,0:0:0:0:
360,236,13530,1,8,0:0:0:0:
360,236,13592,1,0,0:0:0:0:
360,236,13655,1,8,0:0:0:0:
360,236,13717,1,0,0:0:0:0:
360,236,13780,1,8,0:0:0:0:
360,236,13842,1,8,0:0:0:0:
360,236,13905,1,0,0:0:0:0:
360,236,13967,1,8,0:0:0:0:
208,160,14030,1,0,0:0:0:0:
228,200,14092,1,0,0:0:0:0:
232,172,14155,1,8,0:0:0:0:
232,172,14280,1,0,0:0:0:0:
204,156,14405,1,8,0:0:0:0:
204,156,14530,1,8,0:0:0:0:
204,156,14592,1,8,0:0:0:0:
204,156,14655,1,8,0:0:0:0:
296,188,14780,1,0,0:0:0:0:
292,160,14842,1,0,0:0:0:0:
296,188,14905,1,8,0:0:0:0:
268,168,15030,1,8,0:0:0:0:
292,160,15092,1,0,0:0:0:0:
268,168,15155,1,8,0:0:0:0:
268,168,15280,1,0,0:0:0:0:
248,168,15405,1,8,0:0:0:0:
256,168,15530,1,8,0:0:0:0:
256,168,15592,1,8,0:0:0:0:
256,168,15655,1,8,0:0:0:0:
256,168,15780,1,0,0:0:0:0:
288,172,15842,1,0,0:0:0:0:
316,164,15905,1,8,0:0:0:0:
304,168,16030,1,8,0:0:0:0:
288,172,16092,1,0,0:0:0:0:
304,168,16155,1,8,0:0:0:0:
304,160,16280,1,0,0:0:0:0:
216,160,16405,1,8,0:0:0:0:
212,156,16530,1,8,0:0:0:0:
216,156,16592,1,8,0:0:0:0:
216,128,16655,1,8,0:0:0:0:
216,160,16780,1,0,0:0:0:0:
280,168,16842,1,0,0:0:0:0:
264,176,16905,1,8,0:0:0:0:
264,176,17030,1,8,0:0:0:0:
280,168,17092,1,0,0:0:0:0:
292,168,17155,1,8,0:0:0:0:
288,232,17280,1,4,0:0:0:0:
264,172,17405,1,4,0:0:0:0:
256,184,17530,1,12,0:0:0:0:
196,176,17780,1,4,0:0:0:0:
196,176,17905,1,12,0:0:0:0:
212,168,18030,1,8,0:0:0:0:
212,168,18092,1,0,0:0:0:0:
212,168,18155,1,8,0:0:0:0:
200,148,18280,1,0,0:0:0:0:
264,156,18342,1,0,0:0:0:0:
196,168,18405,1,0,0:0:0:0:
196,168,18467,1,0,0:0:0:0:
196,168,18530,1,0,0:0:0:0:
200,168,18655,1,8,0:0:0:0:
156,152,18780,1,0,0:0:0:0:
240,148,18842,1,0,0:0:0:0:
196,168,18905,1,0,0:0:0:0:
196,168,19030,1,8,0:0:0:0:
200,160,19155,1,0,0:0:0:0:
200,160,19217,1,0,0:0:0:0:
200,160,19280,1,8,0:0:0:0:
216,152,19405,1,8,0:0:0:0:
216,152,19530,1,0,0:0:0:0:
244,152,19592,1,0,0:0:0:0:
248,140,19655,1,8,0:0:0:0:
248,140,19717,1,8,0:0:0:0:
248,140,19780,1,0,0:0:0:0:
208,144,19905,1,0,0:0:0:0:
208,144,20030,1,0,0:0:0:0:
224,148,20092,1,8,0:0:0:0:
224,148,20155,1,0,0:0:0:0:
232,152,20217,1,0,0:0:0:0:
224,148,20280,1,8,0:0:0:0:
244,176,20405,1,0,0:0:0:0:
244,176,20467,1,0,0:0:0:0:
244,176,20530,1,0,0:0:0:0:
244,172,20655,1,8,0:0:0:0:
244,172,20780,1,0,0:0:0:0:
384,224,20905,1,8,0:0:0:0:
256,148,20967,1,8,0:0:0:0:
384,232,21030,1,0,0:0:0:0:
376,228,21092,1,0,0:0:0:0:
376,228,21155,1,0,0:0:0:0:
376,228,21217,1,0,0:0:0:0:
376,228,21280,1,8,0:0:0:0:
276,168,21405,1,0,0:0:0:0:
276,168,21530,1,8,0:0:0:0:
280,180,21592,1,8,0:0:0:0:
280,180,21655,1,8,0:0:0:0:
236,148,21717,1,8,0:0:0:0:
220,156,21780,1,0,0:0:0:0:
220,156,21842,1,0,0:0:0:0:
220,156,21905,1,0,0:0:0:0:
248,168,21967,1,0,0:0:0:0:
220,156,22030,1,8,0:0:0:0:
304,148,22155,1,8,0:0:0:0:
304,148,22280,1,0,0:0:0:0:
216,164,22405,1,0,0:0:0:0:
216,164,22467,1,0,0:0:0:0:
216,164,22530,1,8,0:0:0:0:
180,156,22592,1,8,0:0:0:0:
216,168,22655,1,0,0:0:0:0:
216,164,22780,1,8,0:0:0:0:
216,164,22842,1,8,0:0:0:0:
216,164,22905,1,0,0:0:0:0:
356,184,22967,1,0,0:0:0:0:
200,176,23030,1,8,0:0:0:0:
200,176,23092,1,0,0:0:0:0:
200,176,23155,1,8,0:0:0:0:
200,176,23280,1,0,0:0:0:0:
312,168,23342,1,0,0:0:0:0:
272,160,23405,1,0,0:0:0:0:
280,160,23467,1,0,0:0:0:0:
280,160,23530,1,8,0:0:0:0:
184,140,23592,1,8,0:0:0:0:
280,160,23655,1,0,0:0:0:0:
280,160,23780,1,8,0:0:0:0:
280,160,23842,1,8,0:0:0:0:
280,160,23905,1,0,0:0:0:0:
272,136,23967,1,0,0:0:0:0:
272,136,24030,1,8,0:0:0:0:
244,152,24155,1,0,0:0:0:0:
244,152,24280,1,8,0:0:0:0:
184,160,24405,1,0,0:0:0:0:
184,160,24467,1,0,0:0:0:0:
184,160,24530,1,8,0:0:0:0:
376,160,24592,1,0,0:0:0:0:
244,152,24655,1,0,0:0:0:0:
244,152,24717,1,0,0:0:0:0:
244,152,24780,1,8,0:0:0:0:
256,164,24905,1,0,0:0:0:0:
252,164,25030,1,8,0:0:0:0:
236,128,25092,1,8,0:0:0:0:
236,128,25155,1,0,0:0:0:0:
288,136,25280,1,8,0:0:0:0:
288,136,25342,1,8,0:0:0:0:
288,136,25405,1,8,0:0:0:0:
288,136,25467,1,8,0:0:0:0:
288,136,25530,1,0,0:0:0:0:
256,148,25592,1,0,0:0:0:0:
288,136,25655,1,8,0:0:0:0:
248,152,25717,1,0,0:0:0:0:
288,136,25780,1,8,0:0:0:0:
288,136,25905,1,0,0:0:0:0:
288,136,26030,1,8,0:0:0:0:
272,148,26092,1,8,0:0:0:0:
272,148,26155,1,0,0:0:0:0:
312,160,26217,1,0,0:0:0:0:
300,160,26280,1,8,0:0:0:0:
300,160,26405,1,8,0:0:0:0:
288,136,26530,1,0,0:0:0:0:
288,136,26592,1,0,0:0:0:0:
288,136,26655,1,8,0:0:0:0:
296,160,26717,1,8,0:0:0:0:
292,160,26780,1,0,0:0:0:0:
272,164,26842,1,8,0:0:0:0:
296,160,26905,1,0,0:0:0:0:
268,156,27030,1,8,0:0:0:0:
268,172,27155,1,0,0:0:0:0:
320,160,27217,1,8,0:0:0:0:
264,172,27280,1,8,0:0:0:0:
264,172,27342,1,8,0:0:0:0:
264,172,27405,1,0,0:0:0:0:
268,176,27530,1,0,0:0:0:0:
268,160,27655,1,8,0:0:0:0:
220,156,27717,1,8,0:0:0:0:
288,160,27780,1,0,0:0:0:0:
264,152,27842,1,0,0:0:0:0:
280,168,27905,1,8,0:0:0:0:
280,180,28030,1,0,0:0:0:0:
280,180,28092,1,8,0:0:0:0:
280,180,28155,1,0,0:0:0:0:
288,248,28280,5,12,0:0:0:0:
208,180,28405,1,0,0:0:0:0:
208,180,28530,1,12,0:0:0:0:
264,136,28655,1,0,0:0:0:0:
264,136,28780,1,12,0:0:0:0:
264,136,28905,1,0,0:0:0:0:
264,136,29030,1,12,0:0:0:0:
264,136,29155,1,0,0:0:0:0:
296,156,29280,1,12,0:0:0:0:
240,160,29405,1,0,0:0:0:0:
176,160,29467,1,0,0:0:0:0:
240,168,29530,1,8,0:0:0:0:
280,164,29592,1,0,0:0:0:0:
192,160,29655,1,0,0:0:0:0:
280,160,29717,1,0,0:0:0:0:
192,160,29780,1,8,0:0:0:0:
256,156,29905,1,8,0:0:0:0:
304,144,30030,1,0,0:0:0:0:
304,140,30092,1,0,0:0:0:0:
304,144,30155,1,0,0:0:0:0:
304,144,30217,1,0,0:0:0:0:
304,144,30280,1,8,0:0:0:0:
236,156,30405,1,0,0:0:0:0:
204,168,30467,1,0,0:0:0:0:
236,156,30530,1,8,0:0:0:0:
212,144,30655,1,0,0:0:0:0:
212,144,30717,1,0,0:0:0:0:
212,144,30780,1,0,0:0:0:0:
220,120,30842,1,0,0:0:0:0:
224,144,30905,1,8,0:0:0:0:
224,144,30967,1,0,0:0:0:0:
224,144,31030,1,8,0:0:0:0:
232,160,31155,1,0,0:0:0:0:
372,176,31280,1,12,0:0:0:0:
316,160,31405,1,0,0:0:0:0:
316,160,31467,1,0,0:0:0:0:
316,160,31530,1,8,0:0:0:0:
236,140,31592,1,8,0:0:0:0:
288,156,31655,1,0,0:0:0:0:
288,156,31780,1,8,0:0:0:0:
272,168,31905,1,8,0:0:0:0:
252,156,31967,1,8,0:0:0:0:
288,156,32030,1,0,0:0:0:0:
288,156,32092,1,0,0:0:0:0:
288,156,32155,1,0,0:0:0:0:
288,156,32217,1,0,0:0:0:0:
288,156,32280,1,8,0:0:0:0:
236,160,32405,1,0,0:0:0:0:
236,160,32530,1,8,0:0:0:0:
248,156,32655,1,0,0:0:0:0:
248,156,32717,1,0,0:0:0:0:
248,160,32780,1,8,0:0:0:0:
208,160,32842,1,8,0:0:0:0:
252,160,32905,1,0,0:0:0:0:
296,168,33030,1,8,0:0:0:0:
296,168,33155,1,0,0:0:0:0:
336,168,33280,5,8,0:0:0:0:
300,168,33342,1,8,0:0:0:0:
300,168,33405,1,8,0:0:0:0:
300,168,33467,1,8,0:0:0:0:
300,168,33530,1,0,0:0:0:0:
252,132,33592,1,8,0:0:0:0:
296,164,33655,1,0,0:0:0:0:
296,164,33717,1,0,0:0:0:0:
296,164,33780,1,0,0:0:0:0:
232,168,33842,1,0,0:0:0:0:
320,160,33905,1,8,0:0:0:0:
324,160,34030,1,0,0:0:0:0:
320,160,34092,1,0,0:0:0:0:
320,160,34155,1,0,0:0:0:0:
380,152,34217,1,0,0:0:0:0:
320,216,34280,5,8,0:0:0:0:
204,148,34405,1,8,0:0:0:0:
204,148,34655,1,0,0:0:0:0:
192,156,34905,1,8,0:0:0:0:
196,160,35030,1,0,0:0:0:0:
196,160,35155,1,0,0:0:0:0:
220,180,35280,1,8,0:0:0:0:
232,160,35342,1,8,0:0:0:0:
232,160,35405,1,0,0:0:0:0:
284,120,35467,1,0,0:0:0:0:
236,160,35530,1,8,0:0:0:0:
236,160,35592,1,8,0:0:0:0:
236,160,35655,1,0,0:0:0:0:
284,120,35717,1,0,0:0:0:0:
256,160,35780,1,8,0:0:0:0:
256,160,35842,1,8,0:0:0:0:
256,160,35905,1,0,0:0:0:0:
284,120,35967,1,0,0:0:0:0:
256,160,36030,1,8,0:0:0:0:
256,160,36092,1,8,0:0:0:0:
256,160,36155,1,0,0:0:0:0:
200,152,36280,1,8,0:0:0:0:
288,156,36342,1,0,0:0:0:0:
248,160,36405,1,8,0:0:0:0:
280,172,36467,1,0,0:0:0:0:
280,172,36530,1,8,0:0:0:0:
264,172,36655,1,0,0:0:0:0:
268,148,36905,1,8,0:0:0:0:
264,156,37030,1,0,0:0:0:0:
264,156,37155,1,0,0:0:0:0:
264,156,37280,1,8,0:0:0:0:
188,152,37342,1,0,0:0:0:0:
188,152,37405,1,0,0:0:0:0:
252,140,37467,1,0,0:0:0:0:
204,96,37530,1,8,0:0:0:0:
204,96,37592,1,8,0:0:0:0:
204,96,37655,1,0,0:0:0:0:
232,148,37717,1,0,0:0:0:0:
204,96,37780,1,8,0:0:0:0:
204,96,37842,1,8,0:0:0:0:
204,96,37905,1,0,0:0:0:0:
144,176,37967,1,0,0:0:0:0:
204,96,38030,1,8,0:0:0:0:
204,96,38092,1,8,0:0:0:0:
204,96,38155,1,0,0:0:0:0:
204,96,38280,1,8,0:0:0:0:
280,128,38342,1,0,0:0:0:0:
260,160,38405,1,8,0:0:0:0:
272,132,38467,1,0,0:0:0:0:
272,132,38530,1,8,0:0:0:0:
256,148,38655,1,0,0:0:0:0:
208,152,38905,1,8,0:0:0:0:
264,136,39030,1,0,0:0:0:0:
316,152,39092,1,0,0:0:0:0:
264,136,39155,1,0,0:0:0:0:
264,136,39280,1,12,0:0:0:0:
212,164,39405,1,0,0:0:0:0:
212,164,39530,1,12,0:0:0:0:
212,164,39655,1,0,0:0:0:0:
212,164,39780,1,12,0:0:0:0:
212,164,39905,1,0,0:0:0:0:
216,164,40030,1,12,0:0:0:0:
216,168,40155,1,8,0:0:0:0:
244,208,40280,5,0,0:0:0:0:
152,164,40342,1,0,0:0:0:0:
220,168,40405,1,8,0:0:0:0:
220,168,40467,1,8,0:0:0:0:
220,168,40530,1,0,0:0:0:0:
220,168,40592,1,0,0:0:0:0:
224,168,40655,1,8,0:0:0:0:
224,168,40717,1,8,0:0:0:0:
224,168,40780,1,0,0:0:0:0:
224,168,40842,1,8,0:0:0:0:
224,168,40905,1,0,0:0:0:0:
224,168,40967,1,8,0:0:0:0:
224,168,41030,1,0,0:0:0:0:
224,168,41092,1,0,0:0:0:0:
224,168,41155,1,8,0:0:0:0:
224,168,41217,1,0,0:0:0:0:
224,168,41280,1,8,0:0:0:0:
224,168,41342,1,0,0:0:0:0:
224,168,41405,1,0,0:0:0:0:
224,168,41467,1,0,0:0:0:0:
224,168,41530,1,8,0:0:0:0:
224,168,41592,1,8,0:0:0:0:
224,168,41655,1,0,0:0:0:0:
224,168,41717,1,0,0:0:0:0:
224,168,41780,1,8,0:0:0:0:
204,156,41842,1,0,0:0:0:0:
248,152,41905,1,8,0:0:0:0:
248,152,41967,1,8,0:0:0:0:
256,148,42030,1,0,0:0:0:0:
256,148,42155,1,0,0:0:0:0:
256,148,42280,1,12,0:0:0:0:
264,168,42405,1,0,0:0:0:0:
288,156,42467,1,0,0:0:0:0:
264,172,42530,1,8,0:0:0:0:
264,168,42592,1,0,0:0:0:0:
264,172,42655,1,8,0:0:0:0:
264,168,42717,1,0,0:0:0:0:
264,172,42780,1,8,0:0:0:0:
272,160,42905,1,0,0:0:0:0:
272,164,43030,1,8,0:0:0:0:
272,164,43092,1,8,0:0:0:0:
272,164,43155,1,0,0:0:0:0:
276,124,43217,1,0,0:0:0:0:
272,164,43280,1,8,0:0:0:0:
240,140,43405,1,0,0:0:0:0:
244,144,43530,1,8,0:0:0:0:
244,144,43592,1,8,0:0:0:0:
244,144,43655,1,0,0:0:0:0:
244,144,43717,1,8,0:0:0:0:
244,144,43780,1,8,0:0:0:0:
240,116,43842,1,8,0:0:0:0:
244,144,43905,1,0,0:0:0:0:
264,160,44030,1,0,0:0:0:0:
264,160,44092,1,0,0:0:0:0:
264,160,44155,1,8,0:0:0:0:
264,160,44217,1,8,0:0:0:0:
264,160,44280,1,0,0:0:0:0:
284,208,44405,1,8,0:0:0:0:
284,208,44530,1,0,0:0:0:0:
264,180,44592,1,0,0:0:0:0:
264,180,44655,1,8,0:0:0:0:
256,144,44717,1,8,0:0:0:0:
264,180,44780,1,0,0:0:0:0:
264,176,44905,1,8,0:0:0:0:
284,148,45030,1,0,0:0:0:0:
284,148,45092,1,0,0:0:0:0:
284,148,45155,1,8,0:0:0:0:
284,148,45217,1,8,0:0:0:0:
360,152,45280,1,0,0:0:0:0:
288,152,45342,1,0,0:0:0:0:
288,152,45405,1,8,0:0:0:0:
288,152,45467,1,0,0:0:0:0:
288,152,45530,1,8,0:0:0:0:
288,152,45592,1,8,0:0:0:0:
288,152,45655,1,0,0:0:0:0:
288,152,45717,1,0,0:0:0:0:
288,152,45780,1,8,0:0:0:0:
288,152,45842,1,8,0:0:0:0:
288,152,45905,1,0,0:0:0:0:
288,152,45967,1,8,0:0:0:0:
284,152,46030,1,0,0:0:0:0:
284,152,46092,1,0,0:0:0:0:
284,156,46155,1,8,0:0:0:0:
284,156,46217,1,8,0:0:0:0:
336,208,46280,1,0,0:0:0:0:
264,152,46405,1,0,0:0:0:0:
268,156,46530,1,8,0:0:0:0:
268,156,46592,1,0,0:0:0:0:
268,156,46655,1,8,0:0:0:0:
268,156,46717,1,0,0:0:0:0:
268,156,46780,1,8,0:0:0:0:
208,140,46842,1,8,0:0:0:0:
244,160,46905,1,0,0:0:0:0:
240,156,47030,1,0,0:0:0:0:
240,160,47092,1,0,0:0:0:0:
240,160,47155,1,8,0:0:0:0:
240,160,47217,1,0,0:0:0:0:
240,160,47280,1,8,0:0:0:0:
324,148,47342,1,8,0:0:0:0:
256,160,47405,1,0,0:0:0:0:
256,160,47530,1,8,0:0:0:0:
256,160,47592,1,0,0:0:0:0:
256,160,47655,1,8,0:0:0:0:
256,160,47717,1,0,0:0:0:0:
256,160,47780,1,8,0:0:0:0:
300,156,47842,1,8,0:0:0:0:
272,180,47905,1,0,0:0:0:0:
316,172,47967,1,0,0:0:0:0:
272,180,48030,1,8,0:0:0:0:
272,180,48092,1,8,0:0:0:0:
272,180,48155,1,0,0:0:0:0:
260,152,48217,1,8,0:0:0:0:
300,156,48280,1,0,0:0:0:0:
220,136,48342,1,0,0:0:0:0:
220,136,48405,1,8,0:0:0:0:
220,136,48467,1,0,0:0:0:0:
220,136,48530,1,0,0:0:0:0:
304,200,48592,1,0,0:0:0:0:
304,200,48655,1,8,0:0:0:0:
304,200,48717,1,0,0:0:0:0:
304,200,48780,1,0,0:0:0:0:
304,200,48842,1,0,0:0:0:0:
304,200,48905,1,8,0:0:0:0:
304,200,48967,1,8,0:0:0:0:
304,200,49030,1,0,0:0:0:0:
264,132,49092,1,0,0:0:0:0:
264,132,49155,1,8,0:0:0:0:
220,136,49217,1,8,0:0:0:0:
260,184,49280,1,0,0:0:0:0:
260,184,49342,1,0,0:0:0:0:
260,184,49405,1,8,0:0:0:0:
260,184,49467,1,0,0:0:0:0:
260,184,49530,1,8,0:0:0:0:
260,184,49592,1,8,0:0:0:0:
260,184,49655,1,0,0:0:0:0:
260,184,49717,1,8,0:0:0:0:
260,184,49780,1,0,0:0:0:0:
260,184,49842,1,0,0:0:0:0:
260,184,49905,1,8,0:0:0:0:
260,184,49967,1,0,0:0:0:0:
260,184,50030,1,8,0:0:0:0:
260,184,50092,1,0,0:0:0:0:
260,184,50155,1,8,0:0:0:0:
260,184,50217,1,8,0:0:0:0:
260,184,50280,1,0,0:0:0:0:
240,160,50405,1,0,0:0:0:0:
300,208,50530,1,12,0:0:0:0:
232,160,50655,1,0,0:0:0:0:
232,160,50717,1,0,0:0:0:0:
232,160,50780,1,0,0:0:0:0:
232,160,50905,1,12,0:0:0:0:
232,160,51030,1,12,0:0:0:0:
236,152,51155,1,8,0:0:0:0:
188,156,51217,1,8,0:0:0:0:
300,176,51280,1,0,0:0:0:0:
300,176,51405,1,0,0:0:0:0:
300,176,51530,1,12,0:0:0:0:
224,136,51655,1,0,0:0:0:0:
228,136,51717,1,8,0:0:0:0:
228,136,51780,1,0,0:0:0:0:
240,136,51905,1,12,0:0:0:0:
240,136,52030,1,12,0:0:0:0:
248,144,52155,1,8,0:0:0:0:
160,152,52217,1,8,0:0:0:0:
248,144,52280,1,0,0:0:0:0:
256,148,52405,1,0,0:0:0:0:
256,148,52530,1,12,0:0:0:0:
224,152,52655,1,0,0:0:0:0:
224,152,52717,1,0,0:0:0:0:
224,152,52780,1,0,0:0:0:0:
224,152,52905,1,12,0:0:0:0:
224,152,53030,1,12,0:0:0:0:
232,144,53155,1,0,0:0:0:0:
232,144,53217,1,0,0:0:0:0:
232,144,53280,1,8,0:0:0:0:
232,144,53342,1,8,0:0:0:0:
232,144,53405,1,0,0:0:0:0:
240,140,53530,1,12,0:0:0:0:
240,140,53655,1,0,0:0:0:0:
240,140,53717,1,8,0:0:0:0:
240,140,53780,1,0,0:0:0:0:
208,140,53905,1,12,0:0:0:0:
208,140,54030,1,12,0:0:0:0:
216,160,54155,1,8,0:0:0:0:
252,144,54217,1,8,0:0:0:0:
216,164,54280,1,0,0:0:0:0:
204,168,54405,1,0,0:0:0:0:
204,168,54530,1,12,0:0:0:0:
196,156,54655,1,0,0:0:0:0:
196,156,54717,1,0,0:0:0:0:
196,156,54780,1,0,0:0:0:0:
196,156,54905,1,12,0:0:0:0:
196,156,55030,1,12,0:0:0:0:
216,152,55155,1,8,0:0:0:0:
168,156,55217,1,8,0:0:0:0:
216,152,55280,1,0,0:0:0:0:
208,156,55405,1,0,0:0:0:0:
208,156,55530,1,12,0:0:0:0:
196,136,55655,1,0,0:0:0:0:
196,136,55717,1,8,0:0:0:0:
196,136,55780,1,0,0:0:0:0:
276,132,55905,1,12,0:0:0:0:
272,136,56030,1,12,0:0:0:0:
280,168,56155,1,0,0:0:0:0:
280,168,56217,1,8,0:0:0:0:
280,168,56280,1,0,0:0:0:0:
280,168,56342,1,0,0:0:0:0:
280,168,56405,1,8,0:0:0:0:
280,168,56530,1,12,0:0:0:0:
248,144,56655,1,0,0:0:0:0:
248,144,56717,1,0,0:0:0:0:
248,144,56780,1,0,0:0:0:0:
248,144,56905,1,12,0:0:0:0:
248,144,57030,1,12,0:0:0:0:
224,152,57155,1,8,0:0:0:0:
208,148,57217,1,8,0:0:0:0:
356,164,57280,5,0,0:0:0:0:
256,156,57342,1,0,0:0:0:0:
248,156,57405,1,8,0:0:0:0:
248,156,57467,1,0,0:0:0:0:
248,156,57530,1,8,0:0:0:0:
248,156,57592,1,0,0:0:0:0:
248,156,57655,1,0,0:0:0:0:
256,160,57717,1,8,0:0:0:0:
256,160,57780,1,8,0:0:0:0:
256,160,57842,1,0,0:0:0:0:
260,160,57905,1,8,0:0:0:0:
260,160,57967,1,0,0:0:0:0:
264,156,58030,1,8,0:0:0:0:
284,160,58092,1,0,0:0:0:0:
264,156,58155,1,8,0:0:0:0:
288,224,58280,5,4,0:0:0:0:
292,176,58405,1,0,0:0:0:0:
192,160,58530,1,0,0:0:0:0:
228,176,58655,1,8,0:0:0:0:
200,120,58780,1,0,0:0:0:0:
232,168,58842,1,0,0:0:0:0:
240,168,58905,1,0,0:0:0:0:
240,168,59030,1,8,0:0:0:0:
240,168,59155,1,0,0:0:0:0:
264,140,59217,1,0,0:0:0:0:
244,160,59280,1,8,0:0:0:0:
244,156,59342,1,0,0:0:0:0:
244,156,59405,1,0,0:0:0:0:
244,152,59467,1,0,0:0:0:0:
248,156,59530,1,8,0:0:0:0:
248,156,59592,1,0,0:0:0:0:
248,156,59655,1,8,0:0:0:0:
248,156,59717,1,0,0:0:0:0:
248,156,59780,1,8,0:0:0:0:
248,156,59842,1,0,0:0:0:0:
252,156,59905,1,0,0:0:0:0:
252,156,59967,1,0,0:0:0:0:
252,156,60030,1,8,0:0:0:0:
208,140,60092,1,8,0:0:0:0:
256,160,60155,1,0,0:0:0:0:
244,156,60280,1,4,0:0:0:0:
228,164,60405,1,0,0:0:0:0:
216,152,60530,1,0,0:0:0:0:
236,152,60655,1,8,0:0:0:0:
216,152,60780,1,0,0:0:0:0:
276,152,60905,1,0,0:0:0:0:
276,152,61030,1,8,0:0:0:0:
276,152,61155,1,0,0:0:0:0:
188,164,61217,1,0,0:0:0:0:
280,152,61280,1,8,0:0:0:0:
136,160,61342,1,8,0:0:0:0:
152,160,61405,1,0,0:0:0:0:
156,160,61467,1,0,0:0:0:0:
156,160,61530,1,8,0:0:0:0:
156,160,61592,1,0,0:0:0:0:
156,160,61655,1,8,0:0:0:0:
160,160,61717,1,0,0:0:0:0:
160,160,61780,1,8,0:0:0:0:
160,160,61842,1,8,0:0:0:0:
160,160,61905,1,0,0:0:0:0:
160,160,61967,1,0,0:0:0:0:
160,160,62030,1,8,0:0:0:0:
216,128,62092,1,8,0:0:0:0:
160,156,62155,1,0,0:0:0:0:
160,156,62280,1,4,0:0:0:0:
192,172,62405,1,0,0:0:0:0:
204,136,62530,1,0,0:0:0:0:
260,168,62655,1,8,0:0:0:0:
204,136,62780,1,0,0:0:0:0:
248,156,62905,1,0,0:0:0:0:
244,156,63030,1,8,0:0:0:0:
244,160,63155,1,0,0:0:0:0:
244,120,63217,1,0,0:0:0:0:
244,156,63280,1,8,0:0:0:0:
228,148,63342,1,0,0:0:0:0:
228,148,63405,1,0,0:0:0:0:
232,124,63467,1,0,0:0:0:0:
228,148,63530,1,8,0:0:0:0:
228,148,63592,1,0,0:0:0:0:
228,148,63655,1,0,0:0:0:0:
236,120,63717,1,0,0:0:0:0:
232,148,63780,1,8,0:0:0:0:
232,148,63842,1,8,0:0:0:0:
232,148,63905,1,0,0:0:0:0:
236,120,63967,1,0,0:0:0:0:
244,144,64030,1,8,0:0:0:0:
244,144,64155,1,8,0:0:0:0:
264,164,64280,5,0,0:0:0:0:
356,172,64342,1,0,0:0:0:0:
356,172,64405,1,8,0:0:0:0:
356,172,64467,1,0,0:0:0:0:
356,172,64530,1,8,0:0:0:0:
356,172,64592,1,0,0:0:0:0:
356,172,64655,1,8,0:0:0:0:
356,172,64717,1,8,0:0:0:0:
356,172,64780,1,0,0:0:0:0:
356,172,64842,1,0,0:0:0:0:
356,172,64905,1,8,0:0:0:0:
356,172,64967,1,0,0:0:0:0:
356,172,65030,1,8,0:0:0:0:
356,172,65092,1,8,0:0:0:0:
356,172,65155,1,0,0:0:0:0:
356,172,65217,1,8,0:0:0:0:
356,172,65280,1,0,0:0:0:0:
356,172,65342,1,0,0:0:0:0:
356,172,65405,1,8,0:0:0:0:
356,172,65467,1,0,0:0:0:0:
356,172,65530,1,8,0:0:0:0:
356,172,65592,1,8,0:0:0:0:
356,172,65655,1,0,0:0:0:0:
356,172,65717,1,0,0:0:0:0:
356,172,65780,1,8,0:0:0:0:
356,172,65842,1,8,0:0:0:0:
356,172,65905,1,0,0:0:0:0:
356,172,65967,1,0,0:0:0:0:
232,120,66030,1,8,0:0:0:0:
232,120,66092,1,8,0:0:0:0:
248,168,66155,1,0,0:0:0:0:
248,168,66217,1,8,0:0:0:0:
276,168,68280,5,0,0:0:0:0:
276,168,68342,1,0,0:0:0:0:
276,168,68405,1,8,0:0:0:0:
276,168,68467,1,8,0:0:0:0:
276,168,68530,1,0,0:0:0:0:
276,168,68655,1,8,0:0:0:0:
276,168,68780,1,0,0:0:0:0:
264,152,68842,1,0,0:0:0:0:
276,168,68905,1,8,0:0:0:0:
276,168,68967,1,0,0:0:0:0:
276,168,69030,1,8,0:0:0:0:
276,168,69092,1,8,0:0:0:0:
276,168,69155,1,0,0:0:0:0:
276,168,69280,1,0,0:0:0:0:
304,204,69342,1,0,0:0:0:0:
304,204,69405,1,8,0:0:0:0:
304,204,69467,1,8,0:0:0:0:
304,204,69530,1,0,0:0:0:0:
296,192,69655,1,8,0:0:0:0:
296,192,69780,1,0,0:0:0:0:
264,188,69905,5,8,0:0:0:0:
272,144,69967,1,8,0:0:0:0:
264,188,70030,1,0,0:0:0:0:
264,188,70092,1,0,0:0:0:0:
264,188,70155,1,8,0:0:0:0:
248,160,70217,1,0,0:0:0:0:
264,188,70280,1,8,0:0:0:0:
256,168,70342,1,0,0:0:0:0:
256,168,70405,1,8,0:0:0:0:
256,168,70467,1,8,0:0:0:0:
256,168,70530,1,0,0:0:0:0:
296,192,70655,1,8,0:0:0:0:
296,192,70780,1,0,0:0:0:0:
292,180,70905,1,8,0:0:0:0:
212,128,70967,1,8,0:0:0:0:
240,148,71030,1,0,0:0:0:0:
224,168,71092,1,0,0:0:0:0:
224,168,71155,1,0,0:0:0:0:
224,168,71280,1,8,0:0:0:0:
228,172,71342,1,8,0:0:0:0:
316,128,71405,1,0,0:0:0:0:
348,168,71467,1,8,0:0:0:0:
304,136,71530,1,0,0:0:0:0:
308,140,71592,1,0,0:0:0:0:
220,160,71655,1,8,0:0:0:0:
304,136,71717,1,8,0:0:0:0:
304,136,71780,1,0,0:0:0:0:
224,120,71842,1,8,0:0:0:0:
140,16,71905,1,8,0:0:0:0:
312,224,71967,1,0,0:0:0:0:
312,224,72030,1,8,0:0:0:0:
312,224,72092,1,0,0:0:0:0:
312,224,72155,1,0,0:0:0:0:
312,224,72217,1,0,0:0:0:0:
312,224,72280,1,8,0:0:0:0:
312,224,72342,1,8,0:0:0:0:
312,224,72405,1,0,0:0:0:0:
312,224,72467,1,8,0:0:0:0:
312,224,72530,1,0,0:0:0:0:
312,224,72592,1,8,0:0:0:0:
312,224,72655,1,0,0:0:0:0:
312,224,72717,1,0,0:0:0:0:
312,232,72780,1,8,0:0:0:0:
312,232,72842,1,8,0:0:0:0:
312,232,72905,1,0,0:0:0:0:
312,232,72967,1,0,0:0:0:0:
312,232,73030,1,8,0:0:0:0:
316,232,73092,1,0,0:0:0:0:
316,232,73155,1,8,0:0:0:0:
316,232,73217,1,0,0:0:0:0:
328,184,73280,1,8,0:0:0:0:
264,144,73405,1,0,0:0:0:0:
260,144,73467,1,0,0:0:0:0:
260,144,73530,1,8,0:0:0:0:
240,144,73592,1,0,0:0:0:0:
260,144,73655,1,8,0:0:0:0:
236,144,73780,1,0,0:0:0:0:
248,160,73905,1,8,0:0:0:0:
248,160,73967,1,0,0:0:0:0:
248,160,74030,1,8,0:0:0:0:
248,160,74092,1,8,0:0:0:0:
248,160,74155,1,0,0:0:0:0:
248,160,74280,1,0,0:0:0:0:
208,168,74342,1,0,0:0:0:0:
208,168,74405,1,8,0:0:0:0:
208,168,74467,1,0,0:0:0:0:
208,168,74530,1,0,0:0:0:0:
256,112,74592,1,0,0:0:0:0:
208,168,74655,1,8,0:0:0:0:
208,168,74780,1,0,0:0:0:0:
232,160,74905,1,0,0:0:0:0:
232,160,74967,1,0,0:0:0:0:
232,160,75030,1,8,0:0:0:0:
232,160,75092,1,8,0:0:0:0:
232,160,75155,1,8,0:0:0:0:
248,108,75217,1,8,0:0:0:0:
232,160,75280,1,0,0:0:0:0:
232,160,75342,1,0,0:0:0:0:
220,140,75405,1,8,0:0:0:0:
220,140,75467,1,8,0:0:0:0:
220,140,75530,1,0,0:0:0:0:
248,152,75655,1,8,0:0:0:0:
248,152,75780,1,0,0:0:0:0:
268,164,75905,1,8,0:0:0:0:
272,160,76030,1,8,0:0:0:0:
272,160,76092,1,8,0:0:0:0:
272,160,76155,1,0,0:0:0:0:
272,160,76217,1,0,0:0:0:0:
272,160,76280,1,8,0:0:0:0:
284,152,76342,1,8,0:0:0:0:
272,148,76405,1,0,0:0:0:0:
264,152,76467,1,8,0:0:0:0:
264,144,76530,1,0,0:0:0:0:
264,144,76592,1,0,0:0:0:0:
288,140,76655,1,8,0:0:0:0:
264,144,76717,1,0,0:0:0:0:
264,144,76780,1,0,0:0:0:0:
276,184,76842,1,8,0:0:0:0:
236,168,76905,1,0,0:0:0:0:
236,168,76967,1,8,0:0:0:0:
236,168,77030,1,8,0:0:0:0:
236,168,77092,1,0,0:0:0:0:
236,168,77155,1,0,0:0:0:0:
236,168,77217,1,0,0:0:0:0:
236,168,77280,1,8,0:0:0:0:
236,168,77342,1,8,0:0:0:0:
236,168,77405,1,0,0:0:0:0:
236,168,77467,1,0,0:0:0:0:
236,168,77530,1,8,0:0:0:0:
236,168,77592,1,0,0:0:0:0:
236,168,77655,1,8,0:0:0:0:
236,168,77717,1,8,0:0:0:0:
236,168,77780,1,0,0:0:0:0:
236,168,77842,1,8,0:0:0:0:
236,168,77905,1,8,0:0:0:0:
236,168,77967,1,0,0:0:0:0:
236,168,78030,1,8,0:0:0:0:
236,168,78092,1,0,0:0:0:0:
236,168,78155,1,8,0:0:0:0:
236,168,78217,1,8,0:0:0:0:
200,160,78780,1,0,0:0:0:0:
200,160,78842,1,8,0:0:0:0:
200,160,78905,1,8,0:0:0:0:
200,160,78967,1,8,0:0:0:0:
200,160,79030,1,8,0:0:0:0:
256,144,79092,1,0,0:0:0:0:
272,168,79155,1,8,0:0:0:0:
272,168,79217,1,8,0:0:0:0:
212,168,79280,1,0,0:0:0:0:
272,168,79530,1,4,0:0:0:0:
