osu file format v14

[General]
AudioFilename: Goose [HQ].mp3
AudioLeadIn: 0
PreviewTime: 50586
Countdown: 0
SampleSet: Normal
StackLeniency: 0.3
Mode: 1
LetterboxInBreaks: 0
WidescreenStoryboard: 1

[Editor]
DistanceSpacing: 0.7
BeatDivisor: 4
GridSize: 4
TimelineZoom: 2.7

[Metadata]
Title:Untan Goose
TitleUnicode:うんたん Goose
Artist:Crash-TM
ArtistUnicode:Crash-TM
Creator:Hanjamon
Version:Futsuu
Source:
Tags:Anime K-ON! けいおん! mad Nico Nico Douga snow jubeat Mutsuhiko Izumi dani titotatin raiden mikkusu lno _gezo_ Unmei Muma ercs mikkusu-8022 windeu zetorux 少々 Uraomote Lovers vocaloid DukeDukeDura Quizmaegi sing216 Maitroxsk JUDYDANNY Sanawieck Konpaku Sariel RuinedChicken game rock Volta IControl _yu68 katacheh TimmyAkmed Nishizumi Raphalge 404 AccNotFound asuasu_yura qoot8123 stu00608 tasuke912 applerss Aldwych lucky star moon AKHTS MidSoul -TheHateD- tkdLolly JustALeaf xWillx Consified
BeatmapID:671499
BeatmapSetID:299271

[Difficulty]
HPDrainRate:4
CircleSize:5
OverallDifficulty:4
ApproachRate:6
SliderMultiplier:1.2
SliderTickRate:1

[Events]
//Background and Video events
Video,0,"please.avi"
0,0,"k-onyuilessdiff.jpg",0,40
//Break Periods
//Storyboard Layer 0 (Background)
//Storyboard Layer 1 (Fail)
//Storyboard Layer 2 (Pass)
//Storyboard Layer 3 (Foreground)
//Storyboard Sound Samples

[TimingPoints]
336,300,4,1,0,90,1,0
50736,-100,4,1,0,90,0,1
79461,-100,4,1,0,90,0,0
94536,-100,4,1,0,90,0,1
95436,-100,4,1,0,90,0,0

[Colours]
Combo1 : 100,100,255
Combo2 : 255,34,145
Combo3 : 0,204,204
Combo4 : 0,225,0

[HitObjects]
276,168,336,5,0,0:0:0:0:
276,168,486,1,0,0:0:0:0:
276,168,636,1,0,0:0:0:0:
276,168,936,1,0,0:0:0:0:
276,168,1236,1,8,0:0:0:0:
276,168,1536,1,0,0:0:0:0:
304,204,1686,1,8,0:0:0:0:
304,204,1836,1,0,0:0:0:0:
296,192,2136,1,0,0:0:0:0:
264,188,2736,1,0,0:0:0:0:
256,168,2886,1,8,0:0:0:0:
256,168,3036,1,0,0:0:0:0:
296,192,3336,1,0,0:0:0:0:
292,180,3636,1,0,0:0:0:0:
292,180,3786,1,8,0:0:0:0:
300,180,3936,1,8,0:0:0:0:
284,156,4386,1,8,0:0:0:0:
248,152,4836,1,8,0:0:0:0:
248,152,4986,1,0,0:0:0:0:
248,156,5136,1,0,0:0:0:0:
248,156,5286,1,8,0:0:0:0:
248,160,5586,1,8,0:0:0:0:
256,160,5736,1,0,0:0:0:0:
248,152,6336,1,0,0:0:0:0:
264,144,6486,1,0,0:0:0:0:
260,144,6636,1,8,0:0:0:0:
236,144,6936,1,0,0:0:0:0:
248,160,7236,1,8,0:0:0:0:
248,160,7536,1,0,0:0:0:0:
208,168,7686,1,0,0:0:0:0:
208,168,7836,1,0,0:0:0:0:
208,168,8136,1,0,0:0:0:0:
232,160,8436,1,8,0:0:0:0:
232,160,8736,1,0,0:0:0:0:
220,140,8886,1,8,0:0:0:0:
220,140,9036,1,0,0:0:0:0:
248,152,9336,1,0,0:0:0:0:
272,160,9636,1,8,0:0:0:0:
272,160,9936,1,8,0:0:0:0:
288,140,10386,1,8,0:0:0:0:
236,168,10836,1,8,0:0:0:0:
236,168,10986,1,0,0:0:0:0:
236,168,11136,1,0,0:0:0:0:
236,168,11286,1,0,0:0:0:0:
236,168,11586,1,8,0:0:0:0:
236,168,11736,1,0,0:0:0:0:
228,140,12336,1,0,0:0:0:0:
232,132,12636,1,8,0:0:0:0:
236,136,12786,1,8,0:0:0:0:
220,172,13086,1,8,0:0:0:0:
220,172,13236,1,0,0:0:0:0:
220,176,13536,1,0,0:0:0:0:
232,148,13836,1,8,0:0:0:0:
232,148,13986,1,8,0:0:0:0:
232,164,14286,1,8,0:0:0:0:
264,156,14436,1,0,0:0:0:0:
264,156,14736,1,0,0:0:0:0:
260,160,15036,1,8,0:0:0:0:
260,160,15186,1,8,0:0:0:0:
256,176,15486,1,8,0:0:0:0:
256,176,15636,1,0,0:0:0:0:
256,172,15936,1,0,0:0:0:0:
360,236,16236,1,8,0:0:0:0:
360,236,16386,1,8,0:0:0:0:
360,236,16536,1,8,0:0:0:0:
232,172,17136,1,0,0:0:0:0:
204,156,17436,1,8,0:0:0:0:
204,156,17586,1,8,0:0:0:0:
296,188,17886,1,8,0:0:0:0:
268,168,18036,1,8,0:0:0:0:
268,168,18336,1,0,0:0:0:0:
256,168,18636,1,8,0:0:0:0:
256,168,18786,1,8,0:0:0:0:
316,164,19086,1,8,0:0:0:0:
304,168,19236,1,8,0:0:0:0:
304,160,19536,1,0,0:0:0:0:
212,156,19836,1,8,0:0:0:0:
216,128,19986,1,8,0:0:0:0:
264,176,20286,1,8,0:0:0:0:
264,176,20436,1,8,0:0:0:0:
288,232,20736,1,4,0:0:0:0:
196,176,21336,1,4,0:0:0:0:
196,176,21486,1,12,0:0:0:0:
212,168,21636,1,12,0:0:0:0:
200,148,21936,1,0,0:0:0:0:
196,168,22236,1,0,0:0:0:0:
156,152,22536,1,0,0:0:0:0:
196,168,22836,1,8,0:0:0:0:
200,160,22986,1,0,0:0:0:0:
200,160,23136,1,0,0:0:0:0:
216,152,23436,1,0,0:0:0:0:
208,144,24036,1,0,0:0:0:0:
224,148,24186,1,0,0:0:0:0:
224,148,24336,1,8,0:0:0:0:
244,176,24636,1,0,0:0:0:0:
244,172,24786,1,8,0:0:0:0:
384,224,25086,1,8,0:0:0:0:
384,232,25236,1,0,0:0:0:0:
376,228,25386,1,0,0:0:0:0:
376,228,25536,1,8,0:0:0:0:
276,168,25836,1,8,0:0:0:0:
220,156,26136,1,0,0:0:0:0:
220,156,26286,1,0,0:0:0:0:
220,156,26436,1,8,0:0:0:0:
304,148,26736,1,0,0:0:0:0:
216,164,27036,1,8,0:0:0:0:
216,168,27186,1,0,0:0:0:0:
216,164,27486,1,0,0:0:0:0:
200,176,27636,1,8,0:0:0:0:
200,176,27936,1,0,0:0:0:0:
272,160,28086,1,0,0:0:0:0:
280,160,28236,1,8,0:0:0:0:
280,160,28386,1,0,0:0:0:0:
280,160,28686,1,0,0:0:0:0:
272,136,28836,1,0,0:0:0:0:
244,152,28986,1,0,0:0:0:0:
244,152,29136,1,8,0:0:0:0:
244,152,29736,1,8,0:0:0:0:
252,164,30036,1,8,0:0:0:0:
236,128,30186,1,0,0:0:0:0:
288,136,30336,1,8,0:0:0:0:
288,136,30486,1,8,0:0:0:0:
288,136,30636,1,0,0:0:0:0:
288,136,30936,1,8,0:0:0:0:
300,160,31536,1,8,0:0:0:0:
288,136,31836,1,0,0:0:0:0:
288,136,31986,1,8,0:0:0:0:
296,160,32286,1,0,0:0:0:0:
268,156,32436,1,8,0:0:0:0:
268,172,32586,1,0,0:0:0:0:
264,172,32736,1,0,0:0:0:0:
288,160,33336,1,0,0:0:0:0:
280,180,33636,1,0,0:0:0:0:
280,180,33786,1,0,0:0:0:0:
288,248,33936,5,12,0:0:0:0:
208,180,34236,1,12,0:0:0:0:
264,136,34536,1,12,0:0:0:0:
264,136,34836,1,12,0:0:0:0:
296,156,35136,1,12,0:0:0:0:
304,144,36036,1,0,0:0:0:0:
304,144,36186,1,0,0:0:0:0:
304,144,36336,1,8,0:0:0:0:
236,156,36636,1,8,0:0:0:0:
212,144,36786,1,0,0:0:0:0:
224,144,37086,1,8,0:0:0:0:
224,144,37236,1,8,0:0:0:0:
372,176,37536,1,12,0:0:0:0:
288,156,38436,1,0,0:0:0:0:
288,156,38586,1,0,0:0:0:0:
288,156,38736,1,8,0:0:0:0:
236,160,39036,1,8,0:0:0:0:
248,156,39186,1,0,0:0:0:0:
252,160,39486,1,0,0:0:0:0:
296,168,39636,1,8,0:0:0:0:
336,168,39936,5,8,0:0:0:0:
300,168,40086,1,8,0:0:0:0:
300,168,40236,1,8,0:0:0:0:
296,164,40386,1,0,0:0:0:0:
320,216,41136,5,8,0:0:0:0:
204,148,41286,1,8,0:0:0:0:
204,148,41586,1,0,0:0:0:0:
192,156,41886,1,8,0:0:0:0:
196,160,42036,1,0,0:0:0:0:
220,180,42336,1,8,0:0:0:0:
236,160,42636,1,8,0:0:0:0:
256,160,42936,1,8,0:0:0:0:
200,152,43536,1,8,0:0:0:0:
248,160,43686,1,8,0:0:0:0:
264,172,43986,1,0,0:0:0:0:
268,148,44286,1,8,0:0:0:0:
264,156,44436,1,0,0:0:0:0:
264,156,44736,1,8,0:0:0:0:
204,96,45036,1,8,0:0:0:0:
204,96,45336,1,8,0:0:0:0:
204,96,45936,1,8,0:0:0:0:
260,160,46086,1,8,0:0:0:0:
256,148,46386,1,0,0:0:0:0:
208,152,46686,1,8,0:0:0:0:
264,136,46836,1,0,0:0:0:0:
264,136,47136,1,12,0:0:0:0:
212,164,47436,1,12,0:0:0:0:
212,164,47736,1,12,0:0:0:0:
244,208,48336,5,0,0:0:0:0:
220,168,48486,1,0,0:0:0:0:
220,168,48636,1,0,0:0:0:0:
224,168,48786,1,8,0:0:0:0:
224,168,48936,1,0,0:0:0:0:
224,168,49236,1,0,0:0:0:0:
224,168,49536,1,0,0:0:0:0:
224,168,49686,1,0,0:0:0:0:
224,168,49836,1,8,0:0:0:0:
224,168,49986,1,0,0:0:0:0:
224,168,50136,1,8,0:0:0:0:
256,148,50736,1,12,0:0:0:0:
264,172,51036,1,8,0:0:0:0:
264,172,51186,1,8,0:0:0:0:
264,172,51336,1,8,0:0:0:0:
272,160,51486,1,0,0:0:0:0:
272,164,51636,1,8,0:0:0:0:
272,164,51936,1,8,0:0:0:0:
244,144,52236,1,8,0:0:0:0:
244,144,52386,1,0,0:0:0:0:
244,144,52536,1,8,0:0:0:0:
244,144,52686,1,0,0:0:0:0:
264,160,52836,1,0,0:0:0:0:
264,160,53136,1,0,0:0:0:0:
284,208,53436,1,0,0:0:0:0:
264,180,53586,1,8,0:0:0:0:
264,180,53736,1,0,0:0:0:0:
264,176,53886,1,8,0:0:0:0:
284,148,54036,1,0,0:0:0:0:
128,132,54336,2,0,L|216:136,8,60,0|0|0|0|0|0|0|0|0,0:0|0:0|0:0|0:0|0:0|0:0|0:0|0:0|0:0,0:0:0:0:
268,156,55836,1,8,0:0:0:0:
268,156,55986,1,8,0:0:0:0:
268,156,56136,1,8,0:0:0:0:
244,160,56286,1,0,0:0:0:0:
240,156,56436,1,0,0:0:0:0:
240,160,56736,1,8,0:0:0:0:
256,160,57036,1,8,0:0:0:0:
256,160,57186,1,8,0:0:0:0:
256,160,57336,1,8,0:0:0:0:
272,180,57486,1,0,0:0:0:0:
272,180,57636,1,8,0:0:0:0:
300,156,57936,1,0,0:0:0:0:
220,136,58086,1,8,0:0:0:0:
304,200,58386,1,8,0:0:0:0:
304,200,58686,1,8,0:0:0:0:
264,132,58986,1,8,0:0:0:0:
260,184,59136,1,0,0:0:0:0:
260,184,59286,1,0,0:0:0:0:
260,184,59436,1,8,0:0:0:0:
260,184,59586,1,0,0:0:0:0:
260,184,59736,1,0,0:0:0:0:
260,184,60336,1,0,0:0:0:0:
300,208,60636,1,12,0:0:0:0:
232,160,60936,1,0,0:0:0:0:
232,160,61236,1,12,0:0:0:0:
300,176,61536,1,0,0:0:0:0:
300,176,61836,1,12,0:0:0:0:
228,136,62136,1,0,0:0:0:0:
240,136,62436,1,12,0:0:0:0:
248,144,62736,1,0,0:0:0:0:
256,148,63036,1,12,0:0:0:0:
224,152,63336,1,0,0:0:0:0:
224,152,63636,1,12,0:0:0:0:
232,144,63936,1,8,0:0:0:0:
240,140,64236,1,12,0:0:0:0:
240,140,64536,1,0,0:0:0:0:
208,140,64836,1,12,0:0:0:0:
216,164,65136,1,0,0:0:0:0:
204,168,65436,1,12,0:0:0:0:
196,156,65736,1,0,0:0:0:0:
196,156,66036,1,12,0:0:0:0:
216,152,66336,1,0,0:0:0:0:
208,156,66636,1,12,0:0:0:0:
196,136,66936,1,0,0:0:0:0:
272,136,67236,1,12,0:0:0:0:
280,168,67536,1,0,0:0:0:0:
280,168,67836,1,12,0:0:0:0:
248,144,68136,1,0,0:0:0:0:
248,144,68436,1,12,0:0:0:0:
356,164,68736,5,0,0:0:0:0:
248,156,69036,1,8,0:0:0:0:
248,156,69186,1,0,0:0:0:0:
256,160,69336,1,0,0:0:0:0:
260,160,69486,1,8,0:0:0:0:
264,156,69636,1,8,0:0:0:0:
288,224,69936,5,4,0:0:0:0:
292,176,70086,1,0,0:0:0:0:
228,176,70386,1,8,0:0:0:0:
240,168,70686,1,0,0:0:0:0:
240,168,70836,1,8,0:0:0:0:
244,160,71136,1,0,0:0:0:0:
244,156,71286,1,0,0:0:0:0:
248,156,71436,1,8,0:0:0:0:
248,156,71736,1,0,0:0:0:0:
252,156,71886,1,0,0:0:0:0:
252,156,72036,1,8,0:0:0:0:
244,156,72336,1,4,0:0:0:0:
228,164,72486,1,0,0:0:0:0:
236,152,72786,1,8,0:0:0:0:
276,152,73086,1,0,0:0:0:0:
276,152,73236,1,8,0:0:0:0:
280,152,73536,1,8,0:0:0:0:
152,160,73686,1,8,0:0:0:0:
156,160,73836,1,8,0:0:0:0:
160,160,74136,1,8,0:0:0:0:
160,160,74286,1,8,0:0:0:0:
160,160,74436,1,8,0:0:0:0:
160,156,74736,1,4,0:0:0:0:
192,172,74886,1,0,0:0:0:0:
260,168,75186,1,8,0:0:0:0:
248,156,75486,1,0,0:0:0:0:
244,156,75636,1,8,0:0:0:0:
244,156,75936,1,8,0:0:0:0:
228,148,76236,1,8,0:0:0:0:
232,148,76536,1,8,0:0:0:0:
244,144,76836,1,8,0:0:0:0:
264,164,77136,5,0,0:0:0:0:
356,172,77286,1,0,0:0:0:0:
356,172,77436,1,8,0:0:0:0:
356,172,77736,1,0,0:0:0:0:
356,172,77886,1,0,0:0:0:0:
356,172,78036,1,8,0:0:0:0:
356,172,78186,1,8,0:0:0:0:
356,172,78336,1,0,0:0:0:0:
356,172,78636,1,8,0:0:0:0:
356,172,78936,1,8,0:0:0:0:
232,120,79236,1,8,0:0:0:0:
248,168,79386,1,0,0:0:0:0:
276,168,81936,5,0,0:0:0:0:
276,168,82086,1,0,0:0:0:0:
276,168,82236,1,0,0:0:0:0:
276,168,82536,1,0,0:0:0:0:
276,168,82836,1,8,0:0:0:0:
276,168,83136,1,0,0:0:0:0:
304,204,83286,1,8,0:0:0:0:
304,204,83436,1,0,0:0:0:0:
296,192,83736,1,0,0:0:0:0:
264,188,84036,1,0,0:0:0:0:
264,188,84186,1,0,0:0:0:0:
264,188,84336,1,8,0:0:0:0:
256,168,84486,1,8,0:0:0:0:
256,168,84636,1,0,0:0:0:0:
296,192,84936,1,0,0:0:0:0:
224,168,85236,1,0,0:0:0:0:
224,168,85386,1,0,0:0:0:0:
224,168,85536,1,8,0:0:0:0:
220,160,85986,1,0,0:0:0:0:
312,224,86436,1,8,0:0:0:0:
312,224,86586,1,0,0:0:0:0:
312,224,86736,1,0,0:0:0:0:
312,224,86886,1,0,0:0:0:0:
312,224,87186,1,0,0:0:0:0:
312,232,87336,1,8,0:0:0:0:
328,184,87936,1,8,0:0:0:0:
264,144,88086,1,0,0:0:0:0:
260,144,88236,1,8,0:0:0:0:
236,144,88536,1,0,0:0:0:0:
248,160,88836,1,8,0:0:0:0:
248,160,89136,1,0,0:0:0:0:
208,168,89286,1,0,0:0:0:0:
208,168,89436,1,0,0:0:0:0:
208,168,89736,1,0,0:0:0:0:
232,160,90036,1,8,0:0:0:0:
232,160,90336,1,0,0:0:0:0:
220,140,90486,1,8,0:0:0:0:
220,140,90636,1,0,0:0:0:0:
248,152,90936,1,0,0:0:0:0:
272,160,91236,1,8,0:0:0:0:
272,160,91536,1,8,0:0:0:0:
288,140,91986,1,8,0:0:0:0:
236,168,92436,1,8,0:0:0:0:
236,168,92586,1,0,0:0:0:0:
236,168,92736,1,0,0:0:0:0:
236,168,92886,1,0,0:0:0:0:
236,168,93186,1,8,0:0:0:0:
236,168,93336,1,0,0:0:0:0:
236,168,93636,1,8,0:0:0:0:
236,168,93786,1,8,0:0:0:0:
200,160,94536,1,8,0:0:0:0:
200,160,94686,1,8,0:0:0:0:
200,160,94836,1,8,0:0:0:0:
272,168,94986,1,8,0:0:0:0:
272,168,95436,1,4,0:0:0:0:
