osu file format v14

[General]
AudioFilename: Snow Goose.mp3
AudioLeadIn: 0
PreviewTime: 52887
Countdown: 0
SampleSet: Normal
StackLeniency: 0.3
Mode: 1
LetterboxInBreaks: 0
WidescreenStoryboard: 1

[Editor]
DistanceSpacing: 0.7
BeatDivisor: 4
GridSize: 4
TimelineZoom: 4.199998

[Metadata]
Title:Untan Goose
TitleUnicode:うんたん Goose
Artist:Crash-TM
ArtistUnicode:Crash-TM
Creator:Hanjamon
Version:Chickenspawn
Source:
Tags:Anime K-ON! けいおん! mad Nico Nico Douga snow jubeat Mutsuhiko Izumi dani titotatin raiden mikkusu lno _gezo_ Unmei Muma ercs mikkusu-8022 windeu zetorux 少々 Uraomote Lovers vocaloid DukeDukeDura Quizmaegi sing216 Maitroxsk JUDYDANNY Sanawieck Konpaku Sariel RuinedChicken game rock Volta IControl _yu68 katacheh TimmyAkmed Nishizumi Raphalge 404 AccNotFound asuasu_yura qoot8123 stu00608 tasuke912 applerss Aldwych lucky star moon AKHTS MidSoul -TheHateD- tkdLolly JustALeaf xWillx Consified
BeatmapID:1249583
BeatmapSetID:299271

[Difficulty]
HPDrainRate:7
CircleSize:5
OverallDifficulty:6
ApproachRate:6
SliderMultiplier:1.4
SliderTickRate:1

[Events]
//Background and Video events
0,0,"k-onyuiBG.jpg",0,0
//Break Periods
//Storyboard Layer 0 (Background)
//Storyboard Layer 1 (Fail)
//Storyboard Layer 2 (Pass)
//Storyboard Layer 3 (Foreground)
//Storyboard Sound Samples

[TimingPoints]
2498,300,4,1,0,70,1,0
8573,-90.9090909090909,4,1,0,70,0,0
18798,-83.3333333333333,4,1,0,70,0,0
19373,-90.9090909090909,4,1,0,70,0,0
22598,-88.4955752212389,4,1,0,70,0,0
22698,-86.2068965517241,4,1,0,70,0,0
22798,-84.0336134453781,4,1,0,70,0,0
43298,-80,4,1,0,70,0,0
50498,-90.9090909090909,4,1,0,70,0,0
52898,-100,4,1,0,70,0,1
62498,-90.9090909090909,4,1,0,70,0,1
63098,-100,4,1,0,70,0,1
63698,-90.9090909090909,4,1,0,70,0,1
64298,-100,4,1,0,70,0,1
67298,-90.9090909090909,4,1,0,70,0,1
67898,-100,4,1,0,70,0,1
68573,-90.9090909090909,4,1,0,70,0,1
69173,-100,4,1,0,70,0,1
70898,-90.9090909090909,4,1,0,70,0,1
81623,-100,4,1,0,70,0,0
84098,-76.9230769230769,4,1,0,70,0,0
85298,-71.4285714285714,4,1,0,70,0,0
86498,-66.6666666666667,4,1,0,70,0,0
88898,-83.3333333333333,4,1,0,70,0,0
90098,-100,4,1,0,70,0,0

[Colours]
Combo1 : 100,100,255
Combo2 : 255,34,145
Combo3 : 0,204,204
Combo4 : 0,225,0

[HitObjects]
256,196,2498,5,0,0:0:0:0:
256,196,2798,1,8,0:0:0:0:
256,196,3398,1,8,0:0:0:0:
256,196,3698,1,0,0:0:0:0:
256,196,3998,1,8,0:0:0:0:
256,196,4598,1,8,0:0:0:0:
256,196,4898,1,0,0:0:0:0:
256,196,5198,1,8,0:0:0:0:
260,192,5798,1,8,0:0:0:0:
260,192,6098,1,0,0:0:0:0:
260,192,6198,1,0,0:0:0:0:
260,192,6298,1,8,0:0:0:0:
252,192,6398,1,0,0:0:0:0:
260,192,6498,1,8,0:0:0:0:
260,192,6598,1,8,0:0:0:0:
256,188,6698,1,0,0:0:0:0:
260,192,6798,1,8,0:0:0:0:
260,192,6898,1,0,0:0:0:0:
252,192,6998,1,0,0:0:0:0:
260,192,7098,1,8,0:0:0:0:
260,192,7198,1,8,0:0:0:0:
252,192,7298,1,8,0:0:0:0:
256,188,7398,1,0,0:0:0:0:
260,192,7498,1,0,0:0:0:0:
264,196,7598,1,0,0:0:0:0:
256,196,7648,1,0,0:0:0:0:
260,192,7698,1,0,0:0:0:0:
260,192,7748,1,8,0:0:0:0:
252,192,7823,1,0,0:0:0:0:
252,192,7898,1,0,0:0:0:0:
264,192,7973,1,0,0:0:0:0:
264,192,8048,1,0,0:0:0:0:
252,192,8123,1,0,0:0:0:0:
256,196,8198,1,8,0:0:0:0:
256,196,8273,1,0,0:0:0:0:
256,196,8348,1,0,0:0:0:0:
256,200,8423,1,0,0:0:0:0:
256,192,8498,5,0,0:0:0:0:
256,192,8648,1,8,0:0:0:0:
252,196,8798,1,0,0:0:0:0:
252,196,8873,1,0,0:0:0:0:
252,196,8948,1,8,0:0:0:0:
256,196,9098,1,0,0:0:0:0:
260,208,9248,1,8,0:0:0:0:
260,208,9323,1,8,0:0:0:0:
260,208,9398,1,0,0:0:0:0:
260,208,9473,1,0,0:0:0:0:
260,208,9548,1,8,0:0:0:0:
256,212,9698,1,0,0:0:0:0:
256,212,9848,1,8,0:0:0:0:
256,212,9998,1,0,0:0:0:0:
256,212,10073,1,0,0:0:0:0:
256,212,10148,1,8,0:0:0:0:
252,200,10298,1,0,0:0:0:0:
252,200,10373,1,0,0:0:0:0:
256,204,10448,1,8,0:0:0:0:
256,204,10523,1,0,0:0:0:0:
256,204,10598,1,0,0:0:0:0:
256,204,10673,1,0,0:0:0:0:
256,204,10748,1,8,0:0:0:0:
256,192,10898,1,0,0:0:0:0:
256,192,11048,1,8,0:0:0:0:
256,192,11123,1,8,0:0:0:0:
256,192,11198,1,0,0:0:0:0:
256,192,11273,1,0,0:0:0:0:
256,192,11348,1,8,0:0:0:0:
256,192,11498,1,0,0:0:0:0:
252,192,11648,1,8,0:0:0:0:
252,192,11723,1,0,0:0:0:0:
256,192,11798,1,0,0:0:0:0:
256,192,11948,1,8,0:0:0:0:
256,192,12098,1,0,0:0:0:0:
256,192,12198,1,8,0:0:0:0:
256,192,12298,1,8,0:0:0:0:
256,192,12398,1,0,0:0:0:0:
252,192,12498,1,0,0:0:0:0:
252,192,12598,1,8,0:0:0:0:
256,196,12698,1,0,0:0:0:0:
256,196,12798,1,8,0:0:0:0:
256,196,12898,1,8,0:0:0:0:
256,196,12998,1,0,0:0:0:0:
256,196,13098,1,8,0:0:0:0:
256,196,13198,1,8,0:0:0:0:
256,192,13298,1,8,0:0:0:0:
252,192,13373,1,8,0:0:0:0:
252,192,13448,1,0,0:0:0:0:
256,196,13523,1,0,0:0:0:0:
256,192,13598,1,0,0:0:0:0:
256,196,13673,1,0,0:0:0:0:
256,196,13748,1,8,0:0:0:0:
256,196,13823,1,8,0:0:0:0:
256,196,13898,1,0,0:0:0:0:
256,196,13973,1,0,0:0:0:0:
256,196,14048,1,0,0:0:0:0:
264,192,14123,1,0,0:0:0:0:
256,192,14198,1,8,0:0:0:0:
252,192,14273,1,0,0:0:0:0:
252,192,14348,1,0,0:0:0:0:
256,192,14423,1,0,0:0:0:0:
248,188,14498,1,0,0:0:0:0:
256,200,14648,1,0,0:0:0:0:
256,200,14723,1,0,0:0:0:0:
256,200,14798,1,0,0:0:0:0:
272,192,14873,1,0,0:0:0:0:
256,200,14948,1,8,0:0:0:0:
252,192,15248,1,8,0:0:0:0:
256,192,15323,1,8,0:0:0:0:
256,192,15398,1,0,0:0:0:0:
256,192,15473,1,0,0:0:0:0:
256,200,15548,1,8,0:0:0:0:
256,200,15623,1,8,0:0:0:0:
256,200,15698,1,0,0:0:0:0:
256,200,15848,1,0,0:0:0:0:
256,200,15923,1,0,0:0:0:0:
256,200,15998,1,0,0:0:0:0:
252,196,16073,1,0,0:0:0:0:
256,200,16148,1,8,0:0:0:0:
256,200,16448,1,0,0:0:0:0:
256,200,16523,1,0,0:0:0:0:
256,200,16598,1,0,0:0:0:0:
256,200,16673,1,8,0:0:0:0:
256,200,16748,1,8,0:0:0:0:
256,200,16823,1,0,0:0:0:0:
256,200,16898,1,0,0:0:0:0:
256,200,17048,1,0,0:0:0:0:
256,200,17123,1,0,0:0:0:0:
256,200,17198,1,0,0:0:0:0:
256,200,17273,1,0,0:0:0:0:
256,200,17348,1,8,0:0:0:0:
256,200,17648,1,0,0:0:0:0:
256,200,17798,1,0,0:0:0:0:
256,200,17898,1,0,0:0:0:0:
256,200,17998,1,0,0:0:0:0:
252,196,18098,1,8,0:0:0:0:
252,196,18173,1,8,0:0:0:0:
252,196,18248,1,0,0:0:0:0:
252,196,18323,1,0,0:0:0:0:
248,200,18398,1,0,0:0:0:0:
252,192,18473,1,0,0:0:0:0:
240,192,18548,1,0,0:0:0:0:
256,192,18623,1,0,0:0:0:0:
256,192,18698,1,0,0:0:0:0:
256,192,18798,1,8,0:0:0:0:
256,192,18898,1,8,0:0:0:0:
256,192,18998,1,0,0:0:0:0:
256,192,19098,1,8,0:0:0:0:
256,192,19198,1,8,0:0:0:0:
248,188,19298,1,0,0:0:0:0:
256,200,19448,1,0,0:0:0:0:
256,200,19523,1,0,0:0:0:0:
256,200,19598,1,0,0:0:0:0:
252,204,19673,1,0,0:0:0:0:
256,200,19748,1,8,0:0:0:0:
252,192,20048,1,8,0:0:0:0:
256,192,20123,1,8,0:0:0:0:
256,192,20198,1,0,0:0:0:0:
256,192,20273,1,0,0:0:0:0:
256,200,20348,1,8,0:0:0:0:
256,200,20423,1,8,0:0:0:0:
256,200,20498,1,0,0:0:0:0:
256,200,20648,1,0,0:0:0:0:
256,200,20723,1,0,0:0:0:0:
256,200,20798,1,0,0:0:0:0:
252,204,20873,1,0,0:0:0:0:
256,200,20948,1,8,0:0:0:0:
256,200,21248,1,0,0:0:0:0:
256,200,21323,1,0,0:0:0:0:
256,200,21398,1,0,0:0:0:0:
256,200,21473,1,8,0:0:0:0:
256,200,21548,1,8,0:0:0:0:
256,200,21623,1,0,0:0:0:0:
256,200,21698,1,0,0:0:0:0:
256,200,21848,1,0,0:0:0:0:
256,200,21923,1,0,0:0:0:0:
256,200,21998,1,0,0:0:0:0:
256,200,22073,1,0,0:0:0:0:
256,200,22148,1,8,0:0:0:0:
256,200,22448,1,0,0:0:0:0:
256,200,22598,1,0,0:0:0:0:
256,200,22698,1,0,0:0:0:0:
256,200,22798,1,0,0:0:0:0:
252,196,22898,5,0,0:0:0:0:
252,196,22973,1,0,0:0:0:0:
252,196,23048,1,0,0:0:0:0:
252,196,23123,1,0,0:0:0:0:
248,200,23198,1,8,0:0:0:0:
252,192,23273,1,8,0:0:0:0:
240,192,23348,1,0,0:0:0:0:
256,192,23423,1,0,0:0:0:0:
256,192,23498,1,8,0:0:0:0:
256,192,23573,1,0,0:0:0:0:
256,200,23648,1,0,0:0:0:0:
256,188,23723,1,0,0:0:0:0:
252,196,23798,1,0,0:0:0:0:
252,196,23873,1,8,0:0:0:0:
252,196,23948,1,8,0:0:0:0:
252,196,24023,1,0,0:0:0:0:
256,192,24098,1,8,0:0:0:0:
264,188,24198,1,8,0:0:0:0:
264,188,24298,1,8,0:0:0:0:
256,192,24398,1,0,0:0:0:0:
256,192,24498,1,0,0:0:0:0:
256,196,24598,1,0,0:0:0:0:
248,200,24698,1,8,0:0:0:0:
248,200,24798,1,8,0:0:0:0:
248,200,24898,1,8,0:0:0:0:
256,192,24998,1,0,0:0:0:0:
256,196,25098,1,0,0:0:0:0:
256,196,25198,1,8,0:0:0:0:
256,192,25298,1,0,0:0:0:0:
256,192,25398,1,8,0:0:0:0:
256,196,25498,1,8,0:0:0:0:
256,196,25598,1,0,0:0:0:0:
256,196,25698,1,0,0:0:0:0:
256,196,25798,1,8,0:0:0:0:
256,192,25898,1,0,0:0:0:0:
256,196,25998,1,0,0:0:0:0:
256,196,26098,1,8,0:0:0:0:
252,196,26198,1,0,0:0:0:0:
252,196,26298,1,0,0:0:0:0:
256,196,26398,1,8,0:0:0:0:
256,196,26498,1,0,0:0:0:0:
256,196,26598,1,0,0:0:0:0:
256,196,26698,1,0,0:0:0:0:
252,196,26798,1,8,0:0:0:0:
256,196,26898,1,0,0:0:0:0:
256,196,26998,1,0,0:0:0:0:
252,196,27098,1,8,0:0:0:0:
252,196,27198,1,0,0:0:0:0:
256,196,27298,1,8,0:0:0:0:
252,200,27398,1,0,0:0:0:0:
252,200,27498,1,0,0:0:0:0:
252,200,27598,1,0,0:0:0:0:
252,200,27698,1,8,0:0:0:0:
260,192,27773,1,0,0:0:0:0:
256,196,27848,1,0,0:0:0:0:
256,196,27923,1,0,0:0:0:0:
256,196,27998,1,0,0:0:0:0:
252,196,28073,1,0,0:0:0:0:
256,188,28148,1,8,0:0:0:0:
252,192,28223,1,0,0:0:0:0:
252,192,28298,1,0,0:0:0:0:
252,192,28373,1,0,0:0:0:0:
252,192,28448,1,0,0:0:0:0:
252,192,28523,1,0,0:0:0:0:
252,192,28598,1,8,0:0:0:0:
252,200,28673,1,0,0:0:0:0:
256,196,28748,1,0,0:0:0:0:
256,196,28823,1,0,0:0:0:0:
256,196,28898,1,8,0:0:0:0:
252,192,28998,1,8,0:0:0:0:
252,192,29098,1,0,0:0:0:0:
252,192,29198,1,0,0:0:0:0:
252,192,29298,1,8,0:0:0:0:
252,192,29398,1,8,0:0:0:0:
252,192,29498,1,8,0:0:0:0:
256,196,29598,1,8,0:0:0:0:
256,196,29698,1,0,0:0:0:0:
256,196,29798,1,0,0:0:0:0:
252,192,29898,1,0,0:0:0:0:
252,192,29998,1,8,0:0:0:0:
252,192,30098,1,8,0:0:0:0:
252,192,30198,1,0,0:0:0:0:
252,192,30298,1,0,0:0:0:0:
252,192,30398,1,8,0:0:0:0:
256,196,30498,1,0,0:0:0:0:
256,196,30598,1,0,0:0:0:0:
256,196,30698,1,0,0:0:0:0:
256,196,30798,1,8,0:0:0:0:
256,196,30898,1,0,0:0:0:0:
256,196,30998,1,8,0:0:0:0:
252,192,31098,1,0,0:0:0:0:
252,192,31198,1,0,0:0:0:0:
252,192,31298,1,8,0:0:0:0:
256,196,31398,1,0,0:0:0:0:
256,196,31498,1,8,0:0:0:0:
256,196,31598,1,8,0:0:0:0:
256,196,31698,1,0,0:0:0:0:
256,200,31798,1,0,0:0:0:0:
256,200,31898,1,0,0:0:0:0:
256,192,31998,1,8,0:0:0:0:
256,192,32098,1,0,0:0:0:0:
256,192,32198,1,8,0:0:0:0:
256,196,32298,1,0,0:0:0:0:
256,196,32348,1,0,0:0:0:0:
256,196,32398,1,0,0:0:0:0:
256,196,32498,1,8,0:0:0:0:
256,196,32598,1,0,0:0:0:0:
252,196,32698,1,8,0:0:0:0:
252,196,32798,1,0,0:0:0:0:
252,196,32898,1,0,0:0:0:0:
252,196,32998,1,8,0:0:0:0:
252,196,33098,1,0,0:0:0:0:
256,196,33173,1,8,0:0:0:0:
260,196,33248,1,8,0:0:0:0:
248,196,33323,1,0,0:0:0:0:
248,196,33398,1,8,0:0:0:0:
248,196,33473,1,8,0:0:0:0:
252,196,33548,1,0,0:0:0:0:
252,196,33623,1,0,0:0:0:0:
256,192,33698,5,8,0:0:0:0:
264,188,33798,1,8,0:0:0:0:
264,188,33898,1,8,0:0:0:0:
256,192,33998,1,0,0:0:0:0:
256,192,34098,1,0,0:0:0:0:
256,196,34198,1,0,0:0:0:0:
248,200,34298,1,8,0:0:0:0:
248,200,34398,1,8,0:0:0:0:
248,200,34498,1,8,0:0:0:0:
256,192,34598,1,0,0:0:0:0:
256,196,34698,1,0,0:0:0:0:
256,196,34798,1,8,0:0:0:0:
256,192,34898,1,0,0:0:0:0:
256,192,34998,1,8,0:0:0:0:
256,196,35098,1,8,0:0:0:0:
256,196,35198,1,0,0:0:0:0:
256,196,35298,1,0,0:0:0:0:
256,196,35398,1,8,0:0:0:0:
256,192,35498,1,0,0:0:0:0:
256,196,35598,1,0,0:0:0:0:
256,196,35698,1,8,0:0:0:0:
252,196,35798,1,0,0:0:0:0:
252,196,35898,1,0,0:0:0:0:
256,196,35998,1,8,0:0:0:0:
256,196,36098,1,0,0:0:0:0:
256,196,36198,1,0,0:0:0:0:
256,196,36298,1,0,0:0:0:0:
252,196,36398,1,8,0:0:0:0:
256,196,36498,1,0,0:0:0:0:
256,196,36598,1,0,0:0:0:0:
252,196,36698,1,8,0:0:0:0:
252,196,36798,1,0,0:0:0:0:
256,196,36898,1,8,0:0:0:0:
252,200,36998,1,0,0:0:0:0:
252,200,37098,1,0,0:0:0:0:
252,200,37198,1,0,0:0:0:0:
252,200,37298,1,8,0:0:0:0:
260,200,37373,1,0,0:0:0:0:
256,196,37448,1,0,0:0:0:0:
256,196,37523,1,0,0:0:0:0:
256,196,37598,1,0,0:0:0:0:
252,196,37673,1,0,0:0:0:0:
256,188,37748,1,8,0:0:0:0:
252,192,37823,1,0,0:0:0:0:
252,192,37898,1,0,0:0:0:0:
252,192,37973,1,0,0:0:0:0:
252,192,38048,1,0,0:0:0:0:
252,192,38123,1,0,0:0:0:0:
252,192,38198,1,8,0:0:0:0:
252,200,38273,1,0,0:0:0:0:
256,196,38348,1,0,0:0:0:0:
256,196,38423,1,0,0:0:0:0:
256,196,38498,1,8,0:0:0:0:
252,192,38598,1,8,0:0:0:0:
252,192,38698,1,0,0:0:0:0:
252,192,38798,1,0,0:0:0:0:
252,192,38898,1,8,0:0:0:0:
252,192,38998,1,8,0:0:0:0:
252,192,39098,1,8,0:0:0:0:
256,196,39198,1,8,0:0:0:0:
256,196,39298,1,0,0:0:0:0:
256,196,39398,1,0,0:0:0:0:
252,192,39498,1,0,0:0:0:0:
252,192,39598,1,8,0:0:0:0:
252,192,39698,1,8,0:0:0:0:
252,192,39798,1,0,0:0:0:0:
252,192,39898,1,0,0:0:0:0:
252,192,39998,1,8,0:0:0:0:
256,196,40098,1,0,0:0:0:0:
256,196,40198,1,0,0:0:0:0:
256,196,40298,1,0,0:0:0:0:
256,196,40398,1,8,0:0:0:0:
256,196,40498,1,0,0:0:0:0:
256,196,40598,1,8,0:0:0:0:
252,192,40698,1,0,0:0:0:0:
252,192,40798,1,0,0:0:0:0:
252,192,40898,1,8,0:0:0:0:
256,196,40998,1,0,0:0:0:0:
256,196,41098,1,8,0:0:0:0:
256,196,41198,1,8,0:0:0:0:
256,196,41298,1,0,0:0:0:0:
256,200,41398,1,0,0:0:0:0:
256,200,41498,1,0,0:0:0:0:
256,192,41598,1,8,0:0:0:0:
256,192,41698,1,0,0:0:0:0:
256,192,41798,1,8,0:0:0:0:
256,196,41898,1,0,0:0:0:0:
256,196,41998,1,0,0:0:0:0:
256,196,42098,1,8,0:0:0:0:
256,196,42173,1,0,0:0:0:0:
252,196,42248,1,8,0:0:0:0:
252,196,42323,1,8,0:0:0:0:
256,196,42398,1,0,0:0:0:0:
256,192,42473,1,0,0:0:0:0:
256,192,42548,1,8,0:0:0:0:
256,192,42623,1,0,0:0:0:0:
256,192,42698,1,8,0:0:0:0:
256,196,42773,1,0,0:0:0:0:
256,196,42848,1,0,0:0:0:0:
256,196,42923,1,0,0:0:0:0:
256,196,42998,1,8,0:0:0:0:
256,196,43073,1,0,0:0:0:0:
252,196,43148,1,8,0:0:0:0:
252,196,43223,1,8,0:0:0:0:
256,196,43298,1,0,0:0:0:0:
256,192,43448,1,0,0:0:0:0:
248,192,43598,1,0,0:0:0:0:
248,192,43748,1,0,0:0:0:0:
256,196,43898,1,0,0:0:0:0:
252,196,44048,1,0,0:0:0:0:
256,196,44198,1,0,0:0:0:0:
256,192,44348,1,0,0:0:0:0:
256,192,44498,1,8,0:0:0:0:
256,192,44648,1,8,0:0:0:0:
256,196,44798,1,8,0:0:0:0:
252,196,44948,1,8,0:0:0:0:
256,196,45098,1,8,0:0:0:0:
256,192,45248,1,8,0:0:0:0:
256,192,45398,1,8,0:0:0:0:
256,192,45548,1,0,0:0:0:0:
256,196,45698,1,0,0:0:0:0:
252,196,45848,1,0,0:0:0:0:
256,196,45998,1,8,0:0:0:0:
256,196,46148,1,0,0:0:0:0:
256,196,46298,1,0,0:0:0:0:
256,196,46448,1,0,0:0:0:0:
256,196,46598,1,8,0:0:0:0:
252,196,46748,1,0,0:0:0:0:
256,196,46898,1,8,0:0:0:0:
256,200,46973,1,0,0:0:0:0:
256,196,47048,1,0,0:0:0:0:
256,200,47123,1,0,0:0:0:0:
256,200,47198,1,0,0:0:0:0:
256,200,47273,1,0,0:0:0:0:
256,196,47348,1,8,0:0:0:0:
256,200,47423,1,0,0:0:0:0:
256,196,47498,1,0,0:0:0:0:
256,200,47573,1,0,0:0:0:0:
252,196,47648,1,0,0:0:0:0:
256,200,47723,1,0,0:0:0:0:
256,196,47798,1,8,0:0:0:0:
256,196,47948,1,0,0:0:0:0:
252,200,48098,1,0,0:0:0:0:
252,200,48248,1,0,0:0:0:0:
252,200,48398,1,8,0:0:0:0:
252,196,48548,1,0,0:0:0:0:
252,192,48698,1,0,0:0:0:0:
252,192,48848,1,0,0:0:0:0:
252,192,48998,1,8,0:0:0:0:
252,192,49148,1,0,0:0:0:0:
252,192,49298,1,8,0:0:0:0:
256,188,49448,1,0,0:0:0:0:
256,188,49598,1,0,0:0:0:0:
256,188,49748,1,8,0:0:0:0:
256,188,49898,1,0,0:0:0:0:
256,188,50048,1,0,0:0:0:0:
256,188,50198,1,8,0:0:0:0:
256,188,50348,1,8,0:0:0:0:
256,188,50498,1,0,0:0:0:0:
256,188,50573,1,8,0:0:0:0:
256,188,50648,1,8,0:0:0:0:
256,188,50723,1,0,0:0:0:0:
256,188,50798,1,8,0:0:0:0:
256,188,50873,1,8,0:0:0:0:
256,188,50948,1,8,0:0:0:0:
256,188,51023,1,0,0:0:0:0:
256,188,51098,1,0,0:0:0:0:
256,188,51173,1,8,0:0:0:0:
256,188,51248,1,8,0:0:0:0:
256,188,51323,1,0,0:0:0:0:
256,188,51398,1,8,0:0:0:0:
256,188,51473,1,0,0:0:0:0:
256,188,51548,1,8,0:0:0:0:
256,196,51623,1,8,0:0:0:0:
256,196,51698,1,0,0:0:0:0:
260,192,51773,1,0,0:0:0:0:
260,192,51848,1,8,0:0:0:0:
260,192,51923,1,8,0:0:0:0:
260,192,51998,1,0,0:0:0:0:
256,192,52073,1,0,0:0:0:0:
256,192,52148,1,8,0:0:0:0:
256,192,52223,1,8,0:0:0:0:
256,188,52298,1,0,0:0:0:0:
256,188,52398,1,0,0:0:0:0:
256,184,52498,1,0,0:0:0:0:
260,192,52598,1,8,0:0:0:0:
260,192,52698,1,8,0:0:0:0:
260,192,52798,1,8,0:0:0:0:
260,192,52898,5,8,0:0:0:0:
264,188,52973,1,8,0:0:0:0:
256,192,53048,1,8,0:0:0:0:
256,192,53123,1,8,0:0:0:0:
256,192,53198,1,0,0:0:0:0:
256,192,53348,1,0,0:0:0:0:
260,192,53498,1,0,0:0:0:0:
260,192,53648,1,0,0:0:0:0:
260,192,53798,1,0,0:0:0:0:
256,192,53948,1,0,0:0:0:0:
256,192,54098,1,8,0:0:0:0:
256,192,54173,1,8,0:0:0:0:
256,192,54248,1,8,0:0:0:0:
260,192,54323,1,0,0:0:0:0:
260,192,54398,1,8,0:0:0:0:
260,192,54548,1,0,0:0:0:0:
260,192,54698,1,0,0:0:0:0:
256,192,54848,1,8,0:0:0:0:
256,192,54998,1,8,0:0:0:0:
256,192,55073,1,0,0:0:0:0:
260,192,55148,1,8,0:0:0:0:
256,192,55223,1,0,0:0:0:0:
256,192,55298,1,0,0:0:0:0:
256,192,55448,1,8,0:0:0:0:
256,192,55598,1,0,0:0:0:0:
256,192,55748,1,0,0:0:0:0:
256,192,55898,1,8,0:0:0:0:
260,192,56048,1,0,0:0:0:0:
256,192,56198,1,0,0:0:0:0:
256,192,56348,1,8,0:0:0:0:
256,192,56498,1,8,0:0:0:0:
256,192,56573,1,8,0:0:0:0:
256,192,56648,1,0,0:0:0:0:
256,192,56723,1,8,0:0:0:0:
256,192,56798,1,8,0:0:0:0:
260,192,56873,1,0,0:0:0:0:
260,192,56948,1,8,0:0:0:0:
256,192,57023,1,8,0:0:0:0:
256,192,57098,1,0,0:0:0:0:
256,192,57173,1,8,0:0:0:0:
256,192,57248,1,8,0:0:0:0:
256,192,57323,1,0,0:0:0:0:
256,192,57398,1,8,0:0:0:0:
256,192,57473,1,8,0:0:0:0:
256,192,57548,1,0,0:0:0:0:
256,192,57623,1,8,0:0:0:0:
256,192,57698,1,0,0:0:0:0:
260,192,57848,1,0,0:0:0:0:
256,192,57998,1,0,0:0:0:0:
256,192,58148,1,8,0:0:0:0:
256,192,58298,1,0,0:0:0:0:
256,192,58448,1,8,0:0:0:0:
256,192,58598,1,0,0:0:0:0:
260,192,58673,1,8,0:0:0:0:
260,192,58748,1,0,0:0:0:0:
256,192,58823,1,0,0:0:0:0:
256,192,58898,1,8,0:0:0:0:
256,192,59048,1,0,0:0:0:0:
256,192,59198,1,0,0:0:0:0:
256,192,59348,1,8,0:0:0:0:
256,192,59498,1,8,0:0:0:0:
260,192,59648,1,0,0:0:0:0:
256,192,59798,1,0,0:0:0:0:
256,192,59873,1,0,0:0:0:0:
256,192,59948,1,8,0:0:0:0:
256,192,60023,1,0,0:0:0:0:
256,192,60098,1,0,0:0:0:0:
256,192,60173,1,0,0:0:0:0:
256,192,60248,1,8,0:0:0:0:
256,192,60323,1,0,0:0:0:0:
248,192,60398,1,0,0:0:0:0:
252,192,60473,1,8,0:0:0:0:
260,192,60548,1,0,0:0:0:0:
256,192,60623,1,0,0:0:0:0:
256,192,60698,1,8,0:0:0:0:
256,192,60773,1,0,0:0:0:0:
256,192,60848,1,0,0:0:0:0:
256,192,60923,1,8,0:0:0:0:
256,192,60998,1,8,0:0:0:0:
248,196,61073,1,0,0:0:0:0:
248,196,61148,1,0,0:0:0:0:
248,196,61223,1,8,0:0:0:0:
248,192,61298,1,8,0:0:0:0:
252,192,61373,1,0,0:0:0:0:
252,196,61448,1,0,0:0:0:0:
252,196,61523,1,0,0:0:0:0:
252,196,61598,1,8,0:0:0:0:
252,196,61673,1,0,0:0:0:0:
252,196,61748,1,0,0:0:0:0:
252,196,61823,1,0,0:0:0:0:
252,196,61898,1,8,0:0:0:0:
248,196,61973,1,8,0:0:0:0:
248,196,62048,1,0,0:0:0:0:
248,196,62123,1,0,0:0:0:0:
252,196,62198,1,8,0:0:0:0:
256,196,62273,1,8,0:0:0:0:
256,196,62348,1,0,0:0:0:0:
252,196,62423,1,0,0:0:0:0:
252,196,62498,5,8,0:0:0:0:
252,196,62573,1,8,0:0:0:0:
252,196,62648,1,8,0:0:0:0:
252,196,62723,1,8,0:0:0:0:
252,196,62798,1,8,0:0:0:0:
256,200,62873,1,8,0:0:0:0:
256,200,62948,1,8,0:0:0:0:
256,200,63023,1,8,0:0:0:0:
252,196,63098,1,0,0:0:0:0:
256,196,63173,1,0,0:0:0:0:
256,196,63248,1,0,0:0:0:0:
252,196,63323,1,0,0:0:0:0:
252,196,63398,1,8,0:0:0:0:
252,196,63473,1,8,0:0:0:0:
252,196,63548,1,0,0:0:0:0:
252,196,63623,1,0,0:0:0:0:
252,196,63698,1,8,0:0:0:0:
260,192,63773,5,8,0:0:0:0:
260,192,63848,1,8,0:0:0:0:
252,192,63923,1,8,0:0:0:0:
252,196,63998,1,8,0:0:0:0:
256,196,64073,1,8,0:0:0:0:
256,196,64148,1,8,0:0:0:0:
252,196,64223,1,8,0:0:0:0:
252,196,64298,1,0,0:0:0:0:
256,196,64373,1,0,0:0:0:0:
256,196,64448,1,8,0:0:0:0:
252,196,64523,1,0,0:0:0:0:
252,196,64598,1,8,0:0:0:0:
252,196,64673,1,8,0:0:0:0:
252,196,64748,1,0,0:0:0:0:
252,196,64823,1,0,0:0:0:0:
252,196,64898,1,0,0:0:0:0:
252,196,64998,1,8,0:0:0:0:
256,192,65098,1,8,0:0:0:0:
256,196,65198,1,0,0:0:0:0:
256,188,65298,1,0,0:0:0:0:
252,196,65398,1,8,0:0:0:0:
252,196,65498,1,0,0:0:0:0:
252,196,65598,1,0,0:0:0:0:
252,196,65698,1,8,0:0:0:0:
252,196,65798,1,0,0:0:0:0:
256,192,65898,1,8,0:0:0:0:
256,196,65998,1,8,0:0:0:0:
252,200,66098,1,8,0:0:0:0:
252,196,66173,1,8,0:0:0:0:
256,192,66248,1,8,0:0:0:0:
256,192,66323,1,8,0:0:0:0:
256,192,66398,1,0,0:0:0:0:
256,192,66473,1,0,0:0:0:0:
256,192,66548,1,0,0:0:0:0:
256,192,66623,1,0,0:0:0:0:
256,192,66698,1,8,0:0:0:0:
256,192,66773,1,8,0:0:0:0:
256,200,66848,1,8,0:0:0:0:
256,200,66923,1,8,0:0:0:0:
256,192,66998,1,0,0:0:0:0:
256,192,67073,1,0,0:0:0:0:
256,192,67148,1,0,0:0:0:0:
256,192,67223,1,0,0:0:0:0:
256,192,67298,1,8,0:0:0:0:
252,192,67373,1,8,0:0:0:0:
252,192,67448,1,8,0:0:0:0:
256,192,67523,1,8,0:0:0:0:
256,192,67598,1,8,0:0:0:0:
256,196,67673,1,8,0:0:0:0:
256,196,67748,1,8,0:0:0:0:
256,192,67823,1,8,0:0:0:0:
252,196,67898,1,0,0:0:0:0:
256,196,67973,1,0,0:0:0:0:
256,196,68048,1,0,0:0:0:0:
252,196,68123,1,0,0:0:0:0:
252,196,68198,1,0,0:0:0:0:
252,196,68273,1,0,0:0:0:0:
252,196,68348,1,8,0:0:0:0:
252,196,68423,1,0,0:0:0:0:
252,196,68498,1,8,0:0:0:0:
260,192,68573,5,8,0:0:0:0:
260,192,68648,1,8,0:0:0:0:
252,192,68723,1,8,0:0:0:0:
252,196,68798,1,8,0:0:0:0:
256,196,68873,1,8,0:0:0:0:
256,196,68948,1,8,0:0:0:0:
252,196,69023,1,8,0:0:0:0:
252,196,69098,1,8,0:0:0:0:
256,192,69173,1,0,0:0:0:0:
256,192,69248,1,8,0:0:0:0:
256,192,69323,1,8,0:0:0:0:
256,192,69398,1,8,0:0:0:0:
260,192,69473,1,0,0:0:0:0:
260,192,69548,1,0,0:0:0:0:
252,192,69623,1,8,0:0:0:0:
256,192,69698,1,0,0:0:0:0:
256,192,69798,1,8,0:0:0:0:
256,192,69898,1,8,0:0:0:0:
248,192,69998,1,0,0:0:0:0:
252,192,70098,1,0,0:0:0:0:
260,192,70198,1,8,0:0:0:0:
256,192,70298,1,0,0:0:0:0:
252,192,70398,1,0,0:0:0:0:
256,204,70498,1,8,0:0:0:0:
256,192,70598,1,0,0:0:0:0:
252,196,70698,1,8,0:0:0:0:
252,196,70798,1,8,0:0:0:0:
248,192,70898,5,8,0:0:0:0:
264,188,70973,1,8,0:0:0:0:
260,192,71048,1,8,0:0:0:0:
264,188,71123,1,8,0:0:0:0:
256,192,71198,1,8,0:0:0:0:
256,192,71273,1,8,0:0:0:0:
256,192,71348,1,8,0:0:0:0:
256,192,71423,1,8,0:0:0:0:
256,192,71498,1,0,0:0:0:0:
248,196,71573,1,0,0:0:0:0:
248,196,71648,1,8,0:0:0:0:
248,196,71723,1,8,0:0:0:0:
256,200,71798,1,0,0:0:0:0:
256,200,71873,1,0,0:0:0:0:
256,200,71948,1,8,0:0:0:0:
256,200,72023,1,8,0:0:0:0:
256,196,72098,1,0,0:0:0:0:
256,192,72248,1,0,0:0:0:0:
248,192,72398,1,0,0:0:0:0:
248,192,72548,1,0,0:0:0:0:
256,196,72698,1,0,0:0:0:0:
252,196,72848,1,0,0:0:0:0:
256,196,72998,1,0,0:0:0:0:
256,192,73148,1,0,0:0:0:0:
256,192,73298,1,8,0:0:0:0:
256,192,73448,1,8,0:0:0:0:
256,196,73598,1,8,0:0:0:0:
252,196,73748,1,8,0:0:0:0:
256,196,73898,1,8,0:0:0:0:
256,192,74048,1,8,0:0:0:0:
256,192,74198,1,8,0:0:0:0:
256,192,74348,1,0,0:0:0:0:
256,196,74498,1,0,0:0:0:0:
252,196,74648,1,0,0:0:0:0:
256,196,74798,1,8,0:0:0:0:
256,196,74948,1,0,0:0:0:0:
256,196,75098,1,0,0:0:0:0:
256,196,75248,1,0,0:0:0:0:
256,196,75398,1,8,0:0:0:0:
252,196,75548,1,0,0:0:0:0:
256,196,75698,1,8,0:0:0:0:
256,200,75773,1,0,0:0:0:0:
256,196,75848,1,0,0:0:0:0:
256,200,75923,1,0,0:0:0:0:
256,200,75998,1,0,0:0:0:0:
256,200,76073,1,0,0:0:0:0:
256,196,76148,1,8,0:0:0:0:
256,200,76223,1,0,0:0:0:0:
256,196,76298,1,0,0:0:0:0:
256,200,76373,1,0,0:0:0:0:
252,196,76448,1,0,0:0:0:0:
256,200,76523,1,0,0:0:0:0:
256,196,76598,1,8,0:0:0:0:
256,196,76748,1,0,0:0:0:0:
252,200,76898,1,0,0:0:0:0:
252,200,77048,1,0,0:0:0:0:
252,200,77198,1,8,0:0:0:0:
252,196,77348,1,0,0:0:0:0:
252,192,77498,1,0,0:0:0:0:
252,192,77648,1,0,0:0:0:0:
252,192,77798,1,8,0:0:0:0:
252,192,77948,1,0,0:0:0:0:
252,192,78098,1,8,0:0:0:0:
256,188,78248,1,0,0:0:0:0:
256,188,78398,1,0,0:0:0:0:
256,188,78548,1,8,0:0:0:0:
256,188,78698,1,0,0:0:0:0:
256,188,78848,1,0,0:0:0:0:
256,188,78998,1,8,0:0:0:0:
256,188,79148,1,8,0:0:0:0:
256,188,79298,1,0,0:0:0:0:
256,188,79373,1,8,0:0:0:0:
256,188,79448,1,8,0:0:0:0:
256,188,79523,1,0,0:0:0:0:
256,188,79598,1,8,0:0:0:0:
256,188,79673,1,8,0:0:0:0:
256,188,79748,1,8,0:0:0:0:
256,188,79823,1,0,0:0:0:0:
256,188,79898,1,0,0:0:0:0:
256,188,79973,1,8,0:0:0:0:
256,188,80048,1,8,0:0:0:0:
256,188,80123,1,0,0:0:0:0:
256,188,80198,1,8,0:0:0:0:
256,188,80273,1,0,0:0:0:0:
256,188,80348,1,8,0:0:0:0:
256,196,80423,1,8,0:0:0:0:
256,196,80498,1,0,0:0:0:0:
260,192,80573,1,0,0:0:0:0:
260,192,80648,1,8,0:0:0:0:
260,192,80723,1,8,0:0:0:0:
260,192,80798,1,0,0:0:0:0:
256,192,80873,1,0,0:0:0:0:
256,192,80948,1,8,0:0:0:0:
256,192,81023,1,8,0:0:0:0:
256,188,81098,1,0,0:0:0:0:
256,188,81198,1,0,0:0:0:0:
256,184,81298,1,0,0:0:0:0:
260,192,81398,1,8,0:0:0:0:
260,192,81498,1,8,0:0:0:0:
260,192,81598,1,8,0:0:0:0:
256,196,84098,5,0,0:0:0:0:
256,196,85298,1,0,0:0:0:0:
256,196,86498,1,0,0:0:0:0:
256,196,87698,1,0,0:0:0:0:
256,196,87998,1,0,0:0:0:0:
256,196,88298,1,0,0:0:0:0:
256,196,88598,1,0,0:0:0:0:
256,196,88898,1,0,0:0:0:0:
256,196,89048,1,0,0:0:0:0:
256,196,89198,1,0,0:0:0:0:
256,196,89348,1,0,0:0:0:0:
256,196,89498,1,0,0:0:0:0:
256,196,89573,1,0,0:0:0:0:
256,196,89648,1,0,0:0:0:0:
256,196,89723,1,0,0:0:0:0:
256,196,89798,1,0,0:0:0:0:
256,196,89873,1,0,0:0:0:0:
256,196,89948,1,0,0:0:0:0:
256,196,90023,1,0,0:0:0:0:
256,196,90098,1,0,0:0:0:0:
256,196,90173,1,0,0:0:0:0:
256,196,90248,1,0,0:0:0:0:
256,196,90323,1,0,0:0:0:0:
256,196,90398,1,8,0:0:0:0:
256,196,90548,1,0,0:0:0:0:
256,196,90698,1,0,0:0:0:0:
256,196,90848,1,0,0:0:0:0:
256,196,90998,1,8,0:0:0:0:
256,196,91148,1,0,0:0:0:0:
256,196,91298,1,0,0:0:0:0:
256,196,91373,1,0,0:0:0:0:
256,196,91448,1,0,0:0:0:0:
256,196,91523,1,0,0:0:0:0:
256,196,91598,1,8,0:0:0:0:
256,196,91748,1,0,0:0:0:0:
256,196,91898,1,8,0:0:0:0:
256,196,92048,1,0,0:0:0:0:
256,196,92198,1,0,0:0:0:0:
256,196,92348,1,0,0:0:0:0:
256,196,92498,1,8,0:0:0:0:
256,196,92573,1,8,0:0:0:0:
256,196,92648,1,8,0:0:0:0:
256,196,92723,1,8,0:0:0:0:
256,196,92798,1,0,0:0:0:0:
256,196,92948,1,8,0:0:0:0:
256,196,93098,1,8,0:0:0:0:
256,196,93248,1,0,0:0:0:0:
256,196,93398,1,8,0:0:0:0:
256,196,93548,1,0,0:0:0:0:
256,196,93698,1,8,0:0:0:0:
256,196,93773,1,8,0:0:0:0:
256,196,93848,1,8,0:0:0:0:
256,196,93923,1,8,0:0:0:0:
256,196,93998,1,0,0:0:0:0:
256,196,94073,1,0,0:0:0:0:
256,196,94148,1,0,0:0:0:0:
256,196,94223,1,0,0:0:0:0:
256,196,94298,1,8,0:0:0:0:
256,196,94373,1,8,0:0:0:0:
256,196,94448,1,8,0:0:0:0:
256,196,94523,1,0,0:0:0:0:
256,196,94598,1,8,0:0:0:0:
256,196,94673,1,0,0:0:0:0:
256,196,94748,1,0,0:0:0:0:
256,196,94823,1,0,0:0:0:0:
256,196,94898,1,8,0:0:0:0:
256,196,94973,1,0,0:0:0:0:
256,196,95048,1,8,0:0:0:0:
256,196,95123,1,0,0:0:0:0:
256,196,95198,1,0,0:0:0:0:
256,196,95273,1,8,0:0:0:0:
256,196,95348,1,0,0:0:0:0:
256,196,95423,1,0,0:0:0:0:
256,196,95498,1,8,0:0:0:0:
256,196,95573,1,0,0:0:0:0:
256,196,95648,1,8,0:0:0:0:
256,196,95723,1,0,0:0:0:0:
256,196,95798,1,0,0:0:0:0:
256,196,95873,1,0,0:0:0:0:
256,196,95948,1,8,0:0:0:0:
256,196,96023,1,0,0:0:0:0:
256,188,96698,1,8,0:0:0:0:
256,188,96773,1,8,0:0:0:0:
256,188,96848,1,8,0:0:0:0:
256,188,96923,1,8,0:0:0:0:
256,188,96998,1,0,0:0:0:0:
256,184,97073,1,0,0:0:0:0:
256,184,97148,1,8,0:0:0:0:
256,184,97223,1,0,0:0:0:0:
256,192,97298,5,8,0:0:0:0:
260,192,97598,1,12,0:0:0:0:
