osu file format v14

[General]
AudioFilename: audio.mp3
AudioLeadIn: 0
PreviewTime: 80162
Countdown: 0
SampleSet: Soft
StackLeniency: 0.7
Mode: 0
LetterboxInBreaks: 0
WidescreenStoryboard: 1

[Editor]
Bookmarks: 1732,14497,24710,34923,45136,50242,60455,68114,75774,80880,101306,111519,121732,137051,147104
DistanceSpacing: 0.8
BeatDivisor: 4
GridSize: 32
TimelineZoom: 2.2

[Metadata]
Title:ouroboros -twin stroke of the end-
TitleUnicode:ouroboros -twin stroke of the end-
Artist:Cranky vs. MASAKI
ArtistUnicode:Cranky vs. MASAKI
Creator:celerih
Version:Normal
Source:グルーヴコースター 3EX ドリームパーティー
Tags:Muya Flask Niva hhjkl GROOVE COASTER 3EX DREAM PARTY クロニカ CHUNITHM AMAZON SOUND VOLTEX IV HEAVENLY HAVEN チュウニズム アマゾン ZUNTATA 森正樹 Masaki Mori Hiroshi Watanabe 渡辺洋 天下一音ゲ祭 全国一斉認定大会 2017 Electronic Instrumental Rhythm Game sdvx 4
BeatmapID:2198645
BeatmapSetID:1052054

[Difficulty]
HPDrainRate:2.5
CircleSize:3
OverallDifficulty:4.5
ApproachRate:6
SliderMultiplier:1.3
SliderTickRate:1

[Events]
//Background and Video events
0,0,"ouroboros bg.jpg",0,0
//Break Periods
2,45336,46639
2,75774,79192
//Storyboard Layer 0 (Background)
//Storyboard Layer 1 (Fail)
//Storyboard Layer 2 (Pass)
//Storyboard Layer 3 (Foreground)
//Storyboard Layer 4 (Overlay)
//Storyboard Sound Samples

[TimingPoints]
1732,319.148936170213,4,2,2,60,1,0
1732,-100,4,2,2,60,0,0
12263,-100,4,2,1,80,0,0
34285,-100,4,2,1,65,0,0
34603,-100,4,2,1,55,0,0
34604,-100,4,2,1,55,0,0
34923,-100,4,2,3,75,0,0
45136,-90.9090909090909,4,2,1,70,0,0
50242,-90.9090909090909,4,2,1,80,0,0
73540,-100,4,2,1,55,0,0
80242,-100,4,2,1,80,0,0
80880,-100,4,2,1,80,0,1
100987,-100,4,2,1,80,0,0
121732,319.148936170213,3,2,1,95,1,1
121732,-100,4,2,1,95,0,1
137051,319.148936170213,4,2,2,60,1,1
137051,-100,4,2,2,60,0,0

[Colours]
Combo1 : 242,57,57
Combo2 : 58,136,177
Combo3 : 230,117,117
Combo4 : 63,97,233

[HitObjects]
3,124,1732,6,0,B|94:88|94:88|159:173,1,195,4|0,0:0|0:0,0:0:0:0:
192,131,2370,1,8,0:0:0:0:
391,69,3008,2,0,B|414:91|414:91|408:192,1,130,2|2,0:0|0:0,0:0:0:0:
305,207,3646,2,0,B|282:229|282:229|288:330,1,130,2|2,0:0|0:0,0:0:0:0:
242,352,4125,1,2,0:0:0:0:
191,366,4285,6,0,L|50:358,1,130,0|2,0:0|0:0,0:0:0:0:
20,263,4923,2,0,B|68:216|68:216|44:135,1,130,8|2,0:0|0:0,0:0:0:0:
27,54,5561,1,8,0:0:0:0:
122,14,5880,1,2,0:0:0:0:
280,177,6519,6,0,B|351:192|351:192|402:139,1,130,0|4,0:0|0:0,0:0:0:0:
364,50,7157,1,2,0:0:0:0:
263,22,7476,2,0,B|241:47|241:47|59:26,1,195,8|2,0:0|0:0,0:0:0:0:
44,66,8114,1,2,0:0:0:0:
103,151,8434,1,8,0:0:0:0:
103,151,8593,2,0,L|120:288,1,130,2|2,0:0|0:0,0:0:0:0:
255,355,9391,6,0,L|528:313,1,260,2|2,0:0|0:0,0:0:0:0:
469,220,10349,1,2,0:0:0:0:
371,184,10668,1,10,0:0:0:0:
284,242,10987,1,2,0:0:0:0:
195,187,11306,1,2,0:0:0:0:
219,86,11625,1,8,0:0:0:0:
219,86,11785,1,2,0:0:0:0:
361,23,12263,6,0,L|439:34,1,65,12|0,0:0|0:0,0:0:0:0:
462,68,12583,2,0,L|452:151,1,65,8|0,0:0|0:0,0:0:0:0:
405,151,12902,2,8,L|435:218,1,65,10|8,0:0|0:0,0:0:0:0:
419,261,13221,6,0,B|339:280|339:280|162:171|162:171|68:211,1,390,8|8,0:0|0:0,0:0:0:0:
74,313,14497,6,0,P|140:320|209:339,1,130,12|10,0:0|0:0,0:0:0:0:
300,303,15136,2,0,B|338:336|338:336|402:324,2,97.5,8|2|0,0:0|0:0|0:0,0:0:0:0:
319,254,15774,1,8,0:0:0:0:
412,129,16253,2,0,B|399:32|399:32|436:-8,1,130,2|2,0:1|0:0,0:0:0:0:
470,23,16732,1,8,0:0:0:0:
506,120,17051,6,0,L|490:267,1,130,12|10,0:0|0:0,0:0:0:0:
400,299,17689,2,0,B|432:337|432:337|420:403,2,97.5,8|2|0,0:0|0:0|0:0,0:0:0:0:
366,259,18327,1,8,0:0:0:0:
206,328,18806,2,0,L|53:309,1,130,2|2,0:1|0:0,0:0:0:0:
40,348,19285,1,8,0:0:0:0:
14,247,19604,6,0,B|33:222|33:222|16:45,1,195,12|2,0:0|0:0,0:0:0:0:
69,65,20242,2,0,L|184:76,1,97.5,8|2,0:0|0:0,0:0:0:0:
224,22,20721,1,0,0:0:0:0:
224,22,20880,1,8,0:0:0:0:
341,124,21359,1,2,0:1:0:0:
487,70,21838,1,8,0:0:0:0:
490,173,22157,6,0,B|470:204|470:204|300:197,1,195,12|0,0:0|0:0,0:0:0:0:
276,243,22795,2,0,L|297:351,1,97.5,8|2,0:0|0:0,0:0:0:0:
223,370,23274,1,0,0:0:0:0:
223,370,23433,1,8,0:0:0:0:
153,230,23912,1,2,0:1:0:0:
18,309,24391,2,0,L|89:338,1,65,12|8,0:0|0:0,0:0:0:0:
121,362,24710,6,0,L|261:342,1,130,12|10,0:0|0:0,0:0:0:0:
330,278,25349,2,0,B|368:305|368:305|430:295,2,97.5,8|2|0,0:0|0:0|0:0,0:0:0:0:
317,227,25987,1,8,0:0:0:0:
175,161,26466,2,0,B|38:176,1,130,2|2,0:1|0:0,0:0:0:0:
14,133,26945,1,8,0:0:0:0:
50,35,27264,6,0,L|198:47,1,130,12|10,0:0|0:0,0:0:0:0:
280,72,27902,2,0,B|305:34|305:34|380:28,2,97.5,8|2|0,0:0|0:0|0:0,0:0:0:0:
262,121,28540,1,8,0:0:0:0:
358,243,29019,2,0,L|511:224,1,130,2|2,0:1|0:0,0:0:0:0:
506,178,29498,1,8,0:0:0:0:
423,114,29817,6,0,L|287:152,1,130,10|8,0:1|0:0,0:0:0:0:
274,195,30295,1,2,0:0:0:0:
221,284,30614,2,0,B|238:357,2,65,2|8|2,0:0|0:0|0:0,0:0:0:0:
171,268,31093,2,0,L|155:125,1,130,10|10,0:1|0:0,0:0:0:0:
119,102,31572,1,2,0:0:0:0:
54,183,31891,6,0,L|72:260,1,65,2|8,0:0|0:0,0:0:0:0:
48,294,32210,1,0,0:0:0:0:
48,294,32370,2,0,L|191:315,1,130,12|10,0:0|0:1,0:0:0:0:
266,259,33008,2,0,L|353:370,1,130,10|10,0:1|0:1,0:0:0:0:
449,354,33646,6,0,B|482:230|482:230|403:126|403:126|448:41|448:41|465:98,1,390,10|8,0:1|0:0,0:0:0:0:
371,133,34923,6,0,P|268:155|297:39,1,260,8|6,0:0|0:0,0:0:0:0:
97,127,36200,1,4,0:0:0:0:
97,127,36359,2,0,B|87:260|87:260|146:291,1,195,8|4,0:0|0:0,0:0:0:0:
191,304,36997,1,8,0:0:0:0:
269,235,37317,1,8,0:0:0:0:
269,235,37476,6,0,P|307:127|180:130,1,260,8|8,0:0|0:0,0:0:0:0:
100,67,38434,1,2,0:0:0:0:
188,12,38753,2,0,B|246:55|246:55|363:39|363:39|439:83,1,260,8|8,0:0|0:0,0:0:0:0:
509,132,39710,1,8,0:0:0:0:
430,199,40029,6,0,P|327:177|356:293,1,260,8|4,0:0|0:0,0:0:0:0:
156,375,41306,1,12,0:0:0:0:
156,375,41465,2,0,B|160:229|160:229|105:201,1,195,8|4,0:0|0:0,0:0:0:0:
68,186,42103,1,8,0:0:0:0:
48,83,42423,1,8,0:0:0:0:
48,83,42582,6,0,P|152:28|145:137,1,260,0|8,0:0|0:0,0:0:0:0:
232,200,43540,1,2,0:0:0:0:
326,156,43859,2,0,B|387:130|387:130|410:281|410:281|350:304,1,260,8|8,0:0|0:0,0:0:0:0:
286,355,44816,1,8,0:0:0:0:
222,283,45136,1,4,0:0:0:0:
366,267,47689,5,8,0:0:0:0:
155,357,48327,1,8,0:0:0:0:
366,267,48966,6,0,P|451:125|286:178,1,429.000013092041,8|12,0:0|0:1,0:0:0:0:
174,191,50242,5,2,0:1:0:0:
2,204,50721,1,2,0:1:0:0:
10,375,51200,1,2,0:1:0:0:
181,373,51678,1,2,0:1:0:0:
187,201,52157,2,0,L|192:121,1,71.5000021820069,10|2,0:0|0:0,0:0:0:0:
247,118,52476,2,0,L|327:140,1,71.5000021820069,10|2,0:0|0:0,0:0:0:0:
367,111,52795,5,10,0:1:0:0:
431,205,53114,2,0,P|395:252|317:226,1,143.000004364014,8|8,0:0|0:0,0:0:0:0:
303,287,53593,2,0,P|229:289|202:354,1,143.000004364014
148,367,54072,6,0,B|48:331|48:331|23:214,1,214.500006546021,8|0,0:0|0:0,0:0:0:0:
62,181,54710,1,8,0:1:0:0:
47,67,55029,1,10,0:0:0:0:
149,14,55349,5,8,0:0:0:0:
224,99,55668,1,8,0:0:0:0:
321,39,55987,1,8,0:0:0:0:
392,127,56306,1,8,0:0:0:0:
335,226,56625,5,8,0:0:0:0:
226,191,56944,1,8,0:0:0:0:
168,289,57263,1,8,0:0:0:0:
68,231,57583,1,8,0:0:0:0:
77,344,57902,6,0,P|149:344|230:358,1,143.000004364014,10|10,0:0|0:0,0:0:0:0:
261,316,58380,1,8,0:0:0:0:
407,226,58859,2,0,B|423:198|423:198|411:136,1,71.5000021820069,10|0,0:1|0:0,0:0:0:0:
371,122,59178,6,0,L|226:103,2,143.000004364014,8|8|8,0:0|0:0|0:0,0:0:0:0:
299,211,60136,2,0,L|272:298,1,71.5000021820069,10|2,0:0|0:0,0:0:0:0:
228,308,60455,6,0,B|187:272|187:272|107:282,1,107.25000327301,2|2,0:1|0:0,0:0:0:0:
86,207,60934,2,0,B|127:171|127:171|207:181,1,107.25000327301,2|2,0:0|0:0,0:0:0:0:
231,109,61412,2,0,L|225:36,1,71.5000021820069,8|0,0:0|0:0,0:0:0:0:
282,40,61732,6,0,B|327:70|327:70|400:60,1,107.25000327301,2|2,0:1|0:0,0:0:0:0:
387,148,62210,2,0,B|342:178|342:178|269:168,1,107.25000327301,2|2,0:0|0:0,0:0:0:0:
224,227,62689,1,2,0:1:0:0:
294,316,63008,6,0,P|361:301|395:362,1,143.000004364014,8|8,0:0|0:0,0:0:0:0:
455,259,63646,2,0,P|442:204|517:158,1,143.000004364014,8|8,0:0|0:0,0:0:0:0:
437,62,64285,6,0,B|329:74|329:74|311:43,1,143.000004364014,8|8,0:0|0:0,0:0:0:0:
258,24,64763,1,2,0:0:0:0:
258,24,64923,2,0,L|150:17,2,107.25000327301,10|2|0,0:0|0:0|0:0,0:0:0:0:
245,79,65561,6,0,B|224:126|224:126|255:186,1,107.25000327301,10|2,0:1|0:0,0:0:0:0:
305,240,66040,2,0,B|345:204|345:204|351:151,1,107.25000327301,2|2,0:0|0:0,0:0:0:0:
413,92,66519,2,0,L|489:89,1,71.5000021820069,8|0,0:0|0:0,0:0:0:0:
509,140,66838,6,0,L|481:264,1,107.25000327301,10|0,0:1|0:0,0:0:0:0:
450,323,67317,2,0,L|328:350,1,107.25000327301
273,298,67795,1,10,0:1:0:0:
163,330,68114,6,0,P|123:278|45:298,2,143.000004364014,8|8|8,0:0|0:0|0:0,0:0:0:0:
217,229,69072,2,0,P|226:194|225:133,1,71.5000021820069,10|2,0:0|0:0,0:0:0:0:
197,110,69391,1,8,0:0:0:0:
277,29,69710,2,0,P|316:42|351:44,1,71.5000021820069,8|2,0:0|0:0,0:0:0:0:
402,33,70029,1,10,0:0:0:0:
445,139,70349,2,0,P|487:140|527:161,1,71.5000021820069,8|8,0:0|0:0,0:0:0:0:
510,208,70668,6,0,P|490:269|413:272,1,143.000004364014,8|8,0:0|0:0,0:0:0:0:
337,196,71306,2,0,P|317:135|240:132,1,143.000004364014,8|8,0:0|0:0,0:0:0:0:
126,152,71944,6,0,P|138:186|150:240,1,71.5000021820069,8|8,0:0|0:0,0:0:0:0:
193,253,72263,2,0,P|224:252|283:261,1,71.5000021820069,8|8,0:0|0:0,0:0:0:0:
317,235,72583,2,0,P|350:256|387:298,1,71.5000021820069,8|8,0:0|0:0,0:0:0:0:
429,269,72902,1,8,0:0:0:0:
429,269,73061,1,8,0:0:0:0:
429,269,73221,5,8,0:0:0:0:
73,181,80242,6,0,B|59:199|59:199|65:284,2,97.5,2|0|0,0:0|0:0|0:0,0:0:0:0:
97,134,80880,6,2,L|238:143,1,130,8|8,0:1|0:0,0:1:0:0:
252,97,81359,1,2,0:0:0:0:
252,97,81519,2,0,B|292:69|292:69|361:92,1,97.5,8|0,0:0|0:0,0:0:0:0:
410,55,81997,1,2,0:0:0:0:
410,55,82157,6,0,P|475:63|487:138,1,130,8|8,0:0|0:0,0:0:0:0:
432,201,82795,2,0,P|370:195|347:138,1,130,10|8,0:0|0:0,0:0:0:0:
273,211,83434,6,2,L|284:358,1,130,12|8,0:0|0:0,0:1:0:0:
240,370,83912,1,2,0:0:0:0:
240,370,84072,2,0,B|199:348|199:348|143:360,1,97.5,8|0,0:0|0:0,0:0:0:0:
97,299,84551,1,2,0:0:0:0:
97,299,84710,6,0,P|143:252|126:180,1,130,8|8,0:0|0:0,0:0:0:0:
40,150,85349,2,0,P|-6:197|11:269,1,130,10|8,0:0|0:0,0:0:0:0:
104,308,85987,5,14,0:0:0:0:
104,308,86146,1,2,0:0:0:0:
104,308,86306,2,0,L|243:298,1,130,10|8,0:0|0:0,0:0:0:0:
317,237,86944,2,0,L|326:152,1,65,8|0,0:0|0:0,0:0:0:0:
302,124,87263,6,0,L|446:99,2,130,8|8|8,0:0|0:0|0:0,0:0:0:0:
265,86,88061,1,2,0:0:0:0:
265,86,88221,2,0,L|192:70,1,65,10|0,0:0|0:0,0:0:0:0:
170,29,88540,1,12,0:0:0:0:
53,132,89019,5,2,0:0:0:0:
53,132,89178,2,0,B|28:173|28:173|45:243,2,97.5,10|2|2,0:0|0:0|0:0,0:0:0:0:
103,144,89817,2,0,L|205:131,1,97.5,8|2,0:0|0:0,0:0:0:0:
264,186,90295,1,2,0:0:0:0:
264,186,90455,2,0,L|367:197,1,97.5,8|2,0:0|0:0,0:0:0:0:
427,155,90934,1,2,0:0:0:0:
427,155,91093,6,2,L|447:308,1,130,12|8,0:0|0:0,0:1:0:0:
409,323,91572,1,2,0:0:0:0:
409,323,91732,2,0,B|367:297|367:297|302:307,1,97.5,8|0,0:0|0:0,0:0:0:0:
253,262,92210,1,2,0:0:0:0:
253,262,92370,6,0,P|232:199|275:137,1,130,8|8,0:0|0:0,0:0:0:0:
364,155,93008,2,0,P|385:218|342:280,1,130,10|10,0:0|0:0,0:0:0:0:
261,313,93646,6,2,L|109:299,1,130,12|0,0:0|0:0,0:1:0:0:
102,257,94125,1,2,0:0:0:0:
102,257,94285,2,0,B|129:219|129:219|114:147,1,97.5,8|2,0:0|0:0,0:0:0:0:
82,100,94763,1,2,0:0:0:0:
82,100,94923,6,0,P|130:147|208:133,1,130,8|8,0:0|0:0,0:0:0:0:
226,47,95561,2,0,P|178:0|100:14,1,130,10|8,0:0|0:0,0:0:0:0:
64,91,96200,5,10,0:1:0:0:
126,173,96519,1,10,0:0:0:0:
229,176,96838,1,10,0:1:0:0:
291,93,97157,2,0,P|287:61|273:20,1,65,10|0,0:1|0:0,0:0:0:0:
326,11,97476,5,10,0:1:0:0:
419,55,97795,1,10,0:1:0:0:
406,158,98114,1,10,0:1:0:0:
302,171,98434,1,10,0:1:0:0:
240,87,98753,6,0,B|197:58|197:58|134:70,1,97.5,12|8,0:0|0:0,0:0:0:0:
91,115,99232,1,8,0:0:0:0:
91,115,99391,2,0,B|101:167|101:167|59:222,1,97.5,12|8,0:0|0:0,0:0:0:0:
25,263,99870,1,8,0:0:0:0:
25,263,100029,6,0,B|138:275|138:275|256:163|256:163|385:195,1,390,8|12,0:0|0:1,0:0:0:0:
435,126,101306,6,0,P|491:131|534:193,1,130,8|8,0:0|0:0,0:0:0:0:
507,287,101944,1,8,0:0:0:0:
373,368,102423,1,2,0:0:0:0:
373,368,102583,2,0,B|348:342|348:342|239:345,1,130,10|10,0:1|0:0,0:0:0:0:
184,267,103221,2,0,L|75:261,1,97.5,10|2,0:0|0:0,0:0:0:0:
31,206,103700,1,0,0:0:0:0:
31,206,103859,6,0,P|64:155|44:75,1,130,12|8,0:0|0:0,0:0:0:0:
133,21,104497,1,10,0:1:0:0:
271,93,104976,1,2,0:0:0:0:
271,93,105136,2,0,B|236:125|236:125|242:231,1,130,8|10,0:0|0:1,0:0:0:0:
278,243,105614,1,2,0:0:0:0:
278,243,105774,2,0,P|311:229|356:220,1,65,10|0,0:0|0:0,0:0:0:0:
373,182,106093,1,8,0:0:0:0:
463,233,106412,5,12,0:0:0:0:
483,335,106732,2,0,P|374:318|287:384,2,195,8|0|8,0:0|0:0|0:0,0:0:0:0:
463,233,108008,1,8,0:0:0:0:
367,191,108327,2,0,L|292:200,1,65,8|2,0:0|0:0,0:0:0:0:
257,172,108646,2,0,L|270:101,1,65,10|2,0:0|0:0,0:0:0:0:
237,66,108966,5,8,0:0:0:0:
97,220,109604,2,0,B|85:262|85:262|110:308|110:308|110:360,1,130,8|10,0:0|0:0,0:0:0:0:
213,330,110242,2,0,L|282:325,1,65,8|8,0:0|0:0,0:0:0:0:
316,290,110561,1,12,0:0:0:0:
316,290,110721,1,12,0:0:0:0:
395,372,111040,2,0,L|533:357,1,130,6|0,0:0|0:0,0:0:0:0:
507,308,111519,6,0,L|513:231,2,65,8|8|8,0:0|0:0|0:0,0:0:0:0:
427,240,112157,2,0,B|380:246|380:246|333:208,1,97.5,2|2,0:1|0:1,0:0:0:0:
293,152,112636,1,8,0:0:0:0:
293,152,112795,6,0,L|214:159,2,65,8|8|8,0:0|0:0|0:0,0:0:0:0:
260,52,113434,2,0,B|212:41|212:41|180:78,1,97.5,2|2,0:1|0:1,0:0:0:0:
125,132,113912,1,8,0:0:0:0:
125,132,114072,6,0,L|118:221,1,65,8|8,0:0|0:0,0:0:0:0:
85,236,114391,1,8,0:0:0:0:
172,312,114710,2,0,B|208:281|208:281|281:297,1,97.5,2|2,0:1|0:1,0:0:0:0:
319,245,115189,1,8,0:0:0:0:
319,245,115349,6,0,L|326:172,1,65,8|8,0:0|0:0,0:0:0:0:
367,149,115668,1,8,0:0:0:0:
440,222,115987,2,0,B|492:228|492:228|531:194,2,97.5,2|2|8,0:1|0:1|0:0,0:0:0:0:
406,261,116625,5,0,0:0:0:0:
320,320,116944,2,0,L|205:314,1,97.5,12|2,0:0|0:0,0:0:0:0:
181,248,117423,2,0,L|66:242,1,97.5,2|2,0:0|0:0,0:0:0:0:
67,166,117902,2,0,L|182:160,1,97.5,2|2,0:0|0:0,0:0:0:0:
206,94,118381,2,0,L|321:88,1,97.5,2|2,0:0|0:0,0:0:0:0:
351,27,118859,1,10,0:0:0:0:
351,27,119019,1,10,0:0:0:0:
351,27,119178,5,8,0:0:0:0:
279,165,119657,1,8,0:0:0:0:
420,231,120136,1,8,0:0:0:0:
360,375,120614,1,8,0:0:0:0:
200,299,121093,2,0,L|120:306,1,65,10|2,0:0|0:0,0:0:0:0:
98,267,121412,1,12,0:0:0:0:
44,177,121732,6,0,B|21:48|21:48|94:74,1,195,10|8,0:0|0:0,0:0:0:0:
129,88,122370,1,2,0:1:0:0:
228,80,122689,2,0,B|204:211|204:211|269:175,1,195,10|8,0:0|0:0,0:0:0:0:
306,161,123327,1,2,0:1:0:0:
407,140,123646,6,0,B|437:269|437:269|382:333,1,195,10|8,0:0|0:0,0:0:0:0:
358,352,124285,1,2,0:0:0:0:
260,315,124604,2,0,B|222:287|222:287|155:297,1,97.5,8|2,0:0|0:0,0:0:0:0:
97,317,125083,1,2,0:0:0:0:
97,317,125242,1,8,0:0:0:0:
25,241,125561,6,0,B|2:115|2:115|29:43,1,195,8|8,0:0|0:0,0:0:0:0:
62,15,126199,1,2,0:1:0:0:
157,56,126518,2,0,B|287:49|287:49|247:106,1,195,2|8,0:0|0:0,0:0:0:0:
224,147,127156,1,2,0:1:0:0:
299,218,127476,6,0,B|350:228|350:228|398:194,1,97.5,8|2,0:0|0:0,0:0:0:0:
415,128,127955,1,8,0:0:0:0:
415,128,128114,1,2,0:0:0:0:
351,45,128434,2,0,B|300:35|300:35|252:69,1,97.5,8|2,0:0|0:0,0:0:0:0:
235,135,128912,1,8,0:0:0:0:
235,135,129073,1,8,0:0:0:0:
269,224,129391,6,0,B|258:354|258:354|189:325,1,195,8|8,0:0|0:0,0:0:0:0:
150,309,130029,1,2,0:1:0:0:
76,235,130348,2,0,B|52:104|52:104|127:125,1,195,8|8,0:0|0:0,0:0:0:0:
161,135,130986,1,2,0:1:0:0:
255,91,131306,6,0,B|293:118|293:118|360:104,1,97.5,8|2,0:0|0:0,0:0:0:0:
398,52,131785,1,8,0:0:0:0:
398,52,131944,1,2,0:0:0:0:
496,108,132263,2,0,B|522:236|522:236|485:304,1,195,8|8,0:0|0:0,0:0:0:0:
464,337,132902,1,8,0:0:0:0:
382,272,133221,6,0,B|340:245|340:245|273:257,1,97.5,8|2,0:0|0:0,0:0:0:0:
216,280,133700,1,8,0:0:0:0:
216,280,133859,1,2,0:1:0:0:
131,218,134178,2,0,L|118:97,1,97.5,8|2,0:0|0:0,0:0:0:0:
161,54,134657,1,10,0:0:0:0:
161,54,134817,1,2,0:1:0:0:
239,122,135136,2,0,B|292:128|292:128|360:95,1,97.5,8|2,0:0|0:0,0:0:0:0:
412,148,135614,1,10,0:0:0:0:
412,148,135774,1,2,0:1:0:0:
375,245,136093,6,0,L|285:235,1,65,10|10,0:0|0:0,0:0:0:0:
279,279,136412,2,0,L|189:269,1,65,10|10,0:0|0:0,0:0:0:0:
179,311,136732,2,0,L|89:301,1,65,10|10,0:0|0:0,0:0:0:0:
75,338,137051,5,4,0:0:0:0:
