osu file format v14

[General]
AudioFilename: audio.mp3
AudioLeadIn: 0
PreviewTime: 80162
Countdown: 0
SampleSet: Soft
StackLeniency: 0.7
Mode: 0
LetterboxInBreaks: 0
WidescreenStoryboard: 1

[Editor]
Bookmarks: 1732,14497,24710,34923,45136,50242,60455,68114,75774,80880,101306,111519,121732,137051,147104
DistanceSpacing: 1.1
BeatDivisor: 4
GridSize: 4
TimelineZoom: 4.399998

[Metadata]
Title:ouroboros -twin stroke of the end-
TitleUnicode:ouroboros -twin stroke of the end-
Artist:Cranky vs. MASAKI
ArtistUnicode:Cranky vs. MASAKI
Creator:celerih
Version:Flask's Expert
Source:グルーヴコースター 3EX ドリームパーティー
Tags:Muya Flask Niva hhjkl GROOVE COASTER 3EX DREAM PARTY クロニカ CHUNITHM AMAZON SOUND VOLTEX IV HEAVENLY HAVEN チュウニズム アマゾン ZUNTATA 森正樹 Masaki Mori Hiroshi Watanabe 渡辺洋 天下一音ゲ祭 全国一斉認定大会 2017 Electronic Instrumental Rhythm Game sdvx 4
BeatmapID:2226504
BeatmapSetID:1052054

[Difficulty]
HPDrainRate:4
CircleSize:4
OverallDifficulty:8.7
ApproachRate:9.5
SliderMultiplier:1.9
SliderTickRate:1

[Events]
//Background and Video events
0,0,"ouroboros bg.jpg",0,0
//Break Periods
//Storyboard Layer 0 (Background)
//Storyboard Layer 1 (Fail)
//Storyboard Layer 2 (Pass)
//Storyboard Layer 3 (Foreground)
//Storyboard Layer 4 (Overlay)
//Storyboard Sound Samples

[TimingPoints]
1732,319.148936170213,4,2,2,60,1,0
1732,-133.333333333333,4,2,2,60,0,0
1891,-133.333333333333,4,2,2,70,0,0
2050,-133.333333333333,4,2,2,60,0,0
3486,-133.333333333333,4,2,2,70,0,0
3646,-133.333333333333,4,2,2,60,0,0
6200,-133.333333333333,4,2,2,70,0,0
6519,-133.333333333333,4,2,2,60,0,0
6678,-133.333333333333,4,2,2,70,0,0
6838,-133.333333333333,4,2,2,60,0,0
6997,-133.333333333333,4,2,2,70,0,0
7157,-133.333333333333,4,2,2,60,0,0
8752,-133.333333333333,4,2,2,70,0,0
8912,-133.333333333333,4,2,2,60,0,0
12263,-55.5555555555556,4,2,1,80,0,0
12503,-66.6666666666667,4,2,1,80,0,0
12982,-66.6666666666667,4,2,1,70,0,0
13061,-66.6666666666667,4,2,1,80,0,0
14178,-55.5555555555556,4,2,1,80,0,0
14497,-76.9230769230769,4,2,1,80,0,0
15136,-66.6666666666667,4,2,1,80,0,0
15455,-76.9230769230769,4,2,1,80,0,0
15693,-76.9230769230769,4,2,1,70,0,0
15774,-76.9230769230769,4,2,1,80,0,0
16253,-62.5,4,2,1,80,0,0
16732,-55.5555555555556,4,2,1,80,0,0
17051,-76.9230769230769,4,2,1,80,0,0
17689,-66.6666666666667,4,2,1,80,0,0
17928,-76.9230769230769,4,2,1,80,0,0
18247,-76.9230769230769,4,2,1,70,0,0
18327,-76.9230769230769,4,2,1,80,0,0
18806,-62.5,4,2,1,80,0,0
19285,-55.5555555555556,4,2,1,80,0,0
19604,-76.9230769230769,4,2,1,80,0,0
20242,-62.5,4,2,1,80,0,0
20880,-76.9230769230769,4,2,1,80,0,0
21359,-62.5,4,2,1,80,0,0
21838,-55.5555555555556,4,2,1,80,0,0
22157,-76.9230769230769,4,2,1,80,0,0
22795,-62.5,4,2,1,80,0,0
23035,-76.9230769230769,4,2,1,80,0,0
23912,-62.5,4,2,1,80,0,0
24391,-55.5555555555556,4,2,1,80,0,0
24710,-76.9230769230769,4,2,1,80,0,0
25349,-66.6666666666667,4,2,1,80,0,0
25668,-76.9230769230769,4,2,1,80,0,0
26466,-62.5,4,2,1,80,0,0
26944,-55.5555555555556,4,2,1,80,0,0
27184,-76.9230769230769,4,2,1,80,0,0
27902,-62.5,4,2,1,80,0,0
28540,-76.9230769230769,4,2,1,80,0,0
29019,-62.5,4,2,1,80,0,0
29817,-76.9230769230769,4,2,1,80,0,0
29976,-76.9230769230769,4,2,1,70,0,0
30056,-76.9230769230769,4,2,1,80,0,0
30614,-66.6666666666667,4,2,1,80,0,0
31732,-66.6666666666667,4,2,1,70,0,0
31811,-66.6666666666667,4,2,1,80,0,0
31891,-58.8235294117647,4,2,1,80,0,0
34285,-71.4285714285714,4,2,1,65,0,0
34604,-71.4285714285714,4,2,1,55,0,0
34923,-71.4285714285714,4,2,3,75,0,0
35083,-100,4,2,3,75,0,0
35561,-62.5,4,2,3,75,0,0
36359,-100,4,2,3,75,0,0
36997,-76.9230769230769,4,2,3,75,0,0
37636,-100,4,2,3,75,0,0
38114,-62.5,4,2,3,75,0,0
39072,-62.5,4,2,3,75,0,0
40189,-100,4,2,3,75,0,0
40668,-55.5555555555556,4,2,3,75,0,0
41466,-100,4,2,3,75,0,0
42104,-62.5,4,2,3,75,0,0
42742,-100,4,2,3,75,0,0
43221,-62.5,4,2,3,75,0,0
45136,-100,4,2,1,70,0,0
47689,-100,4,2,1,70,0,0
48487,-76.9230769230769,4,2,1,70,0,0
49923,-55.5555555555556,4,2,1,70,0,0
50242,-83.3333333333333,4,2,1,80,0,0
50561,-83.3333333333333,4,2,1,70,0,0
50721,-83.3333333333333,4,2,1,80,0,0
51040,-83.3333333333333,4,2,1,70,0,0
51199,-83.3333333333333,4,2,1,80,0,0
51518,-83.3333333333333,4,2,1,70,0,0
51678,-83.3333333333333,4,2,1,80,0,0
51997,-83.3333333333333,4,2,1,70,0,0
52157,-83.3333333333333,4,2,1,80,0,0
52994,-83.3333333333333,4,2,1,70,0,0
53114,-83.3333333333333,4,2,1,80,0,0
53514,-83.3333333333333,4,2,1,70,0,0
53593,-83.3333333333333,4,2,1,80,0,0
55774,-100,4,2,1,80,0,0
56093,-125,4,2,1,80,0,0
56306,-166.666666666667,4,2,1,80,0,0
58221,-50,4,2,1,80,0,0
58380,-100,4,2,1,80,0,0
58539,-100,4,2,1,70,0,0
58620,-100,4,2,1,80,0,0
58779,-100,4,2,1,70,0,0
58859,-50,4,2,1,80,0,0
59178,-83.3333333333333,4,2,1,80,0,0
60455,-66.6666666666667,4,2,1,80,0,0
60614,-66.6666666666667,4,2,1,70,0,0
60694,-66.6666666666667,4,2,1,80,0,0
61093,-66.6666666666667,4,2,1,70,0,0
61173,-66.6666666666667,4,2,1,80,0,0
61652,-66.6666666666667,4,2,1,70,0,0
61732,-66.6666666666667,4,2,1,80,0,0
61891,-66.6666666666667,4,2,1,70,0,0
61971,-66.6666666666667,4,2,1,80,0,0
62369,-66.6666666666667,4,2,1,70,0,0
62450,-66.6666666666667,4,2,1,80,0,0
62689,-58.8235294117647,4,2,1,80,0,0
64285,-71.4285714285714,4,2,1,80,0,0
64444,-71.4285714285714,4,2,1,70,0,0
64524,-71.4285714285714,4,2,1,80,0,0
64683,-71.4285714285714,4,2,1,70,0,0
64763,-71.4285714285714,4,2,1,80,0,0
64923,-58.8235294117647,4,2,1,80,0,0
65561,-66.6666666666667,4,2,1,80,0,0
65720,-66.6666666666667,4,2,1,70,0,0
65801,-66.6666666666667,4,2,1,80,0,0
66199,-66.6666666666667,4,2,1,70,0,0
66279,-66.6666666666667,4,2,1,80,0,0
66758,-66.6666666666667,4,2,1,70,0,0
66838,-66.6666666666667,4,2,1,80,0,0
66997,-66.6666666666667,4,2,1,70,0,0
67077,-66.6666666666667,4,2,1,80,0,0
67476,-66.6666666666667,4,2,1,70,0,0
67556,-66.6666666666667,4,2,1,80,0,0
67795,-58.8235294117647,4,2,1,80,0,0
69790,-58.8235294117647,4,2,1,70,0,0
69870,-58.8235294117647,4,2,1,80,0,0
70668,-133.333333333333,4,2,1,80,0,0
70747,-133.333333333333,4,2,1,70,0,0
70827,-133.333333333333,4,2,1,80,0,0
70906,-133.333333333333,4,2,1,70,0,0
70987,-133.333333333333,4,2,1,80,0,0
71066,-133.333333333333,4,2,1,70,0,0
71146,-133.333333333333,4,2,1,80,0,0
71225,-133.333333333333,4,2,1,70,0,0
71306,-133.333333333333,4,2,1,80,0,0
71385,-133.333333333333,4,2,1,70,0,0
71465,-133.333333333333,4,2,1,80,0,0
71544,-133.333333333333,4,2,1,70,0,0
71625,-133.333333333333,4,2,1,80,0,0
71704,-133.333333333333,4,2,1,70,0,0
71784,-133.333333333333,4,2,1,80,0,0
71863,-133.333333333333,4,2,1,70,0,0
71944,-100,4,2,1,80,0,0
72023,-100,4,2,1,70,0,0
72104,-100,4,2,1,80,0,0
72183,-100,4,2,1,70,0,0
72263,-80,4,2,1,80,0,0
72342,-80,4,2,1,70,0,0
72423,-80,4,2,1,80,0,0
72502,-80,4,2,1,70,0,0
72583,-66.6666666666667,4,2,1,80,0,0
72662,-66.6666666666667,4,2,1,70,0,0
72742,-66.6666666666667,4,2,1,80,0,0
72821,-66.6666666666667,4,2,1,70,0,0
72902,-66.6666666666667,4,2,1,80,0,0
73540,-166.666666666667,4,2,1,55,0,0
75774,-166.666666666667,4,2,1,55,0,0
78407,-166.666666666667,4,2,1,70,0,0
80242,-100,4,2,1,80,0,0
80800,-100,4,2,1,70,0,0
80880,-62.5,4,2,1,80,0,1
86864,-62.5,4,2,1,70,0,1
86944,-62.5,4,2,1,80,0,1
87742,-100,4,2,1,80,0,1
88540,-55.5555555555556,4,2,1,80,0,1
89817,-66.6666666666667,4,2,1,80,0,1
90455,-83.3333333333333,4,2,1,80,0,1
91093,-62.5,4,2,1,80,0,1
96200,-50,4,2,1,80,0,1
98673,-50,4,2,1,70,0,1
98753,-66.6666666666667,4,2,1,80,0,1
99072,-66.6666666666667,4,2,1,70,0,1
99151,-66.6666666666667,4,2,1,80,0,1
99710,-66.6666666666667,4,2,1,70,0,1
99789,-66.6666666666667,4,2,1,80,0,1
100987,-50,4,2,1,80,0,0
101306,-71.4285714285714,4,2,1,80,0,0
101838,-71.4285714285714,4,2,1,70,0,0
101944,-62.5,4,2,1,80,0,0
102502,-62.5,4,2,1,70,0,0
102583,-71.4285714285714,4,2,1,80,0,0
104497,-55.5555555555556,4,2,1,80,0,0
105055,-55.5555555555556,4,2,1,70,0,0
105136,-55.5555555555556,4,2,1,80,0,0
107689,-71.4285714285714,4,2,1,80,0,0
108008,-83.3333333333333,4,2,1,80,0,0
111040,-66.6666666666667,4,2,1,80,0,0
111519,-55.5555555555556,4,2,1,80,0,0
112715,-55.5555555555556,4,2,1,70,0,0
112795,-55.5555555555556,4,2,1,80,0,0
113991,-55.5555555555556,4,2,1,70,0,0
114072,-55.5555555555556,4,2,1,80,0,0
114710,-50,4,2,1,80,0,0
115268,-50,4,2,1,70,0,0
115349,-55.5555555555556,4,2,1,80,0,0
115987,-50,4,2,1,80,0,0
116545,-50,4,2,1,70,0,0
116625,-50,4,2,1,80,0,0
120534,-50,4,2,1,70,0,0
120614,-50,4,2,1,80,0,0
121732,319.148936170213,3,2,1,95,1,1
121732,-62.5,4,2,1,95,0,1
123805,-62.5,4,2,1,70,0,1
123886,-62.5,4,2,1,95,0,1
124763,-62.5,4,2,1,70,0,1
124843,-62.5,4,2,1,95,0,1
125002,-62.5,4,2,1,70,0,1
125083,-62.5,4,2,1,95,0,1
125561,-76.9230769230769,4,2,1,95,0,1
125721,-76.9230769230769,4,2,1,70,0,1
125801,-76.9230769230769,4,2,1,95,0,1
126200,-50,4,2,1,95,0,1
126412,-76.9230769230769,4,2,1,95,0,1
127636,-76.9230769230769,4,2,1,70,0,1
127716,-76.9230769230769,4,2,1,95,0,1
128434,-66.6666666666667,4,2,1,95,0,1
128593,-66.6666666666667,4,2,1,70,0,1
128673,-66.6666666666667,4,2,1,95,0,1
129072,-58.8235294117647,4,2,1,95,0,1
129391,-55.5555555555556,4,2,1,95,0,1
130508,-55.5555555555556,4,2,1,70,0,1
130588,-55.5555555555556,4,2,1,95,0,1
131466,-55.5555555555556,4,2,1,70,0,1
131545,-55.5555555555556,4,2,1,95,0,1
132423,-55.5555555555556,4,2,1,70,0,1
132503,-55.5555555555556,4,2,1,95,0,1
133221,-50,4,2,1,95,0,1
135774,-25,4,2,1,95,0,1
137051,319.148936170213,4,2,2,60,1,1
137051,-133.333333333333,4,2,2,60,0,0
138805,-133.333333333333,4,2,2,70,0,0
138966,-133.333333333333,4,2,2,60,0,0
141519,-133.333333333333,4,2,2,70,0,0
141678,-133.333333333333,4,2,2,60,0,0
144869,-133.333333333333,4,2,2,70,0,0
145029,-133.333333333333,4,2,2,60,0,0

[Colours]
Combo1 : 242,57,57
Combo2 : 58,136,177
Combo3 : 230,117,117
Combo4 : 63,97,233

[HitObjects]
145,51,1732,5,4,0:0:0:0:
174,129,1891,2,0,P|136:135|93:118,1,71.2500027179719
39,35,2210,1,0,0:0:0:0:
42,46,2290,1,0,0:0:0:0:
45,56,2370,2,0,B|61:103|61:103|36:159,1,106.875004076958,8|0,0:0|0:0,0:0:0:0:
164,341,2849,1,2,0:0:0:0:
7,349,3008,6,0,L|88:361,1,71.2500027179719,2|0,0:0|0:0,0:0:0:0:
243,299,3327,2,0,B|253:260|253:260|246:228,1,71.2500027179719,2|0,0:0|0:0,0:0:0:0:
102,138,3646,2,0,L|122:255,1,106.875004076958,2|0,0:0|0:0,0:0:0:0:
122,263,3966,1,2,0:0:0:0:
14,159,4125,1,2,0:0:0:0:
176,51,4285,5,0,0:0:0:0:
243,90,4444,1,0,0:0:0:0:
310,49,4604,2,0,L|392:35,1,71.2500027179719,2|0,0:0|0:0,0:0:0:0:
407,174,4923,2,0,L|353:109,1,71.2500027179719,8|0,0:0|0:0,0:0:0:0:
467,28,5242,2,0,L|438:106,1,71.2500027179719,2|0,0:0|0:0,0:0:0:0:
491,323,5561,5,8,0:0:0:0:
426,278,5721,1,0,0:0:0:0:
365,327,5880,2,0,P|314:355|266:349,1,106.875004076958,2|0,0:0|0:0,0:0:0:0:
246,364,6200,2,0,L|252:282,1,71.2500027179719
435,179,6519,2,0,L|429:261,1,71.2500027179719
272,59,6838,5,4,0:0:0:0:
272,59,6997,1,0,0:0:0:0:
158,118,7157,2,0,P|222:117|256:82,1,106.875004076958,2|0,0:0|0:0,0:0:0:0:
272,59,7476,2,0,L|380:70,2,106.875004076958,8|0|2,0:0|0:0|0:0,0:0:0:0:
458,252,8114,6,0,P|451:207|402:174,1,106.875004076958,2|0,0:0|0:0,0:0:0:0:
388,173,8434,1,8,0:0:0:0:
349,352,8593,2,0,L|358:261,1,71.2500027179719,2|0,0:0|0:0,0:0:0:0:
62,328,8912,2,0,B|105:323|105:323|130:332|130:332|180:324,1,106.875004076958,2|0,0:0|0:0,0:0:0:0:
235,362,9232,2,0,L|274:377,2,23.7500009059906,2|2|2,0:0|0:0|0:0,0:0:0:0:
235,362,9391,6,0,P|217:328|225:289,1,71.2500027179719,2|0,0:0|0:0,0:0:0:0:
427,236,9710,2,0,P|445:270|437:309,1,71.2500027179719,8|0,0:0|0:0,0:0:0:0:
355,125,10029,1,2,0:0:0:0:
330,295,10189,1,2,0:0:0:0:
416,349,10349,1,2,0:0:0:0:
296,203,10508,1,0,0:0:0:0:
115,303,10668,6,0,L|39:292,1,71.2500027179719,10|0,0:0|0:0,0:0:0:0:
142,64,10987,2,0,L|179:124,1,71.2500027179719,2|0,0:0|0:0,0:0:0:0:
397,303,11306,2,0,L|473:292,1,71.2500027179719,2|8,0:0|0:0,0:0:0:0:
370,64,11625,2,0,L|332:124,1,71.2500027179719,8|2,0:0|0:0,0:0:0:0:
332,124,12104,2,0,L|292:118,1,35.625001358986
66,56,12263,6,0,B|83:39|88:14|88:14|133:78|93:149,1,170.999994781494,12|0,0:0|0:0,0:0:0:0:
144,197,12503,1,0,0:0:0:0:
144,197,12583,2,0,P|107:207|69:201,1,71.2500027179719,8|0,0:0|0:0,0:0:0:0:
0,376,12742,2,8,P|37:366|75:372,1,71.2500027179719
316,321,12902,1,10,0:0:0:0:
280,317,12982,1,0,0:0:0:0:
245,312,13061,1,8,0:0:0:0:
209,307,13141,1,8,0:0:0:0:
173,303,13221,6,0,L|116:293,17,47.5000018119813,8|0|0|0|0|0|10|0|0|0|0|0|10|2|2|2|2|2,0:0|0:0|0:0|0:0|0:0|0:0|0:0|0:0|0:0|0:0|0:0|0:0|0:0|0:0|0:0|0:0|0:0|0:0,0:0:0:0:
240,257,14178,6,0,B|297:207|297:133|257:75|257:75|253:108|229:132,1,256.499992172241,8|0,0:0|0:0,0:0:0:0:
57,76,14497,6,0,L|182:67,1,123.499994346619,12|0,0:0|0:0,0:0:0:0:
235,124,14737,1,2,0:0:0:0:
260,142,14817,1,10,0:0:0:0:
290,146,14896,1,2,0:0:0:0:
320,139,14976,2,0,L|390:131,1,61.7499971733095,2|0,0:0|0:0,0:0:0:0:
475,325,15136,6,0,P|463:267|381:239,1,142.500005435944,8|0,0:0|0:0,0:0:0:0:
327,291,15375,1,2,0:0:0:0:
327,291,15455,2,0,P|313:259|307:226,1,61.7499971733095,8|2,0:0|0:0,0:0:0:0:
484,86,15614,2,0,P|480:120|468:152,1,61.7499971733095
469,346,15774,6,0,B|406:332|406:332|355:365,1,123.499994346619,8|2,0:0|0:0,0:0:0:0:
275,374,16013,1,2,0:0:0:0:
275,374,16093,2,0,L|192:358,1,61.7499971733095,10|0,0:0|0:0,0:0:0:0:
15,193,16253,6,0,B|91:168|91:168|161:216,1,152,2|10,0:1|0:0,0:0:0:0:
162,226,16466,2,0,L|222:212,2,50.6666666666667,2|2|2,0:0|0:0|0:0,0:0:0:0:
475,55,16732,6,0,B|428:46|428:46|398:69,1,85.4999973907472,8|0,0:0|0:0,0:0:0:0:
420,247,16891,2,0,B|467:256|467:256|497:233,1,85.4999973907472,2|0,0:0|0:0,0:0:0:0:
512,143,17051,6,0,L|382:166,1,123.499994346619,12|0,0:0|0:0,0:0:0:0:
347,230,17290,1,0,0:0:0:0:
316,199,17370,1,10,0:0:0:0:
309,156,17450,1,2,0:0:0:0:
324,116,17529,2,0,L|311:56,1,61.7499971733095,2|0,0:0|0:0,0:0:0:0:
53,196,17689,6,0,P|119:174|191:228,1,142.500005435944,8|0,0:0|0:0,0:0:0:0:
205,282,17928,1,2,0:0:0:0:
205,282,18008,2,0,P|238:262|259:233,1,61.7499971733095,8|2,0:0|0:0,0:0:0:0:
85,36,18168,2,0,P|84:74|93:95,1,61.7499971733095
25,368,18327,6,0,B|58:317|58:317|29:249,1,123.499994346619,8|2,0:0|0:0,0:0:0:0:
60,178,18567,1,2,0:0:0:0:
60,178,18646,2,0,L|140:187,1,61.7499971733095,10|0,0:0|0:0,0:0:0:0:
257,17,18806,6,0,B|215:82|215:82|259:147,1,152,2|10,0:1|0:0,0:0:0:0:
253,175,19019,2,0,L|303:167,2,50.6666666666667,2|2|2,0:0|0:0|0:0,0:0:0:0:
460,370,19285,6,0,B|476:328|476:328|460:285,1,85.4999973907472,8|0,0:0|0:0,0:0:0:0:
303,286,19444,2,0,B|287:328|287:328|303:371,1,85.4999973907472,2|0,0:0|0:0,0:0:0:0:
377,329,19604,6,0,L|393:190,1,123.499994346619,12|0,0:0|0:0,0:0:0:0:
398,131,19843,1,2,0:0:0:0:
401,114,19923,1,10,0:0:0:0:
186,221,20083,2,0,L|258:217,1,61.7499971733095,2|0,0:0|0:0,0:0:0:0:
490,331,20242,6,0,B|440:339|409:289|409:289|377:300|376:337,1,152,8|0,0:0|0:0,0:0:0:0:
310,373,20482,1,2,0:0:0:0:
283,369,20561,1,8,0:0:0:0:
492,236,20721,1,0,0:0:0:0:
177,134,20880,6,0,L|144:58,1,61.7499971733095,8|0,0:0|0:0,0:0:0:0:
89,33,21040,1,2,0:0:0:0:
111,11,21120,1,2,0:0:0:0:
140,3,21200,1,10,0:0:0:0:
348,247,21359,6,0,L|380:173,1,76,2|0,0:1|0:0,0:0:0:0:
445,132,21519,1,10,0:0:0:0:
431,110,21572,1,2,0:0:0:0:
408,98,21625,1,2,0:0:0:0:
382,97,21678,1,2,0:0:0:0:
83,303,21838,6,0,P|79:351|102:385,1,85.4999973907472,8|0,0:0|0:0,0:0:0:0:
259,354,21997,2,0,P|263:306|240:272,1,85.4999973907472,8|0,0:0|0:0,0:0:0:0:
174,122,22157,6,0,L|161:254,1,123.499994346619,12|0,0:0|0:0,0:0:0:0:
169,326,22396,1,0,0:0:0:0:
174,343,22476,1,8,0:0:0:0:
339,204,22636,2,0,L|268:193,1,61.7499971733095
19,68,22795,2,0,B|57:61|93:100|93:100|108:55|155:45,1,152,8|0,0:0|0:0,0:0:0:0:
174,122,23035,1,2,0:0:0:0:
174,122,23114,1,8,0:0:0:0:
56,268,23274,1,0,0:0:0:0:
363,348,23434,6,0,L|288:358,1,61.7499971733095,8|0,0:0|0:0,0:0:0:0:
218,315,23593,1,2,0:0:0:0:
228,279,23673,1,2,0:0:0:0:
238,243,23753,1,10,0:0:0:0:
456,197,23912,6,0,L|407:135,1,76,2|0,0:1|0:0,0:0:0:0:
332,97,24072,1,8,0:0:0:0:
354,75,24125,1,8,0:0:0:0:
376,55,24178,1,8,0:0:0:0:
400,35,24232,1,8,0:0:0:0:
314,349,24391,6,0,B|295:305|295:305|308:258,1,85.4999973907472,12|0,0:0|0:0,0:0:0:0:
447,116,24551,2,0,B|466:160|466:160|453:207,1,85.4999973907472,8|0,0:0|0:0,0:0:0:0:
512,315,24710,6,0,L|384:299,1,123.499994346619,12|0,0:0|0:0,0:0:0:0:
313,349,24950,1,2,0:0:0:0:
313,349,25029,2,0,P|278:353|246:341,1,61.7499971733095,10|2,0:0|0:0,0:0:0:0:
270,196,25189,2,0,P|305:192|337:204,1,61.7499971733095,2|0,0:0|0:0,0:0:0:0:
76,368,25349,6,0,P|20:319|23:254,1,142.500005435944,8|2,0:0|0:0,0:0:0:0:
60,186,25588,1,2,0:0:0:0:
60,186,25668,1,8,0:0:0:0:
294,277,25827,1,0,0:0:0:0:
52,108,25987,6,0,B|88:100|113:127|113:127|123:95|164:85,1,123.499994346619,8|2,0:0|0:0,0:0:0:0:
214,42,26226,1,2,0:0:0:0:
217,21,26306,1,10,0:0:0:0:
479,245,26466,6,0,B|440:236|406:261|406:261|387:219|351:213,1,152,2|10,0:1|0:0,0:0:0:0:
321,212,26678,2,0,L|312:148,2,50.6666666666667,2|2|2,0:0|0:0|0:0,0:0:0:0:
13,344,26944,6,0,B|62:326|98:368|98:368|116:318|180:320,1,170.999994781494,8|2,0:0|0:0,0:0:0:0:
223,357,27184,1,0,0:0:0:0:
223,357,27263,6,0,L|365:350,1,123.499994346619,12|0,0:0|0:0,0:0:0:0:
419,384,27503,1,2,0:0:0:0:
419,384,27583,2,0,B|429:353|429:353|416:310,1,61.7499971733095,10|2,0:0|0:0,0:0:0:0:
448,103,27742,1,2,0:0:0:0:
420,325,27902,6,0,B|433:260|433:260|417:220|417:220|431:169,1,152,8|2,0:0|0:0,0:0:0:0:
448,103,28141,1,2,0:0:0:0:
448,103,28221,1,8,0:0:0:0:
247,257,28380,1,0,0:0:0:0:
60,18,28540,6,0,P|28:69|47:125,1,123.499994346619,8|2,0:0|0:0,0:0:0:0:
115,168,28779,1,2,0:0:0:0:
132,165,28859,1,10,0:0:0:0:
177,364,29019,6,0,P|181:294|267:259,1,152,2|10,0:1|0:0,0:0:0:0:
287,192,29232,1,2,0:0:0:0:
296,193,29285,1,2,0:0:0:0:
303,194,29338,1,2,0:0:0:0:
454,58,29497,1,8,0:0:0:0:
400,338,29657,1,8,0:0:0:0:
159,250,29817,6,0,L|19:275,1,123.499994346619,10|0,0:1|0:0,0:0:0:0:
30,370,30056,1,0,0:0:0:0:
30,370,30136,2,0,P|59:363|90:331,1,61.7499971733095,8|0,0:0|0:0,0:0:0:0:
72,187,30295,2,2,P|51:165|8:154,1,61.7499971733095,2|0,0:0|0:0,0:0:0:0:
225,339,30455,1,10,0:0:0:0:
269,359,30535,1,2,0:0:0:0:
313,339,30614,6,0,B|321:303|321:303|312:269,1,71.2500027179719,2|0,0:0|0:0,0:0:0:0:
457,229,30774,2,0,B|421:240|421:240|396:264,1,71.2500027179719,8|0,0:0|0:0,0:0:0:0:
290,160,30934,2,0,B|317:184|317:184|351:194,1,71.2500027179719,2|0,0:0|0:0,0:0:0:0:
512,67,31093,6,0,L|349:90,1,142.500005435944,10|2,0:1|0:0,0:0:0:0:
298,39,31333,1,2,0:0:0:0:
298,39,31412,2,0,P|329:8|364:2,1,71.2500027179719,10|0,0:0|0:0,0:0:0:0:
431,136,31572,2,0,P|400:167|365:173,1,71.2500027179719,2|0,0:0|0:0,0:0:0:0:
197,131,31732,1,10,0:0:0:0:
147,111,31811,1,2,0:0:0:0:
102,146,31891,6,0,L|23:124,1,80.750001540184,2|0,0:0|0:0,0:0:0:0:
124,269,32051,2,0,L|182:211,1,80.750001540184,8|0,0:0|0:0,0:0:0:0:
6,226,32210,2,0,L|26:305,1,80.750001540184
327,365,32370,6,0,B|369:337|369:337|340:129,1,242.250004620552,12|2,0:0|0:0,0:0:0:0:
385,16,32689,5,10,0:1:0:0:
357,44,32769,1,2,0:0:0:0:
367,77,32849,1,2,0:0:0:0:
147,328,33008,5,10,0:1:0:0:
196,353,33088,1,2,0:0:0:0:
234,311,33168,1,2,0:0:0:0:
101,25,33327,5,10,0:1:0:0:
36,54,33406,1,2,0:0:0:0:
14,121,33486,1,2,0:0:0:0:
46,184,33566,1,2,0:0:0:0:
114,204,33646,6,0,L|231:188,2,107.666668720245,10|2|2,0:1|0:0|0:0,0:0:0:0:
324,343,33966,2,0,B|268:353|268:353|217:328,2,107.666668720245,10|2|2,0:0|0:0|0:0,0:0:0:0:
475,290,34285,5,8,0:0:0:0:
487,247,34391,1,8,0:0:0:0:
499,204,34497,1,8,0:0:0:0:
414,197,34604,5,8,0:0:0:0:
409,170,34710,1,8,0:0:0:0:
405,143,34817,1,8,0:0:0:0:
327,168,34923,5,8,0:0:0:0:
489,77,35083,2,0,B|472:21|414:22|414:22|396:75|348:78,1,190,2|0,0:0|0:0,0:0:0:0:
278,104,35455,1,0,0:0:0:0:
264,102,35508,1,0,0:0:0:0:
252,99,35561,6,0,B|181:105|181:105|156:93|156:93|134:108|134:108|38:114,2,202.666666666667,6|2|2,0:0|0:0|0:0,0:0:0:0:
19,308,36200,1,4,0:0:0:0:
88,350,36359,6,0,B|188:370|147:312|237:328,1,142.5,8|0,0:0|0:0,0:0:0:0:
240,329,36678,1,8,0:0:0:0:
19,308,36838,1,4,0:0:0:0:
306,386,36997,6,0,P|330:341|250:244,1,185.249991519928,8|0,0:0|0:0,0:0:0:0:
189,261,37317,1,8,0:0:0:0:
132,33,37476,5,8,0:0:0:0:
63,81,37636,2,0,B|98:123|158:126|199:83|199:83|210:99|198:126,1,190,2|2,0:0|0:0,0:0:0:0:
215,193,38008,1,2,0:0:0:0:
230,190,38061,1,2,0:0:0:0:
248,182,38114,6,0,P|270:154|278:88,2,101.333333333333,8|8|8,0:0|0:0|0:0,0:0:0:0:
319,326,38434,6,0,P|288:304|273:270,1,76,2|0,0:0|0:0,0:0:0:0:
110,259,38593,2,0,P|144:243|181:247,1,76,2|0,0:0|0:0,0:0:0:0:
417,204,38753,6,0,L|488:198,5,50.6666666666667,8|0|0|0|0|0,0:0|0:0|0:0|0:0|0:0|0:0,0:0:0:0:
389,113,39072,5,10,0:0:0:0:
344,122,39152,1,2,0:0:0:0:
305,96,39232,1,2,0:0:0:0:
261,107,39311,1,2,0:0:0:0:
223,80,39391,5,8,0:0:0:0:
160,28,39497,1,8,0:0:0:0:
87,65,39604,1,8,0:0:0:0:
151,113,39710,2,0,B|162:168|162:168|139:216,2,101.333333333333,8|8|8,0:0|0:0|0:0,0:0:0:0:
232,228,40029,5,8,0:0:0:0:
5,239,40189,2,0,B|66:257|66:257|87:283|87:283|200:309,1,190,2|0,0:0|0:0,0:0:0:0:
220,367,40561,1,0,0:0:0:0:
235,359,40614,1,0,0:0:0:0:
244,347,40668,6,0,B|264:296|264:296|258:274|258:274|273:198|273:198|239:225|239:225|179:218,2,227.999993041992,4|2|2,0:0|0:0|0:0,0:0:0:0:
200,146,41306,1,12,0:0:0:0:
421,367,41466,6,0,L|404:215,1,142.5,8|0,0:0|0:0,0:0:0:0:
403,213,41785,1,8,0:0:0:0:
200,146,41944,1,4,0:0:0:0:
473,151,42104,6,0,B|508:182|508:182|425:172|425:172|402:182|402:182|316:173,1,228,8|0,0:0|0:0,0:0:0:0:
258,169,42423,1,8,0:0:0:0:
41,27,42583,5,0,0:0:0:0:
124,188,42742,2,0,P|171:103|119:35,1,190,2|2,0:0|0:0,0:0:0:0:
22,105,43114,1,2,0:0:0:0:
10,102,43168,1,2,0:0:0:0:
0,109,43221,2,0,B|50:130|50:130|102:109,2,101.333333333333,8|8|8,0:0|0:0|0:0,0:0:0:0:
141,264,43540,6,0,L|169:179,1,76,2|0,0:0|0:0,0:0:0:0:
179,13,43700,2,0,L|207:98,1,76,2|0,0:0|0:0,0:0:0:0:
460,129,43859,6,0,L|512:122,5,50.6666666666667,8|0|0|0|0|0,0:0|0:0|0:0|0:0|0:0|0:0,0:0:0:0:
395,191,44178,1,10,0:0:0:0:
365,223,44258,1,2,0:0:0:0:
374,269,44338,1,2,0:0:0:0:
388,313,44418,1,2,0:0:0:0:
407,355,44497,5,8,0:0:0:0:
496,372,44604,2,0,B|497:317|497:317|465:283,1,101.333333333333,8|8,0:0|0:0,0:0:0:0:
502,201,44817,5,8,0:0:0:0:
374,269,44923,2,0,L|257:257,1,101.333333333333,8|8,0:0|0:0,0:0:0:0:
192,119,45136,5,4,0:0:0:0:
256,192,45216,12,0,47609,0:0:0:0:
57,95,47689,6,0,L|23:86,3,23.75,8|0|0|0,0:0|0:0|0:0|0:0,0:0:0:0:
96,166,47849,2,0,P|161:155|128:63,1,190
453,187,48327,6,0,L|487:178,3,23.75,8|0|0|0,0:0|0:0|0:0|0:0,0:0:0:0:
425,262,48487,2,0,B|382:317|324:297|324:297|279:349|209:332|196:276|239:241|276:277,1,308.749985866547
273,274,48966,5,8,0:0:0:0:
313,236,49045,1,0,0:0:0:0:
319,180,49125,1,0,0:0:0:0:
294,129,49205,1,0,0:0:0:0:
253,100,49285,1,0,0:0:0:0:
210,105,49364,1,0,0:0:0:0:
177,100,49444,1,0,0:0:0:0:
156,89,49524,1,0,0:0:0:0:
145,76,49604,5,0,0:0:0:0:
142,64,49684,1,0,0:0:0:0:
143,53,49763,1,0,0:0:0:0:
146,44,49843,1,0,0:0:0:0:
232,38,49923,6,0,B|266:89|243:141|243:141|243:162|243:162|224:165|224:165|175:198|116:158,1,256.499992172241,12|0,0:1|0:0,0:0:0:0:
44,188,50242,5,2,0:1:0:0:
32,132,50322,1,2,0:0:0:0:
64,84,50402,1,2,0:0:0:0:
41,31,50482,2,0,L|69:95,1,56.9999982604981,2|8,0:0|0:0,0:0:0:0:
144,212,50641,1,0,0:0:0:0:
152,204,50721,5,2,0:1:0:0:
140,148,50801,1,2,0:0:0:0:
172,100,50881,1,2,0:0:0:0:
149,47,50961,2,0,L|177:111,1,56.9999982604981,2|0,0:0|0:0,0:0:0:0:
252,228,51119,1,0,0:0:0:0:
260,220,51200,5,10,0:1:0:0:
248,164,51279,1,2,0:0:0:0:
280,116,51359,1,2,0:0:0:0:
257,63,51439,2,0,L|285:127,1,56.9999982604981,2|0,0:0|0:0,0:0:0:0:
360,244,51598,1,0,0:0:0:0:
368,236,51678,5,2,0:1:0:0:
356,180,51758,1,2,0:0:0:0:
387,131,51838,1,10,0:0:0:0:
365,79,51918,2,0,L|393:143,1,56.9999982604981,2|0,0:0|0:0,0:0:0:0:
440,384,52077,1,0,0:0:0:0:
448,376,52157,5,10,0:0:0:0:
440,332,52237,1,2,0:0:0:0:
464,292,52317,1,2,0:0:0:0:
456,248,52397,1,2,0:0:0:0:
480,208,52476,1,10,0:0:0:0:
472,164,52556,1,2,0:0:0:0:
496,124,52636,1,2,0:0:0:0:
488,80,52716,1,2,0:0:0:0:
508,40,52795,6,0,L|448:28,1,56.9999982604981,10|0,0:1|0:0,0:0:0:0:
328,116,52955,6,0,L|324:80,1,28.4999991302491
308,112,53035,2,2,L|306:75,1,28.4999991302491
292,120,53114,2,0,L|288:84,1,28.4999991302491,8|0,0:0|0:0,0:0:0:0:
272,116,53194,2,0,L|270:79,1,28.4999991302491
256,124,53274,2,0,L|252:88,1,28.4999991302491
236,120,53354,2,0,L|234:83,1,28.4999991302491
220,128,53434,2,0,L|216:92,1,28.4999991302491,8|0,0:0|0:0,0:0:0:0:
200,124,53514,2,0,L|198:87,1,28.4999991302491
184,132,53593,2,0,L|180:96,1,28.4999991302491
164,128,53673,2,0,L|162:91,1,28.4999991302491
148,136,53753,2,0,L|144:100,1,28.4999991302491,8|0,0:0|0:0,0:0:0:0:
128,132,53833,2,0,L|126:95,1,28.4999991302491
112,140,53913,2,0,L|108:104,1,28.4999991302491
168,364,54072,6,0,L|192:236,1,113.999996520996,8|2,0:0|0:0,0:0:0:0:
189,251,54311,1,2,0:0:0:0:
189,251,54391,2,0,B|132:255|132:255|80:208,1,113.999996520996,8|0,0:0|0:0,0:0:0:0:
295,305,54710,1,8,0:1:0:0:
75,336,54870,2,0,L|31:348,3,37.9999988403321,2|2|2|10,0:0|0:0|0:0|0:0,0:0:0:0:
180,88,55189,1,4,0:1:0:0:
432,43,55349,5,8,0:0:0:0:
507,30,55455,2,0,P|503:70|483:106,1,75.9999976806641
403,205,55668,5,8,0:0:0:0:
442,231,55774,2,0,P|407:249|374:252,1,63.3333333333333
220,251,55987,5,8,0:0:0:0:
223,274,56093,2,0,P|194:256|176:231,1,50.6666666666667
81,187,56306,5,8,0:0:0:0:
72,197,56412,2,0,P|67:178|64:151,1,37.9999988403321
49,49,56625,5,8,0:0:0:0:
67,46,56732,1,0,0:0:0:0:
84,52,56838,1,0,0:0:0:0:
153,16,56944,5,8,0:0:0:0:
179,37,57051,1,0,0:0:0:0:
189,69,57157,1,0,0:0:0:0:
267,77,57263,5,8,0:0:0:0:
281,120,57370,1,0,0:0:0:0:
267,163,57476,1,0,0:0:0:0:
305,233,57583,5,8,0:0:0:0:
276,298,57689,1,0,0:0:0:0:
204,304,57795,1,0,0:0:0:0:
181,375,57902,5,10,0:0:0:0:
161,372,57982,1,2,0:0:0:0:
141,369,58061,1,2,0:0:0:0:
121,366,58141,1,2,0:0:0:0:
101,362,58221,6,0,L|89:206,1,142.5,10|0,0:0|0:0,0:0:0:0:
148,167,58380,5,8,0:0:0:0:
167,235,58460,2,0,P|154:259|137:273,1,47.5,8|0,0:0|0:0,0:0:0:0:
28,179,58620,5,8,0:0:0:0:
38,165,58700,2,0,P|61:149|83:145,1,47.5,8|0,0:0|0:0,0:0:0:0:
237,182,58859,6,0,L|385:168,1,142.5,10|0,0:1|0:0,0:0:0:0:
381,175,59019,2,0,L|233:189,1,142.5
190,115,59178,6,0,L|199:70,5,37.9999988403321,8|0|0|0|0|0,0:0|0:0|0:0|0:0|0:0|0:0,0:0:0:0:
153,17,59497,1,8,0:0:0:0:
202,3,59577,1,0,0:0:0:0:
249,21,59657,1,0,0:0:0:0:
270,67,59737,1,0,0:0:0:0:
254,115,59817,5,8,0:0:0:0:
266,158,59896,1,0,0:0:0:0:
300,187,59976,1,0,0:0:0:0:
344,192,60056,1,0,0:0:0:0:
384,172,60136,1,10,0:0:0:0:
406,133,60215,1,2,0:0:0:0:
403,88,60295,1,2,0:0:0:0:
375,53,60375,1,2,0:0:0:0:
331,117,60455,6,0,B|323:203|323:203|321:235|355:267,1,142.500005435944,2|0,0:1|0:0,0:0:0:0:
472,308,60694,2,0,P|445:269|410:260,1,71.2500027179719,2|8,0:0|0:0,0:0:0:0:
161,336,60934,6,0,P|203:357|279:299,1,142.500005435944,2|0,0:0|0:0,0:0:0:0:
162,207,61173,2,0,P|137:233|129:266,1,71.2500027179719,2|0,0:0|0:0,0:0:0:0:
27,41,61412,1,8,0:0:0:0:
52,116,61572,1,0,0:0:0:0:
56,125,61652,1,0,0:0:0:0:
61,133,61732,6,0,B|74:20|74:20|82:42|102:60,1,142.500005435944,2|0,0:1|0:0,0:0:0:0:
156,77,61971,2,0,P|195:67|213:44,1,71.2500027179719,2|8,0:0|0:0,0:0:0:0:
477,146,62210,6,0,P|454:90|370:79,1,142.500005435944,2|0,0:0|0:0,0:0:0:0:
330,145,62450,2,0,L|244:132,1,71.2500027179719,2|0,0:0|0:0,0:0:0:0:
14,277,62689,6,0,B|55:282|55:282|75:271|75:271|91:292|91:292|155:306|155:306|175:326|175:326|242:341,1,242.250004620552,10|0,0:1|0:0,0:0:0:0:
307,374,63008,5,8,0:0:0:0:
314,359,63088,1,0,0:0:0:0:
317,343,63168,1,0,0:0:0:0:
315,327,63247,1,0,0:0:0:0:
300,295,63327,5,8,0:0:0:0:
340,292,63407,1,0,0:0:0:0:
370,265,63487,1,0,0:0:0:0:
373,224,63567,1,0,0:0:0:0:
403,183,63646,5,8,0:0:0:0:
368,138,63726,1,0,0:0:0:0:
311,146,63806,1,0,0:0:0:0:
287,197,63886,1,0,0:0:0:0:
247,237,63966,1,8,0:0:0:0:
191,232,64045,1,0,0:0:0:0:
154,188,64125,1,0,0:0:0:0:
165,132,64205,1,0,0:0:0:0:
215,106,64285,6,0,P|154:103|118:42,1,132.999995941162,8|0,0:0|0:0,0:0:0:0:
192,36,64524,1,8,0:0:0:0:
192,36,64604,2,0,L|272:16,1,66.4999979705811,8|0,0:0|0:0,0:0:0:0:
42,11,64763,2,0,B|35:41|35:41|43:79,1,66.4999979705811,2|2,0:0|0:0,0:0:0:0:
28,278,64923,6,0,B|34:230|34:230|76:181|76:181|92:180|92:180|135:128|135:128|129:71,2,242.250004620552,10|2|0,0:0|0:0|0:0,0:0:0:0:
274,322,65561,6,0,B|295:344|295:344|172:331,1,142.500005435944,10|0,0:1|0:0,0:0:0:0:
98,354,65801,2,0,L|174:342,1,71.2500027179719,2|8,0:0|0:0,0:0:0:0:
489,250,66040,6,0,P|502:309|438:358,1,142.500005435944,2|0,0:0|0:0,0:0:0:0:
374,328,66279,2,0,P|361:286|371:256,1,71.2500027179719,2|0,0:0|0:0,0:0:0:0:
460,12,66519,2,0,L|445:161,1,142.500005435944,8|0,0:0|0:0,0:0:0:0:
461,165,66758,1,0,0:0:0:0:
477,173,66838,6,0,B|442:157|408:177|408:177|375:191|336:175,1,142.500005435944,10|0,0:1|0:0,0:0:0:0:
224,98,67077,2,0,P|260:98|291:128,1,71.2500027179719,0|8,0:0|0:0,0:0:0:0:
285,323,67317,6,0,P|250:271|268:195,1,142.500005435944
403,42,67556,2,0,P|390:78|362:102,1,71.2500027179719
65,88,67795,6,0,B|51:70|16:65|16:65|80:26|152:39|152:39|129:54|121:85,1,242.250004620552,10|0,0:1|0:0,0:0:0:0:
110,152,68114,5,8,0:0:0:0:
92,197,68194,1,0,0:0:0:0:
99,244,68274,1,0,0:0:0:0:
123,285,68354,1,0,0:0:0:0:
117,333,68434,1,8,0:0:0:0:
83,366,68513,1,0,0:0:0:0:
34,364,68593,1,0,0:0:0:0:
3,325,68673,1,0,0:0:0:0:
12,277,68753,5,8,0:0:0:0:
57,242,68833,1,0,0:0:0:0:
112,251,68912,1,0,0:0:0:0:
144,297,68992,1,0,0:0:0:0:
192,326,69072,1,10,0:0:0:0:
248,320,69152,1,2,0:0:0:0:
285,277,69232,1,2,0:0:0:0:
297,222,69311,1,2,0:0:0:0:
275,169,69391,5,8,0:0:0:0:
467,344,69630,1,8,0:0:0:0:
474,353,69710,1,8,0:0:0:0:
466,313,69790,1,0,0:0:0:0:
471,272,69870,1,2,0:0:0:0:
458,233,69950,1,2,0:0:0:0:
458,189,70029,5,10,0:0:0:0:
396,191,70108,1,0,0:0:0:0:
346,155,70188,1,0,0:0:0:0:
327,96,70268,1,0,0:0:0:0:
348,38,70348,1,8,0:0:0:0:
400,5,70427,1,8,0:0:0:0:
462,10,70507,1,8,0:0:0:0:
508,51,70587,1,8,0:0:0:0:
512,115,70668,6,0,P|492:111|460:108,1,35.625001358986,8|0,0:0|0:0,0:0:0:0:
468,183,70827,2,0,P|488:187|520:190,1,35.625001358986
351,138,70987,6,0,P|333:140|315:144,1,35.625001358986,8|0,0:0|0:0,0:0:0:0:
324,217,71146,2,0,P|342:215|360:211,1,35.625001358986
211,112,71306,6,0,P|191:108|159:105,1,35.625001358986,8|0,0:0|0:0,0:0:0:0:
167,180,71465,2,0,P|187:184|219:187,1,35.625001358986
50,135,71625,6,0,P|32:137|14:140,1,35.625001358986,8|0,0:0|0:0,0:0:0:0:
23,214,71784,2,0,P|40:211|58:208,1,35.625001358986
96,337,71944,6,0,P|95:315|99:282,1,47.5,8|0,0:0|0:0,0:0:0:0:
178,291,72104,2,0,P|179:313|175:346,1,47.5,8|0,0:0|0:0,0:0:0:0:
359,351,72263,6,0,P|325:335|304:315,1,59.375,8|0,0:0|0:0,0:0:0:0:
353,252,72423,2,0,P|386:267|407:287,1,59.375,8|0,0:0|0:0,0:0:0:0:
481,106,72583,6,0,P|451:131|418:137,1,71.2500027179719,8|0,0:0|0:0,0:0:0:0:
377,63,72742,2,0,P|403:40|439:31,1,71.2500027179719,8|0,0:0|0:0,0:0:0:0:
210,20,72902,5,8,0:0:0:0:
146,9,72982,1,8,0:0:0:0:
115,66,73061,1,8,0:0:0:0:
160,112,73141,1,8,0:0:0:0:
218,84,73220,1,8,0:0:0:0:
36,340,73540,6,0,L|2:334,3,28.4999991302491,2|0|0|0,0:0|0:0|0:0|0:0,0:0:0:0:
137,356,73859,2,0,L|103:350,3,28.4999991302491,2|0|0|0,0:0|0:0|0:0|0:0,0:0:0:0:
238,372,74178,2,0,L|204:366,3,28.4999991302491,2|0|0|0,0:0|0:0|0:0|0:0,0:0:0:0:
314,360,74497,5,2,0:0:0:0:
321,357,74577,1,0,0:0:0:0:
326,350,74657,2,0,P|330:328|328:307,1,28.4999991302491
314,214,74817,5,2,0:0:0:0:
310,220,74896,1,0,0:0:0:0:
309,227,74976,2,0,P|315:241|323:253,1,28.4999991302491
399,332,75136,5,2,0:0:0:0:
399,324,75216,1,2,0:0:0:0:
394,318,75295,2,0,P|381:310|368:305,1,28.4999991302491,2|0,0:0|0:0,0:0:0:0:
261,287,75455,5,2,0:0:0:0:
266,292,75535,1,2,0:0:0:0:
274,295,75615,2,0,P|296:292|315:283,1,28.4999991302491,2|0,0:0|0:0,0:0:0:0:
399,241,75774,5,2,0:0:0:0:
445,215,75880,1,0,0:0:0:0:
445,162,75987,1,0,0:0:0:0:
399,135,76093,1,2,0:0:0:0:
353,161,76200,1,0,0:0:0:0:
352,213,76306,1,0,0:0:0:0:
399,241,76412,5,2,0:0:0:0:
406,260,76519,2,0,L|401:308,1,37.9999988403321
244,370,76732,5,2,0:0:0:0:
251,351,76839,2,0,L|246:303,1,37.9999988403321
46,122,77051,5,2,0:0:0:0:
82,83,77157,1,0,0:0:0:0:
133,96,77264,1,0,0:0:0:0:
148,146,77370,1,2,0:0:0:0:
109,185,77477,1,0,0:0:0:0:
58,171,77583,1,0,0:0:0:0:
46,122,77689,5,2,0:0:0:0:
30,108,77795,2,0,L|81:110,1,37.9999988403321
242,204,78008,5,2,0:0:0:0:
226,218,78114,2,0,L|277:216,1,37.9999988403321,2|2,0:0|0:0,0:0:0:0:
469,149,78327,5,2,0:0:0:0:
256,192,78407,12,0,80162,0:0:0:0:
126,4,80242,6,0,L|117:58,1,47.5,2|0,0:0|0:0,0:0:0:0:
98,138,80402,5,2,0:0:0:0:
104,127,80482,2,0,L|95:181,1,47.5
76,261,80641,5,2,0:0:0:0:
82,250,80721,2,0,L|73:304,1,47.5
23,368,80880,6,2,B|112:376|112:376|142:340|142:340|253:351,1,228,8|0,0:1|0:0,0:1:0:0:
256,351,81200,1,8,0:0:0:0:
480,296,81359,1,2,0:0:0:0:
469,348,81439,1,0,0:0:0:0:
423,373,81519,2,0,P|357:339|353:263,1,152,8|0,0:0|0:0,0:0:0:0:
405,213,81758,2,0,L|392:131,1,76,2|8,0:0|0:0,0:0:0:0:
191,74,81997,1,0,0:0:0:0:
440,12,82157,6,0,B|510:49|510:49|476:124,1,152,8|2,0:0|0:0,0:0:0:0:
336,51,82396,1,2,0:0:0:0:
336,51,82476,2,0,B|373:-19|373:-19|448:15,1,152,8|2,0:0|0:0,0:0:0:0:
375,154,82716,1,2,0:0:0:0:
375,154,82796,2,0,B|305:117|305:117|339:42,1,152,10|2,0:0|0:0,0:0:0:0:
479,115,83035,1,2,0:0:0:0:
479,115,83115,2,0,B|442:185|442:185|367:151,1,152,8|0,0:0|0:0,0:0:0:0:
484,336,83354,1,0,0:0:0:0:
484,336,83434,6,2,B|348:292|396:412|260:368,1,228,12|0,0:0|0:0,0:1:0:0:
248,360,83753,1,8,0:0:0:0:
39,241,83912,1,2,0:0:0:0:
16,290,83992,1,0,0:0:0:0:
39,337,84072,2,0,B|80:332|112:359|112:359|124:318|168:308,1,152,8|0,0:0|0:0,0:0:0:0:
307,348,84311,2,0,P|269:357|234:338,1,76,2|8,0:0|0:0,0:0:0:0:
10,190,84551,1,2,0:0:0:0:
217,43,84710,6,0,B|259:38|283:74|283:74|276:117|235:125,1,152,8|2,0:0|0:0,0:0:0:0:
108,48,84950,1,2,0:0:0:0:
108,48,85029,2,0,B|103:6|139:-18|139:-18|182:-11|190:29,1,152,10|2,0:0|0:0,0:0:0:0:
113,157,85269,1,2,0:0:0:0:
113,157,85348,2,0,B|71:162|47:126|47:126|54:83|94:74,1,152,10|2,0:0|0:0,0:0:0:0:
222,152,85588,1,2,0:0:0:0:
222,152,85667,2,2,B|227:194|191:218|191:218|148:211|139:170,1,152,10|2,0:0|0:0,0:0:0:0:
343,65,85907,1,0,0:0:0:0:
343,65,85987,6,0,B|368:52|381:13|381:13|396:190,1,228,14|0,0:0|0:0,0:0:0:0:
395,193,86306,1,10,0:0:0:0:
478,354,86466,5,0,0:0:0:0:
486,309,86545,1,0,0:0:0:0:
463,268,86625,1,8,0:0:0:0:
324,331,86785,5,0,0:0:0:0:
309,304,86864,1,2,0:0:0:0:
280,293,86944,1,8,0:0:0:0:
166,362,87104,5,0,0:0:0:0:
151,357,87184,1,0,0:0:0:0:
135,356,87263,1,8,0:0:0:0:
24,253,87423,5,0,0:0:0:0:
39,248,87503,1,0,0:0:0:0:
55,247,87582,1,8,0:0:0:0:
154,145,87742,6,0,L|215:156,2,47.5,0|0|8,0:0|0:0|0:0,0:0:0:0:
55,247,88061,1,2,0:0:0:0:
55,247,88141,1,2,0:0:0:0:
55,247,88221,1,10,0:0:0:0:
91,297,88301,1,0,0:0:0:0:
150,308,88380,1,0,0:0:0:0:
206,283,88460,1,0,0:0:0:0:
222,229,88540,6,2,B|251:194|251:194|278:278|278:278|274:297|274:297|299:362|299:362|334:320,1,256.499992172241,12|0,0:0|0:0,0:1:0:0:
496,160,88859,1,8,0:0:0:0:
486,108,88939,1,2,0:0:0:0:
444,77,89019,1,2,0:0:0:0:
392,79,89099,1,2,0:0:0:0:
352,111,89178,6,0,L|171:78,1,170.999994781494,10|0,0:0|0:0,0:0:0:0:
114,62,89418,1,2,0:0:0:0:
97,57,89497,1,8,0:0:0:0:
343,0,89657,1,2,0:0:0:0:
76,216,89817,6,0,L|229:190,1,142.500005435944,8|0,0:0|0:0,0:0:0:0:
289,174,90056,1,2,0:0:0:0:
305,171,90136,1,8,0:0:0:0:
66,88,90295,1,2,0:0:0:0:
343,351,90455,6,0,L|226:329,1,113.999996520996,8|0,0:0|0:0,0:0:0:0:
160,313,90694,1,2,0:0:0:0:
149,310,90774,1,8,0:0:0:0:
359,182,90934,1,2,0:0:0:0:
66,88,91093,6,2,B|102:62|117:17|117:17|139:175,1,228,12|0,0:0|0:0,0:1:0:0:
138,171,91412,1,8,0:0:0:0:
251,362,91572,1,0,0:0:0:0:
269,311,91652,1,0,0:0:0:0:
245,263,91732,2,0,B|190:251|190:251|167:262|167:262|93:245,1,152,8|0,0:0|0:0,0:0:0:0:
27,221,91971,1,2,0:0:0:0:
16,217,92051,1,8,0:0:0:0:
242,105,92210,1,2,0:0:0:0:
105,384,92370,6,0,B|71:311|71:311|105:227,1,152,8|2,0:0|0:0,0:0:0:0:
213,237,92609,1,2,0:0:0:0:
213,237,92689,2,0,B|247:310|247:310|213:394,1,152,8|0,0:0|0:0,0:0:0:0:
426,173,93008,6,0,B|460:100|460:100|426:16,1,152,10|2,0:0|0:0,0:0:0:0:
318,26,93247,1,2,0:0:0:0:
318,26,93327,2,0,B|284:99|284:99|318:183,1,152,10|0,0:0|0:0,0:0:0:0:
473,384,93567,1,0,0:0:0:0:
485,374,93646,6,2,P|470:276|352:267,1,228,12|0,0:0|0:0,0:1:0:0:
343,274,93966,1,8,0:0:0:0:
174,142,94125,1,2,0:0:0:0:
159,215,94205,1,0,0:0:0:0:
144,286,94285,2,0,L|115:114,1,152,8|0,0:0|0:0,0:0:0:0:
104,59,94524,1,2,0:0:0:0:
102,47,94604,1,8,0:0:0:0:
21,206,94763,1,2,0:0:0:0:
301,352,94923,6,0,P|316:286|264:222,1,152,10|2,0:0|0:0,0:0:0:0:
167,253,95162,1,2,0:0:0:0:
167,253,95242,2,0,P|152:319|204:383,1,152,8|0,0:0|0:0,0:0:0:0:
467,46,95561,6,0,P|482:112|430:176,1,152,10|2,0:0|0:0,0:0:0:0:
333,145,95800,1,2,0:0:0:0:
333,145,95880,2,0,P|318:79|370:15,1,152,8|0,0:0|0:0,0:0:0:0:
27,330,96200,6,0,B|184:315|184:315|165:307|140:282,1,190,10|0,0:1|0:0,0:0:0:0:
163,123,96439,1,0,0:0:0:0:
163,123,96519,2,0,B|130:157|130:157|158:305,1,190,10|0,0:0|0:0,0:0:0:0:
291,370,96758,5,0,0:0:0:0:
291,370,96838,2,0,P|302:267|232:241,1,190,10|0,0:1|0:0,0:0:0:0:
45,200,97077,1,0,0:0:0:0:
45,200,97157,2,0,B|102:190|139:234|139:234|150:176|199:160,1,190,10|0,0:1|0:0,0:0:0:0:
384,114,97396,5,0,0:0:0:0:
384,114,97476,2,0,B|353:145|284:140|255:88|255:88|265:68|295:63,1,190,10|0,0:1|0:0,0:0:0:0:
472,52,97716,1,0,0:0:0:0:
472,52,97795,2,0,B|492:164|492:164|475:204|433:208,1,190,10|0,0:1|0:0,0:0:0:0:
328,368,98035,5,0,0:0:0:0:
328,368,98114,2,0,P|294:262|348:218,1,190,10|0,0:1|0:0,0:0:0:0:
435,306,98354,1,0,0:0:0:0:
435,306,98434,2,0,B|315:295|315:295|297:286|297:286|280:294|280:294|149:282,1,285,10|0,0:1|0:0,0:0:0:0:
111,363,98753,6,0,P|81:336|70:306,1,71.2500027179719,12|0,0:0|0:0,0:0:0:0:
69,226,98912,2,0,P|84:188|108:167,1,71.2500027179719,8|8,0:0|0:0,0:0:0:0:
183,139,99072,2,0,P|223:140|251:156,1,71.2500027179719,8|0,0:0|0:0,0:0:0:0:
431,328,99232,1,8,0:0:0:0:
431,328,99311,1,0,0:0:0:0:
431,328,99391,6,0,P|399:352|367:358,1,71.2500027179719,12|0,0:0|0:0,0:0:0:0:
288,345,99550,2,0,P|253:323|237:295,1,71.2500027179719,8|8,0:0|0:0,0:0:0:0:
222,218,99710,2,0,P|230:178|250:153,1,71.2500027179719,8|8,0:0|0:0,0:0:0:0:
473,42,99870,1,8,0:0:0:0:
473,42,99950,1,0,0:0:0:0:
473,42,100029,6,0,P|489:52|469:61,1,47.5000018119813,8|0,0:0|0:0,0:0:0:0:
462,77,100136,6,0,P|476:89|454:95,1,47.5000018119813
445,109,100242,6,0,P|456:123|434:125,1,47.5000018119813
422,138,100349,6,0,P|430:154|409:152,1,47.5000018119813
395,162,100455,6,0,P|400:179|379:173,1,47.5000018119813
364,181,100561,6,0,P|366:199|346:190,1,47.5000018119813
330,195,100667,6,0,P|329:213|311:201,1,47.5000018119813
294,202,100774,6,0,P|290:220|274:204,1,47.5000018119813
258,203,100880,6,0,P|250:220|238:202,1,47.5000018119813
216,133,100987,6,0,P|292:134|240:289,1,285,12|0,0:1|0:0,0:0:0:0:
252,365,101306,6,0,L|110:350,1,132.999995941162,8|2,0:0|0:0,0:0:0:0:
45,340,101519,2,0,L|-1:334,2,44.3333319803874,2|2|8,0:0|0:0|0:0,0:0:0:0:
108,146,101785,1,0,0:0:0:0:
112,153,101838,1,0,0:0:0:0:
118,159,101891,1,0,0:0:0:0:
122,166,101944,6,0,B|176:160|189:97|189:97|210:123|242:121,1,152,8|0,0:0|0:0,0:0:0:0:
289,165,102184,1,2,0:0:0:0:
289,165,102263,2,0,P|280:126|289:90,1,76,8|0,0:0|0:0,0:0:0:0:
74,26,102423,2,0,P|99:52|110:102,1,76,2|0,0:0|0:0,0:0:0:0:
198,322,102583,6,0,P|189:253|126:231,1,132.999995941162,10|0,0:1|0:0,0:0:0:0:
123,364,102795,2,0,L|67:370,1,44.3333319803874
123,364,102902,2,0,L|274:353,1,132.999995941162,10|0,0:0|0:0,0:0:0:0:
460,307,103114,1,0,0:0:0:0:
450,303,103168,1,0,0:0:0:0:
440,300,103221,6,0,B|301:287|301:287|334:315|337:350,1,199.499993911743,10|2,0:0|0:0,0:0:0:0:
334,335,103540,2,0,B|357:285|357:285|329:194,1,132.999995941162,8|0,0:0|0:0,0:0:0:0:
425,47,103859,6,0,B|402:97|402:97|430:188,1,132.999995941162,12|0,0:0|0:0,0:0:0:0:
450,242,104072,2,0,L|503:230,2,44.3333319803874,0|0|8,0:0|0:0|0:0,0:0:0:0:
273,133,104338,1,2,0:0:0:0:
264,133,104391,1,2,0:0:0:0:
255,134,104444,1,2,0:0:0:0:
246,135,104497,6,0,B|213:153|171:119|171:119|147:130|147:130|116:110|76:129,1,170.999994781494,10|0,0:1|0:0,0:0:0:0:
71,270,104737,1,2,0:0:0:0:
71,270,104817,2,0,B|104:243|80:225|118:188,1,85.4999973907472,8|0,0:0|0:0,0:0:0:0:
16,21,104976,2,0,B|36:58|58:37|88:81,1,85.4999973907472,2|0,0:0|0:0,0:0:0:0:
352,83,105136,6,0,B|299:87|271:52|271:52|269:99|213:129,1,170.999994781494,8|0,0:0|0:0,0:0:0:0:
254,255,105349,1,0,0:0:0:0:
260,261,105402,1,0,0:0:0:0:
267,269,105455,6,0,B|279:276|290:297|290:297|342:239|306:154,1,170.999994781494,10|2,0:1|0:0,0:0:0:0:
92,43,105668,1,2,0:0:0:0:
86,55,105721,1,2,0:0:0:0:
88,70,105774,6,0,P|134:70|167:46,1,85.4999973907472,10|0,0:0|0:0,0:0:0:0:
96,169,105934,1,0,0:0:0:0:
122,211,106013,2,0,P|99:171|61:154,1,85.4999973907472,2|8,0:0|0:0,0:0:0:0:
206,154,106174,1,0,0:0:0:0:
227,111,106253,2,0,P|204:150|208:191,1,85.4999973907472,2|2,0:0|0:0,0:0:0:0:
173,354,106412,6,2,B|318:365|318:365|346:350|346:350|433:359,1,256.499992172241,12|0,0:0|0:0,0:1:0:0:
506,324,106732,6,0,B|507:311|511:301|511:301|499:310|482:313,8,42.7499986953736,8|0|0|0|0|0|0|0|8,0:0|0:0|0:0|0:0|0:0|0:0|0:0|0:0|0:0,0:0:0:0:
507,167,107210,6,0,P|492:183|473:188,1,42.7499986953736
492,190,107290,2,0,P|472:199|452:198,1,42.7499986953736
470,206,107370,2,0,P|448:208|430:200,1,42.7499986953736,8|0,0:0|0:0,0:0:0:0:
443,213,107449,2,0,P|421:208|407:194,1,42.7499986953736
404,209,107529,1,0,0:0:0:0:
233,55,107689,5,8,0:0:0:0:
314,54,107795,2,0,B|271:71|271:71|222:50,1,88.6666639607748
151,117,108008,5,8,0:0:0:0:
175,185,108114,2,0,B|152:152|152:152|150:116,1,75.9999976806641
64,56,108327,5,8,0:0:0:0:
180,262,108487,1,2,0:0:0:0:
133,256,108567,1,2,0:0:0:0:
104,220,108646,1,10,0:0:0:0:
58,212,108726,1,2,0:0:0:0:
24,242,108806,1,2,0:0:0:0:
23,289,108886,1,2,0:0:0:0:
57,319,108966,5,8,0:0:0:0:
227,358,109125,1,2,0:0:0:0:
234,360,109178,1,2,0:0:0:0:
241,363,109232,1,2,0:0:0:0:
248,365,109285,2,0,B|278:331|278:331|265:260,1,113.999996520996,10|0,0:0|0:0,0:0:0:0:
155,31,109604,6,0,B|133:32|133:32|110:53,5,37.9999988403321,8|0|0|0|0|0,0:0|0:0|0:0|0:0|0:0|0:0,0:0:0:0:
222,144,109923,2,0,B|240:114|240:114|234:83,1,56.9999982604981,10|2,0:0|0:0,0:0:0:0:
86,134,110083,2,0,B|102:164|102:164|132:174,1,56.9999982604981,2|2,0:0|0:0,0:0:0:0:
80,268,110242,5,8,0:0:0:0:
136,262,110322,1,8,0:0:0:0:
186,289,110402,1,8,0:0:0:0:
242,283,110482,1,8,0:0:0:0:
292,310,110561,2,0,L|364:300,1,56.9999982604981,12|0,0:0|0:0,0:0:0:0:
414,186,110721,2,0,L|486:176,1,56.9999982604981,12|0,0:0|0:0,0:0:0:0:
267,54,110880,1,8,0:0:0:0:
267,54,110934,1,8,0:0:0:0:
267,54,110987,1,8,0:0:0:0:
267,54,111040,6,0,B|320:82|320:82|275:99|275:99|227:73|227:73|185:91|185:91|148:68|148:68|96:88|96:88|42:67,1,356.25001358986,6|0,0:0|0:0,0:0:0:0:
76,270,111519,6,0,B|100:187|100:187|0:154,2,170.999994781494,8|8|8,0:0|0:0|0:0,0:0:0:0:
19,61,111997,1,2,0:0:0:0:
30,64,112051,1,2,0:0:0:0:
40,67,112104,1,2,0:0:0:0:
51,68,112157,6,0,B|112:11|112:11|195:47,1,170.999994781494,10|0,0:1|0:0,0:0:0:0:
192,45,112396,2,0,B|253:-12|253:-12|336:24,1,170.999994781494,10|0,0:1|0:0,0:0:0:0:
333,22,112636,2,0,L|427:4,1,85.4999973907472,8|0,0:0|0:0,0:0:0:0:
476,253,112795,6,0,B|444:219|444:175|444:175|397:198|354:170,2,170.999994781494,8|8|8,0:0|0:0|0:0,0:0:0:0:
422,75,113274,1,2,0:0:0:0:
414,83,113327,1,2,0:0:0:0:
406,91,113380,1,2,0:0:0:0:
399,100,113434,6,0,P|328:99|282:193,1,170.999994781494,10|0,0:1|0:0,0:0:0:0:
279,177,113673,2,0,P|208:176|162:270,1,170.999994781494,10|0,0:1|0:0,0:0:0:0:
159,254,113912,2,0,P|122:260|86:295,1,85.4999973907472,8|0,0:0|0:0,0:0:0:0:
25,223,114072,6,0,B|42:314|42:314|32:307|32:307|46:392,2,170.999994781494,8|8|8,0:0|0:0|0:0,0:0:0:0:
174,370,114551,1,2,0:0:0:0:
185,369,114604,1,2,0:0:0:0:
196,366,114657,1,2,0:0:0:0:
207,363,114710,6,0,B|264:295|264:295|206:209,1,190,10|0,0:1|0:0,0:0:0:0:
207,59,114950,2,0,B|264:127|264:127|206:213,1,190,10|0,0:1|0:0,0:0:0:0:
112,217,115189,2,0,L|219:210,1,95,8|0,0:0|0:0,0:0:0:0:
481,337,115349,6,0,B|496:289|453:248|453:248|408:257|379:228,2,170.999994781494,8|8|8,0:0|0:0|0:0,0:0:0:0:
430,168,115827,1,2,0:0:0:0:
432,156,115880,1,2,0:0:0:0:
434,144,115934,1,2,0:0:0:0:
437,133,115987,6,0,P|379:104|253:133,1,190,10|0,0:1|0:0,0:0:0:0:
105,44,116226,2,0,P|169:47|264:136,1,190,10|0,0:1|0:0,0:0:0:0:
229,216,116466,2,0,B|236:167|251:182|260:123,1,95,8|0,0:0|0:0,0:0:0:0:
16,351,116625,5,8,0:0:0:0:
32,286,116705,1,8,0:0:0:0:
91,256,116785,1,8,0:0:0:0:
154,272,116864,1,8,0:0:0:0:
189,328,116944,5,12,0:0:0:0:
379,65,117184,5,10,0:0:0:0:
442,366,117423,5,10,0:0:0:0:
154,48,117662,5,10,0:0:0:0:
98,367,117902,5,10,0:0:0:0:
468,239,118141,5,10,0:0:0:0:
29,191,118380,5,10,0:0:0:0:
434,56,118620,5,10,0:0:0:0:
89,378,118859,6,2,P|67:339|66:287,1,95,10|2,0:0|0:0,0:0:0:0:
234,251,119019,2,2,P|256:290|257:342,1,95,10|2,0:0|0:0,0:0:0:0:
163,311,119178,5,8,0:0:0:0:
482,341,119338,1,8,0:0:0:0:
482,341,119418,1,0,0:0:0:0:
482,341,119497,2,0,B|498:294|498:294|477:248,1,95
512,161,119657,2,0,L|409:151,1,95,8|0,0:0|0:0,0:0:0:0:
394,34,119817,1,8,0:0:0:0:
363,92,119896,1,0,0:0:0:0:
303,122,119976,1,0,0:0:0:0:
236,116,120056,1,0,0:0:0:0:
183,75,120136,5,8,0:0:0:0:
41,212,120295,1,10,0:0:0:0:
41,212,120375,1,10,0:0:0:0:
41,212,120455,2,0,P|91:180|108:144,1,95,10|0,0:0|0:0,0:0:0:0:
0,14,120614,2,0,P|28:44|91:53,1,95,8|0,0:0|0:0,0:0:0:0:
229,267,120774,5,8,0:0:0:0:
255,205,120854,1,8,0:0:0:0:
226,143,120934,1,8,0:0:0:0:
2,288,121093,5,10,0:0:0:0:
5,316,121146,1,2,0:0:0:0:
20,338,121200,1,2,0:0:0:0:
42,349,121253,2,0,P|83:357|134:332,1,95,2|0,0:0|0:0,0:0:0:0:
400,367,121412,6,0,B|273:275|255:420|107:322,1,285,12|0,0:0|0:0,0:0:0:0:
129,335,121732,5,10,0:0:0:0:
156,290,121811,1,0,0:0:0:0:
149,237,121891,1,0,0:0:0:0:
104,207,121971,2,0,P|65:206|33:190,2,76,2|8|0,0:0|0:0|0:0,0:0:0:0:
54,28,122210,2,0,P|22:48|3:81,1,76,8|0,0:0|0:0,0:0:0:0:
183,127,122370,2,0,P|180:89|162:56,1,76,2|0,0:1|0:0,0:0:0:0:
91,109,122529,2,0,P|92:129|82:115,2,50.6666666666667,8|2|2,0:0|0:0|0:0,0:0:0:0:
189,214,122689,5,10,0:0:0:0:
234,242,122769,1,0,0:0:0:0:
287,242,122849,1,0,0:0:0:0:
328,209,122928,2,0,L|409:187,2,76,2|8|0,0:0|0:0|0:0,0:0:0:0:
467,351,123168,2,0,L|487:278,1,76,8|0,0:0|0:0,0:0:0:0:
293,327,123327,2,0,L|347:381,1,76,2|0,0:1|0:0,0:0:0:0:
375,286,123487,2,0,B|399:282|399:282|391:311,2,50.6666666666667,8|2|2,0:0|0:0|0:0,0:0:0:0:
488,192,123646,6,0,B|509:160|509:160|484:40,1,152,10|0,0:0|0:0,0:0:0:0:
236,160,123886,1,2,0:0:0:0:
236,160,123966,2,0,B|259:196|259:196|298:211,1,76,8|0,0:0|0:0,0:0:0:0:
348,26,124125,2,0,B|304:28|304:28|271:54,1,76,8|0,0:0|0:0,0:0:0:0:
408,179,124285,2,0,B|427:140|427:140|421:98,1,76,2|0,0:0|0:0,0:0:0:0:
331,112,124444,2,0,B|315:132|315:132|343:129,2,50.6666666666667,8|2|2,0:0|0:0|0:0,0:0:0:0:
183,69,124604,6,0,B|102:54|102:54|30:96,1,152,8|0,0:0|0:0,0:0:0:0:
152,232,124843,2,0,B|70:218|70:218|17:154,1,152,10|0,0:0|0:0,0:0:0:0:
118,140,125083,2,0,L|212:158,1,76,10|0,0:0|0:0,0:0:0:0:
475,289,125242,6,0,B|493:293|493:293|494:276|494:276|474:272,5,50.6666666666667,8|0|0|0|0|0,0:0|0:0|0:0|0:0|0:0|0:0,0:0:0:0:
391,293,125561,5,8,0:0:0:0:
359,312,125641,1,2,0:0:0:0:
324,327,125721,1,0,0:0:0:0:
290,342,125801,2,0,L|307:277,1,61.7499971733095,2|8,0:0|0:0,0:0:0:0:
201,361,125960,1,0,0:0:0:0:
201,361,126040,2,0,L|218:296,1,61.7499971733095,8|0,0:0|0:0,0:0:0:0:
105,376,126200,6,0,B|129:281|129:281|121:251|121:251|144:228|142:192,1,190,2|10,0:1|0:0,0:0:0:0:
51,179,126412,6,0,P|51:194|59:178,1,41.1666647822063,8|8,0:0|0:0,0:0:0:0:
47,46,126519,5,2,0:0:0:0:
76,68,126599,1,0,0:0:0:0:
111,76,126678,1,0,0:0:0:0:
147,71,126758,2,0,P|158:36|151:4,2,61.7499971733095,2|8|0,0:0|0:0|0:0,0:0:0:0:
271,91,126997,2,0,P|246:109|216:114,1,61.7499971733095,8|0,0:0|0:0,0:0:0:0:
189,192,127157,2,0,P|213:219|245:228,1,61.7499971733095,2|0,0:1|0:0,0:0:0:0:
469,338,127317,2,0,L|459:379,2,41.1666647822063,8|2|2,0:0|0:0|0:0,0:0:0:0:
501,251,127476,5,8,0:0:0:0:
497,213,127556,1,2,0:0:0:0:
493,175,127636,1,0,0:0:0:0:
488,138,127716,2,0,B|492:108|492:108|477:80,2,61.7499971733095,2|8|0,0:0|0:0|0:0,0:0:0:0:
351,113,127955,2,0,B|382:114|382:114|406:132,1,61.7499971733095,8|0,0:0|0:0,0:0:0:0:
359,199,128114,2,0,B|331:211|331:211|315:238,1,61.7499971733095,2|0,0:0|0:0,0:0:0:0:
167,358,128274,1,8,0:0:0:0:
174,359,128327,1,2,0:0:0:0:
181,361,128380,1,2,0:0:0:0:
189,362,128434,6,0,B|84:356|84:356|112:349|128:333,1,142.500005435944,8|0,0:0|0:0,0:0:0:0:
103,170,128673,2,0,P|158:208|163:278,1,142.500005435944,2|0,0:0|0:0,0:0:0:0:
4,267,128912,2,0,L|86:260,1,71.2500027179719,8|0,0:0|0:0,0:0:0:0:
237,70,129072,6,0,B|235:55|242:42|242:42|231:38|220:16,5,53.8333343601227,8|0|0|0|0|0,0:0|0:0|0:0|0:0|0:0|0:0,0:0:0:0:
176,132,129391,6,0,L|260:151,1,85.4999973907472,8|0,0:0|0:0,0:0:0:0:
306,44,129551,1,0,0:0:0:0:
314,66,129630,2,0,L|405:87,2,85.4999973907472,2|8|0,0:0|0:0|0:0,0:0:0:0:
464,22,129870,2,0,B|486:60|486:60|478:108,1,85.4999973907472,8|0,0:0|0:0,0:0:0:0:
430,281,130029,6,0,B|391:297|391:297|421:164,1,170.999994781494,2|8,0:1|0:0,0:0:0:0:
237,130,130242,1,2,0:0:0:0:
223,141,130295,1,2,0:0:0:0:
212,152,130349,6,0,P|174:130|126:136,1,85.4999973907472,8|2,0:0|0:0,0:0:0:0:
106,30,130508,1,0,0:0:0:0:
132,51,130588,2,0,P|93:60|59:96,2,85.4999973907472,2|8|0,0:0|0:0|0:0,0:0:0:0:
129,216,130827,2,0,P|88:206|59:176,1,85.4999973907472,8|0,0:0|0:0,0:0:0:0:
83,349,130987,6,0,B|177:373|167:296|250:322,1,170.999994781494,2|8,0:1|0:0,0:0:0:0:
451,372,131200,1,2,0:0:0:0:
459,364,131253,1,2,0:0:0:0:
467,356,131306,6,0,L|432:270,1,85.4999973907472,8|2,0:0|0:0,0:0:0:0:
469,139,131466,1,0,0:0:0:0:
502,133,131545,2,0,L|445:206,2,85.4999973907472,2|8|0,0:0|0:0|0:0,0:0:0:0:
290,212,131785,2,0,L|381:224,1,85.4999973907472,8|0,0:0|0:0,0:0:0:0:
446,46,131944,6,0,B|359:33|359:33|295:95,1,170.999994781494,2|8,0:0|0:0,0:0:0:0:
253,283,132157,1,2,0:0:0:0:
241,286,132210,1,2,0:0:0:0:
229,284,132263,6,0,P|201:253|194:206,1,85.4999973907472,8|2,0:0|0:0,0:0:0:0:
32,81,132423,1,0,0:0:0:0:
0,107,132503,2,0,P|38:122|85:113,2,85.4999973907472,2|8|0,0:0|0:0|0:0,0:0:0:0:
21,298,132742,2,0,L|85:231,1,85.4999973907472,8|0,0:0|0:0,0:0:0:0:
236,50,132902,2,0,P|230:27|199:23,5,56.9999982604981,8|0|0|0|0|0,0:0|0:0|0:0|0:0|0:0|0:0,0:0:0:0:
301,103,133221,6,0,P|330:126|347:179,1,95,8|2,0:0|0:0,0:0:0:0:
244,328,133380,1,8,0:0:0:0:
213,259,133460,2,0,P|218:222|255:181,1,95,2|8,0:0|0:0,0:0:0:0:
438,197,133620,1,0,0:0:0:0:
393,258,133700,2,0,P|358:271|304:259,1,95,8|0,0:0|0:0,0:0:0:0:
97,359,133859,6,0,B|127:228|58:295|94:136,1,190,2|8,0:1|0:0,0:0:0:0:
26,28,134072,1,2,0:0:0:0:
46,33,134125,1,2,0:0:0:0:
67,40,134178,6,0,B|117:63|117:63|175:46,1,95,8|2,0:0|0:0,0:0:0:0:
340,94,134338,1,8,0:0:0:0:
280,149,134418,2,0,L|183:135,1,95,2|8,0:0|0:0,0:0:0:0:
172,260,134577,1,0,0:0:0:0:
227,316,134657,2,0,B|253:276|253:276|242:219,1,95,10|2,0:0|0:0,0:0:0:0:
3,41,134817,6,0,B|34:73|34:73|11:98|11:98|32:224,1,190,2|8,0:1|0:0,0:0:0:0:
135,367,135029,1,2,0:0:0:0:
156,371,135083,1,2,0:0:0:0:
178,377,135136,6,0,L|273:363,1,95,8|2,0:0|0:0,0:0:0:0:
377,229,135295,1,8,0:0:0:0:
423,294,135375,2,0,B|381:308|381:308|324:294,1,95,2|8,0:0|0:0,0:0:0:0:
167,161,135535,1,0,0:0:0:0:
125,222,135615,2,0,B|115:107,1,95,10|2,0:0|0:0,0:0:0:0:
415,21,135774,6,2,B|469:60|469:60|418:58|418:58|395:42|395:42|372:57|372:57|353:43|353:43|330:54|330:54|306:39|306:39|281:51|281:51|260:34|260:34|233:46|233:46|209:29|209:29|184:44|184:44|162:26|162:26|136:40|136:40|113:24|113:24|88:39|88:39|62:23|62:23|33:39,1,570,2|0,0:1|0:0,0:1:0:0:
24,266,136093,6,0,P|52:306|16:272,17,126.666666666667,10|2|2|10|2|2|10|2|2|10|2|2|10|2|2|10|2|2,0:0|0:0|0:0|0:0|0:0|0:0|0:0|0:0|0:0|0:0|0:0|0:0|0:0|0:0|0:0|0:0|0:0|0:0,0:0:0:0:
40,185,137051,6,0,P|99:203|139:276,1,142.500005435944,4|0,0:0|0:0,0:0:0:0:
131,355,137529,2,0,L|188:344,1,35.625001358986
234,375,137689,1,8,0:0:0:0:
355,238,137928,1,0,0:0:0:0:
175,201,138168,1,2,0:0:0:0:
252,281,138327,6,0,P|266:244|277:209,1,71.2500027179719,2|0,0:0|0:0,0:0:0:0:
64,71,138646,2,0,P|74:104|87:138,1,71.2500027179719,10|0,0:0|0:0,0:0:0:0:
224,94,138966,2,0,L|349:80,1,106.875004076958,2|0,0:0|0:0,0:0:0:0:
330,82,139285,1,2,0:0:0:0:
499,126,139444,1,2,0:0:0:0:
430,66,139604,6,0,L|406:138,1,71.2500027179719
509,226,139923,2,0,L|437:202,1,71.2500027179719,2|0,0:0|0:0,0:0:0:0:
349,305,140242,2,0,L|373:233,1,71.2500027179719,8|0,0:0|0:0,0:0:0:0:
270,145,140561,2,0,L|342:169,1,71.2500027179719,2|0,0:0|0:0,0:0:0:0:
125,362,140880,6,0,P|110:322|116:284,1,71.2500027179719
123,112,141200,2,0,P|137:145|136:180,1,71.2500027179719,2|0,0:0|0:0,0:0:0:0:
0,237,141519,2,0,P|40:222|78:228,1,71.2500027179719,8|0,0:0|0:0,0:0:0:0:
249,237,141838,2,0,P|209:252|171:246,1,71.2500027179719
284,318,142157,6,0,L|440:350,1,142.500005435944,4|2,0:0|0:0,0:0:0:0:
462,275,142636,1,0,0:0:0:0:
505,363,142795,2,0,P|499:308|452:272,1,106.875004076958,8|0,0:0|0:0,0:0:0:0:
462,275,143114,2,0,L|383:255,1,71.2500027179719,0|2,0:0|0:0,0:0:0:0:
318,238,143434,5,2,0:0:0:0:
446,150,143593,1,0,0:0:0:0:
357,154,143753,1,8,0:0:0:0:
305,79,143912,2,0,L|261:14,1,71.2500027179719,2|8,0:0|0:0,0:0:0:0:
152,200,144232,2,0,L|186:129,1,71.2500027179719,2|0,0:0|0:0,0:0:0:0:
33,58,144551,2,0,L|23:31,2,23.7500009059906,2|2|2,0:0|0:0|0:0,0:0:0:0:
33,58,144710,6,0,P|33:99|15:125,1,71.2500027179719,2|0,0:0|0:0,0:0:0:0:
152,200,145029,2,0,P|116:220|84:217,1,71.2500027179719,2|0,0:0|0:0,0:0:0:0:
14,295,145349,5,2,0:0:0:0:
68,351,145508,1,2,0:0:0:0:
144,367,145668,1,2,0:0:0:0:
216,337,145827,1,0,0:0:0:0:
261,272,145987,5,8,0:0:0:0:
156,199,146146,1,0,0:0:0:0:
165,70,146306,1,2,0:0:0:0:
274,2,146466,1,0,0:0:0:0:
474,198,146625,5,8,0:0:0:0:
425,136,146785,1,8,0:0:0:0:
360,180,146944,1,8,0:0:0:0:
285,154,147104,1,2,0:0:0:0:
