osu file format v14

[General]
AudioFilename: audio.mp3
AudioLeadIn: 0
PreviewTime: 80162
Countdown: 0
SampleSet: Soft
StackLeniency: 0.7
Mode: 0
LetterboxInBreaks: 0
WidescreenStoryboard: 0

[Editor]
Bookmarks: 1732,14497,24710,34923,45136,50242,60455,68114,75774,80880,101306,111519,121732,137051,147104
DistanceSpacing: 1
BeatDivisor: 4
GridSize: 32
TimelineZoom: 2.2

[Metadata]
Title:ouroboros -twin stroke of the end-
TitleUnicode:ouroboros -twin stroke of the end-
Artist:Cranky vs. MASAKI
ArtistUnicode:Cranky vs. MASAKI
Creator:celerih
Version:Extreme
Source:グルーヴコースター 3EX ドリームパーティー
Tags:Muya Flask Niva hhjkl GROOVE COASTER 3EX DREAM PARTY クロニカ CHUNITHM AMAZON SOUND VOLTEX IV HEAVENLY HAVEN チュウニズム アマゾン ZUNTATA 森正樹 Masaki Mori Hiroshi Watanabe 渡辺洋 天下一音ゲ祭 全国一斉認定大会 2017 Electronic Instrumental Rhythm Game sdvx 4
BeatmapID:2198640
BeatmapSetID:1052054

[Difficulty]
HPDrainRate:6.6
CircleSize:5
OverallDifficulty:9.5
ApproachRate:9.8
SliderMultiplier:2
SliderTickRate:1

[Events]
//Background and Video events
0,0,"ouroboros bg.jpg",0,0
//Break Periods
//Storyboard Layer 0 (Background)
//Storyboard Layer 1 (Fail)
//Storyboard Layer 2 (Pass)
//Storyboard Layer 3 (Foreground)
//Storyboard Layer 4 (Overlay)
//Storyboard Sound Samples

[TimingPoints]
1732,319.148936170213,4,2,2,60,1,0
1732,-125,4,2,2,60,0,0
12263,-62.5,4,2,1,80,0,0
14497,-71.4285714285714,4,2,1,80,0,0
34285,-71.4285714285714,4,2,1,65,0,0
34604,-71.4285714285714,4,2,1,55,0,0
34923,-71.4285714285714,4,2,3,75,0,0
45136,-90.9090909090909,4,2,1,70,0,0
50242,-71.4285714285714,4,2,1,80,0,0
73540,-166.666666666667,4,2,1,55,0,0
75774,-125,4,2,1,55,0,0
80242,-125,4,2,1,80,0,0
80880,-62.5,4,2,1,80,0,1
100987,-71.4285714285714,4,2,1,80,0,0
121412,-55.5555555555556,4,2,1,80,0,0
121732,319.148936170213,3,2,1,80,1,1
121732,-62.5,3,2,1,95,0,1
137051,319.148936170213,4,2,2,60,1,1
137051,-125,3,2,2,60,0,0

[Colours]
Combo1 : 242,57,57
Combo2 : 58,136,177
Combo3 : 230,117,117
Combo4 : 63,97,233

[HitObjects]
85,98,1732,6,0,L|264:113,1,160,4|0,0:0|0:0,0:0:0:0:
375,44,2210,1,0,0:0:0:0:
375,44,2290,1,0,0:0:0:0:
375,44,2370,1,8,0:0:0:0:
319,119,2609,1,0,0:0:0:0:
377,189,2849,1,2,0:0:0:0:
329,241,3008,6,0,L|337:331,1,80,2|0,0:0|0:0,0:0:0:0:
253,248,3327,2,0,B|264:363|264:363|310:385,2,160,2|2|2,0:0|0:0|0:0,0:0:0:0:
263,152,4125,1,2,0:0:0:0:
97,23,4285,6,0,P|58:33|1:39,3,80,0|0|2|0,0:0|0:0|0:0|0:0,0:0:0:0:
123,134,4923,2,0,P|85:123|42:122,3,80,8|0|2|0,0:0|0:0|0:0|0:0,0:0:0:0:
3,238,5561,6,0,P|43:235|100:221,1,80,8|0,0:0|0:0,0:0:0:0:
252,313,5880,2,0,B|274:334|306:340|306:340|359:323|396:261|396:261|451:272|474:320|474:320|453:322|430:337,1,320,2|0,0:0|0:0,0:0:0:0:
337,216,6838,5,4,0:0:0:0:
405,23,7157,2,0,L|503:43,1,80,2|0,0:0|0:0,0:0:0:0:
364,86,7476,1,8,0:0:0:0:
274,32,7716,1,0,0:0:0:0:
195,102,7955,1,2,0:0:0:0:
146,45,8114,6,0,L|34:50,1,80,2|0,0:0|0:0,0:0:0:0:
204,113,8434,1,8,0:0:0:0:
167,177,8593,2,0,B|129:248|129:248|184:328,1,160,2|2,0:0|0:0,0:0:0:0:
269,362,9232,5,2,0:0:0:0:
269,362,9285,1,2,0:0:0:0:
269,362,9338,1,2,0:0:0:0:
269,362,9391,2,0,L|368:369,3,80,2|0|8|0,0:0|0:0|0:0|0:0,0:0:0:0:
366,209,10029,5,2,0:0:0:0:
336,283,10189,1,2,0:0:0:0:
256,272,10349,1,2,0:0:0:0:
246,192,10508,1,0,0:0:0:0:
311,145,10668,5,10,0:0:0:0:
356,79,10827,1,0,0:0:0:0:
275,73,10987,5,2,0:0:0:0:
311,145,11146,1,0,0:0:0:0:
389,163,11306,1,2,0:0:0:0:
423,235,11466,1,8,0:0:0:0:
372,296,11625,1,8,0:0:0:0:
297,266,11785,2,0,L|304:321,1,40,2|0,0:0|0:0,0:0:0:0:
329,316,12263,6,0,B|327:194|327:194|274:167,1,160,12|0,0:0|0:0,0:0:0:0:
329,111,12503,1,0,0:0:0:0:
401,96,12583,2,0,L|413:194,1,80,8|0,0:0|0:0,0:0:0:0:
242,297,12742,2,8,L|266:398,1,80
179,214,12902,2,8,L|9:191,1,160,10|8,0:0|0:0,0:0:0:0:
32,117,13141,1,8,0:0:0:0:
43,90,13221,5,8,0:0:0:0:
58,88,13274,1,0,0:0:0:0:
73,86,13327,1,0,0:0:0:0:
88,85,13380,1,0,0:0:0:0:
104,83,13434,1,0,0:0:0:0:
119,82,13487,1,0,0:0:0:0:
130,50,13540,5,10,0:0:0:0:
150,52,13593,1,0,0:0:0:0:
171,55,13646,1,0,0:0:0:0:
192,56,13699,1,0,0:0:0:0:
214,59,13753,1,0,0:0:0:0:
235,61,13806,1,0,0:0:0:0:
263,31,13859,5,10,0:0:0:0:
300,10,13912,1,2,0:0:0:0:
343,13,13966,1,2,0:0:0:0:
375,39,14019,1,2,0:0:0:0:
413,56,14072,1,2,0:0:0:0:
455,54,14125,1,2,0:0:0:0:
497,0,14178,5,8,0:0:0:0:
487,12,14497,6,0,B|474:118|474:118|498:157,1,139.999995727539,12|0,0:0|0:0,0:0:0:0:
438,185,14737,1,2,0:0:0:0:
378,156,14817,1,10,0:0:0:0:
350,152,14896,1,2,0:0:0:0:
322,147,14976,1,2,0:0:0:0:
210,30,15136,5,8,0:0:0:0:
146,73,15295,1,2,0:0:0:0:
149,89,15375,1,0,0:0:0:0:
57,51,15535,1,2,0:0:0:0:
60,67,15615,1,0,0:0:0:0:
303,44,15774,6,0,L|315:130,1,69.9999978637696,8|0,0:0|0:0,0:0:0:0:
399,17,15934,1,2,0:0:0:0:
394,33,16013,1,2,0:0:0:0:
390,49,16093,1,10,0:0:0:0:
184,141,16253,6,0,L|207:-11,1,139.999995727539,2|10,0:1|0:0,0:0:0:0:
214,14,16466,1,2,0:0:0:0:
223,25,16519,1,2,0:0:0:0:
232,35,16572,1,2,0:0:0:0:
511,163,16732,5,8,0:0:0:0:
474,40,16891,1,2,0:0:0:0:
97,358,17051,6,0,B|94:255|94:255|120:204,1,139.999995727539,12|0,0:0|0:0,0:0:0:0:
47,203,17290,1,0,0:0:0:0:
0,252,17370,1,10,0:0:0:0:
5,279,17450,1,2,0:0:0:0:
11,305,17529,1,2,0:0:0:0:
202,368,17689,5,8,0:0:0:0:
288,300,17849,1,2,0:0:0:0:
287,318,17928,1,0,0:0:0:0:
383,337,18088,1,2,0:0:0:0:
383,357,18167,1,0,0:0:0:0:
215,237,18327,6,0,L|230:166,1,69.9999978637696,8|0,0:0|0:0,0:0:0:0:
396,268,18487,1,2,0:0:0:0:
391,250,18566,1,2,0:0:0:0:
386,233,18646,1,10,0:0:0:0:
79,361,18806,6,0,L|107:181,1,139.999995727539,2|10,0:1|0:0,0:0:0:0:
90,232,19019,1,2,0:0:0:0:
80,241,19072,1,2,0:0:0:0:
70,250,19125,1,2,0:0:0:0:
341,373,19285,5,8,0:0:0:0:
465,300,19444,1,2,0:0:0:0:
176,122,19604,6,0,B|69:111|69:111|49:140,1,139.999995727539,12|0,0:0|0:0,0:0:0:0:
9,29,19843,1,2,0:0:0:0:
25,17,19923,1,10,0:0:0:0:
184,102,20083,1,0,0:0:0:0:
68,340,20242,5,8,0:0:0:0:
136,262,20402,1,2,0:0:0:0:
118,265,20482,1,0,0:0:0:0:
105,169,20641,1,2,0:0:0:0:
87,172,20721,1,0,0:0:0:0:
199,61,20880,6,0,L|186:-21,1,69.9999978637696,8|0,0:0|0:0,0:0:0:0:
119,148,21040,1,2,0:0:0:0:
126,173,21120,1,2,0:0:0:0:
135,198,21200,1,10,0:0:0:0:
21,374,21359,6,0,L|45:204,1,139.999995727539,2|10,0:1|0:0,0:0:0:0:
27,241,21572,1,2,0:0:0:0:
14,247,21625,1,2,0:0:0:0:
2,254,21678,1,2,0:0:0:0:
66,12,21838,5,8,0:0:0:0:
102,144,21997,1,8,0:0:0:0:
325,347,22157,6,0,B|429:339|429:339|450:369,1,139.999995727539,12|0,0:0|0:0,0:0:0:0:
511,282,22396,1,0,0:0:0:0:
496,288,22476,1,8,0:0:0:0:
264,377,22636,1,0,0:0:0:0:
324,159,22795,5,8,0:0:0:0:
367,78,22955,1,2,0:0:0:0:
382,74,23035,1,0,0:0:0:0:
302,6,23194,1,2,0:0:0:0:
317,2,23274,1,0,0:0:0:0:
446,176,23434,6,0,L|459:102,1,69.9999978637696,8|0,0:0|0:0,0:0:0:0:
329,251,23593,1,2,0:0:0:0:
336,270,23673,1,2,0:0:0:0:
342,289,23753,1,10,0:0:0:0:
512,26,23912,6,0,L|369:48,1,139.999995727539,2|8,0:1|0:0,0:0:0:0:
357,36,24125,1,8,0:0:0:0:
345,71,24178,1,8,0:0:0:0:
333,107,24232,1,8,0:0:0:0:
466,279,24391,5,12,0:0:0:0:
354,382,24551,1,8,0:0:0:0:
35,286,24710,6,0,B|139:277|139:277|171:232,1,139.999995727539,12|0,0:0|0:0,0:0:0:0:
193,312,24950,1,2,0:0:0:0:
156,368,25029,1,10,0:0:0:0:
128,365,25109,1,2,0:0:0:0:
100,362,25189,1,2,0:0:0:0:
333,291,25349,5,8,0:0:0:0:
411,333,25508,1,2,0:0:0:0:
414,354,25588,1,0,0:0:0:0:
497,295,25747,1,2,0:0:0:0:
500,316,25827,1,0,0:0:0:0:
132,220,25987,6,0,L|41:236,1,69.9999978637696,8|0,0:0|0:0,0:0:0:0:
157,331,26146,1,2,0:0:0:0:
176,336,26226,1,2,0:0:0:0:
195,341,26306,1,10,0:0:0:0:
498,268,26466,6,0,L|358:240,1,139.999995727539,2|10,0:1|0:0,0:0:0:0:
367,253,26678,1,2,0:0:0:0:
374,266,26732,1,2,0:0:0:0:
380,279,26785,1,2,0:0:0:0:
34,283,26944,5,8,0:0:0:0:
164,358,27104,1,2,0:0:0:0:
301,55,27263,6,0,B|196:44|196:44|174:2,1,139.999995727539,12|0,0:0|0:0,0:0:0:0:
137,69,27503,1,2,0:0:0:0:
151,133,27583,1,10,0:0:0:0:
178,131,27662,1,2,0:0:0:0:
205,128,27742,1,2,0:0:0:0:
498,20,27902,5,8,0:0:0:0:
424,74,28061,1,2,0:0:0:0:
429,94,28141,1,0,0:0:0:0:
332,37,28301,1,2,0:0:0:0:
337,57,28381,1,0,0:0:0:0:
139,128,28540,6,0,L|154:50,1,69.9999978637696,8|0,0:0|0:0,0:0:0:0:
42,21,28700,1,2,0:0:0:0:
50,48,28779,1,2,0:0:0:0:
59,75,28859,1,10,0:0:0:0:
352,114,29019,6,0,L|519:137,1,139.999995727539,2|10,0:1|0:0,0:0:0:0:
477,119,29232,1,2,0:0:0:0:
465,104,29285,1,2,0:0:0:0:
453,89,29338,1,2,0:0:0:0:
56,9,29497,5,8,0:0:0:0:
75,132,29657,1,8,0:0:0:0:
417,382,29817,6,0,B|472:359|472:359|456:133,1,279.999991455078,10|8,0:1|0:0,0:0:0:0:
142,144,30295,2,2,L|94:-26,1,139.999995727539,2|10,0:0|0:0,0:0:0:0:
123,18,30535,1,2,0:0:0:0:
142,26,30614,1,2,0:0:0:0:
217,250,30774,1,8,0:0:0:0:
114,373,30933,1,2,0:0:0:0:
21,206,31093,6,0,B|32:102|32:102|-9:62,1,139.999995727539,10|2,0:1|0:0,0:0:0:0:
50,20,31333,1,2,0:0:0:0:
56,29,31412,1,10,0:0:0:0:
332,303,31572,2,0,B|243:315|243:315|163:259|163:259|54:271,1,279.999991455078,2|0,0:0|0:0,0:0:0:0:
392,40,32051,1,8,0:0:0:0:
148,91,32210,1,0,0:0:0:0:
397,354,32370,6,0,B|429:290|429:290|396:226,1,139.999995727539,12|0,0:0|0:0,0:0:0:0:
332,233,32609,1,2,0:0:0:0:
280,273,32689,1,10,0:1:0:0:
285,308,32769,1,2,0:0:0:0:
289,343,32849,1,2,0:0:0:0:
439,148,33008,1,10,0:1:0:0:
424,81,33088,1,2,0:0:0:0:
406,16,33168,1,2,0:0:0:0:
289,365,33327,1,10,0:1:0:0:
303,318,33407,1,2,0:0:0:0:
317,270,33487,1,2,0:0:0:0:
331,223,33567,1,2,0:0:0:0:
363,122,33646,5,10,0:1:0:0:
407,188,33753,1,2,0:0:0:0:
486,163,33859,1,2,0:0:0:0:
336,118,33966,5,10,0:0:0:0:
437,76,34072,1,2,0:0:0:0:
504,172,34178,1,2,0:0:0:0:
331,223,34285,5,8,0:0:0:0:
266,199,34391,1,8,0:0:0:0:
203,175,34497,1,8,0:0:0:0:
137,91,34604,5,8,0:0:0:0:
111,124,34710,1,8,0:0:0:0:
82,158,34817,1,8,0:0:0:0:
10,54,34923,6,0,B|5:20|5:20|-27:105|-27:105|7:171|7:171|-1:262,1,279.999991455078,8|0,0:0|0:0,0:0:0:0:
161,337,35402,1,0,0:0:0:0:
161,337,35455,1,0,0:0:0:0:
161,337,35508,1,0,0:0:0:0:
161,337,35561,6,0,B|184:294|184:294|157:239,1,93.3333304850261,6|0,0:0|0:0,0:0:0:0:
232,118,35774,2,0,B|281:112|281:112|323:159,1,93.3333304850261,2|0,0:0|0:0,0:0:0:0:
83,133,35987,2,0,B|67:91|67:91|101:25,1,93.3333304850261,2|0,0:0|0:0,0:0:0:0:
333,283,36200,5,4,0:0:0:0:
375,341,36359,2,0,B|508:358|508:358|437:188,1,279.999991455078,8|8,0:0|0:0,0:0:0:0:
154,194,36838,1,4,0:0:0:0:
35,134,36997,2,0,B|-21:269|-21:269|112:252,1,279.999991455078,8|8,0:0|0:0,0:0:0:0:
494,57,37476,6,0,B|481:33|481:33|469:86|469:86|498:179|498:179|440:268|440:268|395:125,1,419.999987182618,8|2,0:0|0:0,0:0:0:0:
399,139,38008,1,2,0:0:0:0:
399,139,38061,1,2,0:0:0:0:
399,139,38114,5,8,0:0:0:0:
338,178,38221,1,8,0:0:0:0:
271,145,38327,1,8,0:0:0:0:
242,69,38434,6,0,L|255:-22,1,69.9999978637696,2|0,0:0|0:0,0:0:0:0:
144,55,38593,2,0,L|157:146,1,69.9999978637696,2|0,0:0|0:0,0:0:0:0:
40,174,38753,5,8,0:0:0:0:
40,181,38806,1,0,0:0:0:0:
41,187,38859,1,0,0:0:0:0:
41,193,38912,1,0,0:0:0:0:
42,199,38965,1,0,0:0:0:0:
43,205,39018,1,0,0:0:0:0:
70,223,39072,5,10,0:0:0:0:
119,219,39152,1,2,0:0:0:0:
167,213,39232,1,2,0:0:0:0:
215,208,39311,1,2,0:0:0:0:
282,239,39391,5,8,0:0:0:0:
333,176,39497,1,8,0:0:0:0:
289,109,39604,1,8,0:0:0:0:
198,200,39710,5,8,0:0:0:0:
236,309,39817,1,8,0:0:0:0:
352,306,39923,1,8,0:0:0:0:
416,161,40029,6,0,B|440:106|440:106|489:177|489:177|458:249|458:249|486:338,1,279.999991455078,8|0,0:0|0:0,0:0:0:0:
351,96,40508,1,0,0:0:0:0:
351,96,40561,1,0,0:0:0:0:
351,96,40614,1,0,0:0:0:0:
351,96,40668,6,0,L|369:-1,1,93.3333304850261,4|0,0:0|0:0,0:0:0:0:
242,198,40880,2,0,L|300:313,1,93.3333304850261,2|0,0:0|0:0,0:0:0:0:
192,38,41093,2,0,L|93:19,1,93.3333304850261,2|0,0:0|0:0,0:0:0:0:
430,221,41306,5,12,0:0:0:0:
419,126,41466,2,0,B|355:139|355:139|328:360,1,279.999991455078,8|8,0:0|0:0,0:0:0:0:
28,139,41944,5,4,0:0:0:0:
129,270,42104,2,0,B|102:56|102:56|38:43,1,279.999991455078,8|8,0:0|0:0,0:0:0:0:
198,349,42583,6,0,B|289:361|289:361|376:280|376:280|508:290|508:290|436:347,1,419.999987182618,0|2,0:0|0:0,0:0:0:0:
447,337,43114,1,2,0:0:0:0:
447,337,43168,1,2,0:0:0:0:
447,337,43221,5,8,0:0:0:0:
418,273,43327,1,8,0:0:0:0:
464,216,43434,1,8,0:0:0:0:
507,129,43540,6,0,L|494:49,1,69.9999978637696,2|0,0:0|0:0,0:0:0:0:
383,167,43700,2,0,L|392:87,1,69.9999978637696,2|0,0:0|0:0,0:0:0:0:
257,39,43859,5,8,0:0:0:0:
247,36,43912,1,0,0:0:0:0:
237,35,43966,1,0,0:0:0:0:
228,32,44019,1,0,0:0:0:0:
218,30,44072,1,0,0:0:0:0:
208,28,44125,1,0,0:0:0:0:
178,58,44178,5,10,0:0:0:0:
186,106,44258,1,2,0:0:0:0:
195,154,44338,1,2,0:0:0:0:
204,202,44418,1,2,0:0:0:0:
143,265,44497,5,8,0:0:0:0:
67,222,44604,1,8,0:0:0:0:
75,136,44710,1,8,0:0:0:0:
234,208,44817,5,8,0:0:0:0:
337,171,44923,1,8,0:0:0:0:
359,62,45029,1,8,0:0:0:0:
199,33,45136,6,0,B|175:105|209:219|235:133|285:229|261:340,1,293.333342285157,4|0,0:0|0:0,0:0:0:0:
211,351,45668,1,0,0:0:0:0:
145,319,45774,2,0,P|110:329|71:354,2,73.3333355712891,2|0|0,0:0|0:0|0:0,0:0:0:0:
334,212,46093,2,0,P|353:138|355:121,2,73.3333355712891,2|0|0,0:0|0:0|0:0,0:0:0:0:
217,68,46412,5,0,0:0:0:0:
186,99,46519,1,0,0:0:0:0:
143,110,46625,1,0,0:0:0:0:
89,64,46732,1,2,0:0:0:0:
37,65,46838,1,0,0:0:0:0:
0,100,46944,1,0,0:0:0:0:
4,174,47051,5,2,0:0:0:0:
64,198,47157,1,2,0:0:0:0:
123,170,47263,1,0,0:0:0:0:
220,210,47370,1,2,0:0:0:0:
268,256,47476,1,2,0:0:0:0:
261,321,47583,1,2,0:0:0:0:
195,360,47689,5,8,0:0:0:0:
190,359,47729,1,0,0:0:0:0:
185,358,47769,1,0,0:0:0:0:
180,357,47809,1,0,0:0:0:0:
175,356,47849,1,0,0:0:0:0:
112,281,48327,5,8,0:0:0:0:
107,280,48367,1,0,0:0:0:0:
102,279,48407,1,0,0:0:0:0:
97,278,48447,1,0,0:0:0:0:
92,277,48487,1,0,0:0:0:0:
12,168,48966,5,8,0:0:0:0:
17,168,49045,1,0,0:0:0:0:
23,169,49125,1,0,0:0:0:0:
29,169,49205,1,0,0:0:0:0:
35,171,49285,1,0,0:0:0:0:
41,171,49364,1,0,0:0:0:0:
47,172,49444,1,0,0:0:0:0:
53,174,49524,1,0,0:0:0:0:
59,174,49604,1,0,0:0:0:0:
65,175,49684,1,0,0:0:0:0:
71,176,49763,1,0,0:0:0:0:
77,177,49843,1,0,0:0:0:0:
147,115,49923,5,12,0:1:0:0:
276,49,50242,5,2,0:1:0:0:
347,20,50322,1,2,0:0:0:0:
416,54,50402,1,2,0:0:0:0:
487,26,50482,1,2,0:0:0:0:
192,151,50721,5,2,0:1:0:0:
264,125,50801,1,2,0:0:0:0:
335,153,50881,1,2,0:0:0:0:
406,124,50961,1,2,0:0:0:0:
108,253,51199,5,2,0:1:0:0:
180,226,51279,1,2,0:0:0:0:
249,258,51359,1,2,0:0:0:0:
320,228,51439,1,2,0:0:0:0:
24,355,51678,5,2,0:1:0:0:
95,326,51758,1,2,0:0:0:0:
167,352,51838,1,2,0:0:0:0:
239,326,51918,1,2,0:0:0:0:
20,57,52157,5,10,0:0:0:0:
33,56,52237,1,2,0:0:0:0:
51,55,52317,1,2,0:0:0:0:
78,52,52396,1,2,0:0:0:0:
120,49,52476,1,10,0:0:0:0:
175,44,52556,1,2,0:0:0:0:
245,39,52636,1,2,0:0:0:0:
328,32,52716,1,2,0:0:0:0:
424,25,52795,2,0,B|454:89|454:89|405:160,1,139.999995727539,10|0,0:1|0:0,0:0:0:0:
200,303,53114,6,0,P|182:294|156:289,1,34.9999989318848,8|0,0:0|0:0,0:0:0:0:
188,267,53194,2,0,P|168:265|142:271,1,34.9999989318848
162,240,53274,2,0,P|144:246|122:262,1,34.9999989318848
127,224,53354,2,0,P|113:237|100:260,1,34.9999989318848
90,225,53434,2,0,P|83:242|80:269,1,34.9999989318848,8|0,0:0|0:0,0:0:0:0:
303,354,53593,6,0,P|320:343|341:321,1,34.9999989318848
352,349,53673,2,0,P|364:333|377:305,1,34.9999989318848
397,329,53753,2,0,P|404:310|408:279,1,34.9999989318848,8|0,0:0|0:0,0:0:0:0:
433,296,53833,2,0,P|434:275|428:245,1,34.9999989318848
458,253,53913,2,0,P|452:233|438:206,1,34.9999989318848
468,204,53992,2,0,P|457:186|435:165,1,34.9999989318848
476,138,54072,5,8,0:0:0:0:
330,217,54232,1,2,0:0:0:0:
334,236,54311,1,0,0:0:0:0:
202,141,54471,1,2,0:0:0:0:
206,160,54550,1,0,0:0:0:0:
28,242,54710,6,0,L|44:388,1,139.999995727539,8|2,0:1|0:0,0:0:0:0:
52,370,54923,1,2,0:0:0:0:
61,359,54976,1,2,0:0:0:0:
69,348,55029,1,10,0:0:0:0:
206,160,55189,1,4,0:1:0:0:
42,28,55349,5,8,0:0:0:0:
55,101,55455,1,0,0:0:0:0:
71,173,55561,1,0,0:0:0:0:
135,210,55668,5,8,0:0:0:0:
147,145,55774,1,0,0:0:0:0:
161,81,55880,1,0,0:0:0:0:
168,187,55987,5,8,0:0:0:0:
137,233,56093,1,0,0:0:0:0:
107,280,56200,1,0,0:0:0:0:
157,331,56306,5,8,0:0:0:0:
192,321,56412,1,0,0:0:0:0:
228,312,56519,1,0,0:0:0:0:
296,350,56625,5,8,0:0:0:0:
322,358,56732,1,0,0:0:0:0:
348,365,56838,1,0,0:0:0:0:
373,302,56944,5,8,0:0:0:0:
362,256,57051,1,0,0:0:0:0:
349,211,57157,1,0,0:0:0:0:
420,227,57263,5,8,0:0:0:0:
463,275,57370,1,0,0:0:0:0:
506,323,57476,1,0,0:0:0:0:
486,207,57583,5,8,0:0:0:0:
497,124,57689,1,0,0:0:0:0:
508,40,57795,1,0,0:0:0:0:
421,159,57902,5,10,0:0:0:0:
403,189,57982,1,2,0:0:0:0:
384,218,58061,1,2,0:0:0:0:
365,247,58141,1,2,0:0:0:0:
346,276,58221,1,10,0:0:0:0:
285,17,58380,5,8,0:0:0:0:
283,36,58460,1,8,0:0:0:0:
155,107,58620,1,8,0:0:0:0:
153,126,58700,1,8,0:0:0:0:
22,10,58859,2,0,B|-9:38|-9:38|0:147,1,139.999995727539,10|0,0:1|0:0,0:0:0:0:
340,332,59178,5,8,0:0:0:0:
353,335,59232,1,0,0:0:0:0:
366,338,59285,1,0,0:0:0:0:
379,341,59338,1,0,0:0:0:0:
392,344,59391,1,0,0:0:0:0:
405,347,59444,1,0,0:0:0:0:
465,314,59497,5,8,0:0:0:0:
452,252,59577,1,0,0:0:0:0:
405,209,59657,1,0,0:0:0:0:
341,212,59737,1,0,0:0:0:0:
283,184,59817,5,8,0:0:0:0:
247,204,59896,1,0,0:0:0:0:
206,214,59976,1,0,0:0:0:0:
165,203,60056,1,0,0:0:0:0:
103,244,60136,5,10,0:0:0:0:
100,265,60216,1,2,0:0:0:0:
98,284,60295,1,2,0:0:0:0:
95,305,60375,1,2,0:0:0:0:
4,342,60455,5,2,0:1:0:0:
39,0,60694,1,2,0:0:0:0:
380,36,60934,1,2,0:0:0:0:
345,377,61173,1,2,0:0:0:0:
326,365,61412,5,8,0:0:0:0:
363,130,61572,1,0,0:0:0:0:
482,342,61732,5,2,0:1:0:0:
447,0,61971,1,2,0:0:0:0:
106,36,62211,1,2,0:0:0:0:
141,377,62450,1,2,0:0:0:0:
469,335,62689,2,0,B|485:162|485:162|523:128,1,209.999993591309,2|0,0:1|0:0,0:0:0:0:
463,84,63008,5,8,0:0:0:0:
421,77,63088,1,0,0:0:0:0:
380,87,63168,1,0,0:0:0:0:
350,116,63247,1,0,0:0:0:0:
328,152,63327,1,8,0:0:0:0:
293,176,63407,1,0,0:0:0:0:
250,178,63487,1,0,0:0:0:0:
214,155,63567,1,0,0:0:0:0:
186,92,63646,5,8,0:0:0:0:
151,97,63726,1,0,0:0:0:0:
116,103,63806,1,0,0:0:0:0:
81,109,63886,1,0,0:0:0:0:
62,74,63966,5,8,0:0:0:0:
90,53,64046,1,0,0:0:0:0:
119,34,64126,1,0,0:0:0:0:
150,15,64206,1,0,0:0:0:0:
216,31,64285,5,8,0:0:0:0:
34,300,64524,1,8,0:0:0:0:
53,308,64604,2,0,L|71:145,1,139.999995727539,8|2,0:0|0:0,0:0:0:0:
58,159,64843,1,2,0:0:0:0:
49,148,64923,5,10,0:0:0:0:
197,275,65083,1,2,0:0:0:0:
209,261,65162,1,0,0:0:0:0:
345,56,65322,1,2,0:0:0:0:
352,76,65401,1,0,0:0:0:0:
474,372,65561,5,10,0:1:0:0:
495,16,65801,1,2,0:0:0:0:
113,356,66040,1,2,0:0:0:0:
140,5,66279,1,2,0:0:0:0:
120,18,66519,5,8,0:0:0:0:
180,272,66678,1,0,0:0:0:0:
0,31,66838,5,2,0:1:0:0:
18,386,67078,1,0,0:0:0:0:
350,0,67317,1,0,0:0:0:0:
391,350,67556,1,0,0:0:0:0:
14,42,67795,2,0,B|174:52|174:52|227:-2,1,209.999993591309,10|0,0:1|0:0,0:0:0:0:
262,86,68114,5,8,0:0:0:0:
271,134,68194,1,0,0:0:0:0:
279,182,68274,1,0,0:0:0:0:
287,230,68354,1,0,0:0:0:0:
320,255,68434,5,8,0:0:0:0:
353,262,68513,1,0,0:0:0:0:
387,270,68593,1,0,0:0:0:0:
421,278,68673,1,0,0:0:0:0:
450,314,68753,5,8,0:0:0:0:
419,361,68833,1,0,0:0:0:0:
365,374,68912,1,0,0:0:0:0:
313,350,68992,1,0,0:0:0:0:
278,305,69072,1,10,0:0:0:0:
235,268,69152,1,2,0:0:0:0:
178,264,69232,1,2,0:0:0:0:
131,293,69311,1,2,0:0:0:0:
108,344,69391,5,8,0:0:0:0:
309,33,69630,1,8,0:0:0:0:
296,50,69710,2,0,L|148:40,1,139.999995727539,8|2,0:0|0:0,0:0:0:0:
105,82,69950,1,2,0:0:0:0:
57,128,70029,5,10,0:0:0:0:
64,169,70109,1,0,0:0:0:0:
69,210,70189,1,0,0:0:0:0:
109,200,70269,1,0,0:0:0:0:
149,188,70349,5,8,0:0:0:0:
214,211,70428,1,8,0:0:0:0:
279,235,70508,1,8,0:0:0:0:
292,303,70588,1,8,0:0:0:0:
305,371,70668,6,0,B|413:361|413:361|438:319,1,139.999995727539,8|0,0:0|0:0,0:0:0:0:
133,27,70987,2,0,B|241:37|241:37|266:79,1,139.999995727539,8|0,0:0|0:0,0:0:0:0:
496,309,71306,6,0,B|486:201|486:201|444:176,1,139.999995727539,8|0,0:0|0:0,0:0:0:0:
21,182,71625,2,0,B|31:74|31:74|73:49,1,139.999995727539,8|0,0:0|0:0,0:0:0:0:
421,378,71944,5,8,0:0:0:0:
471,96,72104,1,8,0:0:0:0:
218,20,72263,1,8,0:0:0:0:
268,302,72423,1,8,0:0:0:0:
0,350,72583,1,8,0:0:0:0:
50,68,72743,1,8,0:0:0:0:
126,342,72902,5,8,0:0:0:0:
195,333,72982,1,8,0:0:0:0:
263,326,73061,1,8,0:0:0:0:
236,261,73141,1,8,0:0:0:0:
206,197,73221,1,8,0:0:0:0:
187,182,73540,6,0,L|180:227,11,29.9999990844727
174,43,74497,6,0,L|217:21,3,29.9999990844727,2|0|0|0,0:0|0:0|0:0|0:0,0:0:0:0:
205,158,74817,2,0,L|212:124,3,29.9999990844727,2|0|0|0,0:0|0:0|0:0|0:0,0:0:0:0:
292,84,75136,5,2,0:0:0:0:
292,84,75216,1,2,0:0:0:0:
292,84,75295,2,0,L|303:126,1,29.9999990844727,2|0,0:0|0:0,0:0:0:0:
379,46,75455,1,2,0:0:0:0:
379,46,75535,1,2,0:0:0:0:
379,46,75614,2,0,L|381:89,1,29.9999990844727,2|0,0:0|0:0,0:0:0:0:
470,81,75774,5,2,0:0:0:0:
455,103,75880,2,0,P|457:134|469:180,1,53.3333333333333
382,227,76093,1,2,0:0:0:0:
401,247,76200,2,0,P|430:234|470:229,1,53.3333333333333
342,335,76412,1,2,0:0:0:0:
314,325,76519,2,0,P|308:302|306:264,1,53.3333333333333
231,326,76732,1,2,0:0:0:0:
213,354,76838,2,0,P|186:354|150:344,1,53.3333333333333
121,163,77051,5,2,0:0:0:0:
139,181,77157,1,0,0:0:0:0:
163,191,77263,1,0,0:0:0:0:
204,134,77370,5,2,0:0:0:0:
186,116,77476,1,0,0:0:0:0:
162,106,77582,1,0,0:0:0:0:
91,57,77689,5,2,0:0:0:0:
64,74,77795,1,0,0:0:0:0:
50,103,77902,1,0,0:0:0:0:
94,175,78008,5,2,0:0:0:0:
105,215,78114,1,2,0:0:0:0:
99,257,78221,1,2,0:0:0:0:
6,321,78327,5,2,0:0:0:0:
256,192,78380,12,2,79923,0:0:0:0:
7,41,80242,5,2,0:0:0:0:
69,94,80402,1,2,0:0:0:0:
67,112,80482,1,0,0:0:0:0:
152,62,80641,1,2,0:0:0:0:
150,80,80721,1,0,0:0:0:0:
490,345,80880,6,2,B|417:296|417:296|297:361|297:361|179:351,1,320,8|8,0:1|0:0,0:1:0:0:
117,26,81359,1,2,0:0:0:0:
121,19,81439,1,0,0:0:0:0:
125,12,81519,2,0,L|113:96,1,80,8|0,0:0|0:0,0:0:0:0:
320,264,81678,1,2,0:0:0:0:
258,245,81758,2,0,B|238:211|238:211|260:164,1,80,0|8,0:0|0:0,0:0:0:0:
403,62,81918,1,2,0:0:0:0:
465,81,81998,2,0,B|485:115|485:115|463:162,1,80
225,333,82157,6,0,B|206:154,1,160,8|0,0:0|0:0,0:0:0:0:
123,80,82396,1,0,0:0:0:0:
133,70,82476,2,0,B|143:164,1,80,8|0,0:0|0:0,0:0:0:0:
367,331,82636,1,0,0:0:0:0:
373,336,82716,1,0,0:0:0:0:
378,341,82795,2,0,B|195:369,1,160,10|0,0:0|0:0,0:0:0:0:
166,324,83035,1,0,0:0:0:0:
101,338,83114,2,0,B|109:222|109:222|75:192,1,160,8|0,0:0|0:0,0:0:0:0:
107,135,83354,1,0,0:0:0:0:
229,82,83434,6,2,B|247:180|247:180|179:272|179:272|194:377,1,320,12|8,0:0|0:0,0:1:0:0:
512,57,83912,1,2,0:0:0:0:
506,51,83992,1,0,0:0:0:0:
500,45,84072,2,0,L|479:136,1,80,8|0,0:0|0:0,0:0:0:0:
167,169,84232,1,2,0:0:0:0:
115,130,84311,2,0,B|105:93|105:93|135:51,1,80,0|8,0:0|0:0,0:0:0:0:
219,261,84471,1,2,0:0:0:0:
259,206,84550,2,0,B|296:196|296:196|338:226,1,80
292,75,84710,6,0,L|460:55,1,160,8|0,0:0|0:0,0:0:0:0:
473,171,84950,1,0,0:0:0:0:
469,163,85029,2,0,L|379:146,1,80,8|0,0:0|0:0,0:0:0:0:
150,260,85189,1,0,0:0:0:0:
120,317,85269,1,0,0:0:0:0:
90,374,85349,2,0,L|101:187,1,160,10|0,0:0|0:0,0:0:0:0:
32,79,85588,1,0,0:0:0:0:
0,139,85668,2,0,B|36:205|36:205|141:193,1,160,8|0,0:0|0:0,0:0:0:0:
181,101,85907,1,0,0:0:0:0:
199,89,85987,6,0,L|214:176,1,80,14|0,0:0|0:0,0:0:0:0:
445,229,86146,2,0,L|534:167,1,80,2|0,0:0|0:0,0:0:0:0:
288,376,86306,2,0,B|234:316|234:316|141:333,1,160,10|0,0:0|0:0,0:0:0:0:
239,212,86545,1,0,0:0:0:0:
289,173,86625,2,0,L|268:350,1,160,8|0,0:0|0:0,0:0:0:0:
6,149,86944,2,0,B|-8:33|-8:33|41:0,1,160,8|0,0:0|0:0,0:0:0:0:
85,59,87184,1,0,0:0:0:0:
141,101,87263,6,0,L|325:71,1,160,8|0,0:0|0:0,0:0:0:0:
393,131,87503,1,0,0:0:0:0:
427,194,87583,2,0,L|441:23,1,160,8|0,0:0|0:0,0:0:0:0:
445,40,87822,1,0,0:0:0:0:
450,46,87902,1,8,0:0:0:0:
136,257,88061,1,2,0:0:0:0:
130,271,88141,1,2,0:0:0:0:
179,313,88221,5,10,0:0:0:0:
258,304,88301,1,0,0:0:0:0:
336,296,88380,1,0,0:0:0:0:
415,286,88460,1,0,0:0:0:0:
475,338,88540,6,2,B|394:361|394:361|304:248|304:248|328:194|328:194|342:232,1,320,12|8,0:0|0:0,0:1:0:0:
270,245,88939,1,2,0:0:0:0:
201,267,89019,1,2,0:0:0:0:
131,285,89099,1,2,0:0:0:0:
63,306,89178,1,10,0:0:0:0:
248,57,89338,1,2,0:0:0:0:
228,49,89418,1,0,0:0:0:0:
388,350,89577,1,2,0:0:0:0:
368,358,89657,1,0,0:0:0:0:
470,144,89817,5,8,0:0:0:0:
359,89,89976,1,2,0:0:0:0:
364,109,90056,1,0,0:0:0:0:
247,51,90216,1,2,0:0:0:0:
252,71,90296,1,0,0:0:0:0:
41,275,90455,5,8,0:0:0:0:
152,220,90614,1,2,0:0:0:0:
147,240,90694,1,0,0:0:0:0:
264,182,90854,1,2,0:0:0:0:
259,202,90934,1,0,0:0:0:0:
481,374,91093,6,2,B|506:286|506:286|439:217|439:217|456:66,1,320,12|8,0:0|0:0,0:1:0:0:
109,179,91572,1,0,0:0:0:0:
107,186,91652,1,0,0:0:0:0:
105,193,91732,2,0,L|115:113,1,80,8|0,0:0|0:0,0:0:0:0:
254,301,91891,1,2,0:0:0:0:
225,358,91971,2,0,B|187:370|187:370|147:348,1,80,0|8,0:0|0:0,0:0:0:0:
18,153,92130,1,2,0:0:0:0:
47,96,92210,2,0,B|85:84|85:84|125:106,1,80
321,320,92370,6,0,B|310:206|310:206|350:170,1,160,8|0,0:0|0:0,0:0:0:0:
428,239,92609,1,0,0:0:0:0:
439,251,92689,2,0,B|479:262|479:262|526:235,1,80,8|0,0:0|0:0,0:0:0:0:
284,99,92849,1,0,0:0:0:0:
253,62,92928,1,0,0:0:0:0:
218,28,93008,2,0,L|235:201,1,160,10|0,0:0|0:0,0:0:0:0:
136,239,93247,1,0,0:0:0:0:
193,268,93327,2,0,L|119:114,1,160,10|0,0:0|0:0,0:0:0:0:
44,133,93567,1,0,0:0:0:0:
0,218,93646,6,2,B|77:255|77:255|202:182|202:182|309:206,1,320,12|0,0:0|0:0,0:1:0:0:
17,25,94125,1,2,0:0:0:0:
24,23,94205,1,0,0:0:0:0:
31,21,94285,2,0,L|52:103,1,80,8|0,0:0|0:0,0:0:0:0:
263,261,94444,1,2,0:0:0:0:
307,309,94524,2,0,B|348:320|348:320|385:294,1,80,0|8,0:0|0:0,0:0:0:0:
196,132,94684,1,2,0:0:0:0:
143,170,94763,2,0,B|132:211|132:211|158:248,1,80
435,171,94923,6,0,L|406:-16,1,160,8|0,0:0|0:0,0:0:0:0:
286,80,95162,1,0,0:0:0:0:
277,79,95242,2,0,L|310:0,1,80,8|0,0:0|0:0,0:0:0:0:
81,152,95402,1,0,0:0:0:0:
128,142,95482,1,0,0:0:0:0:
174,130,95561,2,0,L|9:85,1,160,10|0,0:0|0:0,0:0:0:0:
25,187,95801,1,0,0:0:0:0:
76,230,95880,2,0,L|241:206,1,160,8|0,0:0|0:0,0:0:0:0:
288,247,96120,1,0,0:0:0:0:
418,171,96200,6,0,B|405:45|405:45|368:14,1,160,10|0,0:1|0:0,0:0:0:0:
464,5,96439,1,0,0:0:0:0:
274,147,96519,2,0,B|287:21|287:21|324:-10,1,160,10|0,0:0|0:0,0:0:0:0:
380,260,96758,1,0,0:0:0:0:
440,297,96838,6,0,B|509:262|509:262|456:188,1,160,10|0,0:1|0:0,0:0:0:0:
284,334,97077,1,0,0:0:0:0:
222,365,97157,2,0,B|153:330|153:330|206:256,1,160,10|0,0:1|0:0,0:0:0:0:
242,131,97396,1,0,0:0:0:0:
199,74,97476,6,0,B|74:60|74:60|49:23,1,160,10|0,0:1|0:0,0:0:0:0:
142,39,97716,1,0,0:0:0:0:
256,167,97795,2,0,B|131:181|131:181|106:218,1,160,10|0,0:1|0:0,0:0:0:0:
239,281,98035,1,0,0:0:0:0:
310,278,98114,6,0,L|334:90,1,160,10|0,0:1|0:0,0:0:0:0:
388,88,98354,1,0,0:0:0:0:
499,199,98434,2,0,L|478:22,1,160,10|0,0:1|0:0,0:0:0:0:
102,363,98753,6,0,B|150:296|150:296|236:328,1,160,12|0,0:0|0:0,0:0:0:0:
26,57,98992,2,0,B|74:124|74:124|160:92,1,160,8|0,0:0|0:0,0:0:0:0:
0,243,99232,2,0,L|112:219,1,80,8|0,0:0|0:0,0:0:0:0:
410,363,99391,6,0,B|362:296|362:296|276:328,1,160,12|0,0:0|0:0,0:0:0:0:
486,57,99630,2,0,B|438:124|438:124|352:92,1,160,8|8,0:0|0:0,0:0:0:0:
512,243,99870,2,0,L|400:219,1,80,8|0,0:0|0:0,0:0:0:0:
166,238,100029,5,8,0:0:0:0:
160,229,100082,1,0,0:0:0:0:
156,219,100135,1,0,0:0:0:0:
152,209,100188,1,0,0:0:0:0:
151,199,100241,1,0,0:0:0:0:
151,188,100294,1,0,0:0:0:0:
153,177,100348,1,0,0:0:0:0:
156,167,100401,1,0,0:0:0:0:
161,158,100454,1,0,0:0:0:0:
167,149,100507,1,0,0:0:0:0:
175,142,100560,1,0,0:0:0:0:
183,136,100614,1,0,0:0:0:0:
193,131,100667,1,0,0:0:0:0:
203,127,100720,1,0,0:0:0:0:
214,126,100773,1,0,0:0:0:0:
224,126,100826,1,0,0:0:0:0:
235,127,100880,1,0,0:0:0:0:
245,131,100933,1,0,0:0:0:0:
295,175,100986,5,12,0:1:0:0:
312,153,101306,6,0,L|511:175,1,139.999995727539,8|2,0:0|0:0,0:0:0:0:
443,162,101519,1,2,0:0:0:0:
436,155,101572,1,2,0:0:0:0:
429,148,101625,1,8,0:0:0:0:
235,293,101785,1,0,0:0:0:0:
105,196,101944,5,8,0:0:0:0:
54,94,102104,1,2,0:0:0:0:
60,107,102184,1,0,0:0:0:0:
117,14,102343,1,2,0:0:0:0:
112,28,102423,1,0,0:0:0:0:
217,214,102583,6,0,B|225:320|225:320|264:342,1,139.999995727539,10|0,0:1|0:0,0:0:0:0:
262,332,102795,1,0,0:0:0:0:
270,328,102849,1,0,0:0:0:0:
293,304,102902,2,0,B|301:198|301:198|340:176,1,139.999995727539,10|0,0:0|0:0,0:0:0:0:
339,183,103114,1,0,0:0:0:0:
347,187,103168,1,0,0:0:0:0:
384,184,103221,6,0,L|373:19,1,139.999995727539,10|0,0:0|0:0,0:0:0:0:
318,7,103460,1,2,0:0:0:0:
415,255,103700,1,0,0:0:0:0:
155,364,103859,6,0,L|-2:344,1,139.999995727539,12|0,0:0|0:0,0:0:0:0:
24,342,104072,1,0,0:0:0:0:
32,337,104125,1,0,0:0:0:0:
40,332,104178,1,8,0:0:0:0:
184,16,104338,1,2,0:0:0:0:
189,29,104391,1,2,0:0:0:0:
192,42,104444,1,2,0:0:0:0:
196,55,104497,5,10,0:1:0:0:
296,18,104657,1,2,0:0:0:0:
292,0,104737,1,0,0:0:0:0:
100,63,104896,1,2,0:0:0:0:
93,82,104976,1,0,0:0:0:0:
351,295,105136,6,0,B|463:287|463:287|487:322,1,139.999995727539,8|0,0:0|0:0,0:0:0:0:
477,319,105349,1,0,0:0:0:0:
474,327,105402,1,0,0:0:0:0:
471,335,105455,1,10,0:1:0:0:
219,190,105614,1,2,0:0:0:0:
211,195,105668,1,2,0:0:0:0:
203,200,105721,1,2,0:0:0:0:
186,226,105774,5,10,0:0:0:0:
220,223,105854,1,0,0:0:0:0:
254,218,105934,1,0,0:0:0:0:
307,252,106013,5,2,0:0:0:0:
342,249,106093,1,8,0:0:0:0:
377,246,106173,1,0,0:0:0:0:
424,291,106253,5,2,0:0:0:0:
458,287,106333,1,2,0:0:0:0:
496,342,106412,6,2,L|514:119,1,209.999993591309,12|0,0:0|0:0,0:1:0:0:
459,51,106732,2,0,L|418:29,1,34.9999989318848,8|0,0:0|0:0,0:0:0:0:
417,55,106811,2,0,L|376:33,1,34.9999989318848
375,62,106891,2,0,L|334:40,1,34.9999989318848
333,69,106971,2,0,L|292:47,1,34.9999989318848
291,76,107051,2,0,L|250:54,1,34.9999989318848,8|0,0:0|0:0,0:0:0:0:
18,144,107210,6,0,P|33:131|56:119,1,34.9999989318848
28,106,107290,2,0,P|46:98|72:94,1,34.9999989318848
49,72,107370,2,0,P|69:70|94:74,1,34.9999989318848,8|0,0:0|0:0,0:0:0:0:
78,47,107450,2,0,P|97:52|120:63,1,34.9999989318848
115,32,107529,2,0,P|131:42|150:60,1,34.9999989318848
154,30,107609,2,0,P|166:45|178:68,1,34.9999989318848
231,87,107689,5,8,0:0:0:0:
331,102,107795,1,0,0:0:0:0:
371,15,107902,1,0,0:0:0:0:
243,74,108008,5,8,0:0:0:0:
279,17,108114,1,0,0:0:0:0:
351,21,108221,1,0,0:0:0:0:
410,82,108327,5,8,0:0:0:0:
376,196,108487,1,2,0:0:0:0:
397,184,108567,1,2,0:0:0:0:
430,241,108646,5,10,0:0:0:0:
397,278,108726,1,0,0:0:0:0:
349,290,108806,1,0,0:0:0:0:
301,278,108886,1,0,0:0:0:0:
275,236,108966,6,0,B|263:126|263:126|289:84,1,139.999995727539,8|2,0:0|0:0,0:0:0:0:
284,108,109178,1,2,0:0:0:0:
290,115,109232,1,2,0:0:0:0:
296,121,109285,1,10,0:0:0:0:
69,231,109444,6,0,L|93:370,1,139.999995727539,0|8,0:0|0:0,0:0:0:0:
99,356,109657,1,0,0:0:0:0:
107,344,109710,1,0,0:0:0:0:
115,332,109763,1,0,0:0:0:0:
123,320,109817,1,0,0:0:0:0:
131,308,109870,1,0,0:0:0:0:
139,242,109923,5,10,0:0:0:0:
131,207,110003,1,2,0:0:0:0:
121,173,110083,1,2,0:0:0:0:
113,139,110162,1,2,0:0:0:0:
150,79,110242,5,8,0:0:0:0:
219,85,110322,1,8,0:0:0:0:
288,95,110402,1,8,0:0:0:0:
357,106,110482,1,8,0:0:0:0:
425,116,110561,5,12,0:0:0:0:
83,18,110721,1,12,0:0:0:0:
417,208,110880,1,8,0:0:0:0:
428,201,110934,1,8,0:0:0:0:
440,195,110987,1,8,0:0:0:0:
487,238,111040,6,0,B|397:254|397:254|264:179|264:179|154:237,1,349.999989318848,6|0,0:0|0:0,0:0:0:0:
92,70,111519,6,0,L|100:153,1,69.9999978637696,8|0,0:0|0:0,0:0:0:0:
92,295,111678,1,8,0:0:0:0:
76,90,111838,1,8,0:0:0:0:
214,221,111997,5,2,0:0:0:0:
214,221,112051,1,2,0:0:0:0:
214,221,112104,1,2,0:0:0:0:
214,221,112157,2,0,B|113:233|113:233|71:185,1,139.999995727539,2|0,0:1|0:0,0:0:0:0:
98,139,112396,2,0,B|128:116|128:116|224:148,1,139.999995727539,2|0,0:1|0:0,0:0:0:0:
341,31,112636,1,8,0:0:0:0:
386,261,112795,6,0,L|378:175,1,69.9999978637696,8|0,0:0|0:0,0:0:0:0:
441,61,112955,1,8,0:0:0:0:
402,244,113114,1,8,0:0:0:0:
485,352,113274,5,2,0:0:0:0:
485,352,113327,1,2,0:0:0:0:
485,352,113380,1,2,0:0:0:0:
485,352,113434,2,0,B|379:362|379:362|362:326,1,139.999995727539,2|0,0:1|0:0,0:0:0:0:
319,223,113673,2,0,B|213:213|213:213|197:250,1,139.999995727539,2|0,0:1|0:0,0:0:0:0:
158,357,113912,1,8,0:0:0:0:
32,73,114072,6,0,L|112:88,1,69.9999978637696,8|0,0:0|0:0,0:0:0:0:
306,39,114232,1,8,0:0:0:0:
51,61,114391,1,8,0:0:0:0:
177,17,114551,5,2,0:0:0:0:
177,17,114604,1,2,0:0:0:0:
177,17,114657,1,2,0:0:0:0:
177,17,114710,2,0,B|167:123|167:123|197:149,1,139.999995727539,2|0,0:1|0:0,0:0:0:0:
267,136,114950,2,0,B|287:109|287:109|255:7,1,139.999995727539,2|0,0:1|0:0,0:0:0:0:
116,161,115189,1,8,0:0:0:0:
278,323,115349,6,0,L|367:312,1,69.9999978637696,8|0,0:0|0:0,0:0:0:0:
484,206,115508,1,8,0:0:0:0:
286,303,115668,1,8,0:0:0:0:
448,330,115827,5,2,0:0:0:0:
448,330,115880,1,2,0:0:0:0:
448,330,115934,1,2,0:0:0:0:
448,330,115987,2,0,B|461:228|461:228|432:199,1,139.999995727539,2|0,0:1|0:0,0:0:0:0:
329,147,116226,2,0,B|316:45|316:45|345:16,1,139.999995727539,2|0,0:1|0:0,0:0:0:0:
459,52,116466,1,8,0:0:0:0:
234,221,116625,6,0,L|157:212,1,69.9999978637696
44,29,116785,1,8,0:0:0:0:
57,25,116864,1,8,0:0:0:0:
70,23,116944,6,0,L|51:85,1,34.9999989318848,12|0,0:0|0:0,0:0:0:0:
21,192,117184,2,0,L|69:178,1,34.9999989318848,2|0,0:0|0:0,0:0:0:0:
217,113,117423,2,0,L|189:75,1,34.9999989318848,2|0,0:0|0:0,0:0:0:0:
199,307,117662,6,0,L|247:285,1,34.9999989318848,2|0,0:0|0:0,0:0:0:0:
433,342,117902,2,0,L|421:283,1,34.9999989318848,2|0,0:0|0:0,0:0:0:0:
173,120,118141,2,0,L|164:61,1,34.9999989318848,2|0,0:0|0:0,0:0:0:0:
457,78,118380,6,0,L|464:27,1,34.9999989318848,2|0,0:0|0:0,0:0:0:0:
254,341,118620,2,0,L|265:283,1,34.9999989318848,2|0,0:0|0:0,0:0:0:0:
435,89,118859,6,2,L|444:12,1,69.9999978637696,10|2,0:0|0:0,0:0:0:0:
234,350,119019,2,2,L|246:263,1,69.9999978637696,10|2,0:0|0:0,0:0:0:0:
499,363,119178,5,8,0:0:0:0:
494,342,119258,1,0,0:0:0:0:
489,321,119338,1,8,0:0:0:0:
484,300,119418,1,0,0:0:0:0:
478,279,119497,1,0,0:0:0:0:
472,258,119577,1,0,0:0:0:0:
413,203,119657,5,8,0:0:0:0:
410,216,119737,1,0,0:0:0:0:
408,230,119817,1,8,0:0:0:0:
406,244,119896,1,0,0:0:0:0:
404,258,119976,1,0,0:0:0:0:
402,271,120056,1,0,0:0:0:0:
343,303,120136,5,8,0:0:0:0:
247,21,120295,1,10,0:0:0:0:
213,29,120375,1,10,0:0:0:0:
179,39,120455,1,10,0:0:0:0:
402,28,120614,6,0,L|387:195,1,139.999995727539,8|8,0:0|0:0,0:0:0:0:
323,140,120854,1,8,0:0:0:0:
259,115,120934,2,0,L|246:36,1,69.9999978637696,8|0,0:0|0:0,0:0:0:0:
156,60,121093,1,10,0:0:0:0:
157,50,121146,1,2,0:0:0:0:
158,40,121200,1,2,0:0:0:0:
159,30,121253,1,2,0:0:0:0:
504,343,121412,6,0,B|519:255|519:255|464:149|464:149|452:218,1,269.999991760254,12|0,0:0|0:0,0:0:0:0:
308,316,121732,5,10,0:0:0:0:
247,297,121811,1,0,0:0:0:0:
197,328,121891,1,0,0:0:0:0:
164,300,121971,1,2,0:0:0:0:
130,329,122051,2,0,L|121:217,1,80,8|0,0:0|0:0,0:0:0:0:
38,129,122210,2,0,B|15:100|15:100|27:49,1,80,8|0,0:0|0:0,0:0:0:0:
45,61,122370,6,0,L|209:71,1,160,2|8,0:1|0:0,0:0:0:0:
213,64,122583,1,2,0:0:0:0:
222,58,122636,1,2,0:0:0:0:
231,53,122689,5,10,0:0:0:0:
252,100,122769,1,0,0:0:0:0:
235,145,122849,1,0,0:0:0:0:
274,196,122928,1,2,0:0:0:0:
254,252,123008,2,0,L|355:223,1,80,8|0,0:0|0:0,0:0:0:0:
421,70,123168,2,0,B|445:40|445:40|430:-13,1,80,8|0,0:0|0:0,0:0:0:0:
373,13,123327,6,0,B|387:141|387:141|422:165,1,160,2|8,0:1|0:0,0:0:0:0:
423,156,123540,1,2,0:0:0:0:
433,153,123593,1,2,0:0:0:0:
443,150,123646,5,10,0:0:0:0:
437,195,123726,1,2,0:0:0:0:
340,304,123886,1,2,0:0:0:0:
378,359,123966,2,0,L|458:341,1,80,8|0,0:0|0:0,0:0:0:0:
209,235,124125,2,0,B|186:264|186:264|198:315,1,80,8|0,0:0|0:0,0:0:0:0:
223,323,124285,6,0,L|207:138,1,160,2|8,0:0|0:0,0:0:0:0:
216,155,124497,1,2,0:0:0:0:
223,147,124551,1,2,0:0:0:0:
230,139,124604,5,8,0:0:0:0:
249,72,124684,1,2,0:0:0:0:
55,1,124843,1,2,0:0:0:0:
74,67,124923,1,2,0:0:0:0:
340,259,125083,2,0,B|320:222|320:222|334:183,1,80,2|0,0:0|0:0,0:0:0:0:
360,196,125242,5,8,0:0:0:0:
370,198,125295,1,0,0:0:0:0:
380,200,125349,1,0,0:0:0:0:
390,202,125402,1,0,0:0:0:0:
400,204,125455,1,0,0:0:0:0:
410,206,125508,1,0,0:0:0:0:
420,208,125561,5,8,0:0:0:0:
411,142,125641,1,2,0:0:0:0:
201,47,125801,1,2,0:0:0:0:
251,4,125880,2,0,L|240:120,1,80,8|0,0:0|0:0,0:0:0:0:
19,210,126040,2,0,B|46:241|46:241|97:234,1,80,8|0,0:0|0:0,0:0:0:0:
101,214,126200,6,0,L|114:41,1,160,2|10,0:1|0:0,0:0:0:0:
106,46,126412,1,8,0:0:0:0:
99,37,126466,1,8,0:0:0:0:
92,28,126519,5,2,0:0:0:0:
136,16,126599,1,0,0:0:0:0:
173,47,126678,1,0,0:0:0:0:
224,25,126758,1,2,0:0:0:0:
267,72,126838,2,0,L|349:85,1,80,8|0,0:0|0:0,0:0:0:0:
477,267,126997,2,0,B|503:238|503:238|486:187,1,80,8|0,0:0|0:0,0:0:0:0:
467,193,127157,6,0,L|304:210,1,160,2|8,0:1|0:0,0:0:0:0:
301,200,127370,1,2,0:0:0:0:
295,190,127423,1,2,0:0:0:0:
289,180,127476,5,8,0:0:0:0:
227,162,127556,1,2,0:0:0:0:
152,365,127716,1,2,0:0:0:0:
206,325,127795,2,0,L|212:237,1,80,8|0,0:0|0:0,0:0:0:0:
36,178,127955,2,0,B|15:213|15:213|29:262,1,80,8|0,0:0|0:0,0:0:0:0:
87,227,128114,6,0,L|66:62,1,160,2|8,0:0|0:0,0:0:0:0:
75,62,128327,1,2,0:0:0:0:
83,55,128380,1,2,0:0:0:0:
91,48,128434,5,8,0:0:0:0:
143,96,128513,1,2,0:0:0:0:
389,79,128673,1,2,0:0:0:0:
358,19,128753,2,0,L|253:39,1,80,8|0,0:0|0:0,0:0:0:0:
344,236,128912,2,0,B|373:263|373:263|428:253,1,80,8|0,0:0|0:0,0:0:0:0:
434,236,129072,5,8,0:0:0:0:
432,225,129125,1,0,0:0:0:0:
430,214,129178,1,0,0:0:0:0:
429,203,129232,1,0,0:0:0:0:
427,192,129285,1,0,0:0:0:0:
425,181,129338,1,0,0:0:0:0:
423,170,129391,5,8,0:0:0:0:
379,123,129471,1,0,0:0:0:0:
325,152,129551,1,0,0:0:0:0:
275,103,129630,1,2,0:0:0:0:
201,114,129710,2,0,L|184:25,1,80,8|0,0:0|0:0,0:0:0:0:
338,247,129870,2,0,B|347:288|347:288|314:326,1,80,8|0,0:0|0:0,0:0:0:0:
263,271,130029,6,0,L|87:348,1,160,2|8,0:1|0:0,0:0:0:0:
125,341,130242,1,2,0:0:0:0:
134,346,130295,1,2,0:0:0:0:
143,351,130349,5,8,0:0:0:0:
201,322,130428,1,2,0:0:0:0:
137,118,130588,1,2,0:0:0:0:
82,79,130668,2,0,L|74:-2,1,80,8|0,0:0|0:0,0:0:0:0:
23,229,130827,2,0,B|43:264|43:264|88:258,1,80,8|0,0:0|0:0,0:0:0:0:
94,186,130987,6,0,L|316:211,1,160,2|8,0:1|0:0,0:0:0:0:
260,196,131200,1,2,0:0:0:0:
267,188,131253,1,2,0:0:0:0:
274,180,131306,5,8,0:0:0:0:
246,115,131386,1,2,0:0:0:0:
490,328,131545,1,2,0:0:0:0:
435,371,131625,2,0,L|354:357,1,80,8|0,0:0|0:0,0:0:0:0:
475,110,131785,2,0,B|451:76|451:76|396:84,1,80,8|0,0:0|0:0,0:0:0:0:
346,45,131944,6,0,L|373:220,1,160,2|8,0:0|0:0,0:0:0:0:
364,211,132157,1,2,0:0:0:0:
358,220,132210,1,2,0:0:0:0:
352,229,132263,5,8,0:0:0:0:
291,198,132343,1,2,0:0:0:0:
128,293,132503,1,2,0:0:0:0:
93,349,132583,2,0,L|-5:368,1,80,8|0,0:0|0:0,0:0:0:0:
143,14,132742,2,0,B|185:9|185:9|213:59,1,80,8|0,0:0|0:0,0:0:0:0:
151,94,132902,5,8,0:0:0:0:
140,92,132955,1,0,0:0:0:0:
129,90,133008,1,0,0:0:0:0:
118,88,133061,1,0,0:0:0:0:
107,86,133114,1,0,0:0:0:0:
96,83,133168,1,0,0:0:0:0:
85,80,133221,5,8,0:0:0:0:
115,127,133301,1,2,0:0:0:0:
182,124,133380,1,8,0:0:0:0:
224,184,133460,1,2,0:0:0:0:
297,159,133540,2,0,L|312:63,1,80,8|0,0:0|0:0,0:0:0:0:
439,340,133700,2,0,B|481:346|481:346|518:302,1,80,8|0,0:0|0:0,0:0:0:0:
382,296,133859,6,0,L|168:337,1,160,2|8,0:1|0:0,0:0:0:0:
218,317,134072,1,2,0:0:0:0:
211,308,134125,1,2,0:0:0:0:
205,299,134178,5,8,0:0:0:0:
250,259,134258,1,2,0:0:0:0:
227,198,134338,1,8,0:0:0:0:
270,140,134418,1,2,0:0:0:0:
224,87,134497,2,0,L|144:110,1,80,8|0,0:0|0:0,0:0:0:0:
43,287,134657,1,10,0:0:0:0:
50,308,134737,1,2,0:0:0:0:
110,367,134817,6,0,L|128:200,1,160,2|8,0:1|0:0,0:0:0:0:
119,200,135029,1,2,0:0:0:0:
111,192,135083,1,2,0:0:0:0:
103,184,135136,5,8,0:0:0:0:
142,150,135216,1,2,0:0:0:0:
211,169,135295,1,8,0:0:0:0:
258,110,135375,1,2,0:0:0:0:
334,141,135455,2,0,L|340:227,1,80,8|0,0:0|0:0,0:0:0:0:
207,318,135614,1,10,0:0:0:0:
211,333,135694,1,2,0:0:0:0:
274,353,135774,6,2,B|278:276|278:276|232:213|232:213|239:107,1,240,2|0,0:1|0:0,0:1:0:0:
255,150,136093,5,10,0:0:0:0:
278,114,136146,1,2,0:0:0:0:
318,100,136200,1,2,0:0:0:0:
359,111,136253,1,10,0:0:0:0:
386,145,136306,1,2,0:0:0:0:
387,188,136359,1,2,0:0:0:0:
363,223,136412,1,10,0:0:0:0:
323,238,136466,1,2,0:0:0:0:
282,226,136519,1,2,0:0:0:0:
256,192,136572,1,10,0:0:0:0:
255,150,136625,1,2,0:0:0:0:
229,116,136678,1,2,0:0:0:0:
188,104,136731,1,10,0:0:0:0:
148,119,136785,1,2,0:0:0:0:
124,154,136838,1,2,0:0:0:0:
125,197,136891,1,10,0:0:0:0:
152,231,136944,1,2,0:0:0:0:
193,242,136997,1,2,0:0:0:0:
256,192,137051,6,0,L|260:24,1,160,4|0,0:0|0:0,0:0:0:0:
189,87,137529,1,0,0:0:0:0:
189,87,137609,1,0,0:0:0:0:
189,87,137689,1,8,0:0:0:0:
121,172,137928,1,0,0:0:0:0:
176,251,138168,1,2,0:0:0:0:
123,317,138327,6,0,L|138:404,1,80,2|0,0:0|0:0,0:0:0:0:
218,334,138646,2,0,B|224:217|224:217|188:186,2,160,10|2|2,0:0|0:0|0:0,0:0:0:0:
288,356,139444,1,2,0:0:0:0:
392,257,139604,6,0,P|388:219|375:158,3,80,0|0|2|0,0:0|0:0|0:0|0:0,0:0:0:0:
481,230,140242,2,0,P|489:188|505:144,3,80,8|0|2|0,0:0|0:0|0:0|0:0,0:0:0:0:
361,71,140880,6,0,P|322:54|282:43,1,80,8|0,0:0|0:0,0:0:0:0:
120,249,141200,2,0,B|152:209|139:159|139:159|68:125|63:77|63:77|69:21|94:7|94:7|111:25|103:44,1,320,2|0,0:0|0:0,0:0:0:0:
52,255,142157,5,4,0:0:0:0:
314,358,142476,2,0,P|355:342|416:331,1,80,2|0,0:0|0:0,0:0:0:0:
406,254,142795,1,8,0:0:0:0:
332,152,143035,1,0,0:0:0:0:
396,54,143274,1,2,0:0:0:0:
320,6,143434,6,0,L|334:103,1,80,2|0,0:0|0:0,0:0:0:0:
250,284,143753,1,8,0:0:0:0:
299,334,143912,2,0,B|376:355|376:355|431:289,1,160,2|2,0:0|0:0,0:0:0:0:
323,28,144551,5,2,0:0:0:0:
323,28,144604,1,2,0:0:0:0:
323,28,144657,1,2,0:0:0:0:
323,28,144710,2,0,L|312:202,1,160,2|2,0:0|0:0,0:0:0:0:
255,213,145189,1,0,0:0:0:0:
88,45,145349,5,2,0:0:0:0:
49,114,145508,1,2,0:0:0:0:
101,175,145668,1,2,0:0:0:0:
174,144,145827,1,0,0:0:0:0:
166,64,145987,5,8,0:0:0:0:
229,16,146146,1,0,0:0:0:0:
174,144,146306,5,2,0:0:0:0:
247,176,146466,1,0,0:0:0:0:
318,140,146625,1,8,0:0:0:0:
381,188,146785,1,8,0:0:0:0:
438,133,146944,1,8,0:0:0:0:
475,204,147104,2,0,L|469:252,1,40,2|0,0:0|0:0,0:0:0:0:
