osu file format v14

[General]
AudioFilename: audio.mp3
AudioLeadIn: 0
PreviewTime: 80162
Countdown: 0
SampleSet: Soft
StackLeniency: 0.7
Mode: 0
LetterboxInBreaks: 0
WidescreenStoryboard: 1

[Editor]
Bookmarks: 1732,14497,24710,34923,45136,50242,60455,68114,75774,80880,101306,111519,121732,137051,147104
DistanceSpacing: 0.9
BeatDivisor: 4
GridSize: 32
TimelineZoom: 2.2

[Metadata]
Title:ouroboros -twin stroke of the end-
TitleUnicode:ouroboros -twin stroke of the end-
Artist:Cranky vs. MASAKI
ArtistUnicode:Cranky vs. MASAKI
Creator:celerih
Version:Easy
Source:グルーヴコースター 3EX ドリームパーティー
Tags:Muya Flask Niva hhjkl GROOVE COASTER 3EX DREAM PARTY クロニカ CHUNITHM AMAZON SOUND VOLTEX IV HEAVENLY HAVEN チュウニズム アマゾン ZUNTATA 森正樹 Masaki Mori Hiroshi Watanabe 渡辺洋 天下一音ゲ祭 全国一斉認定大会 2017 Electronic Instrumental Rhythm Game sdvx 4
BeatmapID:2198639
BeatmapSetID:1052054

[Difficulty]
HPDrainRate:1
CircleSize:2.4
OverallDifficulty:3.5
ApproachRate:4.5
SliderMultiplier:0.999999999999999
SliderTickRate:1

[Events]
//Background and Video events
0,0,"ouroboros bg.jpg",0,0
//Break Periods
2,45335,46429
2,75774,78982
//Storyboard Layer 0 (Background)
//Storyboard Layer 1 (Fail)
//Storyboard Layer 2 (Pass)
//Storyboard Layer 3 (Foreground)
//Storyboard Layer 4 (Overlay)
//Storyboard Sound Samples

[TimingPoints]
1732,319.148936170213,4,2,2,60,1,0
1732,-100,4,2,2,60,0,0
12263,-100,4,2,1,80,0,0
34285,-100,4,2,1,65,0,0
34604,-100,4,2,1,55,0,0
34923,-100,4,2,3,75,0,0
45135,-100,4,2,1,70,0,0
45136,-100,4,2,1,60,0,0
47689,-100,4,2,1,70,0,0
50242,-100,4,2,1,80,0,0
53752,-100,4,2,1,60,0,0
54072,-100,4,2,1,80,0,0
58540,-100,4,2,1,60,0,0
58859,-100,4,2,1,80,0,0
65242,-100,4,2,1,60,0,0
65561,-100,4,2,1,80,0,0
73540,-100,4,2,1,55,0,0
80242,-100,4,2,1,80,0,0
80880,-100,4,2,1,80,0,1
100987,-100,4,2,1,80,0,0
121732,319.148936170213,3,2,1,95,1,1
121732,-100,4,2,1,95,0,1
137050,-100,4,2,2,60,0,1
137051,319.148936170213,4,2,2,60,1,1
137051,-100,4,2,2,60,0,0

[Colours]
Combo1 : 242,57,57
Combo2 : 58,136,177
Combo3 : 230,117,117
Combo4 : 63,97,233

[HitObjects]
0,254,1732,6,0,P|77:216|196:195,1,200,4|8,0:0|0:0,0:0:0:0:
302,56,3008,1,2,0:0:0:0:
377,105,3327,2,0,B|432:113|432:113|481:71,2,99.9999999999999,2|2|2,0:0|0:0|0:0,0:0:0:0:
314,169,4285,5,0,0:0:0:0:
134,160,4923,1,8,0:0:0:0:
131,341,5561,1,8,0:0:0:0:
211,301,5880,2,0,B|248:336|248:336|410:324,1,200,2|0,0:0|0:0,0:0:0:0:
460,260,6838,1,4,0:0:0:0:
427,176,7157,1,2,0:0:0:0:
171,260,8114,6,0,B|96:277|96:277|30:213,1,150,2|2,0:0|0:0,0:0:0:0:
31,136,8912,1,2,0:0:0:0:
141,57,9391,1,2,0:0:0:0:
291,155,10029,6,0,P|332:177|403:165,1,99.9999999999999,2|2,0:0|0:0,0:0:0:0:
403,86,10668,2,0,P|359:63|309:66,1,99.9999999999999,10|2,0:0|0:0,0:0:0:0:
251,134,11306,1,2,0:0:0:0:
164,109,11625,1,8,0:0:0:0:
67,260,12263,6,0,L|75:376,1,99.9999999999999,12|8,0:0|0:0,0:0:0:0:
156,323,12902,2,8,B|259:342|259:342|333:159|333:159|237:178,1,400,10|8,0:0|0:0,0:0:0:0:
148,191,14497,5,12,0:0:0:0:
97,116,14817,1,10,0:0:0:0:
148,42,15136,2,0,L|264:30,1,99.9999999999999,8|8,0:0|0:0,0:0:0:0:
312,93,15774,2,0,B|282:127|282:127|291:238,2,150,8|2|8,0:0|0:1|0:0,0:0:0:0:
389,46,17051,5,12,0:0:0:0:
475,70,17370,1,10,0:0:0:0:
457,158,17689,2,0,L|351:176,1,99.9999999999999,8|8,0:0|0:0,0:0:0:0:
293,237,18327,2,0,B|267:206|267:206|147:212,2,150,8|2|8,0:0|0:1|0:0,0:0:0:0:
323,322,19604,5,12,0:0:0:0:
395,375,19923,1,10,0:0:0:0:
409,286,20242,1,8,0:0:0:0:
422,197,20561,1,10,0:0:0:0:
360,131,20880,6,0,B|287:151|287:151|229:94,1,150,8|2,0:0|0:1,0:0:0:0:
162,214,21838,1,8,0:0:0:0:
99,279,22157,6,0,B|48:286|48:286|16:247,1,99.9999999999999,12|8,0:0|0:0,0:0:0:0:
29,159,22795,1,8,0:0:0:0:
117,141,23114,1,10,0:0:0:0:
168,66,23434,2,0,B|189:89|189:89|307:83,1,150,8|2,0:0|0:1,0:0:0:0:
388,43,24232,2,0,L|453:52,1,50,8|12,0:0|0:0,0:0:0:0:
472,132,24710,5,12,0:0:0:0:
411,199,25030,1,10,0:0:0:0:
453,278,25349,2,0,L|437:393,1,99.9999999999999,8|8,0:0|0:0,0:0:0:0:
360,334,25987,2,0,B|339:366|339:366|220:363,2,150,8|2|8,0:0|0:1|0:0,0:0:0:0:
336,246,27264,5,12,0:0:0:0:
280,175,27583,1,10,0:0:0:0:
200,216,27902,2,0,L|94:224,1,99.9999999999999,8|8,0:0|0:0,0:0:0:0:
41,155,28540,2,0,B|72:129|72:129|66:9,2,150,8|2|8,0:0|0:1|0:0,0:0:0:0:
13,240,29817,5,10,0:1:0:0:
127,310,30295,1,2,0:0:0:0:
246,247,30774,1,8,0:0:0:0:
329,279,31093,6,0,B|401:305|401:305|469:256,1,150,10|2,0:1|0:0,0:0:0:0:
475,127,32051,1,8,0:0:0:0:
423,53,32370,6,0,B|372:46|372:46|340:85,1,99.9999999999999,12|10,0:0|0:1,0:0:0:0:
261,41,33008,1,10,0:1:0:0:
192,99,33327,1,10,0:1:0:0:
104,78,33647,2,0,B|97:138|97:138|142:191|142:191|150:263,1,200,10|8,0:1|0:0,0:0:0:0:
182,344,34604,1,8,0:0:0:0:
269,332,34923,6,0,P|363:312|326:242,1,200,8|6,0:0|0:0,0:0:0:0:
125,149,36359,2,0,P|99:260|97:357,1,200,8|8,0:0|0:0,0:0:0:0:
231,355,37476,6,0,P|229:265|309:290,1,200,8|8,0:0|0:0,0:0:0:0:
475,221,38753,1,8,0:0:0:0:
452,133,39072,1,10,0:0:0:0:
364,114,39391,2,0,B|315:129|315:129|267:81,1,99.9999999999999,8|8,0:0|0:0,0:0:0:0:
208,148,40029,6,0,P|191:228|104:193,1,200,8|4,0:0|0:0,0:0:0:0:
260,30,41466,2,0,B|305:16|305:16|386:60|386:60|468:50,1,200,8|8,0:0|0:0,0:0:0:0:
466,186,42583,6,0,P|463:269|371:236,1,200,0|8,0:0|0:0,0:0:0:0:
205,309,43859,1,8,0:0:0:0:
144,242,44178,1,10,0:0:0:0:
61,278,44497,2,0,L|70:383,2,99.9999999999999,8|8|4,0:0|0:0|0:0,0:0:0:0:
50,129,47689,5,8,0:0:0:0:
213,54,48327,1,8,0:0:0:0:
50,129,48966,6,0,B|35:278|35:278|125:324|125:324|123:261,1,300,8|12,0:0|0:1,0:0:0:0:
176,201,50242,5,2,0:1:0:0:
306,236,50721,1,2,0:1:0:0:
327,102,51200,1,2,0:1:0:0:
460,121,51678,1,2,0:1:0:0:
440,254,52157,6,0,L|455:359,1,99.9999999999999,10|10,0:0|0:0,0:0:0:0:
365,335,52795,1,10,0:1:0:0:
303,269,53114,2,0,P|229:244|95:240,1,200,8|8,0:0|0:0,0:0:0:0:
57,163,54072,6,0,B|67:64|67:64|158:105,1,200,8|8,0:0|0:1,0:0:0:0:
248,99,55029,1,10,0:0:0:0:
316,34,55349,5,8,0:0:0:0:
391,82,55668,1,8,0:0:0:0:
379,172,55987,1,8,0:0:0:0:
287,180,56306,1,8,0:0:0:0:
264,271,56625,5,8,0:0:0:0:
343,312,56944,1,8,0:0:0:0:
412,256,57263,1,8,0:0:0:0:
379,172,57582,1,8,0:0:0:0:
439,104,57902,6,0,L|442:1,1,99.9999999999999,10|10,0:0|0:0,0:0:0:0:
357,34,58540,1,0,0:0:0:0:
270,8,58859,1,10,0:1:0:0:
186,41,59178,6,0,B|180:141|180:141|249:214|249:214|242:328,1,300,8|10,0:0|0:0,0:0:0:0:
160,348,60455,6,0,L|110:203,2,150,2|2|8,0:1|0:0|0:0,0:0:0:0:
239,305,61732,2,0,L|377:378,2,150,2|2|2,0:1|0:0|0:1,0:0:0:0:
291,231,63008,6,0,L|412:221,1,99.9999999999999,8|8,0:0|0:0,0:0:0:0:
471,262,63646,2,0,L|453:365,1,99.9999999999999,8|8,0:0|0:0,0:0:0:0:
363,366,64285,1,8,0:0:0:0:
206,278,64923,2,0,L|100:304,1,99.9999999999999,10|8,0:0|0:0,0:0:0:0:
72,219,65561,6,0,L|111:71,2,150,10|2|8,0:1|0:0|0:0,0:0:0:0:
160,236,66838,2,0,L|234:370,2,150,10|0|10,0:1|0:0|0:1,0:0:0:0:
212,162,68114,6,0,P|258:158|314:171,1,99.9999999999999,8|8,0:0|0:0,0:0:0:0:
390,127,68753,1,8,0:0:0:0:
341,51,69072,1,10,0:0:0:0:
252,65,69391,1,8,0:0:0:0:
138,204,70029,1,10,0:0:0:0:
60,157,70349,1,8,0:0:0:0:
124,94,70668,6,0,B|174:84|174:84|216:125,1,99.9999999999999,8|8,0:0|0:0,0:0:0:0:
272,182,71306,2,0,B|322:192|322:192|364:151,1,99.9999999999999,8|8,0:0|0:0,0:0:0:0:
439,194,71944,1,8,0:0:0:0:
419,281,72263,1,8,0:0:0:0:
335,314,72583,1,8,0:0:0:0:
255,272,72902,1,8,0:0:0:0:
165,261,73221,5,8,0:0:0:0:
16,195,80242,6,0,L|25:304,1,99.9999999999999,2|0,0:0|0:0,0:0:0:0:
77,367,80880,6,0,B|276:382|276:382|328:334|328:334|233:324,1,350,10|2,0:1|0:0,0:1:0:0:
221,289,82157,5,8,0:0:0:0:
260,208,82476,1,8,0:0:0:0:
345,236,82795,1,10,0:0:0:0:
418,184,83114,1,8,0:0:0:0:
391,96,83434,6,0,B|191:80|191:80|123:49|123:49|47:97,1,350,10|2,0:1|0:0,0:1:0:0:
24,115,84710,6,0,L|13:220,1,99.9999999999999,8|8,0:0|0:0,0:0:0:0:
91,260,85349,1,10,0:0:0:0:
166,210,85668,1,8,0:0:0:0:
245,254,85987,6,0,P|268:296|272:354,1,99.9999999999999,14|10,0:0|0:0,0:0:0:0:
185,368,86625,2,0,P|162:326|158:268,1,99.9999999999999,8|8,0:0|0:0,0:0:0:0:
136,187,87263,1,8,0:0:0:0:
180,108,87583,1,8,0:0:0:0:
269,106,87902,1,8,0:0:0:0:
424,22,88540,6,0,B|445:49|445:49|441:175,1,150,12|2,0:0|0:0,0:0:0:0:
409,196,89178,2,0,L|327:211,1,74.9999999999999,10|2,0:0|0:0,0:0:0:0:
280,307,89817,2,0,L|326:375,1,74.9999999999999,8|2,0:0|0:0,0:0:0:0:
434,360,90455,2,0,L|464:284,1,74.9999999999999,8|2,0:0|0:0,0:0:0:0:
406,192,91093,6,0,B|211:140|211:140|207:210|207:210|296:233,1,350,10|2,0:1|0:0,0:1:0:0:
283,274,92370,5,8,0:0:0:0:
218,336,92689,1,8,0:0:0:0:
129,321,93008,1,10,0:0:0:0:
97,236,93327,1,10,0:0:0:0:
102,145,93647,6,0,B|300:126|300:126|369:149|369:149|447:142,1,350,10|2,0:1|0:0,0:1:0:0:
483,168,94923,6,0,L|494:280,1,99.9999999999999,8|8,0:0|0:0,0:0:0:0:
413,311,95562,1,10,0:0:0:0:
340,257,95881,1,8,0:0:0:0:
252,283,96200,6,0,B|206:269|206:269|146:292,1,99.9999999999999,10|10,0:1|0:0,0:0:0:0:
93,223,96838,2,0,B|47:237|47:237|-13:214,1,99.9999999999999,10|10,0:1|0:1,0:0:0:0:
7,128,97476,1,10,0:1:0:0:
74,68,97796,1,10,0:1:0:0:
160,92,98115,1,10,0:1:0:0:
222,156,98434,1,10,0:1:0:0:
311,159,98753,6,0,B|401:114|401:114|516:146,1,200,12|12,0:0|0:0,0:0:0:0:
447,313,100030,2,0,L|133:291,1,300,8|12,0:0|0:1,0:0:0:0:
113,209,101306,5,8,0:0:0:0:
197,50,101944,2,0,L|309:26,1,99.9999999999999,8|8,0:0|0:0,0:0:0:0:
336,109,102583,2,0,L|320:220,2,99.9999999999999,10|10|10,0:1|0:0|0:0,0:0:0:0:
204,231,103859,6,0,L|235:338,1,99.9999999999999,12|8,0:0|0:0,0:0:0:0:
312,287,104497,1,10,0:1:0:0:
394,322,104817,1,8,0:0:0:0:
460,261,105136,5,8,0:0:0:0:
443,172,105455,1,10,0:1:0:0:
380,106,105774,2,0,P|295:109|308:11,1,200,10|12,0:0|0:0,0:0:0:0:
6,226,107689,2,0,P|1:160|98:193,1,200,8|8,0:0|0:0,0:0:0:0:
176,227,108646,1,10,0:0:0:0:
255,183,108966,6,0,L|369:191,1,99.9999999999999,8|10,0:0|0:0,0:0:0:0:
327,275,109604,2,0,B|319:328|319:328|357:376,1,99.9999999999999,8|10,0:0|0:0,0:0:0:0:
434,345,110242,1,8,0:0:0:0:
391,124,111040,1,6,0:0:0:0:
289,35,111519,6,0,L|175:28,1,99.9999999999999,8|8,0:0|0:0,0:0:0:0:
99,28,112157,1,2,0:1:0:0:
30,194,112795,2,0,L|144:181,1,99.9999999999999,8|8,0:0|0:0,0:0:0:0:
219,176,113434,1,2,0:1:0:0:
370,279,114072,6,0,L|400:171,1,99.9999999999999,8|8,0:0|0:0,0:0:0:0:
385,93,114710,2,0,B|319:44|319:44|238:68,1,150,2|0,0:1|0:0,0:0:0:0:
222,95,115349,6,0,L|216:206,1,99.9999999999999,8|8,0:0|0:0,0:0:0:0:
258,274,115987,2,0,B|323:236|323:236|411:263,1,150,2|0,0:1|0:0,0:0:0:0:
437,271,116625,5,8,0:0:0:0:
256,192,116944,12,8,119178,0:0:0:0:
36,80,121093,6,0,B|68:115|68:115|128:102,1,99.9999999999999,10|12,0:0|0:0,0:0:0:0:
211,163,121732,6,0,B|362:141|362:141|339:189,1,200,10|2,0:0|0:1,0:0:0:0:
305,266,122689,2,0,B|158:286|158:286|206:321,1,200,10|2,0:0|0:1,0:0:0:0:
274,366,123646,5,10,0:0:0:0:
376,217,124285,1,2,0:0:0:0:
441,155,124604,2,0,B|462:8|462:8|408:53,1,200,8|8,0:0|0:0,0:0:0:0:
336,67,125561,6,0,B|182:44|182:44|140:94,1,200,8|2,0:0|0:1,0:0:0:0:
87,139,126519,2,0,B|96:297|96:297|139:337,1,200,10|2,0:0|0:1,0:0:0:0:
213,297,127476,5,8,0:0:0:0:
276,128,128114,1,2,0:0:0:0:
344,186,128434,2,0,L|359:344,1,150,8|0,0:0|0:0,0:0:0:0:
397,357,129072,1,8,0:0:0:0:
475,312,129391,6,0,B|504:170|504:170|446:211,1,200,8|2,0:0|0:1,0:0:0:0:
370,181,130349,2,0,B|341:39|341:39|399:80,1,200,8|2,0:0|0:1,0:0:0:0:
453,129,131306,1,8,0:0:0:0:
305,247,131944,5,2,0:0:0:0:
250,175,132263,2,0,L|92:159,1,150,8|0,0:0|0:0,0:0:0:0:
77,120,132902,1,8,0:0:0:0:
126,39,133221,6,0,L|287:50,1,150,8|0,0:0|0:0,0:0:0:0:
311,76,133859,1,2,0:1:0:0:
289,163,134178,2,0,L|303:316,1,150,8|2,0:0|0:0,0:0:0:0:
339,338,134817,1,2,0:1:0:0:
426,316,135136,2,0,L|414:212,1,99.9999999999999,8|8,0:0|0:0,0:0:0:0:
434,128,135774,5,2,0:1:0:0:
348,98,136093,2,0,P|242:148|234:10,1,300,10|4,0:0|0:0,0:0:0:0:
