osu file format v14

[General]
AudioFilename: audio.mp3
AudioLeadIn: 0
PreviewTime: 80162
Countdown: 0
SampleSet: Soft
StackLeniency: 0.7
Mode: 0
LetterboxInBreaks: 0
WidescreenStoryboard: 1

[Editor]
Bookmarks: 1732,14497,24710,34923,45136,50242,60455,73221,80880,101306,111519,121732,137051,147104
DistanceSpacing: 0.2
BeatDivisor: 4
GridSize: 32
TimelineZoom: 2.2

[Metadata]
Title:ouroboros -twin stroke of the end-
TitleUnicode:ouroboros -twin stroke of the end-
Artist:Cranky vs. MASAKI
ArtistUnicode:Cranky vs. MASAKI
Creator:celerih
Version:Another
Source:グルーヴコースター 3EX ドリームパーティー
Tags:Muya Flask Niva hhjkl GROOVE COASTER 3EX DREAM PARTY クロニカ CHUNITHM AMAZON SOUND VOLTEX IV HEAVENLY HAVEN チュウニズム アマゾン ZUNTATA 森正樹 Masaki Mori Hiroshi Watanabe 渡辺洋 天下一音ゲ祭 全国一斉認定大会 2017 Electronic Instrumental Rhythm Game sdvx 4
BeatmapID:2209919
BeatmapSetID:1052054

[Difficulty]
HPDrainRate:4
CircleSize:5
OverallDifficulty:8
ApproachRate:9
SliderMultiplier:1.7
SliderTickRate:1

[Events]
//Background and Video events
0,0,"ouroboros bg.jpg",0,0
//Break Periods
//Storyboard Layer 0 (Background)
//Storyboard Layer 1 (Fail)
//Storyboard Layer 2 (Pass)
//Storyboard Layer 3 (Foreground)
//Storyboard Layer 4 (Overlay)
//Storyboard Sound Samples

[TimingPoints]
1732,319.148936170213,4,2,2,60,1,0
1732,-125,4,2,2,60,0,0
12263,-76.9230769230769,4,2,1,80,0,0
14497,-71.4285714285714,4,2,1,80,0,0
34285,-71.4285714285714,4,2,1,65,0,0
34604,-71.4285714285714,4,2,1,55,0,0
34923,-71.4285714285714,4,2,3,75,0,0
45135,-71.4285714285714,4,2,1,70,0,0
45136,-90.9090909090909,4,2,1,60,0,0
47689,-90.9090909090909,4,2,1,70,0,0
50242,-71.4285714285714,4,2,1,80,0,0
73540,-166.666666666667,4,2,1,55,0,0
75774,-125,4,2,1,55,0,0
80242,-100,4,2,1,80,0,0
80880,-62.5,4,2,1,80,0,1
100987,-71.4285714285714,4,2,1,80,0,0
121732,319.148936170213,3,2,1,80,1,1
121732,-62.5,4,2,1,95,0,1
137051,319.148936170213,4,2,2,60,1,1
137051,-125,4,2,2,60,0,0

[Colours]
Combo1 : 242,57,57
Combo2 : 58,136,177
Combo3 : 230,117,117
Combo4 : 63,97,233

[HitObjects]
100,140,1732,5,4,0:0:0:0:
245,16,2210,1,0,0:0:0:0:
245,16,2290,1,0,0:0:0:0:
245,16,2370,2,0,L|167:11,1,68,8|0,0:0|0:0,0:0:0:0:
203,83,2609,2,0,L|78:76,1,102,0|2,0:0|0:0,0:0:0:0:
305,88,3008,6,0,B|331:110|331:110|326:225,2,136,2|2|2,0:0|0:0|0:0,0:0:0:0:
397,20,3966,1,2,0:0:0:0:
387,40,4125,1,2,0:0:0:0:
454,154,4285,6,0,L|465:223,3,68,0|0|2|0,0:0|0:0|0:0|0:0,0:0:0:0:
376,174,4923,2,0,L|365:243,3,68,8|0|2|0,0:0|0:0|0:0|0:0,0:0:0:0:
454,154,5561,5,8,0:0:0:0:
225,286,5880,1,2,0:0:0:0:
241,300,6519,2,0,L|258:85,1,204
207,50,7157,5,2,0:0:0:0:
50,143,7476,2,0,L|56:224,1,68,8|0,0:0|0:0,0:0:0:0:
122,183,7716,2,0,L|130:294,1,102,0|2,0:0|0:0,0:0:0:0:
192,120,8114,6,0,B|216:143|216:143|335:136,1,136,2|8,0:0|0:0,0:0:0:0:
358,76,8593,1,2,0:0:0:0:
474,255,8912,1,2,0:0:0:0:
506,194,9232,1,2,0:0:0:0:
505,187,9285,1,2,0:0:0:0:
504,180,9338,1,2,0:0:0:0:
503,173,9391,1,2,0:0:0:0:
428,281,10029,6,0,P|423:314|421:355,1,68,2|2,0:0|0:0,0:0:0:0:
345,301,10349,2,0,P|327:265|320:229,1,68,2|0,0:0|0:0,0:0:0:0:
179,320,10668,6,0,P|168:330|132:377,1,68,10|0,0:0|0:0,0:0:0:0:
100,284,10987,2,0,P|69:275|31:256,1,68,2|0,0:0|0:0,0:0:0:0:
195,179,11306,2,0,P|164:196|135:230,1,68,2|8,0:0|0:0,0:0:0:0:
238,361,11625,1,8,0:0:0:0:
232,345,11785,1,2,0:0:0:0:
303,337,12263,6,0,B|326:345|326:345|374:312|374:312|412:336,1,110.499994941712,12|0,0:0|0:0,0:0:0:0:
424,263,12503,1,0,0:0:0:0:
414,242,12583,2,0,L|343:247,1,55.2499974708558,8|0,0:0|0:0,0:0:0:0:
461,152,12742,2,8,L|390:157,1,55.2499974708558
507,267,12902,2,8,L|450:271,1,55.2499974708558,10|0,0:0|0:0,0:0:0:0:
304,320,13061,1,8,0:0:0:0:
271,312,13141,1,8,0:0:0:0:
238,306,13221,6,0,L|243:342,5,36.8333316472372,8|0|0|0|0|0,0:0|0:0|0:0|0:0|0:0|0:0,0:0:0:0:
152,269,13540,2,0,L|157:305,5,36.8333316472372,10|0|0|0|0|0,0:0|0:0|0:0|0:0|0:0|0:0,0:0:0:0:
235,170,13859,6,0,L|230:206,2,36.8333316472372,10|2|2,0:0|0:0|0:0,0:0:0:0:
128,240,14019,2,0,L|123:276,2,36.8333316472372,2|2|2,0:0|0:0|0:0,0:0:0:0:
26,209,14178,1,8,0:0:0:0:
61,137,14497,6,0,L|45:1,1,118.999996368408,12|0,0:0|0:0,0:0:0:0:
123,6,14737,1,2,0:0:0:0:
121,29,14817,1,10,0:0:0:0:
119,52,14896,1,2,0:0:0:0:
118,75,14976,1,2,0:0:0:0:
208,19,15136,5,8,0:0:0:0:
281,62,15295,1,2,0:0:0:0:
295,58,15375,1,0,0:0:0:0:
366,8,15535,1,2,0:0:0:0:
380,17,15615,1,0,0:0:0:0:
503,121,15774,6,0,L|374:108,1,118.999996368408,8|2,0:0|0:0,0:0:0:0:
400,100,16013,1,2,0:0:0:0:
415,91,16093,1,10,0:0:0:0:
417,222,16253,2,0,B|421:255|421:255|397:304|397:304|403:348,1,118.999996368408,2|10,0:1|0:0,0:0:0:0:
412,343,16466,2,0,B|452:338,2,39.6666654561361,2|2|2,0:0|0:0|0:0,0:0:0:0:
287,260,16732,1,8,0:0:0:0:
314,355,16891,1,2,0:0:0:0:
131,355,17051,6,0,B|230:358|230:358|246:384,1,118.999996368408,12|0,0:0|0:0,0:0:0:0:
246,287,17290,1,0,0:0:0:0:
223,289,17370,1,10,0:0:0:0:
200,291,17449,1,2,0:0:0:0:
176,294,17529,1,2,0:0:0:0:
78,215,17689,5,8,0:0:0:0:
97,290,17849,1,2,0:0:0:0:
88,305,17928,1,0,0:0:0:0:
19,346,18088,1,2,0:0:0:0:
26,367,18168,1,0,0:0:0:0:
174,358,18327,6,0,L|310:375,1,118.999996368408,8|2,0:0|0:0,0:0:0:0:
281,357,18567,1,2,0:0:0:0:
271,342,18646,1,10,0:0:0:0:
191,211,18806,2,0,L|203:82,1,118.999996368408,2|10,0:1|0:0,0:0:0:0:
186,85,19019,2,0,L|176:35,2,39.6666654561361,2|2|2,0:0|0:0|0:0,0:0:0:0:
339,0,19285,1,8,0:0:0:0:
265,59,19444,1,2,0:0:0:0:
323,141,19604,6,0,L|449:129,1,118.999996368408,12|0,0:0|0:0,0:0:0:0:
456,111,19843,1,2,0:0:0:0:
469,91,19923,2,0,B|456:68|456:68|351:79,1,118.999996368408,10|0,0:0|0:0,0:0:0:0:
312,149,20242,5,8,0:0:0:0:
327,235,20402,1,2,0:0:0:0:
308,227,20482,1,0,0:0:0:0:
227,273,20641,1,2,0:0:0:0:
236,289,20721,1,0,0:0:0:0:
144,209,20880,6,0,L|155:86,1,118.999996368408,8|2,0:0|0:0,0:0:0:0:
141,102,21120,1,2,0:0:0:0:
127,113,21200,1,10,0:0:0:0:
203,205,21359,2,0,L|222:342,1,118.999996368408,2|10,0:1|0:0,0:0:0:0:
234,326,21572,2,0,B|255:324|255:324|274:338,2,39.6666654561361,2|2|2,0:0|0:0|0:0,0:0:0:0:
125,277,21838,1,8,0:0:0:0:
84,361,21997,1,8,0:0:0:0:
13,241,22157,6,0,L|-1:113,1,118.999996368408,12|0,0:0|0:0,0:0:0:0:
19,108,22396,1,0,0:0:0:0:
38,94,22476,2,0,B|60:109|60:109|73:218,1,118.999996368408,8|0,0:0|0:0,0:0:0:0:
177,83,22795,5,8,0:0:0:0:
108,27,22955,1,2,0:0:0:0:
89,29,23035,1,0,0:0:0:0:
54,131,23194,1,2,0:0:0:0:
37,120,23274,1,0,0:0:0:0:
230,41,23434,6,0,L|371:56,1,118.999996368408,8|2,0:0|0:0,0:0:0:0:
338,38,23673,1,2,0:0:0:0:
327,23,23753,1,10,0:0:0:0:
460,115,23912,6,0,L|361:192,1,118.999996368408,2|8,0:1|0:0,0:0:0:0:
369,180,24125,1,8,0:0:0:0:
371,172,24178,1,8,0:0:0:0:
373,164,24232,1,8,0:0:0:0:
447,51,24391,2,0,B|447:-8|447:-8|396:41,1,118.999996368408,12|8,0:0|0:0,0:0:0:0:
454,230,24710,6,0,L|438:366,1,118.999996368408,12|0,0:0|0:0,0:0:0:0:
373,331,24950,1,2,0:0:0:0:
350,333,25030,1,10,0:0:0:0:
327,335,25109,1,2,0:0:0:0:
304,336,25189,1,2,0:0:0:0:
169,232,25349,5,8,0:0:0:0:
85,281,25508,1,2,0:0:0:0:
88,297,25588,1,0,0:0:0:0:
18,232,25748,1,2,0:0:0:0:
24,215,25828,1,0,0:0:0:0:
128,125,25987,6,0,B|139:43|139:43|106:21,1,118.999996368408,8|2,0:0|0:0,0:0:0:0:
92,29,26226,1,2,0:0:0:0:
74,34,26306,1,10,0:0:0:0:
210,133,26466,2,0,B|236:192|236:192|196:259,1,118.999996368408,2|10,0:1|0:0,0:0:0:0:
191,227,26679,2,0,B|151:222,2,39.6666654561361,2|2|2,0:0|0:0|0:0,0:0:0:0:
254,362,26945,1,8,0:0:0:0:
169,317,27104,1,2,0:0:0:0:
332,265,27264,6,0,B|449:284,1,118.999996368408,12|0,0:0|0:0,0:0:0:0:
484,222,27503,1,2,0:0:0:0:
482,199,27583,1,10,0:0:0:0:
480,176,27662,1,2,0:0:0:0:
477,152,27742,1,2,0:0:0:0:
367,39,27902,5,8,0:0:0:0:
450,9,28062,1,2,0:0:0:0:
468,15,28141,1,0,0:0:0:0:
418,111,28301,1,2,0:0:0:0:
413,126,28381,1,0,0:0:0:0:
280,52,28540,6,0,L|144:69,1,118.999996368408,8|2,0:0|0:0,0:0:0:0:
173,51,28780,1,2,0:0:0:0:
183,36,28859,1,10,0:0:0:0:
239,283,29019,2,0,B|257:257|257:257|235:205|235:205|248:150,1,118.999996368408,2|10,0:1|0:0,0:0:0:0:
259,164,29232,2,0,L|268:112,2,39.6666654561361,2|2|2,0:0|0:0|0:0,0:0:0:0:
116,145,29498,1,8,0:0:0:0:
154,250,29657,1,8,0:0:0:0:
351,192,29817,6,0,B|322:158|322:158|346:360,1,237.999992736817,10|8,0:1|0:0,0:0:0:0:
466,214,30295,2,2,L|424:102,1,118.999996368408,2|10,0:0|0:0,0:0:0:0:
441,107,30535,1,2,0:0:0:0:
457,112,30614,1,2,0:0:0:0:
270,81,30774,2,0,P|334:67|333:11,1,118.999996368408,8|2,0:0|0:0,0:0:0:0:
166,136,31093,6,0,B|181:172|181:172|6:26,1,237.999992736817,10|10,0:1|0:0,0:0:0:0:
49,290,31572,2,0,L|189:258,1,118.999996368408,2|0,0:0|0:0,0:0:0:0:
149,254,31811,1,0,0:0:0:0:
133,244,31891,1,0,0:0:0:0:
46,311,32051,1,8,0:0:0:0:
153,362,32210,1,0,0:0:0:0:
281,226,32370,6,0,B|311:178|311:178|286:100,1,118.999996368408,12|0,0:0|0:0,0:0:0:0:
276,128,32609,1,2,0:0:0:0:
260,137,32689,1,10,0:1:0:0:
245,146,32769,1,2,0:0:0:0:
229,155,32849,1,2,0:0:0:0:
349,43,33008,1,10,0:1:0:0:
332,37,33088,1,2,0:0:0:0:
315,30,33168,1,2,0:0:0:0:
409,120,33327,1,10,0:1:0:0:
413,137,33407,1,2,0:0:0:0:
417,154,33487,1,2,0:0:0:0:
421,171,33567,1,2,0:0:0:0:
450,194,33646,5,10,0:1:0:0:
445,233,33753,1,2,0:0:0:0:
438,271,33859,1,2,0:0:0:0:
404,304,33966,5,10,0:0:0:0:
365,309,34073,1,2,0:0:0:0:
327,316,34179,1,2,0:0:0:0:
294,291,34285,5,8,0:0:0:0:
281,311,34391,1,8,0:0:0:0:
268,331,34497,1,8,0:0:0:0:
224,338,34604,5,8,0:0:0:0:
216,324,34710,1,8,0:0:0:0:
208,310,34817,1,8,0:0:0:0:
177,310,34923,6,0,B|161:332|161:332|153:254|153:254|187:195|187:195|176:114,1,237.999992736817,8|0,0:0|0:0,0:0:0:0:
265,53,35402,1,0,0:0:0:0:
257,51,35455,1,0,0:0:0:0:
249,49,35508,1,0,0:0:0:0:
241,46,35561,6,0,L|255:145,1,79.3333309122722,6|0,0:0|0:0,0:0:0:0:
169,36,35774,2,0,L|183:135,1,79.3333309122722,2|0,0:0|0:0,0:0:0:0:
95,30,35987,2,0,L|109:129,1,79.3333309122722,2|0,0:0|0:0,0:0:0:0:
30,180,36200,5,4,0:0:0:0:
73,237,36359,2,0,B|148:234|148:234|212:285|212:285|305:279,1,237.999992736817,8|8,0:0|0:0,0:0:0:0:
512,260,36838,5,4,0:0:0:0:
469,317,36997,2,0,B|394:314|394:314|330:365|330:365|237:359,1,237.999992736817,8|8,0:0|0:0,0:0:0:0:
73,203,37476,6,0,B|49:217|49:217|128:209|128:209|186:241|186:241|270:236,1,237.999992736817,8|0,0:0|0:0,0:0:0:0:
349,174,37955,1,2,0:0:0:0:
347,166,38008,1,2,0:0:0:0:
344,158,38061,1,2,0:0:0:0:
342,150,38114,2,0,L|324:230,2,79.3333309122722,8|8|8,0:0|0:0|0:0,0:0:0:0:
403,232,38434,2,0,B|442:190|442:190|506:221,1,118.999996368408,2|2,0:0|0:0,0:0:0:0:
422,63,38753,6,0,L|425:18,5,39.6666654561361,8|0|0|0|0|0,0:0|0:0|0:0|0:0|0:0|0:0,0:0:0:0:
350,38,39072,6,0,L|343:117,1,59.4999981842042,10|2,0:0|0:0,0:0:0:0:
276,112,39232,2,0,L|282:50,1,59.4999981842042,2|2,0:0|0:0,0:0:0:0:
214,22,39391,5,8,0:0:0:0:
174,16,39497,1,8,0:0:0:0:
134,10,39604,1,8,0:0:0:0:
103,35,39710,5,8,0:0:0:0:
109,74,39817,1,8,0:0:0:0:
115,112,39923,1,8,0:0:0:0:
88,143,40029,6,0,B|89:112|89:112|125:185|125:185|87:227|87:227|97:309,1,237.999992736817,8|0,0:0|0:0,0:0:0:0:
242,331,40508,1,0,0:0:0:0:
244,339,40561,1,0,0:0:0:0:
246,347,40614,1,0,0:0:0:0:
249,355,40667,6,0,L|151:349,1,79.3333309122722,4|0,0:0|0:0,0:0:0:0:
272,284,40880,2,0,L|174:278,1,79.3333309122722,2|0,0:0|0:0,0:0:0:0:
298,218,41093,2,0,L|200:212,1,79.3333309122722,2|0,0:0|0:0,0:0:0:0:
386,140,41306,5,12,0:0:0:0:
454,96,41465,2,0,B|442:50|442:50|482:108|482:108|448:175|448:175|462:217,1,237.999992736817,8|8,0:0|0:0,0:0:0:0:
349,267,41944,5,4,0:0:0:0:
280,223,42103,2,0,B|293:177|293:177|253:235|253:235|287:302|287:302|273:344,1,237.999992736817,8|8,0:0|0:0,0:0:0:0:
82,183,42582,6,0,B|49:175|49:175|89:226|89:226|190:188|190:188|154:232,1,237.999992736817
65,364,43061,1,2,0:0:0:0:
57,362,43114,1,2,0:0:0:0:
49,359,43167,1,2,0:0:0:0:
41,357,43221,2,0,L|58:278,2,79.3333309122722,8|8|8,0:0|0:0|0:0,0:0:0:0:
170,302,43540,2,0,B|212:342|212:342|292:329,1,118.999996368408,2|2,0:0|0:0,0:0:0:0:
159,184,43859,6,0,L|116:192,5,39.6666654561361,8|0|0|0|0|0,0:0|0:0|0:0|0:0|0:0|0:0,0:0:0:0:
96,118,44178,6,0,L|15:101,1,59.4999981842042,10|2,0:0|0:0,0:0:0:0:
43,40,44338,2,0,L|101:51,1,59.4999981842042,2|2,0:0|0:0,0:0:0:0:
189,32,44497,5,8,0:0:0:0:
223,50,44603,1,8,0:0:0:0:
259,66,44710,1,8,0:0:0:0:
290,39,44816,5,8,0:0:0:0:
328,27,44923,1,8,0:0:0:0:
365,14,45029,1,8,0:0:0:0:
423,53,45135,5,4,0:0:0:0:
79,170,47689,2,0,L|18:164,1,46.7500014266968,8|0,0:0|0:0,0:0:0:0:
25,176,47849,1,0,0:0:0:0:
113,98,48327,2,0,L|52:92,1,46.7500014266968,8|0,0:0|0:0,0:0:0:0:
59,104,48487,1,0,0:0:0:0:
129,31,48966,5,8,0:0:0:0:
133,31,49045,1,0,0:0:0:0:
137,30,49125,1,0,0:0:0:0:
141,30,49205,1,0,0:0:0:0:
145,29,49285,1,0,0:0:0:0:
149,29,49364,1,0,0:0:0:0:
154,28,49444,1,0,0:0:0:0:
158,27,49524,1,0,0:0:0:0:
162,27,49604,1,0,0:0:0:0:
166,26,49684,1,0,0:0:0:0:
170,26,49763,1,0,0:0:0:0:
174,25,49843,1,0,0:0:0:0:
221,17,49923,5,12,0:1:0:0:
40,115,50242,5,2,0:1:0:0:
69,120,50322,1,2,0:0:0:0:
98,124,50402,1,2,0:0:0:0:
126,128,50482,1,2,0:0:0:0:
212,200,50721,5,2,0:1:0:0:
183,205,50801,1,2,0:0:0:0:
154,209,50881,1,2,0:0:0:0:
125,213,50961,1,2,0:0:0:0:
40,285,51200,5,2,0:1:0:0:
69,290,51280,1,2,0:0:0:0:
98,294,51360,1,2,0:0:0:0:
127,298,51440,1,2,0:0:0:0:
212,370,51678,5,2,0:1:0:0:
183,375,51758,1,2,0:0:0:0:
154,379,51838,1,2,0:0:0:0:
125,383,51918,1,2,0:0:0:0:
32,297,52157,5,10,0:0:0:0:
61,292,52236,1,2,0:0:0:0:
90,288,52316,1,2,0:0:0:0:
120,283,52396,1,2,0:0:0:0:
149,279,52476,1,10,0:0:0:0:
179,275,52555,1,2,0:0:0:0:
208,270,52635,1,2,0:0:0:0:
238,266,52715,1,2,0:0:0:0:
267,265,52795,6,0,L|285:15,1,237.999992736817,10|8,0:1|0:0,0:0:0:0:
447,125,53274,1,0,0:0:0:0:
447,125,53354,1,0,0:0:0:0:
447,125,53434,2,0,B|420:138|389:125|389:125|383:81|423:56,1,118.999996368408,8|0,0:0|0:0,0:0:0:0:
332,227,53753,1,8,0:0:0:0:
335,256,53832,1,0,0:0:0:0:
355,277,53912,1,0,0:0:0:0:
384,283,53992,1,0,0:0:0:0:
410,270,54072,5,8,0:0:0:0:
350,191,54232,1,2,0:0:0:0:
333,196,54311,1,0,0:0:0:0:
253,258,54471,1,2,0:0:0:0:
236,252,54551,1,0,0:0:0:0:
152,127,54710,5,8,0:1:0:0:
61,177,54870,2,0,B|56:154|56:154|69:126,2,39.6666654561361,2|2|2,0:0|0:0|0:0,0:0:0:0:
82,186,55029,2,0,L|72:50,1,118.999996368408,10|4,0:0|0:1,0:0:0:0:
211,12,55349,5,8,0:0:0:0:
206,43,55455,1,0,0:0:0:0:
201,74,55561,1,0,0:0:0:0:
162,94,55668,5,8,0:0:0:0:
172,123,55774,1,0,0:0:0:0:
182,152,55880,1,0,0:0:0:0:
167,194,55987,5,8,0:0:0:0:
135,189,56093,1,0,0:0:0:0:
103,184,56200,1,0,0:0:0:0:
79,150,56306,5,8,0:0:0:0:
57,159,56412,1,0,0:0:0:0:
35,169,56519,1,0,0:0:0:0:
18,202,56625,5,8,0:0:0:0:
22,217,56732,1,0,0:0:0:0:
25,232,56838,1,0,0:0:0:0:
6,267,56944,5,8,0:0:0:0:
16,278,57051,1,0,0:0:0:0:
27,289,57157,1,0,0:0:0:0:
39,329,57263,5,8,0:0:0:0:
70,323,57370,1,0,0:0:0:0:
101,318,57476,1,0,0:0:0:0:
133,283,57583,5,8,0:0:0:0:
174,305,57689,1,0,0:0:0:0:
216,326,57795,1,0,0:0:0:0:
254,311,57902,6,0,L|243:244,4,59.4999981842042,10|2|2|2|10,0:0|0:0|0:0|0:0|0:0,0:0:0:0:
351,271,58380,1,8,0:0:0:0:
367,274,58460,1,8,0:0:0:0:
436,356,58620,1,8,0:0:0:0:
453,352,58700,1,8,0:0:0:0:
475,168,58859,2,0,B|415:172|415:172|375:115,1,118.999996368408,10|0,0:1|0:0,0:0:0:0:
260,12,59178,6,0,L|256:57,4,39.6666654561361,8|0|0|0|0,0:0|0:0|0:0|0:0|0:0,0:0:0:0:
221,65,59497,5,8,0:0:0:0:
249,74,59577,1,0,0:0:0:0:
277,82,59657,1,0,0:0:0:0:
305,90,59737,1,0,0:0:0:0:
333,98,59817,1,8,0:0:0:0:
312,109,59896,1,0,0:0:0:0:
291,120,59976,1,0,0:0:0:0:
270,131,60056,1,0,0:0:0:0:
249,143,60136,1,10,0:0:0:0:
264,151,60216,1,2,0:0:0:0:
279,158,60295,1,2,0:0:0:0:
295,165,60375,1,2,0:0:0:0:
311,172,60455,6,0,B|328:260|328:260|385:188,3,178.499994552612,2|2|2|2,0:1|0:0|0:0|0:0,0:0:0:0:
313,71,61412,1,8,0:0:0:0:
242,48,61572,1,0,0:0:0:0:
100,138,61732,6,0,B|119:49|119:49|172:124,3,178.499994552612,2|2|2|2,0:1|0:0|0:0|0:0,0:0:0:0:
0,242,62689,2,0,B|46:231|46:231|110:277|110:277|183:246,1,178.499994552612,2|0,0:1|0:0,0:0:0:0:
207,311,63008,5,8,0:0:0:0:
219,337,63087,1,0,0:0:0:0:
242,355,63167,1,0,0:0:0:0:
271,359,63247,1,0,0:0:0:0:
299,350,63327,1,8,0:0:0:0:
319,328,63406,1,0,0:0:0:0:
326,299,63486,1,0,0:0:0:0:
318,271,63566,1,0,0:0:0:0:
298,249,63646,6,0,L|234:257,3,59.4999981842042,8|0|0|0,0:0|0:0|0:0|0:0,0:0:0:0:
354,326,63966,2,0,L|430:335,1,59.4999981842042,8|0,0:0|0:0,0:0:0:0:
274,211,64125,2,0,L|350:220,1,59.4999981842042
457,265,64285,5,8,0:0:0:0:
505,181,64524,1,8,0:0:0:0:
495,163,64604,2,0,L|359:171,1,118.999996368408,8|2,0:0|0:0,0:0:0:0:
364,156,64843,1,2,0:0:0:0:
352,142,64923,1,10,0:0:0:0:
349,45,65083,1,2,0:0:0:0:
352,28,65162,1,0,0:0:0:0:
251,99,65322,1,2,0:0:0:0:
244,83,65402,1,0,0:0:0:0:
381,191,65561,6,0,B|424:267|424:267|454:172,3,178.499994552612,10|2|2|2,0:1|0:0|0:0|0:0,0:0:0:0:
298,255,66519,1,8,0:0:0:0:
334,348,66678,1,0,0:0:0:0:
139,255,66838,6,0,B|65:308|65:308|166:321,3,178.499994552612,2|0|0|0,0:1|0:0|0:0|0:0,0:0:0:0:
28,225,67795,2,0,B|18:165|18:165|51:112|51:112|23:40,1,178.499994552612,10|0,0:1|0:0,0:0:0:0:
103,26,68114,5,8,0:0:0:0:
113,54,68194,1,0,0:0:0:0:
137,71,68274,1,0,0:0:0:0:
166,77,68354,1,0,0:0:0:0:
195,71,68434,1,8,0:0:0:0:
219,54,68513,1,0,0:0:0:0:
247,45,68593,1,0,0:0:0:0:
276,50,68673,1,0,0:0:0:0:
300,67,68753,6,0,L|297:130,3,59.4999981842042,8|0|0|0,0:0|0:0|0:0|0:0,0:0:0:0:
403,68,69072,2,0,L|389:-6,1,59.4999981842042,10|2,0:0|0:0,0:0:0:0:
268,157,69232,2,0,L|254:83,1,59.4999981842042,2|2,0:0|0:0,0:0:0:0:
343,210,69391,5,8,0:0:0:0:
466,180,69630,1,8,0:0:0:0:
456,162,69710,2,0,L|443:295,1,118.999996368408,8|2,0:0|0:0,0:0:0:0:
432,294,69950,1,2,0:0:0:0:
420,307,70029,5,10,0:0:0:0:
391,285,70109,1,0,0:0:0:0:
355,277,70189,1,0,0:0:0:0:
321,289,70269,1,0,0:0:0:0:
297,316,70349,1,8,0:0:0:0:
270,339,70428,1,8,0:0:0:0:
236,350,70508,1,8,0:0:0:0:
200,344,70588,1,8,0:0:0:0:
172,321,70668,6,0,B|207:272|207:272|184:194,1,118.999996368408,8|0,0:0|0:0,0:0:0:0:
42,184,70987,2,0,B|7:233|7:233|30:311,1,118.999996368408,8|0,0:0|0:0,0:0:0:0:
199,195,71306,6,0,B|164:146|164:146|187:68,1,118.999996368408,8|0,0:0|0:0,0:0:0:0:
329,58,71625,2,0,B|364:107|364:107|341:185,1,118.999996368408,8|0,0:0|0:0,0:0:0:0:
165,79,71944,5,8,0:0:0:0:
64,95,72104,1,8,0:0:0:0:
51,199,72263,1,8,0:0:0:0:
152,238,72423,1,8,0:0:0:0:
166,361,72583,1,8,0:0:0:0:
72,378,72742,1,8,0:0:0:0:
37,246,72902,5,8,0:0:0:0:
43,204,72982,1,8,0:0:0:0:
47,163,73061,1,8,0:0:0:0:
52,121,73141,1,8,0:0:0:0:
57,79,73221,5,8,0:0:0:0:
48,97,75774,6,0,P|38:123|31:151,2,45.3333333333333,2|0|0,0:0|0:0|0:0,0:0:0:0:
131,65,76093,2,0,P|146:88|158:114,2,45.3333333333333,2|0|0,0:0|0:0|0:0,0:0:0:0:
243,31,76412,2,0,P|258:20|292:9,2,45.3333333333333,2|0|0,0:0|0:0|0:0,0:0:0:0:
311,141,76732,2,0,P|289:176|286:192,2,45.3333333333333,2|0|0,0:0|0:0|0:0,0:0:0:0:
158,169,77051,5,2,0:0:0:0:
177,199,77157,1,0,0:0:0:0:
209,215,77263,1,0,0:0:0:0:
245,217,77370,1,2,0:0:0:0:
279,204,77476,1,0,0:0:0:0:
303,177,77583,1,0,0:0:0:0:
311,141,77689,6,0,P|306:112|298:81,2,45.3333333333333,2|0|0,0:0|0:0|0:0,0:0:0:0:
404,232,78008,2,0,P|425:244|457:255,2,45.3333333333333,2|2|2,0:0|0:0|0:0,0:0:0:0:
472,39,78327,5,2,0:0:0:0:
256,192,78407,12,2,79923,0:0:0:0:
88,349,80242,5,2,0:0:0:0:
39,287,80402,1,2,0:0:0:0:
23,291,80482,1,0,0:0:0:0:
16,361,80641,1,2,0:0:0:0:
0,365,80721,1,0,0:0:0:0:
0,206,80880,6,2,B|136:191|136:191|216:83|216:83|365:69,1,408,8|2,0:1|0:0,0:1:0:0:
362,0,81439,1,0,0:0:0:0:
344,5,81519,1,8,0:0:0:0:
263,126,81678,1,2,0:0:0:0:
254,113,81758,2,0,L|169:107,1,68,0|8,0:0|0:0,0:0:0:0:
138,26,81997,1,0,0:0:0:0:
327,196,82157,5,8,0:0:0:0:
439,86,82317,1,0,0:0:0:0:
449,77,82396,1,0,0:0:0:0:
459,68,82476,2,0,L|445:208,1,136,8|0,0:0|0:0,0:0:0:0:
454,193,82716,1,0,0:0:0:0:
463,183,82795,1,10,0:0:0:0:
307,311,82955,1,0,0:0:0:0:
304,324,83034,1,0,0:0:0:0:
301,337,83114,1,8,0:0:0:0:
457,338,83274,1,0,0:0:0:0:
468,331,83354,1,0,0:0:0:0:
480,324,83434,6,2,B|409:264|409:264|196:329|196:329|257:229,1,408,12|2,0:0|0:0,0:1:0:0:
192,203,83992,1,0,0:0:0:0:
189,216,84072,1,8,0:0:0:0:
76,307,84232,1,2,0:0:0:0:
88,319,84311,2,0,L|80:243,1,68,0|8,0:0|0:0,0:0:0:0:
192,354,84551,1,0,0:0:0:0:
116,172,84710,5,8,0:0:0:0:
47,58,84870,1,0,0:0:0:0:
36,66,84950,1,0,0:0:0:0:
26,73,85029,2,0,L|167:38,1,136,8|0,0:0|0:0,0:0:0:0:
146,47,85269,1,0,0:0:0:0:
135,55,85349,1,10,0:0:0:0:
37,262,85508,1,0,0:0:0:0:
50,265,85588,1,0,0:0:0:0:
63,266,85668,2,0,L|4:134,1,136,8|0,0:0|0:0,0:0:0:0:
292,31,85987,6,0,B|305:65|305:65|278:127,1,68,14|0,0:0|0:0,0:0:0:0:
208,72,86146,2,0,B|195:40|195:40|208:3,1,68,2|0,0:0|0:0,0:0:0:0:
239,137,86306,2,0,L|224:279,1,136,10|0,0:0|0:0,0:0:0:0:
214,280,86545,1,0,0:0:0:0:
204,289,86625,1,8,0:0:0:0:
388,136,86785,1,0,0:0:0:0:
385,122,86864,1,0,0:0:0:0:
382,108,86944,1,8,0:0:0:0:
321,204,87104,2,0,L|334:273,1,68
209,183,87263,6,0,B|275:199|275:199|344:138,1,136,8|0,0:0|0:0,0:0:0:0:
67,360,87583,2,0,B|24:309|24:309|49:232,1,136,8|0,0:0|0:0,0:0:0:0:
196,324,87902,1,8,0:0:0:0:
126,113,88061,1,2,0:0:0:0:
116,104,88141,1,2,0:0:0:0:
105,96,88221,1,10,0:0:0:0:
110,136,88301,1,0,0:0:0:0:
113,176,88380,1,0,0:0:0:0:
119,216,88460,1,0,0:0:0:0:
123,256,88540,6,2,B|157:198|157:198|120:58|120:58|156:-8,1,272,12|8,0:0|0:0,0:1:0:0:
155,16,88939,1,2,0:0:0:0:
161,27,89019,1,2,0:0:0:0:
168,38,89099,1,2,0:0:0:0:
174,49,89178,1,10,0:0:0:0:
297,16,89338,1,2,0:0:0:0:
310,28,89418,2,0,B|346:34|346:34|380:15,1,68
228,116,89657,1,0,0:0:0:0:
320,198,89817,5,8,0:0:0:0:
369,136,89977,1,2,0:0:0:0:
385,140,90057,1,0,0:0:0:0:
392,210,90216,1,2,0:0:0:0:
408,214,90296,1,0,0:0:0:0:
268,319,90455,5,8,0:0:0:0:
219,257,90615,1,2,0:0:0:0:
203,261,90695,1,0,0:0:0:0:
196,331,90854,1,2,0:0:0:0:
180,335,90934,1,0,0:0:0:0:
498,324,91093,6,2,B|390:332|390:332|232:227|232:227|94:240,1,408,12|0,0:0|0:0,0:1:0:0:
62,178,91652,1,0,0:0:0:0:
76,184,91732,1,8,0:0:0:0:
124,331,91891,1,2,0:0:0:0:
139,345,91971,2,0,B|175:352|175:352|219:322,1,68,0|8,0:0|0:0,0:0:0:0:
251,218,92210,1,0,0:0:0:0:
154,32,92370,5,8,0:0:0:0:
82,182,92529,1,0,0:0:0:0:
75,194,92609,1,0,0:0:0:0:
68,206,92689,2,0,L|87:61,1,136,8|0,0:0|0:0,0:0:0:0:
79,83,92928,1,0,0:0:0:0:
72,95,93008,1,10,0:0:0:0:
228,207,93168,1,0,0:0:0:0:
230,219,93247,1,0,0:0:0:0:
233,232,93327,1,10,0:0:0:0:
62,311,93487,1,0,0:0:0:0:
50,304,93567,1,0,0:0:0:0:
39,296,93646,6,2,B|31:256|31:256|225:351|225:351|305:295|305:295|224:280,1,408,12|2,0:0|0:0,0:1:0:0:
239,216,94205,1,0,0:0:0:0:
254,204,94285,1,8,0:0:0:0:
443,243,94444,1,2,0:0:0:0:
435,228,94524,2,0,L|450:146,1,68,0|8,0:0|0:0,0:0:0:0:
321,228,94763,1,0,0:0:0:0:
284,37,94923,5,8,0:0:0:0:
470,87,95083,1,0,0:0:0:0:
482,82,95162,1,0,0:0:0:0:
495,78,95242,2,0,L|350:59,1,136,8|0,0:0|0:0,0:0:0:0:
372,54,95482,1,0,0:0:0:0:
384,49,95561,1,10,0:0:0:0:
358,239,95721,1,0,0:0:0:0:
371,242,95801,1,0,0:0:0:0:
383,246,95880,2,0,B|348:187|348:187|254:180,1,136,8|0,0:0|0:0,0:0:0:0:
25,315,96200,5,10,0:1:0:0:
79,215,96359,1,0,0:0:0:0:
92,216,96439,1,0,0:0:0:0:
105,217,96519,1,10,0:0:0:0:
169,321,96678,1,0,0:0:0:0:
182,320,96758,1,0,0:0:0:0:
195,319,96838,1,10,0:1:0:0:
228,207,96997,1,0,0:0:0:0:
241,206,97077,1,0,0:0:0:0:
254,205,97157,1,10,0:1:0:0:
73,73,97317,5,0,0:0:0:0:
71,85,97397,1,0,0:0:0:0:
69,98,97477,1,10,0:1:0:0:
246,212,97636,1,0,0:0:0:0:
244,200,97716,1,0,0:0:0:0:
242,187,97796,1,10,0:1:0:0:
71,229,97955,1,0,0:0:0:0:
83,227,98035,1,0,0:0:0:0:
96,225,98115,1,10,0:1:0:0:
223,56,98274,1,0,0:0:0:0:
211,54,98354,1,0,0:0:0:0:
198,52,98434,2,0,B|232:112|232:112|305:97,1,136,10|0,0:1|0:0,0:0:0:0:
456,151,98753,6,0,L|487:289,1,136,12|0,0:0|0:0,0:0:0:0:
388,351,98992,2,0,L|403:194,1,136,8|0,0:0|0:0,0:0:0:0:
349,168,99232,1,8,0:0:0:0:
126,185,99391,6,0,L|95:323,1,136,12|0,0:0|0:0,0:0:0:0:
195,384,99630,2,0,L|180:227,1,136,8|8,0:0|0:0,0:0:0:0:
236,205,99870,1,8,0:0:0:0:
350,76,100029,6,0,L|400:79,5,45.3333333333333,8|0|0|0|0|0,0:0|0:0|0:0|0:0|0:0|0:0,0:0:0:0:
264,141,100349,2,0,L|314:144,5,45.3333333333333
339,49,100668,6,0,L|389:52,2,45.3333333333333
207,12,100827,2,0,L|257:15,2,45.3333333333333
123,116,100987,1,12,0:1:0:0:
0,54,101306,6,0,B|86:45|86:45|110:16,1,118.999996368408,8|2,0:0|0:0,0:0:0:0:
123,33,101519,2,0,L|177:40,2,39.6666654561361,2|2|8,0:0|0:0|0:0,0:0:0:0:
106,120,101785,1,0,0:0:0:0:
127,283,101944,5,8,0:0:0:0:
65,224,102104,1,2,0:0:0:0:
47,227,102184,1,0,0:0:0:0:
107,148,102343,1,2,0:0:0:0:
89,144,102423,1,0,0:0:0:0:
243,241,102583,5,10,0:1:0:0:
328,209,102742,2,0,L|331:162,3,39.6666654561361,0|0|0|10,0:0|0:0|0:0|0:0,0:0:0:0:
201,364,103061,2,0,L|205:319,3,39.6666654561361,0|0|0|10,0:0|0:0|0:0|0:0,0:0:0:0:
334,309,103380,1,0,0:0:0:0:
349,307,103460,1,2,0:0:0:0:
430,351,103620,1,0,0:0:0:0:
445,349,103700,1,0,0:0:0:0:
484,126,103859,6,0,B|420:132|420:132|368:68,1,118.999996368408,12|0,0:0|0:0,0:0:0:0:
167,34,104178,2,0,B|258:38|258:38|279:72,1,118.999996368408,8|2,0:0|0:0,0:0:0:0:
294,67,104391,2,0,L|297:27,2,39.6666654561361,2|2|10,0:0|0:0|0:1,0:0:0:0:
217,171,104657,1,2,0:0:0:0:
199,174,104737,1,0,0:0:0:0:
139,105,104896,1,2,0:0:0:0:
121,102,104976,1,0,0:0:0:0:
36,228,105136,5,8,0:0:0:0:
50,153,105295,2,0,L|43:96,3,39.6666654561361,0|0|0|10,0:0|0:0|0:0|0:1,0:0:0:0:
163,194,105614,2,0,L|226:181,1,59.4999981842042,2|0,0:0|0:0,0:0:0:0:
252,107,105774,5,10,0:0:0:0:
275,112,105854,1,0,0:0:0:0:
297,118,105934,1,0,0:0:0:0:
319,124,106013,1,2,0:0:0:0:
342,129,106093,1,8,0:0:0:0:
365,135,106173,1,0,0:0:0:0:
387,142,106253,1,2,0:0:0:0:
410,147,106333,1,2,0:0:0:0:
431,136,106412,6,2,B|379:120|379:120|291:177|291:177|189:172,1,237.999992736817,12|8,0:0|0:0,0:1:0:0:
143,32,106891,1,0,0:0:0:0:
154,29,106971,1,0,0:0:0:0:
165,27,107051,1,8,0:0:0:0:
24,107,107210,1,0,0:0:0:0:
47,111,107290,1,0,0:0:0:0:
67,123,107370,1,8,0:0:0:0:
84,139,107450,1,0,0:0:0:0:
94,160,107529,1,0,0:0:0:0:
65,273,107689,5,8,0:0:0:0:
83,307,107795,1,0,0:0:0:0:
101,342,107902,1,0,0:0:0:0:
149,352,108008,5,8,0:0:0:0:
183,332,108114,1,0,0:0:0:0:
218,313,108221,1,0,0:0:0:0:
257,329,108327,5,8,0:0:0:0:
392,231,108487,1,2,0:0:0:0:
368,225,108567,1,2,0:0:0:0:
344,219,108646,1,10,0:0:0:0:
320,213,108726,1,0,0:0:0:0:
296,207,108806,1,0,0:0:0:0:
273,199,108886,1,0,0:0:0:0:
249,193,108966,5,8,0:0:0:0:
298,47,109125,2,0,B|286:31|286:31|291:-8,2,39.6666654561361,2|2|2,0:0|0:0|0:0,0:0:0:0:
297,70,109285,2,0,L|428:59,1,118.999996368408,10|0,0:0|0:0,0:0:0:0:
477,192,109604,6,0,L|417:182,4,39.6666654561361,8|0|0|0|0,0:0|0:0|0:0|0:0|0:0,0:0:0:0:
512,139,109923,5,10,0:0:0:0:
486,153,110003,1,2,0:0:0:0:
456,155,110083,1,2,0:0:0:0:
427,145,110162,1,2,0:0:0:0:
403,125,110242,5,8,0:0:0:0:
406,166,110322,1,8,0:0:0:0:
411,207,110402,1,8,0:0:0:0:
415,248,110482,1,8,0:0:0:0:
421,288,110561,1,12,0:0:0:0:
314,226,110721,1,12,0:0:0:0:
251,324,110881,5,8,0:0:0:0:
250,331,110934,1,8,0:0:0:0:
249,338,110987,1,8,0:0:0:0:
248,345,111040,2,0,B|322:322|322:322|390:363|390:363|479:353,1,237.999992736817,6|0,0:0|0:0,0:0:0:0:
150,264,111519,6,0,L|77:272,1,59.4999981842042,8|0,0:0|0:0,0:0:0:0:
92,203,111678,2,0,L|13:210,2,59.4999981842042,8|0|8,0:0|0:0|0:0,0:0:0:0:
234,337,111997,1,2,0:0:0:0:
237,344,112051,1,2,0:0:0:0:
240,351,112104,1,2,0:0:0:0:
243,358,112157,2,0,B|199:342|199:342|135:375|135:375|55:367,2,178.499994552612,2|2|8,0:1|0:1|0:0,0:0:0:0:
290,184,112795,6,0,L|285:116,1,59.4999981842042,8|0,0:0|0:0,0:0:0:0:
353,148,112955,2,0,L|348:80,2,59.4999981842042,8|0|8,0:0|0:0|0:0,0:0:0:0:
449,234,113274,1,2,0:0:0:0:
456,233,113327,1,2,0:0:0:0:
463,231,113380,1,2,0:0:0:0:
471,230,113434,2,0,B|453:185|453:185|486:115|486:115|479:49,2,178.499994552612,2|2|8,0:1|0:1|0:0,0:0:0:0:
232,51,114072,6,0,L|166:49,1,59.4999981842042,8|0,0:0|0:0,0:0:0:0:
186,118,114232,2,0,L|120:116,2,59.4999981842042,8|0|8,0:0|0:0|0:0,0:0:0:0:
64,216,114551,1,2,0:0:0:0:
66,223,114604,1,2,0:0:0:0:
68,230,114657,1,2,0:0:0:0:
70,237,114710,2,0,B|80:194|80:194|37:128|37:128|51:68,2,178.499994552612,2|2|8,0:1|0:1|0:0,0:0:0:0:
253,346,115349,6,0,L|247:281,1,59.4999981842042,8|0,0:0|0:0,0:0:0:0:
181,323,115508,2,0,L|175:258,2,59.4999981842042,8|0|8,0:0|0:0|0:0,0:0:0:0:
409,322,115827,1,2,0:0:0:0:
413,328,115880,1,2,0:0:0:0:
417,334,115934,1,2,0:0:0:0:
421,340,115987,2,0,B|363:324|363:324|312:364|312:364|249:359,2,178.499994552612,2|2|8,0:1|0:1|0:0,0:0:0:0:
296,195,116625,5,0,0:0:0:0:
336,109,116785,1,8,0:0:0:0:
332,91,116864,1,8,0:0:0:0:
329,73,116944,5,12,0:0:0:0:
238,130,117184,1,2,0:0:0:0:
148,71,117423,1,2,0:0:0:0:
65,139,117662,1,2,0:0:0:0:
135,58,117902,1,2,0:0:0:0:
213,131,118141,1,2,0:0:0:0:
300,64,118380,1,2,0:0:0:0:
384,129,118620,1,2,0:0:0:0:
270,32,118859,5,10,0:0:0:0:
223,144,119019,1,10,0:0:0:0:
288,260,119178,5,8,0:0:0:0:
311,264,119258,1,0,0:0:0:0:
334,268,119338,1,8,0:0:0:0:
357,272,119418,1,0,0:0:0:0:
380,276,119497,2,0,L|344:222,1,59.4999981842042
206,325,119657,1,8,0:0:0:0:
182,327,119737,1,0,0:0:0:0:
158,330,119817,1,8,0:0:0:0:
134,333,119896,1,0,0:0:0:0:
110,336,119976,2,0,L|154:284,1,59.4999981842042
276,331,120136,5,8,0:0:0:0:
349,364,120295,1,10,0:0:0:0:
372,360,120375,1,10,0:0:0:0:
395,357,120455,1,10,0:0:0:0:
369,242,120614,1,8,0:0:0:0:
415,183,120774,2,0,L|423:116,2,59.4999981842042,8|8|8,0:0|0:0|0:0,0:0:0:0:
253,82,121093,2,0,L|295:76,3,39.6666654561361,10|2|2|2,0:0|0:0|0:0|0:0,0:0:0:0:
190,16,121412,1,12,0:0:0:0:
62,366,121732,6,0,B|76:323|76:323|23:197|23:197|25:89,1,272,10|8,0:0|0:0,0:0:0:0:
151,91,122210,2,0,B|173:66|173:66|163:14,1,68,8|0,0:0|0:0,0:0:0:0:
99,30,122370,2,0,L|107:176,1,136,2|8,0:1|0:0,0:0:0:0:
125,177,122583,2,0,L|119:222,2,45.3333333333333,2|2|10,0:0|0:0|0:0,0:0:0:0:
257,48,122928,5,2,0:0:0:0:
270,61,123007,1,8,0:0:0:0:
377,86,123168,2,0,L|388:15,1,68,8|0,0:0|0:0,0:0:0:0:
319,118,123327,1,2,0:1:0:0:
403,191,123487,2,0,L|410:252,3,45.3333333333333,8|2|2|10,0:0|0:0|0:0|0:0,0:0:0:0:
238,343,123886,5,2,0:0:0:0:
252,347,123966,1,8,0:0:0:0:
250,232,124125,1,8,0:0:0:0:
105,367,124285,2,0,B|56:325|56:325|76:250,1,136,2|8,0:0|0:0,0:0:0:0:
63,244,124497,2,0,L|7:252,2,45.3333333333333,2|2|8,0:0|0:0|0:0,0:0:0:0:
93,32,124843,5,2,0:0:0:0:
105,45,124923,2,0,L|247:30,1,136,2|2,0:0|0:0,0:0:0:0:
511,46,125242,2,0,L|463:33,5,45.3333333333333,8|0|0|0|0|0,0:0|0:0|0:0|0:0|0:0|0:0,0:0:0:0:
435,89,125561,6,0,B|454:141|454:141|408:261|408:261|455:347,1,272,8|8,0:0|0:0,0:0:0:0:
318,221,126040,2,0,B|297:193|297:193|249:190,1,68,8|0,0:0|0:0,0:0:0:0:
242,267,126200,2,0,L|93:285,1,136,2|10,0:1|0:0,0:0:0:0:
112,290,126412,1,8,0:0:0:0:
117,297,126466,1,8,0:0:0:0:
122,303,126519,1,2,0:0:0:0:
20,208,126758,6,0,B|55:178|55:178|41:5,1,204,2|8,0:0|0:0,0:0:0:0:
235,130,127157,1,2,0:1:0:0:
153,73,127317,2,0,L|161:24,3,45.3333333333333,8|2|2|8,0:0|0:0|0:0|0:0,0:0:0:0:
22,255,127716,5,2,0:0:0:0:
34,240,127795,2,0,L|173:248,1,136,8|8,0:0|0:0,0:0:0:0:
410,172,128114,2,0,B|369:121|369:121|403:45,1,136,2|8,0:0|0:0,0:0:0:0:
416,50,128327,2,0,L|423:100,2,45.3333333333333,2|2|8,0:0|0:0|0:0,0:0:0:0:
239,30,128673,5,2,0:0:0:0:
244,46,128753,1,8,0:0:0:0:
152,120,128912,1,8,0:0:0:0:
223,306,129072,2,0,L|218:355,5,45.3333333333333,8|0|0|0|0|0,0:0|0:0|0:0|0:0|0:0|0:0,0:0:0:0:
146,384,129391,6,0,B|121:324|121:324|170:213|170:213|160:116,1,272,8|8,0:0|0:0,0:0:0:0:
10,115,129870,2,0,B|0:83|0:83|30:38,1,68,8|0,0:0|0:0,0:0:0:0:
83,106,130029,2,0,L|231:94,1,136,2|8,0:1|0:0,0:0:0:0:
223,87,130242,1,2,0:0:0:0:
227,79,130295,1,2,0:0:0:0:
231,71,130349,1,8,0:0:0:0:
399,9,130588,6,0,L|384:75,1,68,2|8,0:0|0:0,0:0:0:0:
467,217,130827,1,8,0:0:0:0:
305,222,130987,2,0,B|290:292|290:292|344:344,1,136,2|8,0:1|0:0,0:0:0:0:
345,335,131200,1,2,0:0:0:0:
353,333,131253,1,2,0:0:0:0:
361,331,131306,2,0,L|216:306,1,136,8|0,0:0|0:0,0:0:0:0:
181,359,131545,6,0,L|112:367,1,68,2|8,0:0|0:0,0:0:0:0:
103,225,131785,1,8,0:0:0:0:
272,151,131944,2,0,B|239:175|239:175|246:277,1,136,2|8,0:0|0:0,0:0:0:0:
161,55,132263,1,8,0:0:0:0:
36,178,132503,5,2,0:0:0:0:
32,157,132583,1,8,0:0:0:0:
129,252,132742,1,8,0:0:0:0:
328,104,132902,2,0,L|385:109,5,45.3333333333333,8|0|0|0|0|0,0:0|0:0|0:0|0:0|0:0|0:0,0:0:0:0:
293,40,133221,5,8,0:0:0:0:
269,45,133301,1,2,0:0:0:0:
402,210,133460,1,2,0:0:0:0:
391,223,133540,1,8,0:0:0:0:
431,74,133700,1,8,0:0:0:0:
256,223,133859,2,0,L|270:362,1,136,2|8,0:1|0:0,0:0:0:0:
260,355,134072,1,2,0:0:0:0:
251,352,134125,1,2,0:0:0:0:
242,349,134178,2,0,B|177:326|177:326|103:370,1,136,8|8,0:0|0:0,0:0:0:0:
67,316,134391,6,0,L|82:219,1,90.6666666666667,0|8,0:0|0:0,0:0:0:0:
37,57,134657,1,10,0:0:0:0:
247,140,134817,2,0,B|185:95|185:95|115:123,1,136,2|8,0:1|0:0,0:0:0:0:
126,134,135029,2,0,L|74:123,2,45.3333333333333,2|2|8,0:0|0:0|0:0,0:0:0:0:
290,28,135375,5,2,0:0:0:0:
307,34,135455,1,8,0:0:0:0:
226,125,135614,1,10,0:0:0:0:
296,331,135774,2,2,B|350:322|350:322|419:369|419:369|486:365,1,204,2|0,0:1|0:0,0:1:0:0:
474,340,136093,6,0,L|481:289,5,45.3333333333333,10|2|2|10|2|2,0:0|0:0|0:0|0:0|0:0|0:0,0:0:0:0:
396,200,136412,2,0,L|417:153,5,45.3333333333333,10|2|2|10|2|2,0:0|0:0|0:0|0:0|0:0|0:0,0:0:0:0:
442,329,136732,6,0,L|425:277,2,45.3333333333333,10|2|2,0:0|0:0|0:0,0:0:0:0:
309,232,136891,2,0,L|299:286,2,45.3333333333333,10|2|2,0:0|0:0|0:0,0:0:0:0:
339,92,137051,5,4,0:0:0:0:
190,242,137529,1,0,0:0:0:0:
190,242,137609,1,0,0:0:0:0:
190,242,137689,2,0,L|178:167,1,68,8|0,0:0|0:0,0:0:0:0:
118,198,137928,2,0,L|136:309,1,102,0|2,0:0|0:0,0:0:0:0:
24,149,138327,6,0,B|60:89|60:89|14:29,2,136,2|10|2,0:0|0:0|0:0,0:0:0:0:
39,346,139285,1,2,0:0:0:0:
57,349,139444,1,2,0:0:0:0:
182,244,139604,6,0,P|213:233|254:225,3,68,0|0|2|0,0:0|0:0|0:0|0:0,0:0:0:0:
339,309,140242,2,0,P|331:338|328:378,3,68,8|0|2|0,0:0|0:0|0:0|0:0,0:0:0:0:
453,315,140880,5,8,0:0:0:0:
311,86,141199,1,2,0:0:0:0:
327,65,141838,2,0,B|338:223|338:223|287:254,1,204
235,271,142476,5,2,0:0:0:0:
136,89,142795,2,0,L|63:83,1,68,8|0,0:0|0:0,0:0:0:0:
116,151,143035,2,0,L|2:141,1,102,0|2,0:0|0:0,0:0:0:0:
183,37,143433,6,0,B|234:83|234:83|326:53,1,136,2|8,0:0|0:0,0:0:0:0:
362,33,143912,1,2,0:0:0:0:
285,275,144231,1,2,0:0:0:0:
218,241,144551,1,2,0:0:0:0:
211,242,144604,1,2,0:0:0:0:
204,243,144657,1,2,0:0:0:0:
197,244,144710,1,2,0:0:0:0:
137,204,145348,6,0,L|150:126,1,68,2|2,0:0|0:0,0:0:0:0:
309,248,145668,2,0,L|284:176,1,68,2|0,0:0|0:0,0:0:0:0:
446,40,145987,6,0,P|422:63|399:97,1,68,8|0,0:0|0:0,0:0:0:0:
313,44,146306,2,0,P|283:27|244:16,1,68,2|0,0:0|0:0,0:0:0:0:
421,182,146625,2,0,P|439:212|451:253,1,68,8|8,0:0|0:0,0:0:0:0:
319,181,146944,1,8,0:0:0:0:
326,165,147104,1,2,0:0:0:0:
