osu file format v14

[General]
AudioFilename: audio.mp3
AudioLeadIn: 0
PreviewTime: 79433
Countdown: 0
SampleSet: Soft
StackLeniency: 0.7
Mode: 3
LetterboxInBreaks: 0
SpecialStyle: 0
WidescreenStoryboard: 0

[Editor]
DistanceSpacing: 0.8
BeatDivisor: 4
GridSize: 16
TimelineZoom: 1.7

[Metadata]
Title:ouroboros -twin stroke of the end-
TitleUnicode:ouroboros -twin stroke of the end-
Artist:Cranky VS MASAKI
ArtistUnicode:Cranky VS MASAKI
Creator:Wonki
Version:
Source:
Tags:
BeatmapID:1971956
BeatmapSetID:944227

[Difficulty]
HPDrainRate:8
CircleSize:7
OverallDifficulty:8
ApproachRate:5
SliderMultiplier:1.4
SliderTickRate:1

[Events]
//Background and Video events
0,0,"chrome_2019-03-23_00-17-32.jpg",0,0
//Break Periods
//Storyboard Layer 0 (Background)
//Storyboard Layer 1 (Fail)
//Storyboard Layer 2 (Pass)
//Storyboard Layer 3 (Foreground)
//Storyboard Sound Samples

[TimingPoints]
285,319.148936170213,4,2,0,0,1,0

[HitObjects]
36,192,285,5,0,0:0:0:0:
402,192,285,1,0,0:0:0:0:
475,192,285,1,0,0:0:0:0:
256,192,285,1,0,0:0:0:0:
182,192,444,1,0,0:0:0:0:
256,192,604,1,0,0:0:0:0:
402,192,763,1,0,0:0:0:0:
475,192,763,1,0,0:0:0:0:
329,192,843,1,0,0:0:0:0:
256,192,843,1,0,0:0:0:0:
402,192,923,1,0,0:0:0:0:
475,192,923,1,0,0:0:0:0:
109,192,923,1,0,0:0:0:0:
256,192,1082,1,0,0:0:0:0:
182,192,1162,1,0,0:0:0:0:
329,192,1162,1,0,0:0:0:0:
36,192,1162,1,0,0:0:0:0:
36,192,1402,1,0,0:0:0:0:
182,192,1402,1,0,0:0:0:0:
329,192,1402,1,0,0:0:0:0:
36,192,1561,1,0,0:0:0:0:
182,192,1561,1,0,0:0:0:0:
329,192,1561,1,0,0:0:0:0:
402,192,1561,1,0,0:0:0:0:
256,192,1721,1,0,0:0:0:0:
182,192,1880,1,0,0:0:0:0:
109,192,1880,1,0,0:0:0:0:
402,192,1880,1,0,0:0:0:0:
256,192,2040,1,0,0:0:0:0:
109,192,2199,1,0,0:0:0:0:
329,192,2199,1,0,0:0:0:0:
402,192,2199,1,0,0:0:0:0:
182,192,2359,1,0,0:0:0:0:
36,192,2519,1,0,0:0:0:0:
256,192,2519,1,0,0:0:0:0:
475,192,2519,1,0,0:0:0:0:
402,192,2678,1,0,0:0:0:0:
109,192,2678,1,0,0:0:0:0:
182,192,2838,1,0,0:0:0:0:
329,192,2838,1,0,0:0:0:0:
256,192,2838,1,0,0:0:0:0:
36,192,2997,1,0,0:0:0:0:
256,192,3157,1,0,0:0:0:0:
329,192,3157,1,0,0:0:0:0:
402,192,3157,1,0,0:0:0:0:
36,192,3316,1,0,0:0:0:0:
329,192,3476,1,0,0:0:0:0:
402,192,3476,1,0,0:0:0:0:
475,192,3476,1,0,0:0:0:0:
36,192,3636,1,0,0:0:0:0:
182,192,3795,1,0,0:0:0:0:
256,192,3795,1,0,0:0:0:0:
402,192,3795,1,0,0:0:0:0:
36,192,3955,1,0,0:0:0:0:
182,192,4114,1,0,0:0:0:0:
256,192,4114,1,0,0:0:0:0:
329,192,4114,1,0,0:0:0:0:
475,192,4274,1,0,0:0:0:0:
109,192,4433,1,0,0:0:0:0:
402,192,4433,1,0,0:0:0:0:
256,192,4433,1,0,0:0:0:0:
475,192,4593,1,0,0:0:0:0:
36,192,4753,1,0,0:0:0:0:
109,192,4753,1,0,0:0:0:0:
182,192,4753,1,0,0:0:0:0:
475,192,4912,1,0,0:0:0:0:
109,192,5072,1,0,0:0:0:0:
256,192,5072,1,0,0:0:0:0:
329,192,5072,1,0,0:0:0:0:
256,192,5231,1,0,0:0:0:0:
182,192,5391,1,0,0:0:0:0:
36,192,5391,1,0,0:0:0:0:
402,192,5391,1,0,0:0:0:0:
475,192,5391,1,0,0:0:0:0:
329,192,5550,1,0,0:0:0:0:
256,192,5710,1,0,0:0:0:0:
109,192,5710,1,0,0:0:0:0:
402,192,5710,1,0,0:0:0:0:
182,192,5870,1,0,0:0:0:0:
329,192,6029,1,0,0:0:0:0:
256,192,6029,1,0,0:0:0:0:
475,192,6029,1,0,0:0:0:0:
109,192,6189,1,0,0:0:0:0:
182,192,6269,1,0,0:0:0:0:
256,192,6269,1,0,0:0:0:0:
329,192,6269,1,0,0:0:0:0:
402,192,6508,1,0,0:0:0:0:
475,192,6508,1,0,0:0:0:0:
36,192,6508,1,0,0:0:0:0:
109,192,6667,1,0,0:0:0:0:
182,192,6667,1,0,0:0:0:0:
256,192,6667,1,0,0:0:0:0:
329,192,6667,1,0,0:0:0:0:
402,192,6827,1,0,0:0:0:0:
36,192,6987,1,0,0:0:0:0:
182,192,6987,1,0,0:0:0:0:
329,192,6987,1,0,0:0:0:0:
109,192,7146,1,0,0:0:0:0:
256,192,7146,1,0,0:0:0:0:
402,192,7146,1,0,0:0:0:0:
182,192,7306,1,0,0:0:0:0:
329,192,7465,1,0,0:0:0:0:
475,192,7465,1,0,0:0:0:0:
36,192,7465,1,0,0:0:0:0:
182,192,7625,1,0,0:0:0:0:
109,192,7785,1,0,0:0:0:0:
329,192,7785,1,0,0:0:0:0:
182,192,7864,1,0,0:0:0:0:
402,192,7864,1,0,0:0:0:0:
256,192,7944,1,0,0:0:0:0:
475,192,7944,1,0,0:0:0:0:
36,192,7944,1,0,0:0:0:0:
109,192,8104,1,0,0:0:0:0:
329,192,8104,1,0,0:0:0:0:
182,192,8263,1,0,0:0:0:0:
402,192,8263,1,0,0:0:0:0:
329,192,8423,1,0,0:0:0:0:
109,192,8423,1,0,0:0:0:0:
36,192,8582,1,0,0:0:0:0:
256,192,8582,1,0,0:0:0:0:
475,192,8582,1,0,0:0:0:0:
109,192,8742,1,0,0:0:0:0:
329,192,8742,1,0,0:0:0:0:
402,192,8742,1,0,0:0:0:0:
182,192,8902,1,0,0:0:0:0:
256,192,8902,1,0,0:0:0:0:
475,192,8902,1,0,0:0:0:0:
329,192,9061,1,0,0:0:0:0:
402,192,9061,1,0,0:0:0:0:
36,192,9061,1,0,0:0:0:0:
109,192,9221,1,0,0:0:0:0:
182,192,9221,1,0,0:0:0:0:
475,192,9221,1,0,0:0:0:0:
256,192,9380,1,0,0:0:0:0:
329,192,9380,1,0,0:0:0:0:
402,192,9380,1,0,0:0:0:0:
182,192,9540,1,0,0:0:0:0:
109,192,9540,1,0,0:0:0:0:
36,192,9540,1,0,0:0:0:0:
256,192,9699,1,0,0:0:0:0:
402,192,9699,1,0,0:0:0:0:
475,192,9699,1,0,0:0:0:0:
329,192,9859,1,0,0:0:0:0:
182,192,9859,1,0,0:0:0:0:
36,192,9859,1,0,0:0:0:0:
109,192,10019,1,0,0:0:0:0:
256,192,10019,1,0,0:0:0:0:
402,192,10019,1,0,0:0:0:0:
182,192,10178,1,0,0:0:0:0:
329,192,10178,1,0,0:0:0:0:
475,192,10178,1,0,0:0:0:0:
109,192,10338,128,0,10417:0:0:0:0:
256,192,10338,128,0,10417:0:0:0:0:
402,192,10338,128,0,10417:0:0:0:0:
182,192,10657,128,0,10816:0:0:0:0:
329,192,10657,128,0,10816:0:0:0:0:
402,192,10816,1,0,0:0:0:0:
475,192,10816,1,0,0:0:0:0:
109,192,10816,1,0,0:0:0:0:
36,192,10816,1,0,0:0:0:0:
182,192,10976,1,0,0:0:0:0:
329,192,10976,1,0,0:0:0:0:
109,192,11056,1,0,0:0:0:0:
36,192,11056,1,0,0:0:0:0:
402,192,11056,1,0,0:0:0:0:
475,192,11056,1,0,0:0:0:0:
182,192,11136,1,0,0:0:0:0:
329,192,11136,1,0,0:0:0:0:
109,192,11295,1,0,0:0:0:0:
256,192,11295,1,0,0:0:0:0:
402,192,11295,1,0,0:0:0:0:
36,192,11455,1,0,0:0:0:0:
182,192,11455,1,0,0:0:0:0:
329,192,11455,1,0,0:0:0:0:
475,192,11455,1,0,0:0:0:0:
182,192,11614,1,0,0:0:0:0:
36,192,11614,1,0,0:0:0:0:
329,192,11614,1,0,0:0:0:0:
475,192,11614,1,0,0:0:0:0:
109,192,11774,1,0,0:0:0:0:
182,192,11814,1,0,0:0:0:0:
329,192,11854,1,0,0:0:0:0:
402,192,11894,1,0,0:0:0:0:
109,192,11933,1,0,0:0:0:0:
182,192,11973,1,0,0:0:0:0:
329,192,12013,1,0,0:0:0:0:
402,192,12053,1,0,0:0:0:0:
475,192,12093,1,0,0:0:0:0:
256,192,12093,1,0,0:0:0:0:
36,192,12093,1,0,0:0:0:0:
109,192,12133,1,0,0:0:0:0:
182,192,12173,1,0,0:0:0:0:
329,192,12173,1,0,0:0:0:0:
402,192,12213,1,0,0:0:0:0:
475,192,12253,1,0,0:0:0:0:
256,192,12253,1,0,0:0:0:0:
36,192,12253,1,0,0:0:0:0:
109,192,12292,1,0,0:0:0:0:
182,192,12332,1,0,0:0:0:0:
329,192,12332,1,0,0:0:0:0:
402,192,12372,1,0,0:0:0:0:
36,192,12412,1,0,0:0:0:0:
256,192,12412,1,0,0:0:0:0:
475,192,12412,1,0,0:0:0:0:
182,192,12492,1,0,0:0:0:0:
329,192,12492,1,0,0:0:0:0:
109,192,12572,1,0,0:0:0:0:
402,192,12572,1,0,0:0:0:0:
36,192,12652,1,0,0:0:0:0:
475,192,12652,1,0,0:0:0:0:
329,192,12731,1,0,0:0:0:0:
402,192,12731,1,0,0:0:0:0:
182,192,12731,1,0,0:0:0:0:
109,192,12731,1,0,0:0:0:0:
256,192,12731,1,0,0:0:0:0:
182,192,12891,1,0,0:0:0:0:
329,192,12891,1,0,0:0:0:0:
256,192,13050,1,0,0:0:0:0:
36,192,13050,1,0,0:0:0:0:
109,192,13050,1,0,0:0:0:0:
402,192,13050,1,0,0:0:0:0:
475,192,13050,1,0,0:0:0:0:
182,192,13210,1,0,0:0:0:0:
402,192,13210,1,0,0:0:0:0:
329,192,13290,1,0,0:0:0:0:
109,192,13290,1,0,0:0:0:0:
36,192,13370,1,0,0:0:0:0:
256,192,13370,1,0,0:0:0:0:
475,192,13370,1,0,0:0:0:0:
109,192,13449,1,0,0:0:0:0:
329,192,13449,1,0,0:0:0:0:
182,192,13529,1,0,0:0:0:0:
402,192,13529,1,0,0:0:0:0:
329,192,13609,1,0,0:0:0:0:
256,192,13689,1,0,0:0:0:0:
36,192,13689,1,0,0:0:0:0:
109,192,13689,1,0,0:0:0:0:
475,192,13689,1,0,0:0:0:0:
329,192,13848,1,0,0:0:0:0:
256,192,13928,1,0,0:0:0:0:
402,192,13928,1,0,0:0:0:0:
109,192,13928,1,0,0:0:0:0:
36,192,13928,1,0,0:0:0:0:
182,192,14008,1,0,0:0:0:0:
475,192,14008,1,0,0:0:0:0:
256,192,14167,1,0,0:0:0:0:
109,192,14167,1,0,0:0:0:0:
402,192,14167,1,0,0:0:0:0:
329,192,14327,1,0,0:0:0:0:
475,192,14327,1,0,0:0:0:0:
182,192,14327,1,0,0:0:0:0:
36,192,14327,1,0,0:0:0:0:
109,192,14487,1,0,0:0:0:0:
402,192,14487,1,0,0:0:0:0:
182,192,14566,1,0,0:0:0:0:
329,192,14566,1,0,0:0:0:0:
109,192,14646,1,0,0:0:0:0:
402,192,14646,1,0,0:0:0:0:
36,192,14646,1,0,0:0:0:0:
475,192,14646,1,0,0:0:0:0:
182,192,14806,1,0,0:0:0:0:
329,192,14806,1,0,0:0:0:0:
475,192,14806,1,0,0:0:0:0:
36,192,14965,1,0,0:0:0:0:
256,192,14965,1,0,0:0:0:0:
109,192,15045,1,0,0:0:0:0:
329,192,15045,1,0,0:0:0:0:
36,192,15125,1,0,0:0:0:0:
256,192,15125,1,0,0:0:0:0:
402,192,15125,1,0,0:0:0:0:
182,192,15285,1,0,0:0:0:0:
109,192,15285,1,0,0:0:0:0:
329,192,15285,1,0,0:0:0:0:
475,192,15285,1,0,0:0:0:0:
256,192,15444,1,0,0:0:0:0:
402,192,15444,1,0,0:0:0:0:
36,192,15444,1,0,0:0:0:0:
109,192,15604,1,0,0:0:0:0:
182,192,15604,1,0,0:0:0:0:
329,192,15604,1,0,0:0:0:0:
475,192,15604,1,0,0:0:0:0:
256,192,15763,1,0,0:0:0:0:
36,192,15763,1,0,0:0:0:0:
329,192,15843,1,0,0:0:0:0:
109,192,15843,1,0,0:0:0:0:
182,192,15923,1,0,0:0:0:0:
402,192,15923,1,0,0:0:0:0:
475,192,15923,1,0,0:0:0:0:
109,192,16003,1,0,0:0:0:0:
329,192,16003,1,0,0:0:0:0:
256,192,16082,1,0,0:0:0:0:
36,192,16082,1,0,0:0:0:0:
402,192,16162,1,0,0:0:0:0:
329,192,16242,1,0,0:0:0:0:
475,192,16242,1,0,0:0:0:0:
109,192,16242,1,0,0:0:0:0:
182,192,16242,1,0,0:0:0:0:
256,192,16402,1,0,0:0:0:0:
402,192,16481,1,0,0:0:0:0:
329,192,16481,1,0,0:0:0:0:
475,192,16481,1,0,0:0:0:0:
109,192,16481,1,0,0:0:0:0:
182,192,16561,1,0,0:0:0:0:
36,192,16561,1,0,0:0:0:0:
109,192,16721,1,0,0:0:0:0:
256,192,16721,1,0,0:0:0:0:
402,192,16721,1,0,0:0:0:0:
182,192,16880,1,0,0:0:0:0:
329,192,16880,1,0,0:0:0:0:
475,192,16880,1,0,0:0:0:0:
36,192,16880,1,0,0:0:0:0:
109,192,17040,1,0,0:0:0:0:
329,192,17040,1,0,0:0:0:0:
182,192,17120,1,0,0:0:0:0:
402,192,17120,1,0,0:0:0:0:
256,192,17199,1,0,0:0:0:0:
475,192,17199,1,0,0:0:0:0:
36,192,17199,1,0,0:0:0:0:
109,192,17199,1,0,0:0:0:0:
182,192,17359,1,0,0:0:0:0:
329,192,17359,1,0,0:0:0:0:
402,192,17359,1,0,0:0:0:0:
109,192,17519,1,0,0:0:0:0:
475,192,17519,1,0,0:0:0:0:
182,192,17598,1,0,0:0:0:0:
402,192,17598,1,0,0:0:0:0:
109,192,17678,1,0,0:0:0:0:
475,192,17678,1,0,0:0:0:0:
256,192,17678,1,0,0:0:0:0:
36,192,17838,1,0,0:0:0:0:
182,192,17838,1,0,0:0:0:0:
329,192,17838,1,0,0:0:0:0:
402,192,17838,1,0,0:0:0:0:
256,192,17997,1,0,0:0:0:0:
109,192,17997,1,0,0:0:0:0:
475,192,17997,1,0,0:0:0:0:
329,192,18157,1,0,0:0:0:0:
402,192,18157,1,0,0:0:0:0:
182,192,18157,1,0,0:0:0:0:
36,192,18157,1,0,0:0:0:0:
256,192,18316,1,0,0:0:0:0:
109,192,18316,1,0,0:0:0:0:
36,192,18316,1,0,0:0:0:0:
329,192,18396,1,0,0:0:0:0:
402,192,18396,1,0,0:0:0:0:
475,192,18396,1,0,0:0:0:0:
256,192,18476,1,0,0:0:0:0:
109,192,18476,1,0,0:0:0:0:
36,192,18476,1,0,0:0:0:0:
182,192,18636,1,0,0:0:0:0:
329,192,18636,1,0,0:0:0:0:
475,192,18636,1,0,0:0:0:0:
402,192,18795,1,0,0:0:0:0:
256,192,18795,1,0,0:0:0:0:
109,192,18795,1,0,0:0:0:0:
36,192,18795,1,0,0:0:0:0:
329,192,18955,1,0,0:0:0:0:
182,192,19035,1,0,0:0:0:0:
36,192,19035,1,0,0:0:0:0:
475,192,19035,1,0,0:0:0:0:
402,192,19035,1,0,0:0:0:0:
109,192,19114,1,0,0:0:0:0:
256,192,19114,1,0,0:0:0:0:
182,192,19274,1,0,0:0:0:0:
329,192,19274,1,0,0:0:0:0:
402,192,19274,1,0,0:0:0:0:
475,192,19433,1,0,0:0:0:0:
256,192,19433,1,0,0:0:0:0:
109,192,19433,1,0,0:0:0:0:
36,192,19433,1,0,0:0:0:0:
36,192,19593,1,0,0:0:0:0:
182,192,19593,1,0,0:0:0:0:
329,192,19593,1,0,0:0:0:0:
109,192,19673,1,0,0:0:0:0:
256,192,19673,1,0,0:0:0:0:
402,192,19673,1,0,0:0:0:0:
182,192,19753,1,0,0:0:0:0:
329,192,19753,1,0,0:0:0:0:
475,192,19753,1,0,0:0:0:0:
36,192,19912,1,0,0:0:0:0:
256,192,19912,1,0,0:0:0:0:
402,192,19912,1,0,0:0:0:0:
109,192,20072,1,0,0:0:0:0:
329,192,20072,1,0,0:0:0:0:
475,192,20072,1,0,0:0:0:0:
182,192,20072,1,0,0:0:0:0:
256,192,20152,1,0,0:0:0:0:
402,192,20152,1,0,0:0:0:0:
329,192,20231,1,0,0:0:0:0:
182,192,20231,1,0,0:0:0:0:
109,192,20391,1,0,0:0:0:0:
256,192,20391,1,0,0:0:0:0:
475,192,20391,1,0,0:0:0:0:
402,192,20391,1,0,0:0:0:0:
182,192,20550,1,0,0:0:0:0:
329,192,20550,1,0,0:0:0:0:
36,192,20550,1,0,0:0:0:0:
109,192,20710,1,0,0:0:0:0:
256,192,20710,1,0,0:0:0:0:
402,192,20710,1,0,0:0:0:0:
475,192,20710,1,0,0:0:0:0:
36,192,20870,1,0,0:0:0:0:
109,192,20870,1,0,0:0:0:0:
182,192,20870,1,0,0:0:0:0:
329,192,20949,1,0,0:0:0:0:
402,192,20949,1,0,0:0:0:0:
475,192,20949,1,0,0:0:0:0:
182,192,21029,1,0,0:0:0:0:
109,192,21029,1,0,0:0:0:0:
36,192,21029,1,0,0:0:0:0:
256,192,21189,1,0,0:0:0:0:
329,192,21189,1,0,0:0:0:0:
475,192,21189,1,0,0:0:0:0:
402,192,21348,1,0,0:0:0:0:
182,192,21348,1,0,0:0:0:0:
109,192,21348,1,0,0:0:0:0:
36,192,21348,1,0,0:0:0:0:
256,192,21508,1,0,0:0:0:0:
329,192,21588,1,0,0:0:0:0:
402,192,21588,1,0,0:0:0:0:
36,192,21588,1,0,0:0:0:0:
109,192,21588,1,0,0:0:0:0:
182,192,21667,1,0,0:0:0:0:
256,192,21667,1,0,0:0:0:0:
109,192,21827,1,0,0:0:0:0:
329,192,21827,1,0,0:0:0:0:
402,192,21827,1,0,0:0:0:0:
256,192,21987,1,0,0:0:0:0:
182,192,21987,1,0,0:0:0:0:
36,192,21987,1,0,0:0:0:0:
475,192,21987,1,0,0:0:0:0:
182,192,22146,1,0,0:0:0:0:
329,192,22146,1,0,0:0:0:0:
475,192,22146,1,0,0:0:0:0:
402,192,22226,1,0,0:0:0:0:
256,192,22226,1,0,0:0:0:0:
109,192,22226,1,0,0:0:0:0:
36,192,22306,1,0,0:0:0:0:
182,192,22306,1,0,0:0:0:0:
329,192,22306,1,0,0:0:0:0:
109,192,22465,1,0,0:0:0:0:
256,192,22465,1,0,0:0:0:0:
475,192,22465,1,0,0:0:0:0:
36,192,22625,1,0,0:0:0:0:
329,192,22625,1,0,0:0:0:0:
256,192,22625,1,0,0:0:0:0:
402,192,22678,1,0,0:0:0:0:
109,192,22678,1,0,0:0:0:0:
475,192,22731,1,0,0:0:0:0:
182,192,22731,1,0,0:0:0:0:
36,192,22785,1,0,0:0:0:0:
329,192,22785,1,0,0:0:0:0:
256,192,22785,1,0,0:0:0:0:
109,192,22944,1,0,0:0:0:0:
182,192,22944,1,0,0:0:0:0:
402,192,22944,1,0,0:0:0:0:
475,192,22944,1,0,0:0:0:0:
329,192,23104,1,0,0:0:0:0:
402,192,23104,1,0,0:0:0:0:
36,192,23104,1,0,0:0:0:0:
109,192,23104,1,0,0:0:0:0:
36,192,23263,1,0,0:0:0:0:
182,192,23263,1,0,0:0:0:0:
256,192,23263,1,0,0:0:0:0:
475,192,23263,1,0,0:0:0:0:
329,192,23263,1,0,0:0:0:0:
109,192,23423,1,0,0:0:0:0:
402,192,23423,1,0,0:0:0:0:
182,192,23503,1,0,0:0:0:0:
329,192,23503,1,0,0:0:0:0:
36,192,23582,1,0,0:0:0:0:
256,192,23582,1,0,0:0:0:0:
475,192,23582,1,0,0:0:0:0:
182,192,23662,1,0,0:0:0:0:
329,192,23662,1,0,0:0:0:0:
402,192,23742,1,0,0:0:0:0:
109,192,23742,1,0,0:0:0:0:
182,192,23902,1,0,0:0:0:0:
256,192,23902,1,0,0:0:0:0:
329,192,23902,1,0,0:0:0:0:
475,192,23902,1,0,0:0:0:0:
36,192,23902,1,0,0:0:0:0:
402,192,24061,1,0,0:0:0:0:
475,192,24061,1,0,0:0:0:0:
329,192,24141,1,0,0:0:0:0:
256,192,24141,1,0,0:0:0:0:
109,192,24141,1,0,0:0:0:0:
182,192,24141,1,0,0:0:0:0:
36,192,24141,1,0,0:0:0:0:
109,192,24380,1,0,0:0:0:0:
256,192,24380,1,0,0:0:0:0:
182,192,24380,1,0,0:0:0:0:
329,192,24380,1,0,0:0:0:0:
402,192,24380,1,0,0:0:0:0:
329,192,24540,1,0,0:0:0:0:
402,192,24540,1,0,0:0:0:0:
475,192,24540,1,0,0:0:0:0:
182,192,24540,1,0,0:0:0:0:
256,192,24540,1,0,0:0:0:0:
36,192,24699,1,0,0:0:0:0:
109,192,24699,1,0,0:0:0:0:
329,192,24699,1,0,0:0:0:0:
402,192,24779,1,0,0:0:0:0:
475,192,24779,1,0,0:0:0:0:
182,192,24779,1,0,0:0:0:0:
329,192,24859,1,0,0:0:0:0:
109,192,24859,1,0,0:0:0:0:
36,192,24859,1,0,0:0:0:0:
182,192,25019,1,0,0:0:0:0:
256,192,25019,1,0,0:0:0:0:
402,192,25019,1,0,0:0:0:0:
475,192,25019,1,0,0:0:0:0:
109,192,25178,1,0,0:0:0:0:
182,192,25178,1,0,0:0:0:0:
329,192,25178,1,0,0:0:0:0:
402,192,25178,1,0,0:0:0:0:
256,192,25258,1,0,0:0:0:0:
475,192,25258,1,0,0:0:0:0:
182,192,25338,1,0,0:0:0:0:
109,192,25338,1,0,0:0:0:0:
402,192,25338,1,0,0:0:0:0:
329,192,25338,1,0,0:0:0:0:
36,192,25497,1,0,0:0:0:0:
109,192,25497,1,0,0:0:0:0:
256,192,25497,1,0,0:0:0:0:
475,192,25497,1,0,0:0:0:0:
402,192,25497,1,0,0:0:0:0:
182,192,25657,1,0,0:0:0:0:
329,192,25657,1,0,0:0:0:0:
256,192,25816,1,0,0:0:0:0:
402,192,25816,1,0,0:0:0:0:
475,192,25816,1,0,0:0:0:0:
109,192,25816,1,0,0:0:0:0:
36,192,25816,1,0,0:0:0:0:
182,192,25976,1,0,0:0:0:0:
329,192,25976,1,0,0:0:0:0:
109,192,26056,1,0,0:0:0:0:
402,192,26056,1,0,0:0:0:0:
36,192,26136,1,0,0:0:0:0:
475,192,26136,1,0,0:0:0:0:
256,192,26136,1,0,0:0:0:0:
109,192,26215,1,0,0:0:0:0:
402,192,26215,1,0,0:0:0:0:
182,192,26295,1,0,0:0:0:0:
329,192,26295,1,0,0:0:0:0:
256,192,26455,1,0,0:0:0:0:
109,192,26455,1,0,0:0:0:0:
36,192,26455,1,0,0:0:0:0:
475,192,26455,1,0,0:0:0:0:
402,192,26455,1,0,0:0:0:0:
182,192,26614,1,0,0:0:0:0:
109,192,26614,1,0,0:0:0:0:
36,192,26694,1,0,0:0:0:0:
256,192,26694,1,0,0:0:0:0:
329,192,26694,1,0,0:0:0:0:
402,192,26694,1,0,0:0:0:0:
475,192,26694,1,0,0:0:0:0:
109,192,26933,1,0,0:0:0:0:
36,192,26933,1,0,0:0:0:0:
182,192,26933,1,0,0:0:0:0:
256,192,26933,1,0,0:0:0:0:
475,192,26933,1,0,0:0:0:0:
329,192,27093,1,0,0:0:0:0:
402,192,27093,1,0,0:0:0:0:
475,192,27093,1,0,0:0:0:0:
182,192,27093,1,0,0:0:0:0:
109,192,27093,1,0,0:0:0:0:
36,192,27253,1,0,0:0:0:0:
256,192,27253,1,0,0:0:0:0:
329,192,27253,1,0,0:0:0:0:
182,192,27332,1,0,0:0:0:0:
109,192,27332,1,0,0:0:0:0:
475,192,27332,1,0,0:0:0:0:
329,192,27412,1,0,0:0:0:0:
402,192,27412,1,0,0:0:0:0:
36,192,27412,1,0,0:0:0:0:
109,192,27572,1,0,0:0:0:0:
182,192,27572,1,0,0:0:0:0:
256,192,27572,1,0,0:0:0:0:
475,192,27572,1,0,0:0:0:0:
475,192,27731,1,0,0:0:0:0:
182,192,27731,1,0,0:0:0:0:
256,192,27731,1,0,0:0:0:0:
402,192,27811,1,0,0:0:0:0:
36,192,27811,1,0,0:0:0:0:
329,192,27811,1,0,0:0:0:0:
109,192,27891,1,0,0:0:0:0:
182,192,27891,1,0,0:0:0:0:
475,192,27891,1,0,0:0:0:0:
256,192,28050,1,0,0:0:0:0:
329,192,28050,1,0,0:0:0:0:
402,192,28050,1,0,0:0:0:0:
109,192,28050,1,0,0:0:0:0:
36,192,28050,1,0,0:0:0:0:
182,192,28210,1,0,0:0:0:0:
475,192,28210,1,0,0:0:0:0:
256,192,28370,1,0,0:0:0:0:
329,192,28370,1,0,0:0:0:0:
402,192,28370,1,0,0:0:0:0:
109,192,28370,1,0,0:0:0:0:
36,192,28370,1,0,0:0:0:0:
182,192,28529,1,0,0:0:0:0:
475,192,28529,1,0,0:0:0:0:
109,192,28529,1,0,0:0:0:0:
256,192,28609,1,0,0:0:0:0:
402,192,28609,1,0,0:0:0:0:
329,192,28609,1,0,0:0:0:0:
182,192,28689,1,0,0:0:0:0:
475,192,28689,1,0,0:0:0:0:
109,192,28689,1,0,0:0:0:0:
329,192,28848,1,0,0:0:0:0:
256,192,28848,1,0,0:0:0:0:
36,192,28848,1,0,0:0:0:0:
402,192,29008,1,0,0:0:0:0:
36,192,29008,1,0,0:0:0:0:
109,192,29008,1,0,0:0:0:0:
256,192,29088,1,0,0:0:0:0:
182,192,29088,1,0,0:0:0:0:
329,192,29088,1,0,0:0:0:0:
109,192,29167,1,0,0:0:0:0:
402,192,29167,1,0,0:0:0:0:
36,192,29167,1,0,0:0:0:0:
182,192,29327,1,0,0:0:0:0:
256,192,29327,1,0,0:0:0:0:
329,192,29327,1,0,0:0:0:0:
475,192,29327,1,0,0:0:0:0:
109,192,29487,1,0,0:0:0:0:
182,192,29487,1,0,0:0:0:0:
256,192,29487,1,0,0:0:0:0:
402,192,29487,1,0,0:0:0:0:
329,192,29646,1,0,0:0:0:0:
182,192,29646,1,0,0:0:0:0:
109,192,29646,1,0,0:0:0:0:
36,192,29646,1,0,0:0:0:0:
475,192,29646,1,0,0:0:0:0:
36,192,29806,1,0,0:0:0:0:
109,192,29806,1,0,0:0:0:0:
329,192,29806,1,0,0:0:0:0:
402,192,29886,1,0,0:0:0:0:
475,192,29886,1,0,0:0:0:0:
182,192,29886,1,0,0:0:0:0:
329,192,29965,1,0,0:0:0:0:
109,192,29965,1,0,0:0:0:0:
36,192,29965,1,0,0:0:0:0:
182,192,30125,1,0,0:0:0:0:
402,192,30125,1,0,0:0:0:0:
475,192,30125,1,0,0:0:0:0:
402,192,30285,1,0,0:0:0:0:
475,192,30285,1,0,0:0:0:0:
182,192,30285,1,0,0:0:0:0:
109,192,30364,1,0,0:0:0:0:
36,192,30364,1,0,0:0:0:0:
329,192,30364,1,0,0:0:0:0:
182,192,30444,1,0,0:0:0:0:
402,192,30444,1,0,0:0:0:0:
475,192,30444,1,0,0:0:0:0:
109,192,30604,1,0,0:0:0:0:
36,192,30604,1,0,0:0:0:0:
256,192,30604,1,0,0:0:0:0:
329,192,30604,1,0,0:0:0:0:
109,192,30763,1,0,0:0:0:0:
182,192,30763,1,0,0:0:0:0:
329,192,30763,1,0,0:0:0:0:
402,192,30763,1,0,0:0:0:0:
182,192,30923,1,0,0:0:0:0:
256,192,30923,1,0,0:0:0:0:
402,192,30923,1,0,0:0:0:0:
475,192,30923,1,0,0:0:0:0:
109,192,31082,1,0,0:0:0:0:
329,192,31082,1,0,0:0:0:0:
36,192,31242,1,0,0:0:0:0:
256,192,31242,1,0,0:0:0:0:
475,192,31242,1,0,0:0:0:0:
109,192,31322,1,0,0:0:0:0:
329,192,31322,1,0,0:0:0:0:
182,192,31402,1,0,0:0:0:0:
402,192,31402,1,0,0:0:0:0:
329,192,31481,1,0,0:0:0:0:
256,192,31561,1,0,0:0:0:0:
36,192,31561,1,0,0:0:0:0:
475,192,31561,1,0,0:0:0:0:
182,192,31641,1,0,0:0:0:0:
329,192,31641,1,0,0:0:0:0:
402,192,31721,1,0,0:0:0:0:
109,192,31721,1,0,0:0:0:0:
256,192,31800,1,0,0:0:0:0:
182,192,31880,1,0,0:0:0:0:
36,192,31880,1,0,0:0:0:0:
475,192,31880,1,0,0:0:0:0:
109,192,31960,1,0,0:0:0:0:
329,192,31960,1,0,0:0:0:0:
182,192,32040,1,0,0:0:0:0:
475,192,32040,1,0,0:0:0:0:
256,192,32120,1,0,0:0:0:0:
329,192,32120,1,0,0:0:0:0:
402,192,32199,1,0,0:0:0:0:
475,192,32199,1,0,0:0:0:0:
109,192,32199,1,0,0:0:0:0:
36,192,32199,1,0,0:0:0:0:
182,192,32306,1,0,0:0:0:0:
329,192,32306,1,0,0:0:0:0:
109,192,32412,1,0,0:0:0:0:
402,192,32412,1,0,0:0:0:0:
256,192,32519,1,0,0:0:0:0:
36,192,32519,1,0,0:0:0:0:
475,192,32519,1,0,0:0:0:0:
182,192,32625,1,0,0:0:0:0:
329,192,32625,1,0,0:0:0:0:
109,192,32731,1,0,0:0:0:0:
256,192,32731,1,0,0:0:0:0:
36,192,32731,1,0,0:0:0:0:
182,192,32838,1,0,0:0:0:0:
402,192,32838,1,0,0:0:0:0:
475,192,32838,1,0,0:0:0:0:
329,192,32838,1,0,0:0:0:0:
36,192,32944,1,0,0:0:0:0:
109,192,32944,1,0,0:0:0:0:
329,192,33050,1,0,0:0:0:0:
402,192,33050,1,0,0:0:0:0:
256,192,33157,1,0,0:0:0:0:
182,192,33157,1,0,0:0:0:0:
475,192,33157,1,0,0:0:0:0:
109,192,33263,1,0,0:0:0:0:
36,192,33263,1,0,0:0:0:0:
329,192,33263,1,0,0:0:0:0:
182,192,33370,1,0,0:0:0:0:
256,192,33370,1,0,0:0:0:0:
402,192,33370,1,0,0:0:0:0:
36,192,33476,128,0,33795:0:0:0:0:
109,192,33476,128,0,33795:0:0:0:0:
329,192,33476,128,0,33795:0:0:0:0:
475,192,33476,128,0,33795:0:0:0:0:
182,192,33795,1,0,0:0:0:0:
256,192,33795,1,0,0:0:0:0:
402,192,33795,1,0,0:0:0:0:
109,192,33955,1,0,0:0:0:0:
402,192,33955,1,0,0:0:0:0:
182,192,34008,1,0,0:0:0:0:
329,192,34008,1,0,0:0:0:0:
109,192,34061,1,0,0:0:0:0:
402,192,34061,1,0,0:0:0:0:
182,192,34114,1,0,0:0:0:0:
329,192,34114,1,0,0:0:0:0:
256,192,34114,1,0,0:0:0:0:
182,192,34327,1,0,0:0:0:0:
256,192,34327,1,0,0:0:0:0:
329,192,34327,1,0,0:0:0:0:
182,192,34540,1,0,0:0:0:0:
256,192,34540,1,0,0:0:0:0:
329,192,34540,1,0,0:0:0:0:
36,192,34753,1,0,0:0:0:0:
329,192,34753,1,0,0:0:0:0:
182,192,34753,1,0,0:0:0:0:
475,192,34753,1,0,0:0:0:0:
109,192,34912,128,0,35231:0:0:0:0:
256,192,34912,128,0,35231:0:0:0:0:
402,192,34912,128,0,35231:0:0:0:0:
36,192,35231,1,0,0:0:0:0:
182,192,35231,1,0,0:0:0:0:
329,192,35231,1,0,0:0:0:0:
475,192,35231,1,0,0:0:0:0:
109,192,35391,1,0,0:0:0:0:
36,192,35391,1,0,0:0:0:0:
402,192,35391,1,0,0:0:0:0:
475,192,35391,1,0,0:0:0:0:
182,192,35550,128,0,35870:0:0:0:0:
256,192,35550,128,0,35870:0:0:0:0:
329,192,35550,128,0,35870:0:0:0:0:
36,192,35870,128,0,36029:0:0:0:0:
109,192,35870,128,0,36029:0:0:0:0:
402,192,35870,128,0,36029:0:0:0:0:
182,192,36029,1,0,0:0:0:0:
256,192,36029,1,0,0:0:0:0:
329,192,36029,1,0,0:0:0:0:
475,192,36029,1,0,0:0:0:0:
256,192,36189,1,0,0:0:0:0:
256,192,36348,1,0,0:0:0:0:
475,192,36508,1,0,0:0:0:0:
36,192,36508,1,0,0:0:0:0:
402,192,36561,1,0,0:0:0:0:
109,192,36561,1,0,0:0:0:0:
329,192,36614,1,0,0:0:0:0:
182,192,36614,1,0,0:0:0:0:
36,192,36667,1,0,0:0:0:0:
256,192,36667,1,0,0:0:0:0:
475,192,36667,1,0,0:0:0:0:
109,192,36774,1,0,0:0:0:0:
182,192,36774,1,0,0:0:0:0:
402,192,36774,1,0,0:0:0:0:
256,192,36880,1,0,0:0:0:0:
329,192,36880,1,0,0:0:0:0:
36,192,36880,1,0,0:0:0:0:
109,192,36987,1,0,0:0:0:0:
182,192,36987,1,0,0:0:0:0:
402,192,36987,1,0,0:0:0:0:
475,192,36987,1,0,0:0:0:0:
109,192,37146,1,0,0:0:0:0:
182,192,37146,1,0,0:0:0:0:
402,192,37146,1,0,0:0:0:0:
475,192,37146,1,0,0:0:0:0:
36,192,37306,1,0,0:0:0:0:
256,192,37306,1,0,0:0:0:0:
329,192,37306,1,0,0:0:0:0:
109,192,37359,1,0,0:0:0:0:
182,192,37412,1,0,0:0:0:0:
402,192,37412,1,0,0:0:0:0:
475,192,37412,1,0,0:0:0:0:
329,192,37465,1,0,0:0:0:0:
256,192,37519,1,0,0:0:0:0:
109,192,37519,1,0,0:0:0:0:
36,192,37519,1,0,0:0:0:0:
182,192,37572,1,0,0:0:0:0:
329,192,37625,1,0,0:0:0:0:
402,192,37625,1,0,0:0:0:0:
475,192,37625,1,0,0:0:0:0:
36,192,37705,1,0,0:0:0:0:
109,192,37705,1,0,0:0:0:0:
329,192,37785,1,0,0:0:0:0:
402,192,37785,1,0,0:0:0:0:
475,192,37785,1,0,0:0:0:0:
109,192,37864,1,0,0:0:0:0:
36,192,37864,1,0,0:0:0:0:
182,192,37944,1,0,0:0:0:0:
256,192,37944,1,0,0:0:0:0:
329,192,37944,1,0,0:0:0:0:
182,192,38050,1,0,0:0:0:0:
256,192,38050,1,0,0:0:0:0:
329,192,38050,1,0,0:0:0:0:
182,192,38157,1,0,0:0:0:0:
256,192,38157,1,0,0:0:0:0:
329,192,38157,1,0,0:0:0:0:
109,192,38263,1,0,0:0:0:0:
402,192,38263,1,0,0:0:0:0:
475,192,38263,1,0,0:0:0:0:
109,192,38370,1,0,0:0:0:0:
402,192,38370,1,0,0:0:0:0:
475,192,38370,1,0,0:0:0:0:
109,192,38476,1,0,0:0:0:0:
402,192,38476,1,0,0:0:0:0:
475,192,38476,1,0,0:0:0:0:
36,192,38582,128,0,38902:0:0:0:0:
182,192,38582,128,0,38902:0:0:0:0:
256,192,38582,128,0,38902:0:0:0:0:
329,192,38582,128,0,38902:0:0:0:0:
109,192,38902,1,0,0:0:0:0:
402,192,38902,1,0,0:0:0:0:
475,192,38902,1,0,0:0:0:0:
182,192,39061,1,0,0:0:0:0:
329,192,39061,1,0,0:0:0:0:
109,192,39114,1,0,0:0:0:0:
402,192,39114,1,0,0:0:0:0:
182,192,39167,1,0,0:0:0:0:
329,192,39167,1,0,0:0:0:0:
109,192,39221,1,0,0:0:0:0:
402,192,39221,1,0,0:0:0:0:
256,192,39221,1,0,0:0:0:0:
109,192,39433,1,0,0:0:0:0:
256,192,39433,1,0,0:0:0:0:
402,192,39433,1,0,0:0:0:0:
109,192,39646,1,0,0:0:0:0:
256,192,39646,1,0,0:0:0:0:
402,192,39646,1,0,0:0:0:0:
329,192,39859,1,0,0:0:0:0:
475,192,39859,1,0,0:0:0:0:
182,192,39859,1,0,0:0:0:0:
36,192,39859,1,0,0:0:0:0:
256,192,40019,128,0,40338:0:0:0:0:
402,192,40019,128,0,40338:0:0:0:0:
109,192,40019,128,0,40338:0:0:0:0:
182,192,40338,1,0,0:0:0:0:
475,192,40338,1,0,0:0:0:0:
36,192,40338,1,0,0:0:0:0:
329,192,40338,1,0,0:0:0:0:
329,192,40497,1,0,0:0:0:0:
402,192,40497,1,0,0:0:0:0:
182,192,40497,1,0,0:0:0:0:
109,192,40497,1,0,0:0:0:0:
36,192,40657,128,0,40976:0:0:0:0:
256,192,40657,128,0,40976:0:0:0:0:
475,192,40657,128,0,40976:0:0:0:0:
109,192,40976,128,0,41136:0:0:0:0:
182,192,40976,128,0,41136:0:0:0:0:
329,192,40976,128,0,41136:0:0:0:0:
402,192,41136,1,0,0:0:0:0:
475,192,41136,1,0,0:0:0:0:
256,192,41136,1,0,0:0:0:0:
36,192,41136,1,0,0:0:0:0:
256,192,41295,1,0,0:0:0:0:
256,192,41455,1,0,0:0:0:0:
36,192,41614,1,0,0:0:0:0:
475,192,41614,1,0,0:0:0:0:
402,192,41667,1,0,0:0:0:0:
109,192,41667,1,0,0:0:0:0:
329,192,41721,1,0,0:0:0:0:
182,192,41721,1,0,0:0:0:0:
256,192,41774,1,0,0:0:0:0:
36,192,41774,1,0,0:0:0:0:
475,192,41774,1,0,0:0:0:0:
109,192,41880,1,0,0:0:0:0:
182,192,41880,1,0,0:0:0:0:
329,192,41880,1,0,0:0:0:0:
182,192,41987,1,0,0:0:0:0:
109,192,41987,1,0,0:0:0:0:
329,192,41987,1,0,0:0:0:0:
256,192,42093,1,0,0:0:0:0:
475,192,42093,1,0,0:0:0:0:
36,192,42093,1,0,0:0:0:0:
402,192,42093,1,0,0:0:0:0:
402,192,42253,1,0,0:0:0:0:
36,192,42253,1,0,0:0:0:0:
256,192,42253,1,0,0:0:0:0:
475,192,42253,1,0,0:0:0:0:
109,192,42412,1,0,0:0:0:0:
329,192,42412,1,0,0:0:0:0:
182,192,42412,1,0,0:0:0:0:
402,192,42465,1,0,0:0:0:0:
475,192,42519,1,0,0:0:0:0:
182,192,42572,1,0,0:0:0:0:
256,192,42572,1,0,0:0:0:0:
329,192,42572,1,0,0:0:0:0:
109,192,42625,1,0,0:0:0:0:
36,192,42678,1,0,0:0:0:0:
182,192,42731,1,0,0:0:0:0:
329,192,42731,1,0,0:0:0:0:
402,192,42731,1,0,0:0:0:0:
109,192,42811,1,0,0:0:0:0:
256,192,42811,1,0,0:0:0:0:
329,192,42891,1,0,0:0:0:0:
402,192,42891,1,0,0:0:0:0:
475,192,42891,1,0,0:0:0:0:
109,192,42971,1,0,0:0:0:0:
256,192,42971,1,0,0:0:0:0:
329,192,43050,1,0,0:0:0:0:
182,192,43050,1,0,0:0:0:0:
36,192,43050,1,0,0:0:0:0:
109,192,43157,1,0,0:0:0:0:
256,192,43157,1,0,0:0:0:0:
402,192,43157,1,0,0:0:0:0:
475,192,43263,1,0,0:0:0:0:
329,192,43263,1,0,0:0:0:0:
182,192,43263,1,0,0:0:0:0:
109,192,43370,1,0,0:0:0:0:
36,192,43370,1,0,0:0:0:0:
256,192,43370,1,0,0:0:0:0:
182,192,43476,1,0,0:0:0:0:
329,192,43476,1,0,0:0:0:0:
402,192,43476,1,0,0:0:0:0:
256,192,43582,1,0,0:0:0:0:
475,192,43582,1,0,0:0:0:0:
109,192,43582,1,0,0:0:0:0:
36,192,43689,1,0,0:0:0:0:
182,192,43689,1,0,0:0:0:0:
329,192,43689,1,0,0:0:0:0:
402,192,43689,1,0,0:0:0:0:
109,192,44008,1,0,0:0:0:0:
329,192,44008,1,0,0:0:0:0:
182,192,44088,1,0,0:0:0:0:
402,192,44088,1,0,0:0:0:0:
256,192,44167,1,0,0:0:0:0:
475,192,44167,1,0,0:0:0:0:
329,192,44247,1,0,0:0:0:0:
109,192,44247,1,0,0:0:0:0:
182,192,44327,1,0,0:0:0:0:
402,192,44327,1,0,0:0:0:0:
475,192,44327,1,0,0:0:0:0:
329,192,44433,1,0,0:0:0:0:
109,192,44433,1,0,0:0:0:0:
36,192,44540,1,0,0:0:0:0:
256,192,44540,1,0,0:0:0:0:
182,192,44646,1,0,0:0:0:0:
109,192,44646,1,0,0:0:0:0:
402,192,44646,1,0,0:0:0:0:
256,192,44753,1,0,0:0:0:0:
329,192,44753,1,0,0:0:0:0:
182,192,44859,1,0,0:0:0:0:
402,192,44859,1,0,0:0:0:0:
109,192,44965,1,0,0:0:0:0:
36,192,44965,1,0,0:0:0:0:
475,192,44965,1,0,0:0:0:0:
182,192,45072,1,0,0:0:0:0:
256,192,45072,1,0,0:0:0:0:
109,192,45178,1,0,0:0:0:0:
36,192,45178,1,0,0:0:0:0:
402,192,45285,1,0,0:0:0:0:
475,192,45285,1,0,0:0:0:0:
182,192,45285,1,0,0:0:0:0:
256,192,45391,1,0,0:0:0:0:
329,192,45391,1,0,0:0:0:0:
402,192,45497,1,0,0:0:0:0:
475,192,45497,1,0,0:0:0:0:
36,192,45604,1,0,0:0:0:0:
329,192,45604,1,0,0:0:0:0:
182,192,45604,1,0,0:0:0:0:
402,192,45710,1,0,0:0:0:0:
256,192,45710,1,0,0:0:0:0:
329,192,45816,1,0,0:0:0:0:
182,192,45816,1,0,0:0:0:0:
109,192,45923,1,0,0:0:0:0:
475,192,45923,1,0,0:0:0:0:
256,192,45923,1,0,0:0:0:0:
182,192,46029,1,0,0:0:0:0:
402,192,46029,1,0,0:0:0:0:
182,192,46136,1,0,0:0:0:0:
402,192,46136,1,0,0:0:0:0:
329,192,46242,1,0,0:0:0:0:
109,192,46242,1,0,0:0:0:0:
36,192,46242,1,0,0:0:0:0:
475,192,46242,1,0,0:0:0:0:
256,192,46295,1,0,0:0:0:0:
182,192,46348,1,0,0:0:0:0:
109,192,46402,1,0,0:0:0:0:
329,192,46455,1,0,0:0:0:0:
256,192,46508,1,0,0:0:0:0:
182,192,46561,1,0,0:0:0:0:
36,192,46561,1,0,0:0:0:0:
475,192,46880,1,0,0:0:0:0:
329,192,46880,1,0,0:0:0:0:
402,192,46880,1,0,0:0:0:0:
182,192,46880,1,0,0:0:0:0:
256,192,46933,1,0,0:0:0:0:
109,192,46987,1,0,0:0:0:0:
36,192,47040,1,0,0:0:0:0:
329,192,47093,1,0,0:0:0:0:
182,192,47146,1,0,0:0:0:0:
109,192,47199,1,0,0:0:0:0:
36,192,47199,1,0,0:0:0:0:
109,192,47519,1,0,0:0:0:0:
36,192,47519,1,0,0:0:0:0:
402,192,47519,1,0,0:0:0:0:
475,192,47519,1,0,0:0:0:0:
182,192,47598,1,0,0:0:0:0:
329,192,47598,1,0,0:0:0:0:
109,192,47678,1,0,0:0:0:0:
402,192,47678,1,0,0:0:0:0:
329,192,47758,1,0,0:0:0:0:
182,192,47758,1,0,0:0:0:0:
36,192,47838,1,0,0:0:0:0:
475,192,47838,1,0,0:0:0:0:
182,192,47917,1,0,0:0:0:0:
329,192,47917,1,0,0:0:0:0:
36,192,47997,1,0,0:0:0:0:
475,192,47997,1,0,0:0:0:0:
182,192,48077,1,0,0:0:0:0:
329,192,48077,1,0,0:0:0:0:
109,192,48157,1,0,0:0:0:0:
36,192,48157,1,0,0:0:0:0:
256,192,48237,1,0,0:0:0:0:
329,192,48237,1,0,0:0:0:0:
109,192,48316,1,0,0:0:0:0:
36,192,48316,1,0,0:0:0:0:
256,192,48396,1,0,0:0:0:0:
329,192,48396,1,0,0:0:0:0:
182,192,48476,1,0,0:0:0:0:
109,192,48476,1,0,0:0:0:0:
36,192,48476,1,0,0:0:0:0:
402,192,48476,1,0,0:0:0:0:
475,192,48476,1,0,0:0:0:0:
182,192,48636,1,0,0:0:0:0:
402,192,48636,1,0,0:0:0:0:
256,192,48795,1,0,0:0:0:0:
329,192,48795,1,0,0:0:0:0:
109,192,48795,1,0,0:0:0:0:
36,192,48795,1,0,0:0:0:0:
182,192,48875,1,0,0:0:0:0:
402,192,48875,1,0,0:0:0:0:
256,192,48955,1,0,0:0:0:0:
475,192,48955,1,0,0:0:0:0:
182,192,49035,1,0,0:0:0:0:
402,192,49035,1,0,0:0:0:0:
109,192,49114,1,0,0:0:0:0:
36,192,49114,1,0,0:0:0:0:
329,192,49114,1,0,0:0:0:0:
182,192,49194,1,0,0:0:0:0:
329,192,49274,1,0,0:0:0:0:
109,192,49274,1,0,0:0:0:0:
256,192,49274,1,0,0:0:0:0:
182,192,49354,1,0,0:0:0:0:
402,192,49354,1,0,0:0:0:0:
475,192,49433,1,0,0:0:0:0:
256,192,49433,1,0,0:0:0:0:
182,192,49513,1,0,0:0:0:0:
402,192,49513,1,0,0:0:0:0:
36,192,49593,1,0,0:0:0:0:
109,192,49593,1,0,0:0:0:0:
329,192,49593,1,0,0:0:0:0:
256,192,49673,1,0,0:0:0:0:
402,192,49753,1,0,0:0:0:0:
475,192,49753,1,0,0:0:0:0:
182,192,49753,1,0,0:0:0:0:
109,192,49832,1,0,0:0:0:0:
329,192,49832,1,0,0:0:0:0:
36,192,49912,1,0,0:0:0:0:
256,192,49912,1,0,0:0:0:0:
109,192,49992,1,0,0:0:0:0:
329,192,49992,1,0,0:0:0:0:
182,192,50072,1,0,0:0:0:0:
475,192,50072,1,0,0:0:0:0:
402,192,50072,1,0,0:0:0:0:
109,192,50152,1,0,0:0:0:0:
36,192,50152,1,0,0:0:0:0:
256,192,50231,1,0,0:0:0:0:
402,192,50231,1,0,0:0:0:0:
182,192,50231,1,0,0:0:0:0:
109,192,50311,1,0,0:0:0:0:
329,192,50311,1,0,0:0:0:0:
256,192,50391,1,0,0:0:0:0:
36,192,50391,1,0,0:0:0:0:
109,192,50471,1,0,0:0:0:0:
329,192,50471,1,0,0:0:0:0:
182,192,50550,1,0,0:0:0:0:
402,192,50550,1,0,0:0:0:0:
475,192,50550,1,0,0:0:0:0:
329,192,50630,1,0,0:0:0:0:
256,192,50710,1,0,0:0:0:0:
36,192,50710,1,0,0:0:0:0:
475,192,50710,1,0,0:0:0:0:
109,192,50790,1,0,0:0:0:0:
329,192,50790,1,0,0:0:0:0:
182,192,50870,1,0,0:0:0:0:
402,192,50870,1,0,0:0:0:0:
256,192,50949,1,0,0:0:0:0:
475,192,50949,1,0,0:0:0:0:
329,192,51029,1,0,0:0:0:0:
109,192,51029,1,0,0:0:0:0:
36,192,51029,1,0,0:0:0:0:
182,192,51109,1,0,0:0:0:0:
402,192,51109,1,0,0:0:0:0:
256,192,51189,1,0,0:0:0:0:
475,192,51189,1,0,0:0:0:0:
329,192,51269,1,0,0:0:0:0:
109,192,51269,1,0,0:0:0:0:
182,192,51348,1,0,0:0:0:0:
36,192,51348,1,0,0:0:0:0:
402,192,51348,128,0,52625:0:0:0:0:
475,192,51348,128,0,52625:0:0:0:0:
256,192,51428,1,0,0:0:0:0:
109,192,51508,1,0,0:0:0:0:
182,192,51588,1,0,0:0:0:0:
256,192,51667,1,0,0:0:0:0:
329,192,51667,1,0,0:0:0:0:
109,192,51721,1,0,0:0:0:0:
36,192,51774,1,0,0:0:0:0:
182,192,51827,1,0,0:0:0:0:
256,192,51880,1,0,0:0:0:0:
109,192,51933,1,0,0:0:0:0:
36,192,51987,1,0,0:0:0:0:
256,192,52040,1,0,0:0:0:0:
329,192,52093,1,0,0:0:0:0:
182,192,52146,1,0,0:0:0:0:
109,192,52199,1,0,0:0:0:0:
256,192,52253,1,0,0:0:0:0:
329,192,52306,1,0,0:0:0:0:
36,192,52306,1,0,0:0:0:0:
109,192,52359,1,0,0:0:0:0:
182,192,52412,1,0,0:0:0:0:
329,192,52465,1,0,0:0:0:0:
256,192,52519,1,0,0:0:0:0:
182,192,52572,1,0,0:0:0:0:
109,192,52625,1,0,0:0:0:0:
36,192,52625,1,0,0:0:0:0:
256,192,52625,1,0,0:0:0:0:
329,192,52625,1,0,0:0:0:0:
402,192,52705,1,0,0:0:0:0:
256,192,52785,1,0,0:0:0:0:
329,192,52864,1,0,0:0:0:0:
402,192,52864,1,0,0:0:0:0:
182,192,52864,1,0,0:0:0:0:
109,192,52864,1,0,0:0:0:0:
256,192,52944,1,0,0:0:0:0:
109,192,53024,1,0,0:0:0:0:
402,192,53104,1,0,0:0:0:0:
475,192,53104,1,0,0:0:0:0:
256,192,53104,1,0,0:0:0:0:
182,192,53104,1,0,0:0:0:0:
109,192,53183,1,0,0:0:0:0:
36,192,53263,1,0,0:0:0:0:
182,192,53263,1,0,0:0:0:0:
402,192,53263,1,0,0:0:0:0:
475,192,53263,1,0,0:0:0:0:
182,192,53423,1,0,0:0:0:0:
402,192,53423,1,0,0:0:0:0:
109,192,53476,1,0,0:0:0:0:
329,192,53476,1,0,0:0:0:0:
36,192,53529,1,0,0:0:0:0:
256,192,53529,1,0,0:0:0:0:
182,192,53582,1,0,0:0:0:0:
475,192,53582,1,0,0:0:0:0:
402,192,53622,1,0,0:0:0:0:
109,192,53662,1,0,0:0:0:0:
256,192,53702,1,0,0:0:0:0:
329,192,53742,1,0,0:0:0:0:
475,192,53742,1,0,0:0:0:0:
36,192,53742,1,0,0:0:0:0:
109,192,53902,1,0,0:0:0:0:
182,192,53902,1,0,0:0:0:0:
402,192,53902,1,0,0:0:0:0:
475,192,53902,1,0,0:0:0:0:
256,192,54008,1,0,0:0:0:0:
329,192,54008,1,0,0:0:0:0:
182,192,54114,1,0,0:0:0:0:
109,192,54114,1,0,0:0:0:0:
36,192,54221,1,0,0:0:0:0:
329,192,54221,1,0,0:0:0:0:
402,192,54221,1,0,0:0:0:0:
475,192,54221,1,0,0:0:0:0:
256,192,54327,1,0,0:0:0:0:
182,192,54327,1,0,0:0:0:0:
36,192,54433,1,0,0:0:0:0:
109,192,54433,1,0,0:0:0:0:
182,192,54540,1,0,0:0:0:0:
256,192,54540,1,0,0:0:0:0:
402,192,54540,1,0,0:0:0:0:
475,192,54540,1,0,0:0:0:0:
329,192,54646,1,0,0:0:0:0:
109,192,54646,1,0,0:0:0:0:
36,192,54753,1,0,0:0:0:0:
256,192,54753,1,0,0:0:0:0:
182,192,54859,1,0,0:0:0:0:
109,192,54859,1,0,0:0:0:0:
402,192,54859,1,0,0:0:0:0:
475,192,54859,1,0,0:0:0:0:
36,192,54965,1,0,0:0:0:0:
329,192,54965,1,0,0:0:0:0:
256,192,55072,1,0,0:0:0:0:
475,192,55072,1,0,0:0:0:0:
402,192,55178,1,0,0:0:0:0:
329,192,55178,1,0,0:0:0:0:
109,192,55178,1,0,0:0:0:0:
36,192,55178,1,0,0:0:0:0:
182,192,55285,1,0,0:0:0:0:
256,192,55285,1,0,0:0:0:0:
329,192,55391,1,0,0:0:0:0:
402,192,55391,1,0,0:0:0:0:
475,192,55497,1,0,0:0:0:0:
182,192,55497,1,0,0:0:0:0:
109,192,55497,1,0,0:0:0:0:
36,192,55497,1,0,0:0:0:0:
256,192,55604,1,0,0:0:0:0:
329,192,55604,1,0,0:0:0:0:
402,192,55710,1,0,0:0:0:0:
475,192,55710,1,0,0:0:0:0:
256,192,55816,1,0,0:0:0:0:
329,192,55816,1,0,0:0:0:0:
109,192,55816,1,0,0:0:0:0:
36,192,55816,1,0,0:0:0:0:
182,192,55923,1,0,0:0:0:0:
402,192,55923,1,0,0:0:0:0:
256,192,56029,1,0,0:0:0:0:
475,192,56029,1,0,0:0:0:0:
329,192,56136,1,0,0:0:0:0:
402,192,56136,1,0,0:0:0:0:
109,192,56136,1,0,0:0:0:0:
36,192,56136,1,0,0:0:0:0:
182,192,56242,1,0,0:0:0:0:
475,192,56242,1,0,0:0:0:0:
256,192,56348,1,0,0:0:0:0:
36,192,56348,1,0,0:0:0:0:
109,192,56455,1,0,0:0:0:0:
182,192,56455,1,0,0:0:0:0:
402,192,56455,1,0,0:0:0:0:
475,192,56455,1,0,0:0:0:0:
329,192,56535,1,0,0:0:0:0:
109,192,56614,1,0,0:0:0:0:
475,192,56614,1,0,0:0:0:0:
256,192,56694,1,0,0:0:0:0:
182,192,56774,1,0,0:0:0:0:
109,192,56774,1,0,0:0:0:0:
402,192,56774,1,0,0:0:0:0:
475,192,56774,1,0,0:0:0:0:
256,192,56933,1,0,0:0:0:0:
329,192,56933,1,0,0:0:0:0:
36,192,56933,1,0,0:0:0:0:
109,192,56933,1,0,0:0:0:0:
182,192,57013,1,0,0:0:0:0:
109,192,57093,1,0,0:0:0:0:
36,192,57093,1,0,0:0:0:0:
256,192,57093,1,0,0:0:0:0:
329,192,57093,1,0,0:0:0:0:
402,192,57173,1,0,0:0:0:0:
475,192,57173,1,0,0:0:0:0:
182,192,57253,1,0,0:0:0:0:
109,192,57253,1,0,0:0:0:0:
329,192,57332,1,0,0:0:0:0:
402,192,57332,1,0,0:0:0:0:
256,192,57412,1,0,0:0:0:0:
109,192,57412,1,0,0:0:0:0:
36,192,57412,1,0,0:0:0:0:
475,192,57412,1,0,0:0:0:0:
256,192,57572,1,0,0:0:0:0:
182,192,57731,1,0,0:0:0:0:
402,192,57731,1,0,0:0:0:0:
475,192,57731,1,0,0:0:0:0:
329,192,57811,1,0,0:0:0:0:
109,192,57811,1,0,0:0:0:0:
36,192,57891,1,0,0:0:0:0:
256,192,57891,1,0,0:0:0:0:
182,192,57971,1,0,0:0:0:0:
402,192,57971,1,0,0:0:0:0:
329,192,58050,1,0,0:0:0:0:
36,192,58050,1,0,0:0:0:0:
109,192,58050,1,0,0:0:0:0:
182,192,58130,1,0,0:0:0:0:
402,192,58130,1,0,0:0:0:0:
109,192,58210,1,0,0:0:0:0:
329,192,58210,1,0,0:0:0:0:
182,192,58290,1,0,0:0:0:0:
402,192,58290,1,0,0:0:0:0:
36,192,58370,1,0,0:0:0:0:
256,192,58370,1,0,0:0:0:0:
475,192,58370,1,0,0:0:0:0:
109,192,58449,1,0,0:0:0:0:
329,192,58449,1,0,0:0:0:0:
182,192,58529,1,0,0:0:0:0:
402,192,58529,1,0,0:0:0:0:
256,192,58609,1,0,0:0:0:0:
475,192,58609,1,0,0:0:0:0:
329,192,58689,1,0,0:0:0:0:
109,192,58689,1,0,0:0:0:0:
36,192,58689,1,0,0:0:0:0:
182,192,58769,1,0,0:0:0:0:
402,192,58769,1,0,0:0:0:0:
475,192,58769,1,0,0:0:0:0:
329,192,58848,1,0,0:0:0:0:
109,192,58848,1,0,0:0:0:0:
36,192,58848,1,0,0:0:0:0:
256,192,58928,1,0,0:0:0:0:
182,192,59008,1,0,0:0:0:0:
109,192,59008,1,0,0:0:0:0:
402,192,59008,1,0,0:0:0:0:
329,192,59008,1,0,0:0:0:0:
475,192,59008,1,0,0:0:0:0:
109,192,59247,1,0,0:0:0:0:
182,192,59247,1,0,0:0:0:0:
402,192,59247,1,0,0:0:0:0:
329,192,59247,1,0,0:0:0:0:
475,192,59247,1,0,0:0:0:0:
36,192,59487,1,0,0:0:0:0:
109,192,59487,1,0,0:0:0:0:
256,192,59487,1,0,0:0:0:0:
329,192,59487,1,0,0:0:0:0:
402,192,59487,1,0,0:0:0:0:
36,192,59726,1,0,0:0:0:0:
109,192,59726,1,0,0:0:0:0:
256,192,59726,1,0,0:0:0:0:
329,192,59726,1,0,0:0:0:0:
402,192,59726,1,0,0:0:0:0:
109,192,59965,1,0,0:0:0:0:
182,192,59965,1,0,0:0:0:0:
256,192,59965,1,0,0:0:0:0:
402,192,59965,1,0,0:0:0:0:
475,192,59965,1,0,0:0:0:0:
329,192,60125,1,0,0:0:0:0:
402,192,60125,1,0,0:0:0:0:
475,192,60125,1,0,0:0:0:0:
36,192,60125,1,0,0:0:0:0:
182,192,60125,1,0,0:0:0:0:
109,192,60285,1,0,0:0:0:0:
36,192,60285,1,0,0:0:0:0:
256,192,60285,1,0,0:0:0:0:
402,192,60285,1,0,0:0:0:0:
475,192,60285,1,0,0:0:0:0:
36,192,60524,1,0,0:0:0:0:
109,192,60524,1,0,0:0:0:0:
256,192,60524,1,0,0:0:0:0:
402,192,60524,1,0,0:0:0:0:
475,192,60524,1,0,0:0:0:0:
182,192,60763,1,0,0:0:0:0:
256,192,60763,1,0,0:0:0:0:
329,192,60763,1,0,0:0:0:0:
475,192,60763,1,0,0:0:0:0:
36,192,60763,1,0,0:0:0:0:
36,192,61003,1,0,0:0:0:0:
109,192,61003,1,0,0:0:0:0:
182,192,61003,1,0,0:0:0:0:
256,192,61003,1,0,0:0:0:0:
329,192,61003,1,0,0:0:0:0:
182,192,61242,128,0,61481:0:0:0:0:
256,192,61242,128,0,61481:0:0:0:0:
329,192,61242,128,0,61481:0:0:0:0:
402,192,61242,128,0,61481:0:0:0:0:
475,192,61242,128,0,61481:0:0:0:0:
475,192,61561,1,0,0:0:0:0:
402,192,61561,1,0,0:0:0:0:
36,192,61561,1,0,0:0:0:0:
109,192,61561,1,0,0:0:0:0:
256,192,61561,1,0,0:0:0:0:
182,192,61641,1,0,0:0:0:0:
329,192,61641,1,0,0:0:0:0:
109,192,61721,1,0,0:0:0:0:
402,192,61721,1,0,0:0:0:0:
36,192,61721,1,0,0:0:0:0:
256,192,61800,1,0,0:0:0:0:
475,192,61800,1,0,0:0:0:0:
182,192,61880,1,0,0:0:0:0:
36,192,61880,1,0,0:0:0:0:
329,192,61880,1,0,0:0:0:0:
109,192,61960,1,0,0:0:0:0:
402,192,61960,1,0,0:0:0:0:
256,192,62040,1,0,0:0:0:0:
475,192,62040,1,0,0:0:0:0:
182,192,62040,1,0,0:0:0:0:
109,192,62120,1,0,0:0:0:0:
402,192,62120,1,0,0:0:0:0:
256,192,62199,1,0,0:0:0:0:
329,192,62199,1,0,0:0:0:0:
36,192,62199,1,0,0:0:0:0:
182,192,62279,1,0,0:0:0:0:
402,192,62279,1,0,0:0:0:0:
475,192,62359,1,0,0:0:0:0:
109,192,62359,1,0,0:0:0:0:
36,192,62359,1,0,0:0:0:0:
182,192,62439,1,0,0:0:0:0:
329,192,62439,1,0,0:0:0:0:
402,192,62519,1,0,0:0:0:0:
475,192,62519,1,0,0:0:0:0:
109,192,62519,1,0,0:0:0:0:
182,192,62598,1,0,0:0:0:0:
329,192,62598,1,0,0:0:0:0:
36,192,62678,1,0,0:0:0:0:
256,192,62678,1,0,0:0:0:0:
109,192,62678,1,0,0:0:0:0:
182,192,62758,1,0,0:0:0:0:
329,192,62758,1,0,0:0:0:0:
256,192,62838,1,0,0:0:0:0:
402,192,62838,1,0,0:0:0:0:
475,192,62838,1,0,0:0:0:0:
36,192,62838,1,0,0:0:0:0:
182,192,63077,1,0,0:0:0:0:
109,192,63077,1,0,0:0:0:0:
329,192,63077,1,0,0:0:0:0:
256,192,63157,1,0,0:0:0:0:
36,192,63157,1,0,0:0:0:0:
402,192,63157,1,0,0:0:0:0:
475,192,63157,1,0,0:0:0:0:
182,192,63316,1,0,0:0:0:0:
109,192,63316,1,0,0:0:0:0:
109,192,63396,1,0,0:0:0:0:
182,192,63396,1,0,0:0:0:0:
256,192,63476,1,0,0:0:0:0:
329,192,63476,1,0,0:0:0:0:
402,192,63476,1,0,0:0:0:0:
475,192,63476,1,0,0:0:0:0:
109,192,63636,1,0,0:0:0:0:
36,192,63636,1,0,0:0:0:0:
182,192,63715,1,0,0:0:0:0:
256,192,63715,1,0,0:0:0:0:
329,192,63715,1,0,0:0:0:0:
402,192,63715,1,0,0:0:0:0:
402,192,63875,1,0,0:0:0:0:
475,192,63875,1,0,0:0:0:0:
109,192,63955,1,0,0:0:0:0:
36,192,63955,1,0,0:0:0:0:
182,192,63955,1,0,0:0:0:0:
256,192,63955,1,0,0:0:0:0:
36,192,64114,1,0,0:0:0:0:
109,192,64114,1,0,0:0:0:0:
402,192,64114,1,0,0:0:0:0:
475,192,64114,1,0,0:0:0:0:
329,192,64114,1,0,0:0:0:0:
109,192,64354,1,0,0:0:0:0:
36,192,64354,1,0,0:0:0:0:
329,192,64354,1,0,0:0:0:0:
402,192,64354,1,0,0:0:0:0:
475,192,64354,1,0,0:0:0:0:
182,192,64593,1,0,0:0:0:0:
109,192,64593,1,0,0:0:0:0:
36,192,64593,1,0,0:0:0:0:
402,192,64593,1,0,0:0:0:0:
475,192,64593,1,0,0:0:0:0:
36,192,64832,1,0,0:0:0:0:
109,192,64832,1,0,0:0:0:0:
182,192,64832,1,0,0:0:0:0:
402,192,64832,1,0,0:0:0:0:
475,192,64832,1,0,0:0:0:0:
109,192,65072,1,0,0:0:0:0:
182,192,65072,1,0,0:0:0:0:
256,192,65072,1,0,0:0:0:0:
36,192,65072,1,0,0:0:0:0:
329,192,65072,1,0,0:0:0:0:
109,192,65231,1,0,0:0:0:0:
182,192,65231,1,0,0:0:0:0:
256,192,65231,1,0,0:0:0:0:
329,192,65231,1,0,0:0:0:0:
402,192,65231,1,0,0:0:0:0:
329,192,65391,1,0,0:0:0:0:
402,192,65391,1,0,0:0:0:0:
475,192,65391,1,0,0:0:0:0:
182,192,65391,1,0,0:0:0:0:
109,192,65391,1,0,0:0:0:0:
109,192,65630,1,0,0:0:0:0:
182,192,65630,1,0,0:0:0:0:
402,192,65630,1,0,0:0:0:0:
329,192,65630,1,0,0:0:0:0:
475,192,65630,1,0,0:0:0:0:
36,192,65870,1,0,0:0:0:0:
109,192,65870,1,0,0:0:0:0:
182,192,65870,1,0,0:0:0:0:
256,192,65870,1,0,0:0:0:0:
329,192,65870,1,0,0:0:0:0:
329,192,66109,1,0,0:0:0:0:
402,192,66109,1,0,0:0:0:0:
109,192,66109,1,0,0:0:0:0:
182,192,66109,1,0,0:0:0:0:
256,192,66109,1,0,0:0:0:0:
182,192,66348,128,0,66588:0:0:0:0:
256,192,66348,128,0,66588:0:0:0:0:
329,192,66348,128,0,66588:0:0:0:0:
402,192,66348,128,0,66588:0:0:0:0:
475,192,66348,128,0,66588:0:0:0:0:
109,192,66667,1,0,0:0:0:0:
36,192,66667,1,0,0:0:0:0:
182,192,66667,1,0,0:0:0:0:
475,192,66667,1,0,0:0:0:0:
402,192,66667,1,0,0:0:0:0:
256,192,66747,1,0,0:0:0:0:
329,192,66747,1,0,0:0:0:0:
36,192,66827,1,0,0:0:0:0:
109,192,66827,1,0,0:0:0:0:
402,192,66827,1,0,0:0:0:0:
475,192,66827,1,0,0:0:0:0:
182,192,66907,1,0,0:0:0:0:
256,192,66907,1,0,0:0:0:0:
36,192,66987,1,0,0:0:0:0:
402,192,66987,1,0,0:0:0:0:
475,192,66987,1,0,0:0:0:0:
109,192,67066,1,0,0:0:0:0:
329,192,67066,1,0,0:0:0:0:
182,192,67146,1,0,0:0:0:0:
475,192,67146,1,0,0:0:0:0:
256,192,67146,1,0,0:0:0:0:
329,192,67226,1,0,0:0:0:0:
402,192,67226,1,0,0:0:0:0:
256,192,67306,1,0,0:0:0:0:
109,192,67306,1,0,0:0:0:0:
36,192,67306,1,0,0:0:0:0:
182,192,67386,1,0,0:0:0:0:
402,192,67386,1,0,0:0:0:0:
475,192,67386,1,0,0:0:0:0:
109,192,67465,1,0,0:0:0:0:
36,192,67465,1,0,0:0:0:0:
329,192,67465,1,0,0:0:0:0:
182,192,67545,1,0,0:0:0:0:
256,192,67545,1,0,0:0:0:0:
402,192,67545,1,0,0:0:0:0:
109,192,67625,1,0,0:0:0:0:
36,192,67625,1,0,0:0:0:0:
329,192,67625,1,0,0:0:0:0:
256,192,67705,1,0,0:0:0:0:
402,192,67705,1,0,0:0:0:0:
475,192,67705,1,0,0:0:0:0:
182,192,67785,1,0,0:0:0:0:
109,192,67785,1,0,0:0:0:0:
36,192,67785,1,0,0:0:0:0:
256,192,67864,1,0,0:0:0:0:
329,192,67864,1,0,0:0:0:0:
402,192,67864,1,0,0:0:0:0:
36,192,67944,1,0,0:0:0:0:
109,192,67944,1,0,0:0:0:0:
475,192,67944,1,0,0:0:0:0:
182,192,68024,1,0,0:0:0:0:
329,192,68024,1,0,0:0:0:0:
402,192,68024,1,0,0:0:0:0:
182,192,68183,1,0,0:0:0:0:
329,192,68183,1,0,0:0:0:0:
402,192,68183,1,0,0:0:0:0:
475,192,68263,1,0,0:0:0:0:
109,192,68263,1,0,0:0:0:0:
36,192,68263,1,0,0:0:0:0:
256,192,68343,1,0,0:0:0:0:
329,192,68343,1,0,0:0:0:0:
182,192,68423,1,0,0:0:0:0:
109,192,68423,1,0,0:0:0:0:
475,192,68423,1,0,0:0:0:0:
256,192,68503,1,0,0:0:0:0:
329,192,68503,1,0,0:0:0:0:
36,192,68582,1,0,0:0:0:0:
182,192,68582,1,0,0:0:0:0:
402,192,68582,1,0,0:0:0:0:
256,192,68662,1,0,0:0:0:0:
329,192,68662,1,0,0:0:0:0:
109,192,68742,1,0,0:0:0:0:
36,192,68742,1,0,0:0:0:0:
475,192,68742,1,0,0:0:0:0:
256,192,68822,1,0,0:0:0:0:
329,192,68822,1,0,0:0:0:0:
402,192,68902,1,0,0:0:0:0:
475,192,68902,1,0,0:0:0:0:
109,192,68902,1,0,0:0:0:0:
256,192,68981,1,0,0:0:0:0:
329,192,68981,1,0,0:0:0:0:
402,192,69061,1,0,0:0:0:0:
475,192,69061,1,0,0:0:0:0:
36,192,69061,1,0,0:0:0:0:
256,192,69141,1,0,0:0:0:0:
329,192,69141,1,0,0:0:0:0:
182,192,69221,1,0,0:0:0:0:
109,192,69221,1,0,0:0:0:0:
36,192,69221,1,0,0:0:0:0:
402,192,69221,1,0,0:0:0:0:
475,192,69221,1,0,0:0:0:0:
182,192,69380,1,0,0:0:0:0:
109,192,69380,1,0,0:0:0:0:
36,192,69380,1,0,0:0:0:0:
402,192,69380,1,0,0:0:0:0:
475,192,69380,1,0,0:0:0:0:
402,192,69540,1,0,0:0:0:0:
475,192,69540,1,0,0:0:0:0:
109,192,69540,1,0,0:0:0:0:
182,192,69540,1,0,0:0:0:0:
36,192,69540,1,0,0:0:0:0:
36,192,69699,1,0,0:0:0:0:
109,192,69699,1,0,0:0:0:0:
182,192,69699,1,0,0:0:0:0:
475,192,69699,1,0,0:0:0:0:
402,192,69699,1,0,0:0:0:0:
182,192,69859,1,0,0:0:0:0:
36,192,69859,1,0,0:0:0:0:
475,192,69859,1,0,0:0:0:0:
109,192,69859,1,0,0:0:0:0:
402,192,69859,1,0,0:0:0:0:
36,192,70019,1,0,0:0:0:0:
402,192,70019,1,0,0:0:0:0:
475,192,70019,1,0,0:0:0:0:
109,192,70019,1,0,0:0:0:0:
182,192,70019,1,0,0:0:0:0:
36,192,70178,1,0,0:0:0:0:
109,192,70178,1,0,0:0:0:0:
402,192,70178,1,0,0:0:0:0:
182,192,70178,1,0,0:0:0:0:
475,192,70178,1,0,0:0:0:0:
36,192,70338,1,0,0:0:0:0:
182,192,70338,1,0,0:0:0:0:
109,192,70338,1,0,0:0:0:0:
475,192,70338,1,0,0:0:0:0:
402,192,70338,1,0,0:0:0:0:
475,192,70497,1,0,0:0:0:0:
329,192,70497,1,0,0:0:0:0:
402,192,70497,1,0,0:0:0:0:
36,192,70497,1,0,0:0:0:0:
109,192,70497,1,0,0:0:0:0:
475,192,70657,1,0,0:0:0:0:
402,192,70657,1,0,0:0:0:0:
109,192,70657,1,0,0:0:0:0:
329,192,70657,1,0,0:0:0:0:
36,192,70657,1,0,0:0:0:0:
475,192,70816,1,0,0:0:0:0:
109,192,70816,1,0,0:0:0:0:
36,192,70816,1,0,0:0:0:0:
402,192,70816,1,0,0:0:0:0:
329,192,70816,1,0,0:0:0:0:
329,192,70976,1,0,0:0:0:0:
475,192,70976,1,0,0:0:0:0:
36,192,70976,1,0,0:0:0:0:
402,192,70976,1,0,0:0:0:0:
109,192,70976,1,0,0:0:0:0:
475,192,71136,1,0,0:0:0:0:
402,192,71136,1,0,0:0:0:0:
329,192,71136,1,0,0:0:0:0:
36,192,71136,1,0,0:0:0:0:
109,192,71136,1,0,0:0:0:0:
109,192,71295,1,0,0:0:0:0:
36,192,71295,1,0,0:0:0:0:
402,192,71295,1,0,0:0:0:0:
329,192,71295,1,0,0:0:0:0:
475,192,71295,1,0,0:0:0:0:
402,192,71455,1,0,0:0:0:0:
475,192,71455,1,0,0:0:0:0:
109,192,71455,1,0,0:0:0:0:
36,192,71455,1,0,0:0:0:0:
182,192,71535,1,0,0:0:0:0:
329,192,71535,1,0,0:0:0:0:
402,192,71614,1,0,0:0:0:0:
475,192,71614,1,0,0:0:0:0:
109,192,71614,1,0,0:0:0:0:
36,192,71614,1,0,0:0:0:0:
182,192,71694,1,0,0:0:0:0:
329,192,71694,1,0,0:0:0:0:
256,192,71774,1,0,0:0:0:0:
109,192,71774,1,0,0:0:0:0:
36,192,71774,1,0,0:0:0:0:
402,192,71774,1,0,0:0:0:0:
475,192,71774,1,0,0:0:0:0:
36,192,72093,1,0,0:0:0:0:
256,192,72093,1,0,0:0:0:0:
109,192,72173,1,0,0:0:0:0:
329,192,72173,1,0,0:0:0:0:
182,192,72253,1,0,0:0:0:0:
402,192,72253,1,0,0:0:0:0:
256,192,72332,1,0,0:0:0:0:
475,192,72332,1,0,0:0:0:0:
329,192,72412,1,0,0:0:0:0:
109,192,72412,1,0,0:0:0:0:
182,192,72492,1,0,0:0:0:0:
402,192,72492,1,0,0:0:0:0:
256,192,72572,1,0,0:0:0:0:
475,192,72572,1,0,0:0:0:0:
329,192,72652,1,0,0:0:0:0:
36,192,72652,1,0,0:0:0:0:
109,192,72731,1,0,0:0:0:0:
402,192,72731,1,0,0:0:0:0:
182,192,72811,1,0,0:0:0:0:
475,192,72811,1,0,0:0:0:0:
256,192,72891,1,0,0:0:0:0:
36,192,72891,1,0,0:0:0:0:
109,192,72971,1,0,0:0:0:0:
329,192,72971,1,0,0:0:0:0:
182,192,73050,1,0,0:0:0:0:
402,192,73050,1,0,0:0:0:0:
256,192,73130,1,0,0:0:0:0:
475,192,73130,1,0,0:0:0:0:
329,192,73210,1,0,0:0:0:0:
109,192,73210,1,0,0:0:0:0:
182,192,73290,1,0,0:0:0:0:
402,192,73290,1,0,0:0:0:0:
256,192,73370,1,0,0:0:0:0:
475,192,73370,1,0,0:0:0:0:
329,192,73449,1,0,0:0:0:0:
36,192,73449,1,0,0:0:0:0:
109,192,73529,1,0,0:0:0:0:
402,192,73529,1,0,0:0:0:0:
182,192,73609,1,0,0:0:0:0:
475,192,73609,1,0,0:0:0:0:
256,192,73689,1,0,0:0:0:0:
36,192,73689,1,0,0:0:0:0:
109,192,73769,1,0,0:0:0:0:
329,192,73769,1,0,0:0:0:0:
182,192,73848,1,0,0:0:0:0:
402,192,73848,1,0,0:0:0:0:
256,192,73928,1,0,0:0:0:0:
475,192,73928,1,0,0:0:0:0:
182,192,74008,1,0,0:0:0:0:
402,192,74008,1,0,0:0:0:0:
329,192,74088,1,0,0:0:0:0:
109,192,74088,1,0,0:0:0:0:
36,192,74167,1,0,0:0:0:0:
256,192,74167,1,0,0:0:0:0:
109,192,74247,1,0,0:0:0:0:
329,192,74247,1,0,0:0:0:0:
182,192,74327,1,0,0:0:0:0:
402,192,74327,1,0,0:0:0:0:
475,192,74327,1,0,0:0:0:0:
329,192,74433,1,0,0:0:0:0:
256,192,74540,1,0,0:0:0:0:
182,192,74646,1,0,0:0:0:0:
36,192,74646,1,0,0:0:0:0:
475,192,74646,1,0,0:0:0:0:
329,192,74753,1,0,0:0:0:0:
182,192,74859,1,0,0:0:0:0:
109,192,74965,1,0,0:0:0:0:
36,192,74965,1,0,0:0:0:0:
402,192,74965,1,0,0:0:0:0:
182,192,75072,1,0,0:0:0:0:
329,192,75178,1,0,0:0:0:0:
36,192,75285,1,0,0:0:0:0:
256,192,75285,1,0,0:0:0:0:
402,192,75285,1,0,0:0:0:0:
109,192,75391,1,0,0:0:0:0:
256,192,75497,1,0,0:0:0:0:
182,192,75604,1,0,0:0:0:0:
36,192,75604,1,0,0:0:0:0:
402,192,75604,1,0,0:0:0:0:
329,192,75710,1,0,0:0:0:0:
256,192,75816,1,0,0:0:0:0:
109,192,75923,1,0,0:0:0:0:
402,192,75923,1,0,0:0:0:0:
475,192,75923,1,0,0:0:0:0:
256,192,76029,1,0,0:0:0:0:
36,192,76136,1,0,0:0:0:0:
182,192,76242,1,0,0:0:0:0:
109,192,76242,1,0,0:0:0:0:
402,192,76242,1,0,0:0:0:0:
256,192,76348,1,0,0:0:0:0:
402,192,76455,1,0,0:0:0:0:
36,192,76561,1,0,0:0:0:0:
329,192,76561,1,0,0:0:0:0:
475,192,76561,1,0,0:0:0:0:
182,192,76667,1,0,0:0:0:0:
36,192,76774,1,0,0:0:0:0:
182,192,76880,1,0,0:0:0:0:
402,192,76880,1,0,0:0:0:0:
109,192,76880,128,0,78157:0:0:0:0:
475,192,76880,128,0,78157:0:0:0:0:
256,192,77040,1,0,0:0:0:0:
329,192,77199,128,0,77519:0:0:0:0:
402,192,77519,1,0,0:0:0:0:
256,192,77678,1,0,0:0:0:0:
182,192,77838,128,0,78157:0:0:0:0:
36,192,78157,1,0,0:0:0:0:
329,192,78157,1,0,0:0:0:0:
182,192,78316,1,0,0:0:0:0:
475,192,78316,1,0,0:0:0:0:
256,192,78476,128,0,78795:0:0:0:0:
109,192,78795,128,0,78955:0:0:0:0:
182,192,78795,128,0,78955:0:0:0:0:
402,192,78795,128,0,78955:0:0:0:0:
475,192,78795,128,0,78955:0:0:0:0:
256,192,78955,128,0,79035:0:0:0:0:
329,192,79035,128,0,79194:0:0:0:0:
402,192,79035,128,0,79194:0:0:0:0:
36,192,79035,128,0,79194:0:0:0:0:
109,192,79035,128,0,79194:0:0:0:0:
182,192,79194,128,0,79274:0:0:0:0:
256,192,79274,128,0,79433:0:0:0:0:
36,192,79274,128,0,79433:0:0:0:0:
109,192,79274,128,0,79433:0:0:0:0:
475,192,79274,128,0,79433:0:0:0:0:
182,192,79433,128,0,79753:0:0:0:0:
329,192,79433,128,0,79753:0:0:0:0:
402,192,79433,128,0,79753:0:0:0:0:
109,192,79753,1,0,0:0:0:0:
36,192,79753,1,0,0:0:0:0:
256,192,79753,1,0,0:0:0:0:
475,192,79753,1,0,0:0:0:0:
329,192,79832,1,0,0:0:0:0:
182,192,79912,1,0,0:0:0:0:
475,192,79912,1,0,0:0:0:0:
182,192,79992,1,0,0:0:0:0:
475,192,79992,1,0,0:0:0:0:
329,192,80072,1,0,0:0:0:0:
109,192,80072,1,0,0:0:0:0:
36,192,80072,1,0,0:0:0:0:
256,192,80152,1,0,0:0:0:0:
182,192,80231,1,0,0:0:0:0:
109,192,80231,1,0,0:0:0:0:
402,192,80231,1,0,0:0:0:0:
256,192,80311,1,0,0:0:0:0:
329,192,80311,1,0,0:0:0:0:
475,192,80311,1,0,0:0:0:0:
36,192,80391,1,0,0:0:0:0:
109,192,80391,1,0,0:0:0:0:
256,192,80471,1,0,0:0:0:0:
329,192,80471,1,0,0:0:0:0:
475,192,80471,1,0,0:0:0:0:
402,192,80550,1,0,0:0:0:0:
182,192,80550,1,0,0:0:0:0:
109,192,80550,1,0,0:0:0:0:
256,192,80630,1,0,0:0:0:0:
329,192,80710,1,0,0:0:0:0:
402,192,80710,1,0,0:0:0:0:
475,192,80710,1,0,0:0:0:0:
109,192,80710,1,0,0:0:0:0:
36,192,80710,1,0,0:0:0:0:
182,192,80790,1,0,0:0:0:0:
329,192,80870,1,0,0:0:0:0:
402,192,80870,1,0,0:0:0:0:
182,192,80949,1,0,0:0:0:0:
109,192,80949,1,0,0:0:0:0:
36,192,81029,1,0,0:0:0:0:
256,192,81029,1,0,0:0:0:0:
329,192,81029,1,0,0:0:0:0:
402,192,81029,1,0,0:0:0:0:
475,192,81029,1,0,0:0:0:0:
182,192,81109,1,0,0:0:0:0:
329,192,81189,1,0,0:0:0:0:
475,192,81189,1,0,0:0:0:0:
182,192,81269,1,0,0:0:0:0:
36,192,81269,1,0,0:0:0:0:
109,192,81348,1,0,0:0:0:0:
256,192,81348,1,0,0:0:0:0:
329,192,81348,1,0,0:0:0:0:
402,192,81348,1,0,0:0:0:0:
475,192,81348,1,0,0:0:0:0:
182,192,81428,1,0,0:0:0:0:
329,192,81508,1,0,0:0:0:0:
402,192,81508,1,0,0:0:0:0:
109,192,81588,1,0,0:0:0:0:
36,192,81588,1,0,0:0:0:0:
182,192,81667,1,0,0:0:0:0:
256,192,81667,1,0,0:0:0:0:
329,192,81667,1,0,0:0:0:0:
402,192,81667,1,0,0:0:0:0:
475,192,81667,1,0,0:0:0:0:
109,192,81747,1,0,0:0:0:0:
402,192,81827,1,0,0:0:0:0:
475,192,81827,1,0,0:0:0:0:
256,192,81907,1,0,0:0:0:0:
329,192,81907,1,0,0:0:0:0:
182,192,81987,1,0,0:0:0:0:
109,192,81987,1,0,0:0:0:0:
36,192,81987,1,0,0:0:0:0:
402,192,81987,1,0,0:0:0:0:
475,192,81987,1,0,0:0:0:0:
329,192,82066,1,0,0:0:0:0:
182,192,82146,1,0,0:0:0:0:
109,192,82146,1,0,0:0:0:0:
256,192,82226,1,0,0:0:0:0:
329,192,82306,1,0,0:0:0:0:
475,192,82306,1,0,0:0:0:0:
109,192,82306,1,0,0:0:0:0:
36,192,82306,1,0,0:0:0:0:
182,192,82386,1,0,0:0:0:0:
36,192,82465,1,0,0:0:0:0:
329,192,82465,1,0,0:0:0:0:
36,192,82545,1,0,0:0:0:0:
329,192,82545,1,0,0:0:0:0:
475,192,82625,1,0,0:0:0:0:
182,192,82625,1,0,0:0:0:0:
402,192,82625,1,0,0:0:0:0:
329,192,82705,1,0,0:0:0:0:
109,192,82785,1,0,0:0:0:0:
36,192,82785,1,0,0:0:0:0:
256,192,82785,1,0,0:0:0:0:
182,192,82864,1,0,0:0:0:0:
402,192,82864,1,0,0:0:0:0:
475,192,82864,1,0,0:0:0:0:
329,192,82944,1,0,0:0:0:0:
182,192,83024,1,0,0:0:0:0:
402,192,83024,1,0,0:0:0:0:
475,192,83024,1,0,0:0:0:0:
256,192,83104,1,0,0:0:0:0:
109,192,83104,1,0,0:0:0:0:
36,192,83104,1,0,0:0:0:0:
329,192,83183,1,0,0:0:0:0:
109,192,83263,1,0,0:0:0:0:
36,192,83263,1,0,0:0:0:0:
182,192,83263,1,0,0:0:0:0:
475,192,83263,1,0,0:0:0:0:
402,192,83263,1,0,0:0:0:0:
329,192,83343,1,0,0:0:0:0:
182,192,83423,1,0,0:0:0:0:
109,192,83423,1,0,0:0:0:0:
329,192,83503,1,0,0:0:0:0:
402,192,83503,1,0,0:0:0:0:
475,192,83582,1,0,0:0:0:0:
256,192,83582,1,0,0:0:0:0:
182,192,83582,1,0,0:0:0:0:
109,192,83582,1,0,0:0:0:0:
36,192,83582,1,0,0:0:0:0:
329,192,83662,1,0,0:0:0:0:
182,192,83742,1,0,0:0:0:0:
36,192,83742,1,0,0:0:0:0:
329,192,83822,1,0,0:0:0:0:
475,192,83822,1,0,0:0:0:0:
402,192,83902,1,0,0:0:0:0:
256,192,83902,1,0,0:0:0:0:
182,192,83902,1,0,0:0:0:0:
109,192,83902,1,0,0:0:0:0:
36,192,83902,1,0,0:0:0:0:
329,192,83981,1,0,0:0:0:0:
182,192,84061,1,0,0:0:0:0:
109,192,84061,1,0,0:0:0:0:
402,192,84141,1,0,0:0:0:0:
475,192,84141,1,0,0:0:0:0:
329,192,84221,1,0,0:0:0:0:
256,192,84221,1,0,0:0:0:0:
182,192,84221,1,0,0:0:0:0:
109,192,84221,1,0,0:0:0:0:
36,192,84221,1,0,0:0:0:0:
402,192,84300,1,0,0:0:0:0:
109,192,84380,1,0,0:0:0:0:
36,192,84380,1,0,0:0:0:0:
256,192,84460,1,0,0:0:0:0:
182,192,84460,1,0,0:0:0:0:
329,192,84540,1,0,0:0:0:0:
402,192,84540,1,0,0:0:0:0:
475,192,84540,1,0,0:0:0:0:
109,192,84540,1,0,0:0:0:0:
36,192,84540,1,0,0:0:0:0:
182,192,84620,1,0,0:0:0:0:
256,192,84699,1,0,0:0:0:0:
402,192,84699,1,0,0:0:0:0:
182,192,84779,1,0,0:0:0:0:
36,192,84859,1,0,0:0:0:0:
109,192,84859,1,0,0:0:0:0:
329,192,84859,1,0,0:0:0:0:
475,192,84859,1,0,0:0:0:0:
256,192,84939,1,0,0:0:0:0:
182,192,85019,1,0,0:0:0:0:
329,192,85019,1,0,0:0:0:0:
182,192,85098,1,0,0:0:0:0:
329,192,85098,1,0,0:0:0:0:
402,192,85178,1,0,0:0:0:0:
475,192,85178,1,0,0:0:0:0:
109,192,85178,1,0,0:0:0:0:
36,192,85178,1,0,0:0:0:0:
256,192,85258,1,0,0:0:0:0:
329,192,85258,1,0,0:0:0:0:
109,192,85338,1,0,0:0:0:0:
182,192,85338,1,0,0:0:0:0:
256,192,85417,1,0,0:0:0:0:
329,192,85417,1,0,0:0:0:0:
475,192,85497,1,0,0:0:0:0:
402,192,85497,1,0,0:0:0:0:
109,192,85497,1,0,0:0:0:0:
36,192,85497,1,0,0:0:0:0:
182,192,85577,1,0,0:0:0:0:
256,192,85577,1,0,0:0:0:0:
329,192,85657,1,0,0:0:0:0:
402,192,85657,1,0,0:0:0:0:
182,192,85737,1,0,0:0:0:0:
109,192,85737,1,0,0:0:0:0:
36,192,85816,1,0,0:0:0:0:
256,192,85816,1,0,0:0:0:0:
475,192,85816,1,0,0:0:0:0:
329,192,85896,1,0,0:0:0:0:
109,192,85896,1,0,0:0:0:0:
256,192,85976,1,0,0:0:0:0:
475,192,85976,1,0,0:0:0:0:
329,192,86056,1,0,0:0:0:0:
109,192,86056,1,0,0:0:0:0:
182,192,86136,1,0,0:0:0:0:
36,192,86136,1,0,0:0:0:0:
402,192,86136,1,0,0:0:0:0:
256,192,86215,1,0,0:0:0:0:
475,192,86215,1,0,0:0:0:0:
182,192,86295,1,0,0:0:0:0:
36,192,86295,1,0,0:0:0:0:
256,192,86375,1,0,0:0:0:0:
475,192,86375,1,0,0:0:0:0:
109,192,86455,1,0,0:0:0:0:
36,192,86455,1,0,0:0:0:0:
329,192,86455,1,0,0:0:0:0:
182,192,86535,1,0,0:0:0:0:
256,192,86614,1,0,0:0:0:0:
475,192,86614,1,0,0:0:0:0:
402,192,86694,1,0,0:0:0:0:
182,192,86694,1,0,0:0:0:0:
109,192,86774,1,0,0:0:0:0:
36,192,86774,1,0,0:0:0:0:
329,192,86774,1,0,0:0:0:0:
256,192,86854,1,0,0:0:0:0:
475,192,86854,1,0,0:0:0:0:
402,192,86933,1,0,0:0:0:0:
182,192,86933,1,0,0:0:0:0:
36,192,86933,1,0,0:0:0:0:
109,192,87013,1,0,0:0:0:0:
329,192,87013,1,0,0:0:0:0:
182,192,87093,1,0,0:0:0:0:
256,192,87093,1,0,0:0:0:0:
36,192,87093,1,0,0:0:0:0:
402,192,87093,1,0,0:0:0:0:
475,192,87093,1,0,0:0:0:0:
329,192,87173,1,0,0:0:0:0:
109,192,87253,1,0,0:0:0:0:
182,192,87253,1,0,0:0:0:0:
256,192,87332,1,0,0:0:0:0:
402,192,87412,1,0,0:0:0:0:
475,192,87412,1,0,0:0:0:0:
36,192,87412,1,0,0:0:0:0:
109,192,87412,1,0,0:0:0:0:
182,192,87492,1,0,0:0:0:0:
329,192,87492,1,0,0:0:0:0:
36,192,87572,1,0,0:0:0:0:
256,192,87572,1,0,0:0:0:0:
402,192,87572,1,0,0:0:0:0:
329,192,87652,1,0,0:0:0:0:
475,192,87652,1,0,0:0:0:0:
109,192,87731,1,0,0:0:0:0:
182,192,87731,1,0,0:0:0:0:
256,192,87731,1,0,0:0:0:0:
402,192,87811,1,0,0:0:0:0:
475,192,87891,1,0,0:0:0:0:
256,192,87971,1,0,0:0:0:0:
182,192,87971,1,0,0:0:0:0:
109,192,87971,1,0,0:0:0:0:
402,192,88050,1,0,0:0:0:0:
329,192,88050,1,0,0:0:0:0:
36,192,88050,1,0,0:0:0:0:
475,192,88130,1,0,0:0:0:0:
182,192,88210,1,0,0:0:0:0:
329,192,88210,1,0,0:0:0:0:
109,192,88290,1,0,0:0:0:0:
36,192,88290,1,0,0:0:0:0:
182,192,88370,1,0,0:0:0:0:
256,192,88370,1,0,0:0:0:0:
402,192,88370,1,0,0:0:0:0:
475,192,88370,1,0,0:0:0:0:
109,192,88449,1,0,0:0:0:0:
36,192,88449,1,0,0:0:0:0:
329,192,88529,1,0,0:0:0:0:
182,192,88609,1,0,0:0:0:0:
256,192,88609,1,0,0:0:0:0:
475,192,88609,1,0,0:0:0:0:
402,192,88609,1,0,0:0:0:0:
109,192,88689,1,0,0:0:0:0:
36,192,88689,1,0,0:0:0:0:
329,192,88769,1,0,0:0:0:0:
182,192,88848,1,0,0:0:0:0:
256,192,88848,1,0,0:0:0:0:
402,192,88848,1,0,0:0:0:0:
475,192,88848,1,0,0:0:0:0:
109,192,88928,1,0,0:0:0:0:
36,192,89008,1,0,0:0:0:0:
329,192,89008,1,0,0:0:0:0:
182,192,89008,1,0,0:0:0:0:
402,192,89008,1,0,0:0:0:0:
475,192,89088,1,0,0:0:0:0:
256,192,89167,1,0,0:0:0:0:
109,192,89167,1,0,0:0:0:0:
36,192,89247,1,0,0:0:0:0:
182,192,89247,1,0,0:0:0:0:
329,192,89247,1,0,0:0:0:0:
402,192,89247,1,0,0:0:0:0:
475,192,89327,1,0,0:0:0:0:
256,192,89407,1,0,0:0:0:0:
109,192,89407,1,0,0:0:0:0:
36,192,89487,1,0,0:0:0:0:
182,192,89487,1,0,0:0:0:0:
329,192,89487,1,0,0:0:0:0:
402,192,89487,1,0,0:0:0:0:
256,192,89566,1,0,0:0:0:0:
402,192,89646,1,0,0:0:0:0:
475,192,89646,1,0,0:0:0:0:
182,192,89646,1,0,0:0:0:0:
109,192,89646,1,0,0:0:0:0:
36,192,89646,1,0,0:0:0:0:
329,192,89726,1,0,0:0:0:0:
256,192,89806,1,0,0:0:0:0:
36,192,89806,1,0,0:0:0:0:
475,192,89806,1,0,0:0:0:0:
182,192,89886,1,0,0:0:0:0:
329,192,89965,1,0,0:0:0:0:
402,192,89965,1,0,0:0:0:0:
109,192,89965,1,0,0:0:0:0:
36,192,89965,1,0,0:0:0:0:
256,192,90045,1,0,0:0:0:0:
182,192,90125,1,0,0:0:0:0:
109,192,90125,1,0,0:0:0:0:
475,192,90125,1,0,0:0:0:0:
109,192,90205,1,0,0:0:0:0:
182,192,90205,1,0,0:0:0:0:
475,192,90205,1,0,0:0:0:0:
329,192,90285,1,0,0:0:0:0:
402,192,90285,1,0,0:0:0:0:
36,192,90285,1,0,0:0:0:0:
182,192,90364,1,0,0:0:0:0:
256,192,90364,1,0,0:0:0:0:
36,192,90444,1,0,0:0:0:0:
402,192,90444,1,0,0:0:0:0:
475,192,90444,1,0,0:0:0:0:
109,192,90524,1,0,0:0:0:0:
182,192,90524,1,0,0:0:0:0:
256,192,90524,1,0,0:0:0:0:
329,192,90604,1,0,0:0:0:0:
402,192,90604,1,0,0:0:0:0:
475,192,90604,1,0,0:0:0:0:
109,192,90683,1,0,0:0:0:0:
36,192,90683,1,0,0:0:0:0:
329,192,90763,1,0,0:0:0:0:
402,192,90763,1,0,0:0:0:0:
256,192,90763,1,0,0:0:0:0:
182,192,90843,1,0,0:0:0:0:
109,192,90843,1,0,0:0:0:0:
36,192,90923,1,0,0:0:0:0:
256,192,90923,1,0,0:0:0:0:
329,192,90923,1,0,0:0:0:0:
402,192,90923,1,0,0:0:0:0:
475,192,90923,1,0,0:0:0:0:
182,192,91003,1,0,0:0:0:0:
109,192,91003,1,0,0:0:0:0:
329,192,91082,1,0,0:0:0:0:
402,192,91082,1,0,0:0:0:0:
475,192,91082,1,0,0:0:0:0:
109,192,91162,1,0,0:0:0:0:
36,192,91162,1,0,0:0:0:0:
182,192,91242,1,0,0:0:0:0:
256,192,91242,1,0,0:0:0:0:
329,192,91242,1,0,0:0:0:0:
402,192,91242,1,0,0:0:0:0:
475,192,91242,1,0,0:0:0:0:
109,192,91322,1,0,0:0:0:0:
36,192,91322,1,0,0:0:0:0:
256,192,91402,1,0,0:0:0:0:
329,192,91402,1,0,0:0:0:0:
402,192,91402,1,0,0:0:0:0:
182,192,91481,1,0,0:0:0:0:
109,192,91481,1,0,0:0:0:0:
36,192,91561,1,0,0:0:0:0:
256,192,91561,1,0,0:0:0:0:
329,192,91561,1,0,0:0:0:0:
402,192,91561,1,0,0:0:0:0:
475,192,91561,1,0,0:0:0:0:
109,192,91641,1,0,0:0:0:0:
182,192,91641,1,0,0:0:0:0:
475,192,91721,1,0,0:0:0:0:
402,192,91721,1,0,0:0:0:0:
256,192,91721,1,0,0:0:0:0:
36,192,91800,1,0,0:0:0:0:
109,192,91800,1,0,0:0:0:0:
182,192,91880,1,0,0:0:0:0:
256,192,91880,1,0,0:0:0:0:
329,192,91880,1,0,0:0:0:0:
475,192,91880,1,0,0:0:0:0:
402,192,91880,1,0,0:0:0:0:
109,192,91960,1,0,0:0:0:0:
36,192,91960,1,0,0:0:0:0:
256,192,92040,1,0,0:0:0:0:
329,192,92040,1,0,0:0:0:0:
402,192,92040,1,0,0:0:0:0:
182,192,92120,1,0,0:0:0:0:
109,192,92120,1,0,0:0:0:0:
36,192,92199,1,0,0:0:0:0:
256,192,92199,1,0,0:0:0:0:
329,192,92199,1,0,0:0:0:0:
402,192,92199,1,0,0:0:0:0:
475,192,92199,1,0,0:0:0:0:
182,192,92279,1,0,0:0:0:0:
109,192,92359,1,0,0:0:0:0:
402,192,92359,1,0,0:0:0:0:
475,192,92359,1,0,0:0:0:0:
256,192,92439,1,0,0:0:0:0:
182,192,92519,1,0,0:0:0:0:
36,192,92519,1,0,0:0:0:0:
475,192,92519,1,0,0:0:0:0:
329,192,92519,1,0,0:0:0:0:
109,192,92678,1,0,0:0:0:0:
256,192,92678,1,0,0:0:0:0:
402,192,92678,1,0,0:0:0:0:
329,192,92758,1,0,0:0:0:0:
182,192,92758,1,0,0:0:0:0:
109,192,92838,1,0,0:0:0:0:
256,192,92838,1,0,0:0:0:0:
402,192,92838,1,0,0:0:0:0:
182,192,92917,1,0,0:0:0:0:
36,192,92917,1,0,0:0:0:0:
329,192,92997,1,0,0:0:0:0:
475,192,92997,1,0,0:0:0:0:
109,192,93077,1,0,0:0:0:0:
256,192,93077,1,0,0:0:0:0:
36,192,93077,1,0,0:0:0:0:
329,192,93157,1,0,0:0:0:0:
182,192,93157,1,0,0:0:0:0:
475,192,93157,1,0,0:0:0:0:
36,192,93237,1,0,0:0:0:0:
109,192,93237,1,0,0:0:0:0:
182,192,93316,1,0,0:0:0:0:
256,192,93316,1,0,0:0:0:0:
475,192,93316,1,0,0:0:0:0:
329,192,93396,1,0,0:0:0:0:
402,192,93396,1,0,0:0:0:0:
182,192,93476,1,0,0:0:0:0:
109,192,93476,1,0,0:0:0:0:
36,192,93476,1,0,0:0:0:0:
256,192,93476,1,0,0:0:0:0:
475,192,93476,1,0,0:0:0:0:
402,192,93556,1,0,0:0:0:0:
329,192,93556,1,0,0:0:0:0:
182,192,93636,1,0,0:0:0:0:
109,192,93636,1,0,0:0:0:0:
36,192,93636,1,0,0:0:0:0:
402,192,93715,1,0,0:0:0:0:
475,192,93715,1,0,0:0:0:0:
329,192,93795,1,0,0:0:0:0:
256,192,93795,1,0,0:0:0:0:
182,192,93795,1,0,0:0:0:0:
109,192,93795,1,0,0:0:0:0:
36,192,93795,1,0,0:0:0:0:
402,192,93875,1,0,0:0:0:0:
475,192,93875,1,0,0:0:0:0:
109,192,93955,1,0,0:0:0:0:
182,192,93955,1,0,0:0:0:0:
256,192,93955,1,0,0:0:0:0:
329,192,94035,1,0,0:0:0:0:
402,192,94035,1,0,0:0:0:0:
475,192,94114,1,0,0:0:0:0:
256,192,94114,1,0,0:0:0:0:
182,192,94114,1,0,0:0:0:0:
109,192,94114,1,0,0:0:0:0:
36,192,94114,1,0,0:0:0:0:
329,192,94194,1,0,0:0:0:0:
402,192,94194,1,0,0:0:0:0:
36,192,94274,1,0,0:0:0:0:
182,192,94274,1,0,0:0:0:0:
256,192,94274,1,0,0:0:0:0:
402,192,94354,1,0,0:0:0:0:
475,192,94354,1,0,0:0:0:0:
329,192,94433,1,0,0:0:0:0:
256,192,94433,1,0,0:0:0:0:
182,192,94433,1,0,0:0:0:0:
109,192,94433,1,0,0:0:0:0:
36,192,94433,1,0,0:0:0:0:
402,192,94513,1,0,0:0:0:0:
475,192,94513,1,0,0:0:0:0:
36,192,94593,1,0,0:0:0:0:
109,192,94593,1,0,0:0:0:0:
182,192,94593,1,0,0:0:0:0:
256,192,94673,1,0,0:0:0:0:
329,192,94673,1,0,0:0:0:0:
402,192,94753,1,0,0:0:0:0:
475,192,94753,1,0,0:0:0:0:
182,192,94753,1,0,0:0:0:0:
109,192,94753,1,0,0:0:0:0:
36,192,94753,1,0,0:0:0:0:
329,192,94832,1,0,0:0:0:0:
256,192,94912,1,0,0:0:0:0:
109,192,94912,1,0,0:0:0:0:
182,192,94992,1,0,0:0:0:0:
36,192,95072,1,0,0:0:0:0:
109,192,95072,1,0,0:0:0:0:
256,192,95072,1,0,0:0:0:0:
329,192,95072,1,0,0:0:0:0:
402,192,95072,1,0,0:0:0:0:
475,192,95072,1,0,0:0:0:0:
182,192,95152,1,0,0:0:0:0:
402,192,95231,1,0,0:0:0:0:
109,192,95231,1,0,0:0:0:0:
256,192,95311,1,0,0:0:0:0:
182,192,95391,1,0,0:0:0:0:
109,192,95391,1,0,0:0:0:0:
36,192,95391,1,0,0:0:0:0:
329,192,95391,1,0,0:0:0:0:
402,192,95391,1,0,0:0:0:0:
475,192,95391,1,0,0:0:0:0:
256,192,95471,1,0,0:0:0:0:
402,192,95550,1,0,0:0:0:0:
182,192,95550,1,0,0:0:0:0:
109,192,95630,1,0,0:0:0:0:
36,192,95710,1,0,0:0:0:0:
182,192,95710,1,0,0:0:0:0:
329,192,95710,1,0,0:0:0:0:
256,192,95710,1,0,0:0:0:0:
402,192,95710,1,0,0:0:0:0:
475,192,95710,1,0,0:0:0:0:
109,192,95790,1,0,0:0:0:0:
256,192,95870,1,0,0:0:0:0:
182,192,95870,1,0,0:0:0:0:
329,192,95949,1,0,0:0:0:0:
402,192,96029,1,0,0:0:0:0:
475,192,96029,1,0,0:0:0:0:
256,192,96029,1,0,0:0:0:0:
182,192,96029,1,0,0:0:0:0:
109,192,96029,1,0,0:0:0:0:
36,192,96029,1,0,0:0:0:0:
329,192,96109,1,0,0:0:0:0:
182,192,96189,1,0,0:0:0:0:
256,192,96189,1,0,0:0:0:0:
36,192,96269,1,0,0:0:0:0:
109,192,96348,1,0,0:0:0:0:
256,192,96348,1,0,0:0:0:0:
182,192,96348,1,0,0:0:0:0:
329,192,96348,1,0,0:0:0:0:
402,192,96348,1,0,0:0:0:0:
475,192,96348,1,0,0:0:0:0:
36,192,96428,1,0,0:0:0:0:
329,192,96508,1,0,0:0:0:0:
256,192,96508,1,0,0:0:0:0:
182,192,96588,1,0,0:0:0:0:
109,192,96667,1,0,0:0:0:0:
36,192,96667,1,0,0:0:0:0:
256,192,96667,1,0,0:0:0:0:
329,192,96667,1,0,0:0:0:0:
402,192,96667,1,0,0:0:0:0:
475,192,96667,1,0,0:0:0:0:
182,192,96747,1,0,0:0:0:0:
256,192,96827,1,0,0:0:0:0:
402,192,96827,1,0,0:0:0:0:
329,192,96907,1,0,0:0:0:0:
402,192,96987,1,0,0:0:0:0:
475,192,96987,1,0,0:0:0:0:
256,192,96987,1,0,0:0:0:0:
182,192,96987,1,0,0:0:0:0:
109,192,96987,1,0,0:0:0:0:
36,192,96987,1,0,0:0:0:0:
329,192,97066,1,0,0:0:0:0:
109,192,97146,1,0,0:0:0:0:
182,192,97146,1,0,0:0:0:0:
402,192,97226,1,0,0:0:0:0:
475,192,97226,1,0,0:0:0:0:
329,192,97306,1,0,0:0:0:0:
256,192,97306,1,0,0:0:0:0:
182,192,97306,1,0,0:0:0:0:
109,192,97306,1,0,0:0:0:0:
36,192,97306,1,0,0:0:0:0:
36,192,97465,1,0,0:0:0:0:
329,192,97465,1,0,0:0:0:0:
256,192,97465,1,0,0:0:0:0:
256,192,97625,1,0,0:0:0:0:
329,192,97625,1,0,0:0:0:0:
36,192,97625,1,0,0:0:0:0:
36,192,97785,1,0,0:0:0:0:
256,192,97785,1,0,0:0:0:0:
329,192,97785,1,0,0:0:0:0:
36,192,97864,1,0,0:0:0:0:
256,192,97864,1,0,0:0:0:0:
329,192,97864,1,0,0:0:0:0:
109,192,97944,1,0,0:0:0:0:
182,192,97944,1,0,0:0:0:0:
402,192,97944,1,0,0:0:0:0:
475,192,97944,1,0,0:0:0:0:
182,192,98104,1,0,0:0:0:0:
402,192,98104,1,0,0:0:0:0:
475,192,98104,1,0,0:0:0:0:
256,192,98183,1,0,0:0:0:0:
329,192,98183,1,0,0:0:0:0:
182,192,98263,1,0,0:0:0:0:
402,192,98263,1,0,0:0:0:0:
475,192,98263,1,0,0:0:0:0:
256,192,98423,1,0,0:0:0:0:
329,192,98423,1,0,0:0:0:0:
109,192,98423,1,0,0:0:0:0:
36,192,98423,1,0,0:0:0:0:
475,192,98582,1,0,0:0:0:0:
256,192,98582,1,0,0:0:0:0:
402,192,98622,1,0,0:0:0:0:
182,192,98662,1,0,0:0:0:0:
109,192,98702,1,0,0:0:0:0:
402,192,98742,1,0,0:0:0:0:
256,192,98742,1,0,0:0:0:0:
329,192,98782,1,0,0:0:0:0:
109,192,98822,1,0,0:0:0:0:
36,192,98862,1,0,0:0:0:0:
329,192,98902,1,0,0:0:0:0:
475,192,98902,1,0,0:0:0:0:
256,192,98941,1,0,0:0:0:0:
182,192,98981,1,0,0:0:0:0:
109,192,99021,1,0,0:0:0:0:
402,192,99061,1,0,0:0:0:0:
36,192,99061,1,0,0:0:0:0:
329,192,99101,1,0,0:0:0:0:
256,192,99141,1,0,0:0:0:0:
182,192,99181,1,0,0:0:0:0:
36,192,99221,1,0,0:0:0:0:
475,192,99221,1,0,0:0:0:0:
109,192,99261,1,0,0:0:0:0:
256,192,99300,1,0,0:0:0:0:
329,192,99340,1,0,0:0:0:0:
109,192,99380,1,0,0:0:0:0:
36,192,99380,1,0,0:0:0:0:
182,192,99420,1,0,0:0:0:0:
329,192,99460,1,0,0:0:0:0:
402,192,99500,1,0,0:0:0:0:
475,192,99540,1,0,0:0:0:0:
256,192,99540,1,0,0:0:0:0:
109,192,99540,1,0,0:0:0:0:
36,192,99540,1,0,0:0:0:0:
36,192,99859,1,0,0:0:0:0:
182,192,99859,1,0,0:0:0:0:
329,192,99859,1,0,0:0:0:0:
402,192,99859,1,0,0:0:0:0:
475,192,99859,1,0,0:0:0:0:
109,192,100019,1,0,0:0:0:0:
256,192,100019,1,0,0:0:0:0:
36,192,100019,1,0,0:0:0:0:
329,192,100072,1,0,0:0:0:0:
402,192,100125,1,0,0:0:0:0:
475,192,100178,1,0,0:0:0:0:
182,192,100178,1,0,0:0:0:0:
109,192,100178,1,0,0:0:0:0:
256,192,100338,1,0,0:0:0:0:
402,192,100338,1,0,0:0:0:0:
475,192,100338,1,0,0:0:0:0:
182,192,100391,1,0,0:0:0:0:
109,192,100444,1,0,0:0:0:0:
36,192,100497,1,0,0:0:0:0:
256,192,100497,1,0,0:0:0:0:
329,192,100497,1,0,0:0:0:0:
109,192,100657,1,0,0:0:0:0:
182,192,100657,1,0,0:0:0:0:
475,192,100657,1,0,0:0:0:0:
402,192,100657,1,0,0:0:0:0:
36,192,100737,1,0,0:0:0:0:
329,192,100737,1,0,0:0:0:0:
256,192,100737,1,0,0:0:0:0:
182,192,100816,1,0,0:0:0:0:
36,192,100896,1,0,0:0:0:0:
256,192,100896,1,0,0:0:0:0:
329,192,100896,1,0,0:0:0:0:
182,192,100976,1,0,0:0:0:0:
109,192,100976,1,0,0:0:0:0:
402,192,100976,1,0,0:0:0:0:
475,192,100976,1,0,0:0:0:0:
256,192,101136,1,0,0:0:0:0:
329,192,101136,1,0,0:0:0:0:
36,192,101136,1,0,0:0:0:0:
109,192,101136,1,0,0:0:0:0:
475,192,101136,1,0,0:0:0:0:
109,192,101295,1,0,0:0:0:0:
402,192,101295,1,0,0:0:0:0:
475,192,101295,1,0,0:0:0:0:
182,192,101348,1,0,0:0:0:0:
329,192,101402,1,0,0:0:0:0:
256,192,101455,1,0,0:0:0:0:
36,192,101455,1,0,0:0:0:0:
109,192,101455,1,0,0:0:0:0:
109,192,101614,1,0,0:0:0:0:
36,192,101614,1,0,0:0:0:0:
402,192,101614,1,0,0:0:0:0:
329,192,101667,1,0,0:0:0:0:
182,192,101721,1,0,0:0:0:0:
475,192,101774,1,0,0:0:0:0:
256,192,101774,1,0,0:0:0:0:
402,192,101774,1,0,0:0:0:0:
36,192,101933,1,0,0:0:0:0:
109,192,101933,1,0,0:0:0:0:
329,192,101933,1,0,0:0:0:0:
475,192,101933,1,0,0:0:0:0:
402,192,102013,1,0,0:0:0:0:
256,192,102013,1,0,0:0:0:0:
182,192,102013,1,0,0:0:0:0:
109,192,102093,1,0,0:0:0:0:
182,192,102173,1,0,0:0:0:0:
256,192,102173,1,0,0:0:0:0:
402,192,102173,1,0,0:0:0:0:
329,192,102253,1,0,0:0:0:0:
475,192,102253,1,0,0:0:0:0:
109,192,102253,1,0,0:0:0:0:
36,192,102253,1,0,0:0:0:0:
182,192,102412,1,0,0:0:0:0:
256,192,102412,1,0,0:0:0:0:
475,192,102412,1,0,0:0:0:0:
402,192,102412,1,0,0:0:0:0:
36,192,102412,1,0,0:0:0:0:
109,192,102572,1,0,0:0:0:0:
256,192,102572,1,0,0:0:0:0:
475,192,102572,1,0,0:0:0:0:
182,192,102625,1,0,0:0:0:0:
329,192,102678,1,0,0:0:0:0:
402,192,102731,1,0,0:0:0:0:
256,192,102731,1,0,0:0:0:0:
36,192,102731,1,0,0:0:0:0:
109,192,102891,1,0,0:0:0:0:
329,192,102891,1,0,0:0:0:0:
182,192,102891,1,0,0:0:0:0:
256,192,102944,1,0,0:0:0:0:
402,192,102997,1,0,0:0:0:0:
475,192,103050,1,0,0:0:0:0:
36,192,103050,1,0,0:0:0:0:
329,192,103050,1,0,0:0:0:0:
182,192,103130,1,0,0:0:0:0:
256,192,103210,1,0,0:0:0:0:
402,192,103210,1,0,0:0:0:0:
475,192,103210,1,0,0:0:0:0:
36,192,103210,1,0,0:0:0:0:
182,192,103290,1,0,0:0:0:0:
109,192,103290,1,0,0:0:0:0:
329,192,103290,1,0,0:0:0:0:
256,192,103370,1,0,0:0:0:0:
109,192,103449,1,0,0:0:0:0:
182,192,103449,1,0,0:0:0:0:
329,192,103449,1,0,0:0:0:0:
36,192,103529,1,0,0:0:0:0:
256,192,103529,1,0,0:0:0:0:
402,192,103529,1,0,0:0:0:0:
475,192,103529,1,0,0:0:0:0:
109,192,103689,1,0,0:0:0:0:
36,192,103689,1,0,0:0:0:0:
182,192,103689,1,0,0:0:0:0:
329,192,103689,1,0,0:0:0:0:
475,192,103689,1,0,0:0:0:0:
256,192,103848,1,0,0:0:0:0:
475,192,103848,1,0,0:0:0:0:
182,192,103902,1,0,0:0:0:0:
402,192,103902,1,0,0:0:0:0:
109,192,103955,1,0,0:0:0:0:
329,192,103955,1,0,0:0:0:0:
36,192,104008,1,0,0:0:0:0:
256,192,104008,1,0,0:0:0:0:
475,192,104008,1,0,0:0:0:0:
256,192,104167,1,0,0:0:0:0:
36,192,104167,1,0,0:0:0:0:
329,192,104221,1,0,0:0:0:0:
109,192,104221,1,0,0:0:0:0:
402,192,104274,1,0,0:0:0:0:
182,192,104274,1,0,0:0:0:0:
475,192,104327,1,0,0:0:0:0:
256,192,104327,1,0,0:0:0:0:
36,192,104327,1,0,0:0:0:0:
109,192,104407,1,0,0:0:0:0:
402,192,104407,1,0,0:0:0:0:
182,192,104487,1,0,0:0:0:0:
329,192,104487,1,0,0:0:0:0:
256,192,104566,1,0,0:0:0:0:
36,192,104566,1,0,0:0:0:0:
475,192,104566,1,0,0:0:0:0:
109,192,104646,1,0,0:0:0:0:
402,192,104646,1,0,0:0:0:0:
182,192,104726,1,0,0:0:0:0:
329,192,104726,1,0,0:0:0:0:
109,192,104806,1,0,0:0:0:0:
36,192,104806,1,0,0:0:0:0:
475,192,104806,1,0,0:0:0:0:
182,192,104886,1,0,0:0:0:0:
329,192,104886,1,0,0:0:0:0:
402,192,104886,1,0,0:0:0:0:
36,192,104965,128,0,105285:0:0:0:0:
109,192,104965,128,0,105285:0:0:0:0:
256,192,104965,128,0,105285:0:0:0:0:
475,192,104965,128,0,105285:0:0:0:0:
402,192,105285,1,0,0:0:0:0:
329,192,105324,1,0,0:0:0:0:
256,192,105364,1,0,0:0:0:0:
182,192,105404,1,0,0:0:0:0:
36,192,105444,1,0,0:0:0:0:
109,192,105484,1,0,0:0:0:0:
182,192,105524,1,0,0:0:0:0:
256,192,105564,1,0,0:0:0:0:
329,192,105604,1,0,0:0:0:0:
475,192,105604,1,0,0:0:0:0:
36,192,105604,1,0,0:0:0:0:
475,192,105763,1,0,0:0:0:0:
402,192,105803,1,0,0:0:0:0:
329,192,105843,1,0,0:0:0:0:
256,192,105883,1,0,0:0:0:0:
182,192,105923,1,0,0:0:0:0:
36,192,105923,1,0,0:0:0:0:
475,192,105923,1,0,0:0:0:0:
256,192,106082,1,0,0:0:0:0:
329,192,106162,1,0,0:0:0:0:
256,192,106242,1,0,0:0:0:0:
109,192,106242,1,0,0:0:0:0:
36,192,106242,1,0,0:0:0:0:
475,192,106242,1,0,0:0:0:0:
182,192,106348,1,0,0:0:0:0:
402,192,106348,1,0,0:0:0:0:
329,192,106455,1,0,0:0:0:0:
109,192,106455,1,0,0:0:0:0:
182,192,106561,1,0,0:0:0:0:
36,192,106561,1,0,0:0:0:0:
402,192,106561,1,0,0:0:0:0:
475,192,106561,1,0,0:0:0:0:
109,192,106667,1,0,0:0:0:0:
256,192,106667,1,0,0:0:0:0:
182,192,106774,1,0,0:0:0:0:
329,192,106774,1,0,0:0:0:0:
256,192,106880,1,0,0:0:0:0:
402,192,106880,1,0,0:0:0:0:
36,192,106880,1,0,0:0:0:0:
182,192,106960,1,0,0:0:0:0:
329,192,107040,1,0,0:0:0:0:
109,192,107040,1,0,0:0:0:0:
182,192,107120,1,0,0:0:0:0:
475,192,107120,1,0,0:0:0:0:
402,192,107120,1,0,0:0:0:0:
329,192,107199,1,0,0:0:0:0:
256,192,107279,1,0,0:0:0:0:
182,192,107359,1,0,0:0:0:0:
402,192,107359,1,0,0:0:0:0:
329,192,107439,1,0,0:0:0:0:
109,192,107439,1,0,0:0:0:0:
36,192,107439,1,0,0:0:0:0:
182,192,107519,1,0,0:0:0:0:
256,192,107519,1,0,0:0:0:0:
402,192,107519,1,0,0:0:0:0:
475,192,107519,1,0,0:0:0:0:
109,192,107678,1,0,0:0:0:0:
329,192,107678,1,0,0:0:0:0:
182,192,107758,1,0,0:0:0:0:
402,192,107758,1,0,0:0:0:0:
256,192,107838,1,0,0:0:0:0:
36,192,107838,1,0,0:0:0:0:
475,192,107838,128,0,108795:0:0:0:0:
182,192,107997,128,0,108795:0:0:0:0:
402,192,107997,1,0,0:0:0:0:
36,192,108157,1,0,0:0:0:0:
109,192,108157,1,0,0:0:0:0:
256,192,108237,1,0,0:0:0:0:
329,192,108237,1,0,0:0:0:0:
109,192,108316,1,0,0:0:0:0:
36,192,108316,1,0,0:0:0:0:
256,192,108396,1,0,0:0:0:0:
329,192,108396,1,0,0:0:0:0:
109,192,108476,1,0,0:0:0:0:
36,192,108476,1,0,0:0:0:0:
329,192,108556,1,0,0:0:0:0:
402,192,108556,1,0,0:0:0:0:
109,192,108636,1,0,0:0:0:0:
36,192,108636,1,0,0:0:0:0:
329,192,108715,1,0,0:0:0:0:
402,192,108715,1,0,0:0:0:0:
256,192,108795,1,0,0:0:0:0:
109,192,108795,1,0,0:0:0:0:
36,192,108795,1,0,0:0:0:0:
329,192,108875,1,0,0:0:0:0:
402,192,108875,1,0,0:0:0:0:
475,192,108875,1,0,0:0:0:0:
182,192,108955,1,0,0:0:0:0:
109,192,108955,1,0,0:0:0:0:
36,192,108955,1,0,0:0:0:0:
256,192,109035,1,0,0:0:0:0:
402,192,109035,1,0,0:0:0:0:
475,192,109035,1,0,0:0:0:0:
329,192,109114,1,0,0:0:0:0:
182,192,109114,1,0,0:0:0:0:
109,192,109114,1,0,0:0:0:0:
36,192,109114,1,0,0:0:0:0:
182,192,109274,1,0,0:0:0:0:
256,192,109274,1,0,0:0:0:0:
402,192,109274,1,0,0:0:0:0:
475,192,109433,1,0,0:0:0:0:
36,192,109433,1,0,0:0:0:0:
109,192,109473,1,0,0:0:0:0:
402,192,109473,1,0,0:0:0:0:
182,192,109513,1,0,0:0:0:0:
329,192,109513,1,0,0:0:0:0:
256,192,109553,1,0,0:0:0:0:
109,192,109593,1,0,0:0:0:0:
36,192,109593,1,0,0:0:0:0:
402,192,109593,1,0,0:0:0:0:
475,192,109593,1,0,0:0:0:0:
475,192,109912,1,0,0:0:0:0:
36,192,110072,1,0,0:0:0:0:
109,192,110072,1,0,0:0:0:0:
256,192,110072,1,0,0:0:0:0:
182,192,110072,1,0,0:0:0:0:
329,192,110072,1,0,0:0:0:0:
109,192,110231,1,0,0:0:0:0:
182,192,110231,1,0,0:0:0:0:
256,192,110231,1,0,0:0:0:0:
402,192,110231,1,0,0:0:0:0:
329,192,110231,1,0,0:0:0:0:
182,192,110391,1,0,0:0:0:0:
256,192,110391,1,0,0:0:0:0:
329,192,110391,1,0,0:0:0:0:
402,192,110391,1,0,0:0:0:0:
475,192,110391,1,0,0:0:0:0:
36,192,110550,1,0,0:0:0:0:
256,192,110550,1,0,0:0:0:0:
475,192,110550,1,0,0:0:0:0:
109,192,110590,1,0,0:0:0:0:
182,192,110630,1,0,0:0:0:0:
329,192,110630,1,0,0:0:0:0:
402,192,110670,1,0,0:0:0:0:
475,192,110710,1,0,0:0:0:0:
256,192,110710,1,0,0:0:0:0:
36,192,110710,1,0,0:0:0:0:
36,192,110949,1,0,0:0:0:0:
182,192,110949,1,0,0:0:0:0:
256,192,110949,1,0,0:0:0:0:
329,192,110949,1,0,0:0:0:0:
475,192,110949,1,0,0:0:0:0:
109,192,111189,1,0,0:0:0:0:
36,192,111189,1,0,0:0:0:0:
256,192,111189,1,0,0:0:0:0:
402,192,111189,1,0,0:0:0:0:
475,192,111189,1,0,0:0:0:0:
182,192,111348,1,0,0:0:0:0:
329,192,111348,1,0,0:0:0:0:
256,192,111348,1,0,0:0:0:0:
402,192,111348,1,0,0:0:0:0:
475,192,111348,1,0,0:0:0:0:
109,192,111508,1,0,0:0:0:0:
182,192,111508,1,0,0:0:0:0:
256,192,111508,1,0,0:0:0:0:
329,192,111508,1,0,0:0:0:0:
402,192,111508,1,0,0:0:0:0:
329,192,111667,1,0,0:0:0:0:
256,192,111667,1,0,0:0:0:0:
182,192,111667,1,0,0:0:0:0:
109,192,111667,1,0,0:0:0:0:
36,192,111667,1,0,0:0:0:0:
475,192,111827,1,0,0:0:0:0:
36,192,111827,1,0,0:0:0:0:
256,192,111827,1,0,0:0:0:0:
402,192,111867,1,0,0:0:0:0:
329,192,111907,1,0,0:0:0:0:
182,192,111907,1,0,0:0:0:0:
109,192,111947,1,0,0:0:0:0:
36,192,111987,1,0,0:0:0:0:
475,192,111987,1,0,0:0:0:0:
256,192,111987,1,0,0:0:0:0:
36,192,112226,1,0,0:0:0:0:
109,192,112226,1,0,0:0:0:0:
256,192,112226,1,0,0:0:0:0:
402,192,112226,1,0,0:0:0:0:
475,192,112226,1,0,0:0:0:0:
182,192,112465,1,0,0:0:0:0:
256,192,112465,1,0,0:0:0:0:
329,192,112465,1,0,0:0:0:0:
36,192,112465,1,0,0:0:0:0:
475,192,112465,1,0,0:0:0:0:
329,192,112625,1,0,0:0:0:0:
109,192,112625,1,0,0:0:0:0:
36,192,112625,1,0,0:0:0:0:
182,192,112625,1,0,0:0:0:0:
475,192,112625,1,0,0:0:0:0:
475,192,112785,1,0,0:0:0:0:
256,192,112785,1,0,0:0:0:0:
109,192,112785,1,0,0:0:0:0:
402,192,112785,1,0,0:0:0:0:
182,192,112785,1,0,0:0:0:0:
256,192,112944,1,0,0:0:0:0:
475,192,112944,1,0,0:0:0:0:
329,192,112944,1,0,0:0:0:0:
36,192,112944,1,0,0:0:0:0:
109,192,112944,1,0,0:0:0:0:
109,192,113104,1,0,0:0:0:0:
182,192,113104,1,0,0:0:0:0:
475,192,113104,1,0,0:0:0:0:
402,192,113144,1,0,0:0:0:0:
329,192,113183,1,0,0:0:0:0:
256,192,113183,1,0,0:0:0:0:
182,192,113223,1,0,0:0:0:0:
109,192,113263,1,0,0:0:0:0:
475,192,113263,1,0,0:0:0:0:
36,192,113263,1,0,0:0:0:0:
182,192,113503,1,0,0:0:0:0:
256,192,113503,1,0,0:0:0:0:
329,192,113503,1,0,0:0:0:0:
402,192,113503,1,0,0:0:0:0:
475,192,113503,1,0,0:0:0:0:
329,192,113742,1,0,0:0:0:0:
256,192,113742,1,0,0:0:0:0:
182,192,113742,1,0,0:0:0:0:
109,192,113742,1,0,0:0:0:0:
36,192,113742,1,0,0:0:0:0:
182,192,113902,1,0,0:0:0:0:
402,192,113902,1,0,0:0:0:0:
475,192,113902,1,0,0:0:0:0:
329,192,113902,1,0,0:0:0:0:
36,192,113902,1,0,0:0:0:0:
36,192,114061,1,0,0:0:0:0:
256,192,114061,1,0,0:0:0:0:
402,192,114061,1,0,0:0:0:0:
109,192,114061,1,0,0:0:0:0:
329,192,114061,1,0,0:0:0:0:
256,192,114221,1,0,0:0:0:0:
36,192,114221,1,0,0:0:0:0:
182,192,114221,1,0,0:0:0:0:
475,192,114221,1,0,0:0:0:0:
402,192,114221,1,0,0:0:0:0:
402,192,114380,1,0,0:0:0:0:
329,192,114380,1,0,0:0:0:0:
36,192,114380,1,0,0:0:0:0:
109,192,114420,1,0,0:0:0:0:
182,192,114460,1,0,0:0:0:0:
256,192,114460,1,0,0:0:0:0:
329,192,114500,1,0,0:0:0:0:
402,192,114540,1,0,0:0:0:0:
36,192,114540,1,0,0:0:0:0:
475,192,114540,1,0,0:0:0:0:
329,192,114779,1,0,0:0:0:0:
256,192,114779,1,0,0:0:0:0:
182,192,114779,1,0,0:0:0:0:
109,192,114779,1,0,0:0:0:0:
36,192,114779,1,0,0:0:0:0:
182,192,115019,1,0,0:0:0:0:
256,192,115019,1,0,0:0:0:0:
329,192,115019,1,0,0:0:0:0:
402,192,115019,1,0,0:0:0:0:
475,192,115019,1,0,0:0:0:0:
36,192,115178,1,0,0:0:0:0:
109,192,115178,1,0,0:0:0:0:
475,192,115178,1,0,0:0:0:0:
402,192,115178,1,0,0:0:0:0:
182,192,115258,1,0,0:0:0:0:
329,192,115258,1,0,0:0:0:0:
109,192,115338,1,0,0:0:0:0:
36,192,115338,1,0,0:0:0:0:
402,192,115338,1,0,0:0:0:0:
475,192,115338,1,0,0:0:0:0:
182,192,115417,1,0,0:0:0:0:
329,192,115417,1,0,0:0:0:0:
109,192,115497,1,0,0:0:0:0:
36,192,115497,1,0,0:0:0:0:
402,192,115497,1,0,0:0:0:0:
475,192,115497,1,0,0:0:0:0:
256,192,115497,1,0,0:0:0:0:
182,192,115737,1,0,0:0:0:0:
256,192,115737,1,0,0:0:0:0:
329,192,115737,1,0,0:0:0:0:
36,192,115737,1,0,0:0:0:0:
475,192,115737,1,0,0:0:0:0:
36,192,115976,1,0,0:0:0:0:
109,192,115976,1,0,0:0:0:0:
256,192,115976,1,0,0:0:0:0:
402,192,115976,1,0,0:0:0:0:
475,192,115976,1,0,0:0:0:0:
109,192,116215,1,0,0:0:0:0:
182,192,116215,1,0,0:0:0:0:
402,192,116215,1,0,0:0:0:0:
329,192,116215,1,0,0:0:0:0:
475,192,116215,1,0,0:0:0:0:
36,192,116455,1,0,0:0:0:0:
109,192,116455,1,0,0:0:0:0:
182,192,116455,1,0,0:0:0:0:
329,192,116455,1,0,0:0:0:0:
402,192,116455,1,0,0:0:0:0:
109,192,116694,1,0,0:0:0:0:
182,192,116694,1,0,0:0:0:0:
256,192,116694,1,0,0:0:0:0:
402,192,116694,1,0,0:0:0:0:
475,192,116694,1,0,0:0:0:0:
36,192,116933,1,0,0:0:0:0:
109,192,116933,1,0,0:0:0:0:
182,192,116933,1,0,0:0:0:0:
329,192,116933,1,0,0:0:0:0:
402,192,116933,1,0,0:0:0:0:
109,192,117173,1,0,0:0:0:0:
182,192,117173,1,0,0:0:0:0:
256,192,117173,1,0,0:0:0:0:
329,192,117173,1,0,0:0:0:0:
402,192,117173,1,0,0:0:0:0:
256,192,117412,1,0,0:0:0:0:
182,192,117412,1,0,0:0:0:0:
329,192,117412,1,0,0:0:0:0:
36,192,117412,1,0,0:0:0:0:
475,192,117412,1,0,0:0:0:0:
36,192,117572,1,0,0:0:0:0:
109,192,117572,1,0,0:0:0:0:
256,192,117572,1,0,0:0:0:0:
402,192,117572,1,0,0:0:0:0:
475,192,117572,1,0,0:0:0:0:
182,192,117731,1,0,0:0:0:0:
109,192,117731,1,0,0:0:0:0:
36,192,117731,1,0,0:0:0:0:
329,192,117731,1,0,0:0:0:0:
402,192,117731,1,0,0:0:0:0:
475,192,117731,1,0,0:0:0:0:
329,192,117891,1,0,0:0:0:0:
402,192,117891,1,0,0:0:0:0:
256,192,117891,1,0,0:0:0:0:
182,192,117971,1,0,0:0:0:0:
109,192,117971,1,0,0:0:0:0:
36,192,117971,1,0,0:0:0:0:
329,192,118050,1,0,0:0:0:0:
402,192,118050,1,0,0:0:0:0:
256,192,118050,1,0,0:0:0:0:
182,192,118130,1,0,0:0:0:0:
109,192,118130,1,0,0:0:0:0:
36,192,118130,1,0,0:0:0:0:
329,192,118210,1,0,0:0:0:0:
402,192,118210,1,0,0:0:0:0:
256,192,118210,1,0,0:0:0:0:
36,192,118370,1,0,0:0:0:0:
109,192,118370,1,0,0:0:0:0:
475,192,118370,1,0,0:0:0:0:
182,192,118449,1,0,0:0:0:0:
402,192,118449,1,0,0:0:0:0:
329,192,118449,1,0,0:0:0:0:
36,192,118529,1,0,0:0:0:0:
109,192,118529,1,0,0:0:0:0:
475,192,118529,1,0,0:0:0:0:
182,192,118609,1,0,0:0:0:0:
329,192,118609,1,0,0:0:0:0:
402,192,118609,1,0,0:0:0:0:
109,192,118689,1,0,0:0:0:0:
36,192,118689,1,0,0:0:0:0:
475,192,118689,1,0,0:0:0:0:
36,192,118848,1,0,0:0:0:0:
109,192,118848,1,0,0:0:0:0:
256,192,118848,1,0,0:0:0:0:
182,192,118928,1,0,0:0:0:0:
329,192,118928,1,0,0:0:0:0:
402,192,118928,1,0,0:0:0:0:
256,192,119008,1,0,0:0:0:0:
475,192,119008,1,0,0:0:0:0:
36,192,119008,1,0,0:0:0:0:
109,192,119088,1,0,0:0:0:0:
402,192,119088,1,0,0:0:0:0:
182,192,119167,1,0,0:0:0:0:
329,192,119167,1,0,0:0:0:0:
256,192,119167,1,0,0:0:0:0:
109,192,119247,1,0,0:0:0:0:
402,192,119247,1,0,0:0:0:0:
36,192,119327,1,0,0:0:0:0:
475,192,119327,1,0,0:0:0:0:
256,192,119327,1,0,0:0:0:0:
182,192,119407,1,0,0:0:0:0:
329,192,119407,1,0,0:0:0:0:
402,192,119407,1,0,0:0:0:0:
256,192,119487,1,0,0:0:0:0:
36,192,119487,1,0,0:0:0:0:
109,192,119487,1,0,0:0:0:0:
402,192,119566,1,0,0:0:0:0:
329,192,119566,1,0,0:0:0:0:
475,192,119566,1,0,0:0:0:0:
182,192,119646,1,0,0:0:0:0:
109,192,119646,1,0,0:0:0:0:
36,192,119646,1,0,0:0:0:0:
256,192,119686,1,0,0:0:0:0:
329,192,119726,1,0,0:0:0:0:
402,192,119726,1,0,0:0:0:0:
475,192,119726,1,0,0:0:0:0:
182,192,119806,1,0,0:0:0:0:
109,192,119806,1,0,0:0:0:0:
36,192,119806,1,0,0:0:0:0:
36,192,119965,1,0,0:0:0:0:
109,192,119965,1,0,0:0:0:0:
256,192,119965,1,0,0:0:0:0:
402,192,119965,1,0,0:0:0:0:
475,192,119965,1,0,0:0:0:0:
109,192,120285,1,0,0:0:0:0:
256,192,120285,1,0,0:0:0:0:
475,192,120285,1,0,0:0:0:0:
36,192,120285,1,0,0:0:0:0:
182,192,120364,1,0,0:0:0:0:
402,192,120364,1,0,0:0:0:0:
329,192,120444,1,0,0:0:0:0:
109,192,120444,1,0,0:0:0:0:
36,192,120524,1,0,0:0:0:0:
256,192,120524,1,0,0:0:0:0:
182,192,120604,1,0,0:0:0:0:
329,192,120604,1,0,0:0:0:0:
475,192,120604,1,0,0:0:0:0:
109,192,120683,1,0,0:0:0:0:
402,192,120683,1,0,0:0:0:0:
36,192,120763,1,0,0:0:0:0:
256,192,120763,1,0,0:0:0:0:
182,192,120843,1,0,0:0:0:0:
329,192,120843,1,0,0:0:0:0:
109,192,120923,1,0,0:0:0:0:
402,192,120923,1,0,0:0:0:0:
475,192,120923,1,0,0:0:0:0:
36,192,121082,1,0,0:0:0:0:
182,192,121082,1,0,0:0:0:0:
475,192,121082,1,0,0:0:0:0:
402,192,121122,1,0,0:0:0:0:
109,192,121162,1,0,0:0:0:0:
256,192,121162,1,0,0:0:0:0:
329,192,121162,1,0,0:0:0:0:
182,192,121202,1,0,0:0:0:0:
36,192,121242,1,0,0:0:0:0:
402,192,121242,1,0,0:0:0:0:
475,192,121242,1,0,0:0:0:0:
109,192,121322,1,0,0:0:0:0:
329,192,121322,1,0,0:0:0:0:
182,192,121402,1,0,0:0:0:0:
256,192,121402,1,0,0:0:0:0:
402,192,121481,1,0,0:0:0:0:
329,192,121481,1,0,0:0:0:0:
36,192,121561,1,0,0:0:0:0:
109,192,121561,1,0,0:0:0:0:
182,192,121561,1,0,0:0:0:0:
475,192,121641,1,0,0:0:0:0:
402,192,121641,1,0,0:0:0:0:
182,192,121721,1,0,0:0:0:0:
256,192,121721,1,0,0:0:0:0:
329,192,121800,1,0,0:0:0:0:
402,192,121800,1,0,0:0:0:0:
475,192,121880,1,0,0:0:0:0:
36,192,121880,1,0,0:0:0:0:
182,192,121880,1,0,0:0:0:0:
329,192,122040,1,0,0:0:0:0:
36,192,122040,1,0,0:0:0:0:
475,192,122040,1,0,0:0:0:0:
109,192,122080,1,0,0:0:0:0:
256,192,122120,1,0,0:0:0:0:
182,192,122120,1,0,0:0:0:0:
402,192,122120,1,0,0:0:0:0:
329,192,122160,1,0,0:0:0:0:
475,192,122199,1,0,0:0:0:0:
109,192,122199,1,0,0:0:0:0:
36,192,122199,1,0,0:0:0:0:
182,192,122306,1,0,0:0:0:0:
256,192,122306,1,0,0:0:0:0:
402,192,122306,1,0,0:0:0:0:
109,192,122412,1,0,0:0:0:0:
36,192,122412,1,0,0:0:0:0:
475,192,122412,1,0,0:0:0:0:
256,192,122519,1,0,0:0:0:0:
329,192,122519,1,0,0:0:0:0:
402,192,122519,1,0,0:0:0:0:
182,192,122598,1,0,0:0:0:0:
109,192,122598,1,0,0:0:0:0:
329,192,122678,1,0,0:0:0:0:
402,192,122678,1,0,0:0:0:0:
182,192,122758,1,0,0:0:0:0:
109,192,122758,1,0,0:0:0:0:
256,192,122838,1,0,0:0:0:0:
475,192,122838,1,0,0:0:0:0:
36,192,122838,1,0,0:0:0:0:
109,192,122997,1,0,0:0:0:0:
182,192,122997,1,0,0:0:0:0:
402,192,122997,1,0,0:0:0:0:
256,192,123037,1,0,0:0:0:0:
329,192,123077,1,0,0:0:0:0:
36,192,123077,1,0,0:0:0:0:
109,192,123117,1,0,0:0:0:0:
182,192,123157,1,0,0:0:0:0:
475,192,123157,1,0,0:0:0:0:
402,192,123157,1,0,0:0:0:0:
109,192,123316,1,0,0:0:0:0:
256,192,123316,1,0,0:0:0:0:
329,192,123316,1,0,0:0:0:0:
182,192,123396,1,0,0:0:0:0:
402,192,123396,1,0,0:0:0:0:
475,192,123396,1,0,0:0:0:0:
109,192,123476,1,0,0:0:0:0:
36,192,123476,1,0,0:0:0:0:
256,192,123556,1,0,0:0:0:0:
329,192,123556,1,0,0:0:0:0:
182,192,123636,1,0,0:0:0:0:
109,192,123636,1,0,0:0:0:0:
475,192,123636,1,0,0:0:0:0:
329,192,123715,1,0,0:0:0:0:
36,192,123715,1,0,0:0:0:0:
402,192,123715,1,0,0:0:0:0:
182,192,123795,1,0,0:0:0:0:
256,192,123835,1,0,0:0:0:0:
329,192,123875,1,0,0:0:0:0:
402,192,123915,1,0,0:0:0:0:
475,192,123955,1,0,0:0:0:0:
109,192,123995,1,0,0:0:0:0:
182,192,124035,1,0,0:0:0:0:
256,192,124074,1,0,0:0:0:0:
329,192,124114,1,0,0:0:0:0:
402,192,124114,1,0,0:0:0:0:
36,192,124114,1,0,0:0:0:0:
475,192,124114,1,0,0:0:0:0:
109,192,124194,1,0,0:0:0:0:
182,192,124194,1,0,0:0:0:0:
256,192,124274,1,0,0:0:0:0:
402,192,124274,1,0,0:0:0:0:
109,192,124354,1,0,0:0:0:0:
36,192,124354,1,0,0:0:0:0:
182,192,124433,1,0,0:0:0:0:
329,192,124433,1,0,0:0:0:0:
475,192,124433,1,0,0:0:0:0:
109,192,124513,1,0,0:0:0:0:
36,192,124513,1,0,0:0:0:0:
256,192,124593,1,0,0:0:0:0:
402,192,124593,1,0,0:0:0:0:
182,192,124673,1,0,0:0:0:0:
109,192,124673,1,0,0:0:0:0:
329,192,124753,1,0,0:0:0:0:
475,192,124753,1,0,0:0:0:0:
36,192,124753,1,0,0:0:0:0:
256,192,124792,1,0,0:0:0:0:
182,192,124832,1,0,0:0:0:0:
109,192,124872,1,0,0:0:0:0:
36,192,124912,1,0,0:0:0:0:
402,192,124912,1,0,0:0:0:0:
475,192,124912,1,0,0:0:0:0:
256,192,124952,1,0,0:0:0:0:
182,192,124992,1,0,0:0:0:0:
329,192,124992,1,0,0:0:0:0:
109,192,125032,1,0,0:0:0:0:
36,192,125072,1,0,0:0:0:0:
402,192,125072,1,0,0:0:0:0:
475,192,125072,1,0,0:0:0:0:
182,192,125152,1,0,0:0:0:0:
329,192,125152,1,0,0:0:0:0:
109,192,125231,1,0,0:0:0:0:
36,192,125231,1,0,0:0:0:0:
182,192,125311,1,0,0:0:0:0:
329,192,125311,1,0,0:0:0:0:
475,192,125391,1,0,0:0:0:0:
402,192,125391,1,0,0:0:0:0:
109,192,125391,1,0,0:0:0:0:
36,192,125471,1,0,0:0:0:0:
256,192,125471,1,0,0:0:0:0:
182,192,125550,1,0,0:0:0:0:
402,192,125550,1,0,0:0:0:0:
475,192,125630,1,0,0:0:0:0:
109,192,125630,1,0,0:0:0:0:
256,192,125710,1,0,0:0:0:0:
329,192,125710,1,0,0:0:0:0:
36,192,125710,1,0,0:0:0:0:
36,192,125870,1,0,0:0:0:0:
109,192,125870,1,0,0:0:0:0:
475,192,125870,1,0,0:0:0:0:
256,192,125910,1,0,0:0:0:0:
329,192,125949,1,0,0:0:0:0:
182,192,125949,1,0,0:0:0:0:
402,192,125989,1,0,0:0:0:0:
109,192,126029,1,0,0:0:0:0:
36,192,126029,1,0,0:0:0:0:
475,192,126029,1,0,0:0:0:0:
182,192,126136,1,0,0:0:0:0:
329,192,126136,1,0,0:0:0:0:
256,192,126136,1,0,0:0:0:0:
36,192,126242,1,0,0:0:0:0:
402,192,126242,1,0,0:0:0:0:
475,192,126242,1,0,0:0:0:0:
109,192,126348,1,0,0:0:0:0:
182,192,126348,1,0,0:0:0:0:
256,192,126348,1,0,0:0:0:0:
402,192,126428,1,0,0:0:0:0:
475,192,126428,1,0,0:0:0:0:
36,192,126508,1,0,0:0:0:0:
109,192,126508,1,0,0:0:0:0:
256,192,126588,1,0,0:0:0:0:
329,192,126588,1,0,0:0:0:0:
182,192,126667,1,0,0:0:0:0:
402,192,126667,1,0,0:0:0:0:
475,192,126667,1,0,0:0:0:0:
36,192,126827,1,0,0:0:0:0:
109,192,126827,1,0,0:0:0:0:
329,192,126827,1,0,0:0:0:0:
402,192,126867,1,0,0:0:0:0:
182,192,126907,1,0,0:0:0:0:
256,192,126907,1,0,0:0:0:0:
475,192,126907,1,0,0:0:0:0:
109,192,126947,1,0,0:0:0:0:
36,192,126987,1,0,0:0:0:0:
329,192,126987,1,0,0:0:0:0:
402,192,126987,1,0,0:0:0:0:
256,192,127066,1,0,0:0:0:0:
109,192,127146,1,0,0:0:0:0:
182,192,127146,1,0,0:0:0:0:
36,192,127146,1,0,0:0:0:0:
329,192,127226,1,0,0:0:0:0:
402,192,127226,1,0,0:0:0:0:
475,192,127226,1,0,0:0:0:0:
182,192,127306,1,0,0:0:0:0:
256,192,127386,1,0,0:0:0:0:
329,192,127465,1,0,0:0:0:0:
402,192,127465,1,0,0:0:0:0:
475,192,127465,1,0,0:0:0:0:
256,192,127545,1,0,0:0:0:0:
182,192,127545,1,0,0:0:0:0:
109,192,127545,1,0,0:0:0:0:
36,192,127625,1,0,0:0:0:0:
475,192,127625,1,0,0:0:0:0:
402,192,127625,1,0,0:0:0:0:
109,192,127665,1,0,0:0:0:0:
182,192,127705,1,0,0:0:0:0:
256,192,127705,1,0,0:0:0:0:
329,192,127745,1,0,0:0:0:0:
402,192,127785,1,0,0:0:0:0:
475,192,127785,1,0,0:0:0:0:
36,192,127824,1,0,0:0:0:0:
182,192,127864,1,0,0:0:0:0:
109,192,127864,1,0,0:0:0:0:
256,192,127904,1,0,0:0:0:0:
329,192,127944,1,0,0:0:0:0:
402,192,127944,1,0,0:0:0:0:
475,192,127944,1,0,0:0:0:0:
36,192,127944,1,0,0:0:0:0:
182,192,128024,1,0,0:0:0:0:
36,192,128104,1,0,0:0:0:0:
256,192,128104,1,0,0:0:0:0:
475,192,128104,1,0,0:0:0:0:
109,192,128104,1,0,0:0:0:0:
329,192,128183,1,0,0:0:0:0:
182,192,128263,1,0,0:0:0:0:
402,192,128263,1,0,0:0:0:0:
475,192,128263,1,0,0:0:0:0:
36,192,128263,1,0,0:0:0:0:
329,192,128343,1,0,0:0:0:0:
182,192,128423,1,0,0:0:0:0:
402,192,128423,1,0,0:0:0:0:
475,192,128423,1,0,0:0:0:0:
256,192,128423,1,0,0:0:0:0:
109,192,128503,1,0,0:0:0:0:
36,192,128582,1,0,0:0:0:0:
256,192,128582,1,0,0:0:0:0:
329,192,128582,1,0,0:0:0:0:
475,192,128582,1,0,0:0:0:0:
182,192,128742,1,0,0:0:0:0:
402,192,128742,1,0,0:0:0:0:
36,192,128742,1,0,0:0:0:0:
329,192,128782,1,0,0:0:0:0:
256,192,128822,1,0,0:0:0:0:
109,192,128822,1,0,0:0:0:0:
475,192,128862,1,0,0:0:0:0:
402,192,128902,1,0,0:0:0:0:
329,192,128902,1,0,0:0:0:0:
182,192,128902,1,0,0:0:0:0:
36,192,128902,1,0,0:0:0:0:
256,192,128981,1,0,0:0:0:0:
109,192,129061,1,0,0:0:0:0:
36,192,129061,1,0,0:0:0:0:
402,192,129061,1,0,0:0:0:0:
475,192,129061,1,0,0:0:0:0:
182,192,129141,1,0,0:0:0:0:
256,192,129221,1,0,0:0:0:0:
329,192,129221,1,0,0:0:0:0:
475,192,129221,1,0,0:0:0:0:
36,192,129221,1,0,0:0:0:0:
182,192,129300,1,0,0:0:0:0:
109,192,129380,1,0,0:0:0:0:
36,192,129380,1,0,0:0:0:0:
329,192,129380,1,0,0:0:0:0:
402,192,129380,1,0,0:0:0:0:
256,192,129460,1,0,0:0:0:0:
182,192,129540,1,0,0:0:0:0:
109,192,129540,1,0,0:0:0:0:
402,192,129540,1,0,0:0:0:0:
475,192,129540,1,0,0:0:0:0:
329,192,129699,1,0,0:0:0:0:
475,192,129699,1,0,0:0:0:0:
109,192,129699,1,0,0:0:0:0:
182,192,129739,1,0,0:0:0:0:
256,192,129779,1,0,0:0:0:0:
402,192,129779,1,0,0:0:0:0:
36,192,129819,1,0,0:0:0:0:
329,192,129859,1,0,0:0:0:0:
109,192,129859,1,0,0:0:0:0:
475,192,129859,1,0,0:0:0:0:
182,192,129859,1,0,0:0:0:0:
256,192,129939,1,0,0:0:0:0:
36,192,130019,1,0,0:0:0:0:
182,192,130019,1,0,0:0:0:0:
402,192,130019,1,0,0:0:0:0:
475,192,130019,1,0,0:0:0:0:
256,192,130098,1,0,0:0:0:0:
329,192,130178,1,0,0:0:0:0:
182,192,130178,1,0,0:0:0:0:
109,192,130178,1,0,0:0:0:0:
475,192,130178,1,0,0:0:0:0:
256,192,130258,1,0,0:0:0:0:
36,192,130338,1,0,0:0:0:0:
182,192,130338,1,0,0:0:0:0:
402,192,130338,1,0,0:0:0:0:
475,192,130338,1,0,0:0:0:0:
256,192,130417,1,0,0:0:0:0:
329,192,130497,1,0,0:0:0:0:
475,192,130497,1,0,0:0:0:0:
109,192,130497,1,0,0:0:0:0:
36,192,130497,1,0,0:0:0:0:
36,192,130657,1,0,0:0:0:0:
182,192,130657,1,0,0:0:0:0:
475,192,130657,1,0,0:0:0:0:
329,192,130697,1,0,0:0:0:0:
109,192,130737,1,0,0:0:0:0:
402,192,130737,1,0,0:0:0:0:
182,192,130777,1,0,0:0:0:0:
329,192,130816,1,0,0:0:0:0:
36,192,130816,1,0,0:0:0:0:
475,192,130816,1,0,0:0:0:0:
256,192,130816,1,0,0:0:0:0:
182,192,130896,1,0,0:0:0:0:
109,192,130976,1,0,0:0:0:0:
329,192,130976,1,0,0:0:0:0:
402,192,130976,1,0,0:0:0:0:
36,192,131056,1,0,0:0:0:0:
256,192,131056,1,0,0:0:0:0:
475,192,131056,1,0,0:0:0:0:
109,192,131136,1,0,0:0:0:0:
329,192,131136,1,0,0:0:0:0:
402,192,131136,1,0,0:0:0:0:
182,192,131215,1,0,0:0:0:0:
256,192,131295,1,0,0:0:0:0:
329,192,131295,1,0,0:0:0:0:
36,192,131295,1,0,0:0:0:0:
109,192,131375,1,0,0:0:0:0:
402,192,131375,1,0,0:0:0:0:
475,192,131375,1,0,0:0:0:0:
36,192,131455,1,0,0:0:0:0:
256,192,131455,1,0,0:0:0:0:
329,192,131455,1,0,0:0:0:0:
182,192,131495,1,0,0:0:0:0:
402,192,131535,1,0,0:0:0:0:
475,192,131535,1,0,0:0:0:0:
109,192,131574,1,0,0:0:0:0:
256,192,131614,1,0,0:0:0:0:
329,192,131614,1,0,0:0:0:0:
36,192,131654,1,0,0:0:0:0:
402,192,131694,1,0,0:0:0:0:
475,192,131694,1,0,0:0:0:0:
182,192,131734,1,0,0:0:0:0:
109,192,131774,1,0,0:0:0:0:
36,192,131774,1,0,0:0:0:0:
256,192,131774,1,0,0:0:0:0:
329,192,131774,1,0,0:0:0:0:
402,192,131854,1,0,0:0:0:0:
475,192,131854,1,0,0:0:0:0:
109,192,131933,1,0,0:0:0:0:
182,192,131933,1,0,0:0:0:0:
256,192,131933,1,0,0:0:0:0:
329,192,132013,1,0,0:0:0:0:
402,192,132013,1,0,0:0:0:0:
36,192,132093,1,0,0:0:0:0:
109,192,132093,1,0,0:0:0:0:
182,192,132093,1,0,0:0:0:0:
256,192,132173,1,0,0:0:0:0:
329,192,132173,1,0,0:0:0:0:
402,192,132253,1,0,0:0:0:0:
475,192,132253,1,0,0:0:0:0:
36,192,132253,1,0,0:0:0:0:
109,192,132332,1,0,0:0:0:0:
182,192,132332,1,0,0:0:0:0:
329,192,132332,1,0,0:0:0:0:
36,192,132412,1,0,0:0:0:0:
402,192,132412,1,0,0:0:0:0:
475,192,132412,1,0,0:0:0:0:
256,192,132572,1,0,0:0:0:0:
36,192,132572,1,0,0:0:0:0:
475,192,132572,1,0,0:0:0:0:
182,192,132612,1,0,0:0:0:0:
109,192,132652,1,0,0:0:0:0:
329,192,132652,1,0,0:0:0:0:
402,192,132691,1,0,0:0:0:0:
475,192,132731,1,0,0:0:0:0:
256,192,132731,1,0,0:0:0:0:
36,192,132731,1,0,0:0:0:0:
182,192,132811,1,0,0:0:0:0:
329,192,132811,1,0,0:0:0:0:
109,192,132891,1,0,0:0:0:0:
36,192,132891,1,0,0:0:0:0:
402,192,132891,1,0,0:0:0:0:
182,192,132971,1,0,0:0:0:0:
329,192,132971,1,0,0:0:0:0:
109,192,133050,1,0,0:0:0:0:
402,192,133050,1,0,0:0:0:0:
475,192,133050,1,0,0:0:0:0:
182,192,133130,1,0,0:0:0:0:
329,192,133130,1,0,0:0:0:0:
109,192,133210,1,0,0:0:0:0:
36,192,133210,1,0,0:0:0:0:
402,192,133210,1,0,0:0:0:0:
182,192,133290,1,0,0:0:0:0:
256,192,133290,1,0,0:0:0:0:
329,192,133290,1,0,0:0:0:0:
109,192,133370,1,0,0:0:0:0:
402,192,133370,1,0,0:0:0:0:
475,192,133370,1,0,0:0:0:0:
475,192,133529,1,0,0:0:0:0:
36,192,133529,1,0,0:0:0:0:
256,192,133529,1,0,0:0:0:0:
329,192,133569,1,0,0:0:0:0:
182,192,133609,1,0,0:0:0:0:
402,192,133609,1,0,0:0:0:0:
109,192,133649,1,0,0:0:0:0:
256,192,133689,1,0,0:0:0:0:
36,192,133689,1,0,0:0:0:0:
475,192,133689,1,0,0:0:0:0:
182,192,133769,1,0,0:0:0:0:
329,192,133769,1,0,0:0:0:0:
109,192,133848,1,0,0:0:0:0:
402,192,133848,1,0,0:0:0:0:
475,192,133848,1,0,0:0:0:0:
36,192,133928,1,0,0:0:0:0:
329,192,133928,1,0,0:0:0:0:
182,192,134008,1,0,0:0:0:0:
256,192,134008,1,0,0:0:0:0:
475,192,134008,1,0,0:0:0:0:
109,192,134088,1,0,0:0:0:0:
329,192,134088,1,0,0:0:0:0:
402,192,134167,1,0,0:0:0:0:
475,192,134167,1,0,0:0:0:0:
36,192,134167,1,0,0:0:0:0:
182,192,134247,1,0,0:0:0:0:
256,192,134247,1,0,0:0:0:0:
109,192,134327,1,0,0:0:0:0:
329,192,134327,1,0,0:0:0:0:
475,192,134327,1,0,0:0:0:0:
36,192,134327,1,0,0:0:0:0:
36,192,134646,1,0,0:0:0:0:
182,192,134646,1,0,0:0:0:0:
402,192,134646,1,0,0:0:0:0:
256,192,134699,1,0,0:0:0:0:
329,192,134753,1,0,0:0:0:0:
475,192,134806,1,0,0:0:0:0:
109,192,134806,1,0,0:0:0:0:
36,192,134806,1,0,0:0:0:0:
256,192,134859,1,0,0:0:0:0:
402,192,134912,1,0,0:0:0:0:
182,192,134965,1,0,0:0:0:0:
109,192,134965,1,0,0:0:0:0:
329,192,134965,1,0,0:0:0:0:
256,192,135019,1,0,0:0:0:0:
36,192,135072,1,0,0:0:0:0:
182,192,135125,1,0,0:0:0:0:
402,192,135125,1,0,0:0:0:0:
475,192,135125,1,0,0:0:0:0:
329,192,135178,1,0,0:0:0:0:
256,192,135231,1,0,0:0:0:0:
36,192,135285,1,0,0:0:0:0:
475,192,135285,1,0,0:0:0:0:
109,192,135285,1,0,0:0:0:0:
182,192,135338,1,0,0:0:0:0:
329,192,135391,1,0,0:0:0:0:
402,192,135444,1,0,0:0:0:0:
256,192,135444,1,0,0:0:0:0:
36,192,135444,1,0,0:0:0:0:
182,192,135497,1,0,0:0:0:0:
329,192,135550,1,0,0:0:0:0:
402,192,135604,1,0,0:0:0:0:
475,192,135604,1,0,0:0:0:0:
109,192,135604,1,0,0:0:0:0:
36,192,135604,1,0,0:0:0:0:
256,192,135763,1,0,0:0:0:0:
256,192,136082,1,0,0:0:0:0:
182,192,136242,1,0,0:0:0:0:
329,192,136402,1,0,0:0:0:0:
109,192,136561,1,0,0:0:0:0:
475,192,136561,1,0,0:0:0:0:
182,192,136721,1,0,0:0:0:0:
329,192,136721,1,0,0:0:0:0:
182,192,136880,1,0,0:0:0:0:
329,192,136880,1,0,0:0:0:0:
36,192,136880,1,0,0:0:0:0:
475,192,137040,1,0,0:0:0:0:
402,192,137199,1,0,0:0:0:0:
256,192,137199,1,0,0:0:0:0:
109,192,137199,1,0,0:0:0:0:
36,192,137359,1,0,0:0:0:0:
182,192,137519,1,0,0:0:0:0:
329,192,137519,1,0,0:0:0:0:
475,192,137519,1,0,0:0:0:0:
36,192,137678,1,0,0:0:0:0:
182,192,137838,1,0,0:0:0:0:
256,192,137838,1,0,0:0:0:0:
402,192,137838,1,0,0:0:0:0:
109,192,137997,1,0,0:0:0:0:
329,192,137997,1,0,0:0:0:0:
256,192,138157,1,0,0:0:0:0:
36,192,138157,1,0,0:0:0:0:
182,192,138157,1,0,0:0:0:0:
475,192,138316,1,0,0:0:0:0:
109,192,138476,1,0,0:0:0:0:
256,192,138476,1,0,0:0:0:0:
329,192,138476,1,0,0:0:0:0:
475,192,138636,1,0,0:0:0:0:
182,192,138795,1,0,0:0:0:0:
402,192,138795,1,0,0:0:0:0:
329,192,138795,1,0,0:0:0:0:
475,192,138955,1,0,0:0:0:0:
329,192,139114,1,0,0:0:0:0:
36,192,139114,1,0,0:0:0:0:
109,192,139114,1,0,0:0:0:0:
475,192,139274,1,0,0:0:0:0:
182,192,139433,1,0,0:0:0:0:
256,192,139433,1,0,0:0:0:0:
329,192,139433,1,0,0:0:0:0:
36,192,139593,1,0,0:0:0:0:
182,192,139753,1,0,0:0:0:0:
329,192,139753,1,0,0:0:0:0:
402,192,139753,1,0,0:0:0:0:
36,192,139912,1,0,0:0:0:0:
256,192,140072,1,0,0:0:0:0:
109,192,140072,1,0,0:0:0:0:
475,192,140072,1,0,0:0:0:0:
36,192,140231,1,0,0:0:0:0:
182,192,140391,1,0,0:0:0:0:
475,192,140391,1,0,0:0:0:0:
329,192,140391,1,0,0:0:0:0:
36,192,140550,1,0,0:0:0:0:
256,192,140710,1,0,0:0:0:0:
109,192,140710,1,0,0:0:0:0:
402,192,140710,1,0,0:0:0:0:
475,192,140710,1,0,0:0:0:0:
182,192,140870,1,0,0:0:0:0:
256,192,141029,1,0,0:0:0:0:
36,192,141029,1,0,0:0:0:0:
402,192,141029,1,0,0:0:0:0:
329,192,141189,1,0,0:0:0:0:
36,192,141348,1,0,0:0:0:0:
256,192,141348,1,0,0:0:0:0:
475,192,141348,1,0,0:0:0:0:
182,192,141508,1,0,0:0:0:0:
109,192,141588,1,0,0:0:0:0:
256,192,141588,1,0,0:0:0:0:
329,192,141588,1,0,0:0:0:0:
402,192,141827,1,0,0:0:0:0:
475,192,141827,1,0,0:0:0:0:
36,192,141827,1,0,0:0:0:0:
109,192,141987,1,0,0:0:0:0:
182,192,141987,1,0,0:0:0:0:
256,192,141987,1,0,0:0:0:0:
329,192,141987,1,0,0:0:0:0:
475,192,142146,1,0,0:0:0:0:
36,192,142306,1,0,0:0:0:0:
182,192,142306,1,0,0:0:0:0:
402,192,142306,1,0,0:0:0:0:
109,192,142465,1,0,0:0:0:0:
256,192,142465,1,0,0:0:0:0:
475,192,142465,1,0,0:0:0:0:
182,192,142625,1,0,0:0:0:0:
402,192,142785,1,0,0:0:0:0:
475,192,142785,1,0,0:0:0:0:
36,192,142785,1,0,0:0:0:0:
182,192,142944,1,0,0:0:0:0:
109,192,143104,1,0,0:0:0:0:
329,192,143104,1,0,0:0:0:0:
182,192,143183,1,0,0:0:0:0:
402,192,143183,1,0,0:0:0:0:
256,192,143263,1,0,0:0:0:0:
475,192,143263,1,0,0:0:0:0:
36,192,143263,1,0,0:0:0:0:
109,192,143423,1,0,0:0:0:0:
329,192,143423,1,0,0:0:0:0:
182,192,143582,1,0,0:0:0:0:
402,192,143582,1,0,0:0:0:0:
329,192,143742,1,0,0:0:0:0:
109,192,143742,1,0,0:0:0:0:
36,192,143902,1,0,0:0:0:0:
256,192,143902,1,0,0:0:0:0:
475,192,143902,1,0,0:0:0:0:
109,192,144061,1,0,0:0:0:0:
182,192,144061,1,0,0:0:0:0:
402,192,144061,1,0,0:0:0:0:
329,192,144221,1,0,0:0:0:0:
256,192,144221,1,0,0:0:0:0:
475,192,144221,1,0,0:0:0:0:
182,192,144380,1,0,0:0:0:0:
109,192,144380,1,0,0:0:0:0:
36,192,144380,1,0,0:0:0:0:
329,192,144540,1,0,0:0:0:0:
256,192,144540,1,0,0:0:0:0:
475,192,144540,1,0,0:0:0:0:
182,192,144699,1,0,0:0:0:0:
109,192,144699,1,0,0:0:0:0:
402,192,144699,1,0,0:0:0:0:
329,192,144859,1,0,0:0:0:0:
256,192,144859,1,0,0:0:0:0:
36,192,144859,1,0,0:0:0:0:
182,192,145019,1,0,0:0:0:0:
402,192,145019,1,0,0:0:0:0:
475,192,145019,1,0,0:0:0:0:
329,192,145178,1,0,0:0:0:0:
109,192,145178,1,0,0:0:0:0:
36,192,145178,1,0,0:0:0:0:
182,192,145338,1,0,0:0:0:0:
256,192,145338,1,0,0:0:0:0:
402,192,145338,1,0,0:0:0:0:
109,192,145497,1,0,0:0:0:0:
36,192,145497,1,0,0:0:0:0:
475,192,145497,1,0,0:0:0:0:
182,192,145657,1,0,0:0:0:0:
402,192,145657,1,0,0:0:0:0:
329,192,145657,1,0,0:0:0:0:
