osu file format v14

[General]
AudioFilename: audio.mp3
AudioLeadIn: 0
PreviewTime: 62594
Countdown: 0
SampleSet: Normal
StackLeniency: 0.7
Mode: 1
LetterboxInBreaks: 0
WidescreenStoryboard: 0

[Editor]
DistanceSpacing: 1
BeatDivisor: 8
GridSize: 32
TimelineZoom: 1.6

[Metadata]
Title:conflict (tpz Overheat Remix)
TitleUnicode:conflict (tpz Overheat Remix)
Artist:Cranky
ArtistUnicode:Cranky
Creator:Nofool
Version:Inner Oni
Source:Rave-SLave 2017
Tags:Feline Groove t+pazolite
BeatmapID:1949805
BeatmapSetID:933997

[Difficulty]
HPDrainRate:6
CircleSize:6
OverallDifficulty:6
ApproachRate:8
SliderMultiplier:1.4
SliderTickRate:1

[Events]
//Background and Video events
0,0,"BG110.jpg",0,0
//Break Periods
2,43847,47950
//Storyboard Layer 0 (Background)
//Storyboard Layer 1 (Fail)
//Storyboard Layer 2 (Pass)
//Storyboard Layer 3 (Foreground)
//Storyboard Sound Samples

[TimingPoints]
700,315.789473684211,4,1,0,80,1,0
700,-142.857142857143,4,1,0,50,0,0
9186,-142.857142857143,4,1,0,66,0,0
26081,-138.888888888889,4,1,0,67,0,0
26160,-136.986301369863,4,1,0,67,0,0
26239,-135.135135135135,4,1,0,68,0,0
26397,-131.578947368421,4,1,0,69,0,0
26555,-128.205128205128,4,1,0,70,0,0
26713,-125,4,1,0,71,0,0
26871,-121.951219512195,4,1,0,72,0,0
27028,-119.047619047619,4,1,0,73,0,0
27186,-116.279069767442,4,1,0,74,0,0
27344,-113.636363636364,4,1,0,75,0,0
27502,-111.111111111111,4,1,0,76,0,0
27660,-108.695652173913,4,1,0,77,0,0
27818,-106.382978723404,4,1,0,78,0,0
28134,-102.040816326531,4,1,0,80,0,0
28450,-100,4,1,0,80,0,0
37607,-102.040816326531,4,1,0,80,0,0
38081,-105.263157894737,4,1,0,80,0,0
38555,-108.695652173913,4,1,0,80,0,0
39028,-112.359550561798,4,1,0,80,0,0
39502,-116.279069767442,4,1,0,80,0,0
39818,-119.047619047619,4,1,0,80,0,0
39976,-120.481927710843,4,1,0,80,0,0
40450,-125,4,1,0,80,0,0
40923,-129.87012987013,4,1,0,80,0,0
41081,-131.578947368421,4,1,0,80,0,0
41397,-135.135135135135,4,1,0,80,0,0
41713,-138.888888888889,4,1,0,80,0,0
41871,-140.845070422535,4,1,0,80,0,0
42186,-144.927536231884,4,1,0,80,0,0
42344,-147.058823529412,4,1,0,80,0,0
42660,-151.515151515152,4,1,0,80,0,0
43134,-156.25,4,1,0,80,0,0
43607,-161.290322580645,4,1,0,80,0,0
43765,-161.290322580645,4,1,0,30,0,0
44871,-166.666666666667,4,1,0,30,0,0
46134,-172.413793103448,4,1,0,30,0,0
47397,-178.571428571429,4,1,0,30,0,0
48660,-217.391304347826,4,1,0,46,0,0
49134,-208.333333333333,4,1,0,48,0,0
49607,-200,4,1,0,50,0,0
49923,-192.307692307692,4,1,0,52,0,0
50081,-188.679245283019,4,1,0,53,0,0
50555,-181.818181818182,4,1,0,55,0,0
50871,-175.438596491228,4,1,0,57,0,0
51028,-172.413793103448,4,1,0,58,0,0
51186,-169.491525423729,4,1,0,59,0,0
51660,-161.290322580645,4,1,0,62,0,0
52134,-153.846153846154,4,1,0,65,0,0
52450,-149.253731343284,4,1,0,67,0,0
52607,-147.058823529412,4,1,0,68,0,0
52923,-142.857142857143,4,1,0,70,0,0
53081,-138.888888888889,4,1,0,72,0,0
53160,-136.986301369863,4,1,0,73,0,0
53239,-135.135135135135,4,1,0,74,0,0
53318,-133.333333333333,4,1,0,75,0,0
53397,-131.578947368421,4,1,0,76,0,0
53555,-128.205128205128,4,1,0,78,0,0
53713,-125,4,1,0,80,0,0
53950,-122.699386503067,4,1,0,80,0,0
54028,-121.951219512195,4,1,0,80,0,0
54186,-120.481927710843,4,1,0,80,0,0
54344,-119.047619047619,4,1,0,80,0,0
54423,-118.343195266272,4,1,0,80,0,0
54502,-117.647058823529,4,1,0,80,0,0
54660,-116.279069767442,4,1,0,80,0,0
54897,-114.285714285714,4,1,0,80,0,0
54976,-113.636363636364,4,1,0,80,0,0
55134,-112.359550561798,4,1,0,80,0,0
55292,-111.111111111111,4,1,0,80,0,0
55371,-110.497237569061,4,1,0,80,0,0
55450,-109.89010989011,4,1,0,80,0,0
55607,-108.695652173913,4,1,0,80,0,0
55686,-108.108108108108,4,1,0,80,0,0
55765,-107.52688172043,4,1,0,80,0,0
55844,-106.951871657754,4,1,0,80,0,0
55923,-106.382978723404,4,1,0,80,0,0
56081,-105.263157894737,4,1,0,80,0,0
56239,-104.166666666667,4,1,0,80,0,0
56476,-102.564102564103,4,1,0,80,0,0
56555,-102.040816326531,4,1,0,80,0,0
56713,-101.010101010101,4,1,0,80,0,0
56871,-100,4,1,0,80,0,0
56950,-99.502487562189,4,1,0,80,0,0
57028,-99.009900990099,4,1,0,80,0,0
57186,-98.0392156862745,4,1,0,80,0,0
57423,-96.6183574879227,4,1,0,80,0,0
57502,-96.1538461538461,4,1,0,80,0,0
57660,-95.2380952380952,4,1,0,80,0,0
57818,-94.3396226415094,4,1,0,80,0,0
57897,-93.8967136150235,4,1,0,80,0,0
57976,-93.4579439252336,4,1,0,80,0,0
58134,-92.5925925925926,4,1,0,80,0,0
58213,-92.1658986175115,4,1,0,80,0,0
58292,-91.743119266055,4,1,0,80,0,0
58371,-91.324200913242,4,1,0,80,0,0
58450,-90.9090909090909,4,1,0,80,0,0
58607,-90.0900900900901,4,1,0,80,0,0
58765,-89.2857142857143,4,1,0,80,0,0
58844,-88.8888888888889,4,1,0,80,0,0
58923,-88.4955752212389,4,1,0,80,0,0
59002,-88.1057268722467,4,1,0,80,0,0
59081,-87.719298245614,4,1,0,80,0,0
59160,-87.3362445414847,4,1,0,80,0,0
59239,-86.9565217391304,4,1,0,80,0,0
59318,-86.5800865800866,4,1,0,80,0,0
59397,-86.2068965517241,4,1,0,80,0,0
59476,-85.8369098712446,4,1,0,80,0,0
59555,-85.4700854700855,4,1,0,80,0,0
59634,-85.1063829787234,4,1,0,80,0,0
59713,-84.7457627118644,4,1,0,80,0,0
59792,-84.3881856540084,4,1,0,80,0,0
59871,-84.0336134453781,4,1,0,80,0,0
59950,-83.6820083682008,4,1,0,80,0,0
60028,-83.3333333333333,4,1,0,80,0,0
60107,-82.9875518672199,4,1,0,80,0,0
60186,-82.6446280991736,4,1,0,80,0,0
60265,-82.3045267489712,4,1,0,80,0,0
60344,-81.9672131147541,4,1,0,80,0,0
60423,-81.6326530612245,4,1,0,80,0,0
60502,-81.3008130081301,4,1,0,80,0,0
60581,-80.9716599190283,4,1,0,80,0,0
60660,-80.6451612903226,4,1,0,80,0,0
60739,-80.3212851405623,4,1,0,80,0,0
60818,-80,4,1,0,80,0,0
60897,-79.6812749003984,4,1,0,80,0,0
60976,-79.3650793650794,4,1,0,80,0,0
61055,-79.0513833992095,4,1,0,80,0,0
61134,-78.7401574803149,4,1,0,80,0,0
61213,-78.4313725490196,4,1,0,80,0,0
61292,-78.125,4,1,0,80,0,0
61371,-77.8210116731517,4,1,0,80,0,0
61450,-77.5193798449612,4,1,0,80,0,0
61528,-77.2200772200772,4,1,0,80,0,0
61607,-76.9230769230769,4,1,0,80,0,0
61686,-76.6283524904215,4,1,0,80,0,0
61765,-76.3358778625954,4,1,0,80,0,0
61844,-76.0456273764259,4,1,0,80,0,0
61923,-75.7575757575758,4,1,0,80,0,0
62002,-75.4716981132076,4,1,0,80,0,0
62081,-75.187969924812,4,1,0,80,0,0
62160,-74.9063670411985,4,1,0,80,0,0
62239,-74.6268656716418,4,1,0,80,0,0
62318,-74.3494423791822,4,1,0,80,0,0
62397,-74.0740740740741,4,1,0,80,0,0
62476,-73.8007380073801,4,1,0,80,0,0
62555,-73.5294117647059,4,1,0,80,0,0
62792,-89.2857142857143,4,1,0,80,0,0
63028,-96.1538461538461,4,1,0,80,0,0
63265,-100,4,1,0,80,0,0
63502,-96.1538461538461,4,1,0,80,0,0
63660,-93.4579439252336,4,1,0,80,0,0
63818,-90.9090909090909,4,1,0,80,0,0
63857,-90.9090909090909,4,1,0,80,0,1
71436,-90.9090909090909,4,1,0,80,0,0
71713,-119.047619047619,4,1,0,80,0,0
72660,-116.279069767442,4,1,0,80,0,0
72739,-114.285714285714,4,1,0,80,0,0
72818,-112.359550561798,4,1,0,80,0,0
72897,-110.497237569061,4,1,0,80,0,0
72976,-108.695652173913,4,1,0,80,0,0
73055,-106.951871657754,4,1,0,80,0,0
73134,-105.263157894737,4,1,0,80,0,0
73213,-103.626943005181,4,1,0,80,0,0
73292,-102.040816326531,4,1,0,80,0,0
73450,-99.009900990099,4,1,0,80,0,0
73607,-96.1538461538461,4,1,0,80,0,0
73765,-93.4579439252336,4,1,0,80,0,0
73923,-90.9090909090909,4,1,0,80,0,0
73963,-90.9090909090909,4,1,0,80,0,1
82607,-91.743119266055,4,1,0,80,0,1
82686,-92.1658986175115,4,1,0,80,0,1
82765,-92.5925925925926,4,1,0,80,0,1
82923,-93.4579439252336,4,1,0,80,0,1
83002,-93.8967136150235,4,1,0,80,0,1
83081,-94.3396226415094,4,1,0,80,0,1
83160,-94.7867298578199,4,1,0,80,0,1
83239,-95.2380952380952,4,1,0,80,0,1
83318,-95.6937799043062,4,1,0,80,0,1
83397,-96.1538461538461,4,1,0,80,0,1
83476,-96.6183574879227,4,1,0,80,0,1
83555,-97.0873786407767,4,1,0,80,0,1
83634,-97.5609756097561,4,1,0,80,0,1
83713,-98.0392156862745,4,1,0,80,0,1
83871,-99.009900990099,4,1,0,80,0,1
83910,-99.009900990099,4,1,0,80,0,0
84028,-100,4,1,0,80,0,0
104239,-111.111111111111,4,1,0,80,0,0
104950,-112.359550561798,4,1,0,80,0,0
105028,-113.636363636364,4,1,0,80,0,0
105107,-114.942528735632,4,1,0,80,0,0
105186,-116.279069767442,4,1,0,80,0,0
105265,-117.647058823529,4,1,0,80,0,0
105344,-119.047619047619,4,1,0,80,0,0
105423,-120.481927710843,4,1,0,80,0,0
105502,-121.951219512195,4,1,0,80,0,0
105581,-123.456790123457,4,1,0,80,0,0
105660,-125,4,1,0,80,0,0
105739,-126.582278481013,4,1,0,80,0,0
105818,-128.205128205128,4,1,0,80,0,0
105897,-129.87012987013,4,1,0,80,0,0
105976,-131.578947368421,4,1,0,80,0,0
106055,-133.333333333333,4,1,0,80,0,0
106134,-135.135135135135,4,1,0,80,0,0
107476,-133.333333333333,4,1,0,80,0,0
107555,-131.578947368421,4,1,0,80,0,0
107634,-129.87012987013,4,1,0,80,0,0
107713,-128.205128205128,4,1,0,80,0,0
107792,-126.582278481013,4,1,0,80,0,0
107871,-125,4,1,0,80,0,0
107950,-123.456790123457,4,1,0,80,0,0
108028,-121.951219512195,4,1,0,80,0,0
108107,-120.481927710843,4,1,0,80,0,0
108186,-119.047619047619,4,1,0,80,0,0
108265,-117.647058823529,4,1,0,80,0,0
108344,-116.279069767442,4,1,0,80,0,0
108423,-114.942528735632,4,1,0,80,0,0
108502,-113.636363636364,4,1,0,80,0,0
108581,-112.359550561798,4,1,0,80,0,0
108660,-111.111111111111,4,1,0,80,0,0
110002,-112.359550561798,4,1,0,80,0,0
110080,-113.636363636364,4,1,0,80,0,0
110159,-114.942528735632,4,1,0,80,0,0
110238,-116.279069767442,4,1,0,80,0,0
110317,-117.647058823529,4,1,0,80,0,0
110396,-119.047619047619,4,1,0,80,0,0
110475,-120.481927710843,4,1,0,80,0,0
110554,-121.951219512195,4,1,0,80,0,0
110633,-123.456790123457,4,1,0,80,0,0
110712,-125,4,1,0,80,0,0
110791,-126.582278481013,4,1,0,80,0,0
110870,-128.205128205128,4,1,0,80,0,0
110949,-129.87012987013,4,1,0,80,0,0
111028,-131.578947368421,4,1,0,80,0,0
111107,-133.333333333333,4,1,0,80,0,0
111186,-135.135135135135,4,1,0,80,0,0
112528,-133.333333333333,4,1,0,80,0,0
112607,-131.578947368421,4,1,0,80,0,0
112686,-129.87012987013,4,1,0,80,0,0
112765,-128.205128205128,4,1,0,80,0,0
112844,-126.582278481013,4,1,0,80,0,0
112923,-125,4,1,0,80,0,0
113002,-123.456790123457,4,1,0,80,0,0
113080,-121.951219512195,4,1,0,80,0,0
113159,-120.481927710843,4,1,0,80,0,0
113238,-119.047619047619,4,1,0,80,0,0
113317,-117.647058823529,4,1,0,80,0,0
113396,-116.279069767442,4,1,0,80,0,0
113475,-114.942528735632,4,1,0,80,0,0
113554,-113.636363636364,4,1,0,80,0,0
113633,-112.359550561798,4,1,0,80,0,0
113712,-111.111111111111,4,1,0,80,0,0
115055,-112.359550561798,4,1,0,80,0,0
115133,-113.636363636364,4,1,0,80,0,0
115212,-114.942528735632,4,1,0,80,0,0
115291,-116.279069767442,4,1,0,80,0,0
115370,-117.647058823529,4,1,0,80,0,0
115449,-119.047619047619,4,1,0,80,0,0
115528,-120.481927710843,4,1,0,80,0,0
115607,-121.951219512195,4,1,0,80,0,0
115686,-123.456790123457,4,1,0,80,0,0
115765,-125,4,1,0,80,0,0
115844,-126.582278481013,4,1,0,80,0,0
115923,-128.205128205128,4,1,0,80,0,0
116002,-129.87012987013,4,1,0,80,0,0
116081,-131.578947368421,4,1,0,80,0,0
116160,-133.333333333333,4,1,0,80,0,0
116239,-135.135135135135,4,1,0,80,0,0
117581,-133.333333333333,4,1,0,80,0,0
117660,-131.578947368421,4,1,0,80,0,0
117739,-129.87012987013,4,1,0,80,0,0
117818,-128.205128205128,4,1,0,80,0,0
117897,-126.582278481013,4,1,0,80,0,0
117976,-125,4,1,0,80,0,0
118055,-123.456790123457,4,1,0,80,0,0
118133,-121.951219512195,4,1,0,80,0,0
118212,-120.481927710843,4,1,0,80,0,0
118291,-119.047619047619,4,1,0,80,0,0
118370,-117.647058823529,4,1,0,80,0,0
118449,-116.279069767442,4,1,0,80,0,0
118528,-114.942528735632,4,1,0,80,0,0
118607,-113.636363636364,4,1,0,80,0,0
118686,-112.359550561798,4,1,0,80,0,0
118765,-111.111111111111,4,1,0,80,0,0
122634,-112.359550561798,4,1,0,80,0,0
122712,-113.636363636364,4,1,0,80,0,0
122791,-114.942528735632,4,1,0,80,0,0
122870,-116.279069767442,4,1,0,80,0,0
122949,-117.647058823529,4,1,0,80,0,0
123028,-119.047619047619,4,1,0,80,0,0
123107,-120.481927710843,4,1,0,80,0,0
123186,-121.951219512195,4,1,0,80,0,0
123265,-123.456790123457,4,1,0,80,0,0
123344,-125,4,1,0,80,0,0
123423,-126.582278481013,4,1,0,80,0,0
123502,-128.205128205128,4,1,0,80,0,0
123581,-129.87012987013,4,1,0,80,0,0
123660,-131.578947368421,4,1,0,80,0,0
123739,-133.333333333333,4,1,0,80,0,0
123818,-135.135135135135,4,1,0,80,0,0
124134,-138.888888888889,4,1,0,80,0,0
124450,-142.857142857143,4,1,0,80,0,0
134634,-141.843971631206,4,1,0,80,0,0
134713,-140.845070422535,4,1,0,80,0,0
134792,-139.86013986014,4,1,0,80,0,0
134871,-138.888888888889,4,1,0,80,0,0
134950,-137.931034482759,4,1,0,80,0,0
135028,-136.986301369863,4,1,0,80,0,0
135107,-136.054421768707,4,1,0,80,0,0
135186,-135.135135135135,4,1,0,80,0,0
135265,-134.228187919463,4,1,0,80,0,0
135344,-133.333333333333,4,1,0,80,0,0
135423,-132.450331125828,4,1,0,80,0,0
135502,-131.578947368421,4,1,0,80,0,0
135581,-130.718954248366,4,1,0,80,0,0
135660,-129.87012987013,4,1,0,80,0,0
135739,-129.032258064516,4,1,0,80,0,0
135818,-128.205128205128,4,1,0,80,0,0
135897,-127.388535031847,4,1,0,80,0,0
135976,-126.582278481013,4,1,0,80,0,0
136055,-125.786163522013,4,1,0,80,0,0
136134,-125,4,1,0,80,0,0
136213,-124.223602484472,4,1,0,80,0,0
136292,-123.456790123457,4,1,0,80,0,0
136371,-122.699386503067,4,1,0,80,0,0
136450,-121.951219512195,4,1,0,80,0,0
136528,-121.212121212121,4,1,0,80,0,0
136607,-120.481927710843,4,1,0,80,0,0
136686,-119.760479041916,4,1,0,80,0,0
136765,-119.047619047619,4,1,0,80,0,0
136844,-118.343195266272,4,1,0,80,0,0
136923,-117.647058823529,4,1,0,80,0,0
137002,-116.959064327485,4,1,0,80,0,0
137081,-116.279069767442,4,1,0,80,0,0
137160,-115.606936416185,4,1,0,80,0,0
137239,-114.942528735632,4,1,0,80,0,0
137318,-114.285714285714,4,1,0,80,0,0
137397,-113.636363636364,4,1,0,80,0,0
137476,-112.994350282486,4,1,0,80,0,0
137555,-112.359550561798,4,1,0,80,0,0
137634,-111.731843575419,4,1,0,80,0,0
137713,-111.111111111111,4,1,0,80,0,0
137792,-110.497237569061,4,1,0,80,0,0
137871,-109.89010989011,4,1,0,80,0,0
137950,-109.289617486339,4,1,0,80,0,0
138028,-108.695652173913,4,1,0,80,0,0
138107,-108.108108108108,4,1,0,80,0,0
138186,-107.52688172043,4,1,0,80,0,0
138265,-106.951871657754,4,1,0,80,0,0
138344,-106.382978723404,4,1,0,80,0,0
138423,-105.820105820106,4,1,0,80,0,0
138502,-105.263157894737,4,1,0,80,0,0
138581,-104.712041884817,4,1,0,80,0,0
138660,-104.166666666667,4,1,0,80,0,0
138739,-103.626943005181,4,1,0,80,0,0
138818,-103.092783505155,4,1,0,80,0,0
138897,-102.564102564103,4,1,0,80,0,0
138976,-102.040816326531,4,1,0,80,0,0
139055,-101.522842639594,4,1,0,80,0,0
139134,-101.010101010101,4,1,0,80,0,0
139213,-100.502512562814,4,1,0,80,0,0
139292,-100,4,1,0,80,0,0
139371,-99.502487562189,4,1,0,80,0,0
139450,-99.009900990099,4,1,0,80,0,0
139528,-98.5221674876847,4,1,0,80,0,0
139607,-98.0392156862745,4,1,0,80,0,0
139923,-96.1538461538461,4,1,0,80,0,0
140002,-95.2380952380952,4,1,0,80,0,0
140081,-94.3396226415094,4,1,0,80,0,0
140160,-93.4579439252336,4,1,0,80,0,0
140239,-92.5925925925926,4,1,0,80,0,0
140318,-91.743119266055,4,1,0,80,0,0
140397,-90.9090909090909,4,1,0,80,0,0
140476,-90.0900900900901,4,1,0,80,0,0
140555,-89.2857142857143,4,1,0,80,0,0
140634,-88.4955752212389,4,1,0,80,0,0
140713,-87.719298245614,4,1,0,80,0,0
140792,-86.9565217391304,4,1,0,80,0,0
140871,-86.2068965517241,4,1,0,80,0,0
141186,-83.3333333333333,4,1,0,80,0,0
141265,-82.6446280991736,4,1,0,80,0,0
141344,-81.9672131147541,4,1,0,80,0,0
141423,-81.3008130081301,4,1,0,80,0,0
141502,-80.6451612903226,4,1,0,80,0,0
141581,-80,4,1,0,80,0,0
141660,-79.3650793650794,4,1,0,80,0,0
141739,-78.7401574803149,4,1,0,80,0,0
141818,-78.125,4,1,0,80,0,0
141897,-77.5193798449612,4,1,0,80,0,0
141976,-76.9230769230769,4,1,0,80,0,0
142055,-76.3358778625954,4,1,0,80,0,0
142134,-75.7575757575758,4,1,0,80,0,0
142450,-73.5294117647059,4,1,0,80,0,0
142528,-72.992700729927,4,1,0,80,0,0
142607,-72.463768115942,4,1,0,80,0,0
142686,-71.9424460431655,4,1,0,80,0,0
142765,-71.4285714285714,4,1,0,80,0,0
143476,-72.992700729927,4,1,0,80,0,0
143555,-74.6268656716418,4,1,0,80,0,0
143634,-76.3358778625954,4,1,0,80,0,0
143713,-78.125,4,1,0,80,0,0
143792,-80,4,1,0,80,0,0
143871,-81.9672131147541,4,1,0,80,0,0
143950,-84.0336134453781,4,1,0,80,0,0
144028,-86.2068965517241,4,1,0,80,0,0
144344,-96.1538461538461,4,1,0,80,0,0
144660,-108.695652173913,4,1,0,80,0,0
146555,-142.857142857143,4,1,0,80,0,0
147186,-108.695652173913,4,1,0,80,0,0
148844,-107.52688172043,4,1,0,80,0,0
148923,-106.382978723404,4,1,0,80,0,0
149002,-105.263157894737,4,1,0,80,0,0
149081,-104.166666666667,4,1,0,80,0,0
149160,-103.092783505155,4,1,0,80,0,0
149239,-102.040816326531,4,1,0,80,0,0
149318,-101.010101010101,4,1,0,80,0,0
149397,-100,4,1,0,80,0,0
149555,-98.0392156862745,4,1,0,80,0,0
149713,-96.1538461538461,4,1,0,80,0,0
155081,-99.009900990099,4,1,0,80,0,0
155397,-102.040816326531,4,1,0,80,0,0
155713,-105.263157894737,4,1,0,80,0,0
156028,-108.695652173913,4,1,0,80,0,0
156344,-112.359550561798,4,1,0,80,0,0
156660,-116.279069767442,4,1,0,80,0,0
156976,-120.481927710843,4,1,0,80,0,0
157292,-125,4,1,0,80,0,0
157450,-121.951219512195,4,1,0,80,0,0
157607,-119.047619047619,4,1,0,80,0,0
157765,-116.279069767442,4,1,0,80,0,0
157923,-113.636363636364,4,1,0,80,0,0
158081,-111.111111111111,4,1,0,80,0,0
158239,-108.695652173913,4,1,0,80,0,0
158397,-106.382978723404,4,1,0,80,0,0
158555,-104.166666666667,4,1,0,80,0,0
158713,-102.040816326531,4,1,0,80,0,0
158871,-100,4,1,0,80,0,0
159028,-98.0392156862745,4,1,0,80,0,0
159186,-96.1538461538461,4,1,0,80,0,0
159344,-94.3396226415094,4,1,0,80,0,0
159502,-92.5925925925926,4,1,0,80,0,0
159660,-90.9090909090909,4,1,0,80,0,0
159818,-89.2857142857143,4,1,0,80,0,0
159897,-88.8888888888889,4,1,0,80,0,0
159976,-88.4955752212389,4,1,0,80,0,0
160055,-88.1057268722467,4,1,0,80,0,0
160134,-87.719298245614,4,1,0,80,0,0
160213,-87.3362445414847,4,1,0,80,0,0
160292,-86.9565217391304,4,1,0,80,0,0
160371,-86.5800865800866,4,1,0,80,0,0
160450,-86.2068965517241,4,1,0,80,0,0
160529,-85.8369098712446,4,1,0,80,0,0
160608,-85.4700854700855,4,1,0,80,0,0
160687,-85.1063829787234,4,1,0,80,0,0
160766,-84.7457627118644,4,1,0,80,0,0
160845,-84.3881856540084,4,1,0,80,0,0
160924,-84.0336134453781,4,1,0,80,0,0
161003,-83.6820083682008,4,1,0,80,0,0
161081,-83.3333333333333,4,1,0,80,0,0
161160,-82.9875518672199,4,1,0,80,0,0
161239,-82.6446280991736,4,1,0,80,0,0
161318,-82.3045267489712,4,1,0,80,0,0
161397,-81.9672131147541,4,1,0,80,0,0
161476,-81.6326530612245,4,1,0,80,0,0
161555,-81.3008130081301,4,1,0,80,0,0
161634,-80.9716599190283,4,1,0,80,0,0
161713,-80.6451612903226,4,1,0,80,0,0
161792,-80.3212851405623,4,1,0,80,0,0
161871,-80,4,1,0,80,0,0
161950,-79.6812749003984,4,1,0,80,0,0
162029,-79.3650793650794,4,1,0,80,0,0
162108,-79.0513833992095,4,1,0,80,0,0
162187,-78.7401574803149,4,1,0,80,0,0
162266,-78.4313725490196,4,1,0,80,0,0
162345,-78.125,4,1,0,80,0,0
162424,-77.8210116731517,4,1,0,80,0,0
162503,-77.5193798449612,4,1,0,80,0,0
162581,-77.2200772200772,4,1,0,80,0,0
162660,-76.9230769230769,4,1,0,80,0,0
162739,-76.6283524904215,4,1,0,80,0,0
162818,-76.3358778625954,4,1,0,80,0,0
162897,-76.0456273764259,4,1,0,80,0,0
162976,-75.7575757575758,4,1,0,80,0,0
163055,-75.4716981132076,4,1,0,80,0,0
163134,-75.187969924812,4,1,0,80,0,0
163213,-74.9063670411985,4,1,0,80,0,0
163292,-74.6268656716418,4,1,0,80,0,0
163371,-74.3494423791822,4,1,0,80,0,0
163450,-74.0740740740741,4,1,0,80,0,0
163529,-73.8007380073801,4,1,0,80,0,0
163608,-73.5294117647059,4,1,0,80,0,0
163845,-89.2857142857143,4,1,0,80,0,0
164081,-96.1538461538461,4,1,0,80,0,0
164318,-100,4,1,0,80,0,0
164555,-96.1538461538461,4,1,0,80,0,0
164713,-93.4579439252336,4,1,0,80,0,0
164871,-90.9090909090909,4,1,0,80,0,0
164910,-90.9090909090909,4,1,0,80,0,1
172489,-90.9090909090909,4,1,0,80,0,0
172765,-119.047619047619,4,1,0,80,0,0
173712,-116.279069767442,4,1,0,80,0,0
173791,-114.285714285714,4,1,0,80,0,0
173870,-112.359550561798,4,1,0,80,0,0
173949,-110.497237569061,4,1,0,80,0,0
174028,-108.695652173913,4,1,0,80,0,0
174107,-106.951871657754,4,1,0,80,0,0
174186,-105.263157894737,4,1,0,80,0,0
174265,-103.626943005181,4,1,0,80,0,0
174344,-102.040816326531,4,1,0,80,0,0
174502,-99.009900990099,4,1,0,80,0,0
174659,-96.1538461538461,4,1,0,80,0,0
174817,-93.4579439252336,4,1,0,80,0,0
174976,-90.9090909090909,4,1,0,80,0,0
175015,-90.9090909090909,4,1,0,80,0,1
183976,-90.0900900900901,4,1,0,80,0,1
184134,-89.2857142857143,4,1,0,80,0,1
184292,-88.4955752212389,4,1,0,80,0,1
184371,-88.1057268722467,4,1,0,80,0,1
184450,-87.719298245614,4,1,0,80,0,1
184607,-86.9565217391304,4,1,0,80,0,1
184765,-86.2068965517241,4,1,0,80,0,1
184923,-85.4700854700855,4,1,0,80,0,1
185002,-85.1063829787234,4,1,0,80,0,1
185081,-84.7457627118644,4,1,0,80,0,1
185160,-84.3881856540084,4,1,0,80,0,1
185239,-84.0336134453781,4,1,0,80,0,1
185318,-83.6820083682008,4,1,0,80,0,1
185397,-83.3333333333333,4,1,0,80,0,1
185476,-82.9875518672199,4,1,0,80,0,1
185555,-82.6446280991736,4,1,0,80,0,1
185634,-82.3045267489712,4,1,0,80,0,1
185713,-81.9672131147541,4,1,0,80,0,1
185792,-81.6326530612245,4,1,0,80,0,1
185871,-81.3008130081301,4,1,0,80,0,1
185950,-80.9716599190283,4,1,0,80,0,1
186028,-80.6451612903226,4,1,0,80,0,1
186107,-80.3212851405623,4,1,0,80,0,1
186186,-80,4,1,0,80,0,1
186265,-79.6812749003984,4,1,0,80,0,1
186344,-79.3650793650794,4,1,0,80,0,1
186423,-79.0513833992095,4,1,0,80,0,1
186502,-78.7401574803149,4,1,0,80,0,1
186581,-78.4313725490196,4,1,0,80,0,1
186660,-78.125,4,1,0,80,0,1
186739,-77.8210116731517,4,1,0,80,0,1
186818,-77.5193798449612,4,1,0,80,0,1
186897,-77.2200772200772,4,1,0,80,0,1
186976,-76.9230769230769,4,1,0,80,0,1
187055,-76.6283524904215,4,1,0,80,0,1
187134,-76.3358778625954,4,1,0,80,0,1
187213,-76.0456273764259,4,1,0,80,0,1
187292,-75.7575757575758,4,1,0,80,0,1
187371,-75.4716981132076,4,1,0,80,0,1
187450,-75.187969924812,4,1,0,80,0,1
187528,-74.9063670411985,4,1,0,80,0,1
187607,-74.6268656716418,4,1,0,80,0,1
187686,-74.3494423791822,4,1,0,80,0,1
187765,-74.0740740740741,4,1,0,80,0,1
187844,-73.8007380073801,4,1,0,80,0,1
187923,-73.5294117647059,4,1,0,80,0,1
188002,-73.2600732600733,4,1,0,80,0,1
188081,-72.992700729927,4,1,0,80,0,1
188160,-72.7272727272727,4,1,0,80,0,1
188239,-72.463768115942,4,1,0,80,0,1
188318,-72.202166064982,4,1,0,80,0,1
188397,-71.9424460431655,4,1,0,80,0,1
188476,-71.6845878136201,4,1,0,80,0,1
188555,-71.4285714285714,4,1,0,80,0,1
188634,-71.1743772241993,4,1,0,80,0,1
188713,-70.9219858156028,4,1,0,80,0,1
188792,-70.6713780918728,4,1,0,80,0,1
188871,-70.4225352112676,4,1,0,80,0,1
188910,-70.4225352112676,4,1,0,40,0,0

[HitObjects]
256,192,700,12,0,8910,0:0:0:0:
256,192,9226,5,0,0:0:0:0:
256,192,10173,1,0,0:0:0:0:
256,192,11121,1,0,0:0:0:0:
256,192,11752,1,0,0:0:0:0:
256,192,12068,1,0,0:0:0:0:
256,192,12700,1,0,0:0:0:0:
256,192,13015,1,0,0:0:0:0:
256,192,13963,1,0,0:0:0:0:
256,192,14278,1,0,0:0:0:0:
256,192,14594,1,0,0:0:0:0:
256,192,14910,1,8,0:0:0:0:
256,192,15857,1,8,0:0:0:0:
256,192,16805,1,8,0:0:0:0:
256,192,17121,1,0,0:0:0:0:
256,192,17278,1,0,0:0:0:0:
256,192,17436,1,8,0:0:0:0:
256,192,17594,1,8,0:0:0:0:
256,192,17752,1,0,0:0:0:0:
256,192,17910,1,8,0:0:0:0:
256,192,18068,1,0,0:0:0:0:
256,192,18226,1,8,0:0:0:0:
256,192,18384,1,0,0:0:0:0:
256,192,18542,1,0,0:0:0:0:
256,192,18700,1,8,0:0:0:0:
256,192,19331,1,8,0:0:0:0:
256,192,19647,1,0,0:0:0:0:
256,192,20278,1,0,0:0:0:0:
256,192,20594,1,8,0:0:0:0:
256,192,21542,1,0,0:0:0:0:
256,192,22489,1,8,0:0:0:0:
256,192,22963,1,8,0:0:0:0:
256,192,23121,1,8,0:0:0:0:
256,192,23278,1,8,0:0:0:0:
256,192,23436,1,0,0:0:0:0:
256,192,24068,1,0,0:0:0:0:
256,192,24384,1,8,0:0:0:0:
256,192,25331,1,8,0:0:0:0:
256,192,25647,1,0,0:0:0:0:
256,192,25963,1,0,0:0:0:0:
256,192,26121,1,8,0:0:0:0:
256,192,26200,1,8,0:0:0:0:
256,192,26278,1,8,0:0:0:0:
256,192,26436,1,8,0:0:0:0:
256,192,26594,1,0,0:0:0:0:
256,192,26752,1,0,0:0:0:0:
256,192,26910,1,8,0:0:0:0:
256,192,27068,1,0,0:0:0:0:
256,192,27226,1,0,0:0:0:0:
256,192,27384,1,8,0:0:0:0:
256,192,27542,1,8,0:0:0:0:
256,192,27700,1,0,0:0:0:0:
256,192,27857,1,0,0:0:0:0:
256,192,28173,1,12,0:0:0:0:
256,192,29121,1,0,0:0:0:0:
256,192,29594,1,0,0:0:0:0:
256,192,29752,1,0,0:0:0:0:
256,192,30068,1,8,0:0:0:0:
256,192,30700,1,0,0:0:0:0:
256,192,30857,1,0,0:0:0:0:
256,192,31015,1,8,0:0:0:0:
256,192,31489,1,0,0:0:0:0:
256,192,31647,1,8,0:0:0:0:
256,192,31963,1,8,0:0:0:0:
256,192,32594,1,0,0:0:0:0:
256,192,32752,1,0,0:0:0:0:
256,192,32910,1,8,0:0:0:0:
256,192,33542,1,8,0:0:0:0:
256,192,33857,1,0,0:0:0:0:
256,192,34331,1,8,0:0:0:0:
256,192,34489,1,0,0:0:0:0:
256,192,34647,1,0,0:0:0:0:
256,192,34805,1,8,0:0:0:0:
256,192,35121,1,0,0:0:0:0:
256,192,35436,1,8,0:0:0:0:
256,192,35752,1,8,0:0:0:0:
256,192,36384,1,8,0:0:0:0:
256,192,36542,1,0,0:0:0:0:
256,192,36700,1,0,0:0:0:0:
256,192,37015,1,8,0:0:0:0:
256,192,37331,1,0,0:0:0:0:
256,192,37647,1,8,0:0:0:0:
256,192,38121,1,8,0:0:0:0:
256,192,38594,1,0,0:0:0:0:
256,192,39068,1,0,0:0:0:0:
256,192,39542,1,8,0:0:0:0:
256,192,40015,1,8,0:0:0:0:
256,192,40489,1,0,0:0:0:0:
256,192,40963,1,0,0:0:0:0:
256,192,41436,1,8,0:0:0:0:
256,192,41752,1,8,0:0:0:0:
256,192,41910,1,8,0:0:0:0:
256,192,42226,1,8,0:0:0:0:
256,192,42384,1,8,0:0:0:0:
256,192,42700,1,0,0:0:0:0:
256,192,43173,1,0,0:0:0:0:
256,192,43647,1,12,0:0:0:0:
256,192,48700,5,0,0:0:0:0:
256,192,49173,1,0,0:0:0:0:
256,192,49647,1,0,0:0:0:0:
256,192,50121,1,0,0:0:0:0:
256,192,50594,1,0,0:0:0:0:
256,192,50910,1,0,0:0:0:0:
256,192,51068,1,0,0:0:0:0:
256,192,51226,1,8,0:0:0:0:
256,192,51700,1,8,0:0:0:0:
256,192,52173,1,8,0:0:0:0:
256,192,52647,1,8,0:0:0:0:
256,192,52963,1,8,0:0:0:0:
256,192,53121,1,0,0:0:0:0:
256,192,53200,1,0,0:0:0:0:
256,192,53278,1,0,0:0:0:0:
256,192,53357,1,0,0:0:0:0:
256,192,53436,1,8,0:0:0:0:
256,192,53594,1,8,0:0:0:0:
256,192,53752,1,4,0:0:0:0:
256,192,53989,1,0,0:0:0:0:
256,192,54068,1,8,0:0:0:0:
256,192,54226,1,0,0:0:0:0:
256,192,54384,1,8,0:0:0:0:
256,192,54463,1,8,0:0:0:0:
256,192,54542,1,8,0:0:0:0:
256,192,54700,1,0,0:0:0:0:
256,192,54936,1,8,0:0:0:0:
256,192,55015,1,8,0:0:0:0:
256,192,55173,1,0,0:0:0:0:
256,192,55331,1,0,0:0:0:0:
256,192,55410,1,8,0:0:0:0:
256,192,55489,1,8,0:0:0:0:
256,192,55647,1,0,0:0:0:0:
256,192,55726,1,0,0:0:0:0:
256,192,55805,1,0,0:0:0:0:
256,192,55884,1,0,0:0:0:0:
256,192,55963,1,8,0:0:0:0:
256,192,56121,1,8,0:0:0:0:
256,192,56278,1,0,0:0:0:0:
256,192,56515,1,0,0:0:0:0:
256,192,56594,1,8,0:0:0:0:
256,192,56752,1,0,0:0:0:0:
256,192,56910,1,8,0:0:0:0:
256,192,56989,1,8,0:0:0:0:
256,192,57068,1,8,0:0:0:0:
256,192,57226,1,0,0:0:0:0:
256,192,57463,1,8,0:0:0:0:
256,192,57542,1,8,0:0:0:0:
256,192,57700,1,0,0:0:0:0:
256,192,57857,1,8,0:0:0:0:
256,192,57936,1,8,0:0:0:0:
256,192,58015,1,0,0:0:0:0:
256,192,58173,1,8,0:0:0:0:
256,192,58252,1,8,0:0:0:0:
256,192,58331,1,8,0:0:0:0:
256,192,58410,1,8,0:0:0:0:
256,192,58489,1,0,0:0:0:0:
256,192,58647,1,8,0:0:0:0:
256,192,58805,1,0,0:0:0:0:
256,192,58884,1,0,0:0:0:0:
256,192,58963,1,0,0:0:0:0:
256,192,59042,1,0,0:0:0:0:
256,192,59121,1,0,0:0:0:0:
256,192,59200,1,0,0:0:0:0:
256,192,59278,1,0,0:0:0:0:
256,192,59357,1,0,0:0:0:0:
256,192,59436,1,8,0:0:0:0:
256,192,59515,1,8,0:0:0:0:
256,192,59594,1,8,0:0:0:0:
256,192,59673,1,8,0:0:0:0:
256,192,59752,1,8,0:0:0:0:
256,192,59831,1,8,0:0:0:0:
256,192,59910,1,8,0:0:0:0:
256,192,59989,1,8,0:0:0:0:
256,192,60068,1,0,0:0:0:0:
256,192,60147,1,0,0:0:0:0:
256,192,60226,1,0,0:0:0:0:
256,192,60305,1,0,0:0:0:0:
256,192,60384,1,0,0:0:0:0:
256,192,60463,1,0,0:0:0:0:
256,192,60542,1,0,0:0:0:0:
256,192,60621,1,0,0:0:0:0:
256,192,60700,1,8,0:0:0:0:
256,192,60778,1,8,0:0:0:0:
256,192,60857,1,8,0:0:0:0:
256,192,60936,1,8,0:0:0:0:
256,192,61015,1,8,0:0:0:0:
256,192,61094,1,8,0:0:0:0:
256,192,61173,1,8,0:0:0:0:
256,192,61252,1,8,0:0:0:0:
256,192,61331,1,0,0:0:0:0:
256,192,61410,1,0,0:0:0:0:
256,192,61489,1,0,0:0:0:0:
256,192,61568,1,0,0:0:0:0:
256,192,61647,1,0,0:0:0:0:
256,192,61726,1,0,0:0:0:0:
256,192,61805,1,0,0:0:0:0:
256,192,61884,1,0,0:0:0:0:
256,192,61963,1,0,0:0:0:0:
256,192,62042,1,0,0:0:0:0:
256,192,62121,1,0,0:0:0:0:
256,192,62200,1,0,0:0:0:0:
256,192,62278,1,0,0:0:0:0:
256,192,62357,1,0,0:0:0:0:
256,192,62436,1,0,0:0:0:0:
256,192,62515,1,0,0:0:0:0:
256,192,62594,1,8,0:0:0:0:
256,192,62831,1,8,0:0:0:0:
256,192,63068,1,8,0:0:0:0:
256,192,63305,1,8,0:0:0:0:
256,192,63542,1,4,0:0:0:0:
256,192,63700,1,12,0:0:0:0:
256,192,63857,1,4,0:0:0:0:
256,192,64015,1,0,0:0:0:0:
256,192,64094,1,0,0:0:0:0:
256,192,64173,1,8,0:0:0:0:
256,192,64331,1,0,0:0:0:0:
256,192,64489,1,8,0:0:0:0:
256,192,64647,1,0,0:0:0:0:
256,192,64726,1,0,0:0:0:0:
256,192,64805,1,8,0:0:0:0:
256,192,64884,1,0,0:0:0:0:
256,192,65042,1,8,0:0:0:0:
256,192,65121,1,0,0:0:0:0:
256,192,65278,1,0,0:0:0:0:
256,192,65436,1,8,0:0:0:0:
256,192,65515,1,8,0:0:0:0:
256,192,65594,1,8,0:0:0:0:
256,192,65673,1,8,0:0:0:0:
256,192,65752,1,0,0:0:0:0:
256,192,65910,1,8,0:0:0:0:
256,192,65989,1,8,0:0:0:0:
256,192,66068,1,8,0:0:0:0:
256,192,66226,1,8,0:0:0:0:
256,192,66384,1,4,0:0:0:0:
256,192,66542,1,0,0:0:0:0:
256,192,66621,1,0,0:0:0:0:
256,192,66700,1,8,0:0:0:0:
256,192,66857,1,0,0:0:0:0:
256,192,67015,1,8,0:0:0:0:
256,192,67173,1,8,0:0:0:0:
256,192,67252,1,8,0:0:0:0:
256,192,67331,1,0,0:0:0:0:
256,192,67489,1,0,0:0:0:0:
256,192,67647,1,8,0:0:0:0:
256,192,67726,1,8,0:0:0:0:
256,192,67884,1,0,0:0:0:0:
256,192,67963,1,8,0:0:0:0:
256,192,68042,1,8,0:0:0:0:
256,192,68121,1,0,0:0:0:0:
256,192,68278,1,8,0:0:0:0:
256,192,68436,1,0,0:0:0:0:
256,192,68515,1,0,0:0:0:0:
256,192,68594,1,0,0:0:0:0:
256,192,68752,1,8,0:0:0:0:
256,192,68910,1,4,0:0:0:0:
256,192,69068,1,0,0:0:0:0:
256,192,69226,1,8,0:0:0:0:
256,192,69305,1,8,0:0:0:0:
256,192,69384,1,0,0:0:0:0:
256,192,69463,1,0,0:0:0:0:
256,192,69542,1,8,0:0:0:0:
256,192,69700,1,0,0:0:0:0:
256,192,69857,1,8,0:0:0:0:
256,192,70015,1,0,0:0:0:0:
256,192,70094,1,0,0:0:0:0:
256,192,70173,1,8,0:0:0:0:
256,192,70252,1,8,0:0:0:0:
256,192,70410,1,0,0:0:0:0:
256,192,70489,1,8,0:0:0:0:
256,192,70647,1,8,0:0:0:0:
256,192,70805,1,0,0:0:0:0:
256,192,70963,1,8,0:0:0:0:
256,192,71042,1,8,0:0:0:0:
256,192,71121,1,8,0:0:0:0:
256,192,71278,1,8,0:0:0:0:
256,192,71436,1,0,0:0:0:0:
256,192,71752,1,0,0:0:0:0:
256,192,71910,1,0,0:0:0:0:
256,192,71989,1,0,0:0:0:0:
256,192,72068,1,8,0:0:0:0:
256,192,72384,1,0,0:0:0:0:
256,192,72700,1,0,0:0:0:0:
256,192,72778,1,0,0:0:0:0:
256,192,72857,1,0,0:0:0:0:
256,192,72936,1,8,0:0:0:0:
256,192,73015,1,0,0:0:0:0:
256,192,73094,1,0,0:0:0:0:
256,192,73173,1,0,0:0:0:0:
256,192,73252,1,8,0:0:0:0:
256,192,73331,1,8,0:0:0:0:
256,192,73489,1,0,0:0:0:0:
256,192,73647,1,12,0:0:0:0:
256,192,73805,1,12,0:0:0:0:
256,192,73963,1,4,0:0:0:0:
256,192,74121,1,8,0:0:0:0:
256,192,74200,1,8,0:0:0:0:
256,192,74278,1,0,0:0:0:0:
256,192,74436,1,0,0:0:0:0:
256,192,74515,1,0,0:0:0:0:
256,192,74594,1,8,0:0:0:0:
256,192,74752,1,0,0:0:0:0:
256,192,74910,1,8,0:0:0:0:
256,192,74989,1,8,0:0:0:0:
256,192,75068,1,0,0:0:0:0:
256,192,75147,1,0,0:0:0:0:
256,192,75226,1,8,0:0:0:0:
256,192,75384,1,0,0:0:0:0:
256,192,75542,1,8,0:0:0:0:
256,192,75621,1,8,0:0:0:0:
256,192,75700,1,8,0:0:0:0:
256,192,75778,1,8,0:0:0:0:
256,192,75857,1,0,0:0:0:0:
256,192,76015,1,8,0:0:0:0:
256,192,76094,1,8,0:0:0:0:
256,192,76173,1,0,0:0:0:0:
256,192,76331,1,0,0:0:0:0:
256,192,76489,1,8,0:0:0:0:
256,192,76568,1,8,0:0:0:0:
256,192,76647,1,0,0:0:0:0:
256,192,76726,1,0,0:0:0:0:
256,192,76805,1,8,0:0:0:0:
256,192,76884,1,8,0:0:0:0:
256,192,76963,1,8,0:0:0:0:
256,192,77042,1,8,0:0:0:0:
256,192,77121,1,0,0:0:0:0:
256,192,77278,1,0,0:0:0:0:
256,192,77436,1,8,0:0:0:0:
256,192,77594,1,8,0:0:0:0:
256,192,77673,1,0,0:0:0:0:
256,192,77752,1,0,0:0:0:0:
256,192,77910,1,0,0:0:0:0:
256,192,77989,1,8,0:0:0:0:
256,192,78068,1,8,0:0:0:0:
256,192,78226,1,0,0:0:0:0:
256,192,78384,1,8,0:0:0:0:
256,192,78542,1,8,0:0:0:0:
256,192,78621,1,8,0:0:0:0:
256,192,78700,1,0,0:0:0:0:
256,192,78857,1,0,0:0:0:0:
256,192,79015,1,12,0:0:0:0:
256,192,79173,1,0,0:0:0:0:
256,192,79252,1,8,0:0:0:0:
256,192,79331,1,8,0:0:0:0:
256,192,79410,1,0,0:0:0:0:
256,192,79568,1,0,0:0:0:0:
256,192,79647,1,0,0:0:0:0:
256,192,79805,1,8,0:0:0:0:
256,192,79884,1,8,0:0:0:0:
256,192,79963,1,0,0:0:0:0:
256,192,80042,1,0,0:0:0:0:
256,192,80200,1,0,0:0:0:0:
256,192,80278,1,8,0:0:0:0:
256,192,80436,1,0,0:0:0:0:
256,192,80515,1,0,0:0:0:0:
256,192,80594,1,8,0:0:0:0:
256,192,80673,1,8,0:0:0:0:
256,192,80831,1,8,0:0:0:0:
256,192,80910,1,0,0:0:0:0:
256,192,81068,1,0,0:0:0:0:
256,192,81147,1,0,0:0:0:0:
256,192,81226,1,8,0:0:0:0:
256,192,81305,1,0,0:0:0:0:
256,192,81463,1,0,0:0:0:0:
256,192,81542,1,8,0:0:0:0:
256,192,81700,1,0,0:0:0:0:
256,192,81778,1,0,0:0:0:0:
256,192,81857,1,8,0:0:0:0:
256,192,81936,1,8,0:0:0:0:
256,192,82094,1,0,0:0:0:0:
256,192,82173,1,8,0:0:0:0:
256,192,82331,1,8,0:0:0:0:
256,192,82410,1,8,0:0:0:0:
256,192,82489,1,0,0:0:0:0:
256,192,82568,1,0,0:0:0:0:
256,192,82726,1,0,0:0:0:0:
256,192,82805,1,8,0:0:0:0:
256,192,82963,1,0,0:0:0:0:
256,192,83042,1,8,0:0:0:0:
256,192,83121,1,8,0:0:0:0:
256,192,83200,1,8,0:0:0:0:
256,192,83278,1,0,0:0:0:0:
256,192,83357,1,8,0:0:0:0:
256,192,83436,1,8,0:0:0:0:
256,192,83515,1,8,0:0:0:0:
256,192,83594,1,0,0:0:0:0:
256,192,83673,1,0,0:0:0:0:
256,192,83752,1,8,0:0:0:0:
256,192,83910,1,8,0:0:0:0:
256,192,84068,1,0,0:0:0:0:
256,192,84305,1,0,0:0:0:0:
256,192,84384,1,0,0:0:0:0:
256,192,84542,1,8,0:0:0:0:
256,192,84700,1,0,0:0:0:0:
256,192,84778,1,0,0:0:0:0:
256,192,84857,1,8,0:0:0:0:
256,192,85015,1,0,0:0:0:0:
256,192,85252,1,8,0:0:0:0:
256,192,85331,1,8,0:0:0:0:
256,192,85489,1,0,0:0:0:0:
256,192,85647,1,0,0:0:0:0:
256,192,85726,1,0,0:0:0:0:
256,192,85805,1,8,0:0:0:0:
256,192,85963,1,0,0:0:0:0:
256,192,86042,1,0,0:0:0:0:
256,192,86121,1,0,0:0:0:0:
256,192,86200,1,0,0:0:0:0:
256,192,86278,1,8,0:0:0:0:
256,192,86436,1,8,0:0:0:0:
256,192,86594,1,0,0:0:0:0:
256,192,86831,1,0,0:0:0:0:
256,192,86910,1,0,0:0:0:0:
256,192,87068,1,8,0:0:0:0:
256,192,87226,1,0,0:0:0:0:
256,192,87305,1,0,0:0:0:0:
256,192,87384,1,8,0:0:0:0:
256,192,87542,1,0,0:0:0:0:
256,192,87778,1,8,0:0:0:0:
256,192,87857,1,8,0:0:0:0:
256,192,88015,1,0,0:0:0:0:
256,192,88173,1,0,0:0:0:0:
256,192,88252,1,0,0:0:0:0:
256,192,88331,1,8,0:0:0:0:
256,192,88489,1,8,0:0:0:0:
256,192,88568,1,8,0:0:0:0:
256,192,88647,1,0,0:0:0:0:
256,192,88805,1,8,0:0:0:0:
256,192,88963,1,8,0:0:0:0:
256,192,89121,1,0,0:0:0:0:
256,192,89357,1,0,0:0:0:0:
256,192,89436,1,0,0:0:0:0:
256,192,89594,1,8,0:0:0:0:
256,192,89752,1,0,0:0:0:0:
256,192,89831,1,0,0:0:0:0:
256,192,89910,1,8,0:0:0:0:
256,192,90068,1,0,0:0:0:0:
256,192,90305,1,8,0:0:0:0:
256,192,90384,1,8,0:0:0:0:
256,192,90542,1,0,0:0:0:0:
256,192,90700,1,0,0:0:0:0:
256,192,90778,1,0,0:0:0:0:
256,192,90857,1,8,0:0:0:0:
256,192,91015,1,0,0:0:0:0:
256,192,91094,1,0,0:0:0:0:
256,192,91173,1,0,0:0:0:0:
256,192,91252,1,0,0:0:0:0:
256,192,91331,1,8,0:0:0:0:
256,192,91489,1,8,0:0:0:0:
256,192,91647,1,0,0:0:0:0:
256,192,91805,1,8,0:0:0:0:
256,192,91884,1,0,0:0:0:0:
256,192,91963,1,0,0:0:0:0:
256,192,92121,1,8,0:0:0:0:
256,192,92278,1,0,0:0:0:0:
256,192,92357,1,0,0:0:0:0:
256,192,92436,1,8,0:0:0:0:
256,192,92594,1,0,0:0:0:0:
256,192,92752,1,8,0:0:0:0:
256,192,92831,1,0,0:0:0:0:
256,192,92910,1,0,0:0:0:0:
256,192,93068,1,8,0:0:0:0:
256,192,93226,1,0,0:0:0:0:
256,192,93305,1,8,0:0:0:0:
256,192,93384,1,0,0:0:0:0:
256,192,93463,1,0,0:0:0:0:
256,192,93542,1,8,0:0:0:0:
256,192,93621,1,8,0:0:0:0:
256,192,93700,1,8,0:0:0:0:
256,192,93857,1,8,0:0:0:0:
256,192,94015,1,8,0:0:0:0:
256,192,94173,1,0,0:0:0:0:
256,192,94331,1,0,0:0:0:0:
256,192,94410,1,0,0:0:0:0:
256,192,94489,1,0,0:0:0:0:
256,192,94647,1,8,0:0:0:0:
256,192,94805,1,8,0:0:0:0:
256,192,94884,1,8,0:0:0:0:
256,192,94963,1,8,0:0:0:0:
256,192,95121,1,0,0:0:0:0:
256,192,95357,1,8,0:0:0:0:
256,192,95436,1,8,0:0:0:0:
256,192,95594,1,0,0:0:0:0:
256,192,95752,1,0,0:0:0:0:
256,192,95831,1,8,0:0:0:0:
256,192,95910,1,8,0:0:0:0:
256,192,96068,1,0,0:0:0:0:
256,192,96147,1,0,0:0:0:0:
256,192,96226,1,0,0:0:0:0:
256,192,96305,1,0,0:0:0:0:
256,192,96384,1,8,0:0:0:0:
256,192,96542,1,8,0:0:0:0:
256,192,96700,1,0,0:0:0:0:
256,192,96857,1,0,0:0:0:0:
256,192,96936,1,0,0:0:0:0:
256,192,97015,1,0,0:0:0:0:
256,192,97173,1,8,0:0:0:0:
256,192,97331,1,8,0:0:0:0:
256,192,97410,1,8,0:0:0:0:
256,192,97489,1,8,0:0:0:0:
256,192,97647,1,0,0:0:0:0:
256,192,97884,1,8,0:0:0:0:
256,192,97963,1,8,0:0:0:0:
256,192,98121,1,0,0:0:0:0:
256,192,98278,1,0,0:0:0:0:
256,192,98357,1,8,0:0:0:0:
256,192,98436,1,8,0:0:0:0:
256,192,98594,1,8,0:0:0:0:
256,192,98673,1,8,0:0:0:0:
256,192,98752,1,0,0:0:0:0:
256,192,98910,1,8,0:0:0:0:
256,192,99068,1,8,0:0:0:0:
256,192,99226,1,0,0:0:0:0:
256,192,99384,1,0,0:0:0:0:
256,192,99463,1,0,0:0:0:0:
256,192,99542,1,0,0:0:0:0:
256,192,99700,1,8,0:0:0:0:
256,192,99857,1,8,0:0:0:0:
256,192,99936,1,8,0:0:0:0:
256,192,100015,1,8,0:0:0:0:
256,192,100173,1,0,0:0:0:0:
256,192,100410,1,8,0:0:0:0:
256,192,100489,1,8,0:0:0:0:
256,192,100647,1,0,0:0:0:0:
256,192,100805,1,0,0:0:0:0:
256,192,100884,1,8,0:0:0:0:
256,192,100963,1,8,0:0:0:0:
256,192,101121,1,0,0:0:0:0:
256,192,101200,1,0,0:0:0:0:
256,192,101278,1,0,0:0:0:0:
256,192,101357,1,0,0:0:0:0:
256,192,101436,1,8,0:0:0:0:
256,192,101594,1,8,0:0:0:0:
256,192,101752,1,0,0:0:0:0:
256,192,101910,1,8,0:0:0:0:
256,192,101989,1,0,0:0:0:0:
256,192,102068,1,0,0:0:0:0:
256,192,102226,1,8,0:0:0:0:
256,192,102384,1,0,0:0:0:0:
256,192,102463,1,0,0:0:0:0:
256,192,102542,1,8,0:0:0:0:
256,192,102700,1,0,0:0:0:0:
256,192,102857,1,8,0:0:0:0:
256,192,102936,1,0,0:0:0:0:
256,192,103015,1,0,0:0:0:0:
256,192,103173,1,8,0:0:0:0:
256,192,103331,1,0,0:0:0:0:
256,192,103410,1,8,0:0:0:0:
256,192,103489,1,0,0:0:0:0:
256,192,103568,1,0,0:0:0:0:
256,192,103647,1,8,0:0:0:0:
256,192,103805,1,8,0:0:0:0:
256,192,103963,1,4,0:0:0:0:
256,192,104278,1,0,0:0:0:0:
256,192,104515,1,0,0:0:0:0:
256,192,104594,1,0,0:0:0:0:
256,192,104752,1,0,0:0:0:0:
256,192,104910,1,8,0:0:0:0:
256,192,104989,1,0,0:0:0:0:
256,192,105068,1,0,0:0:0:0:
256,192,105147,1,0,0:0:0:0:
256,192,105226,1,0,0:0:0:0:
256,192,105305,1,0,0:0:0:0:
256,192,105384,1,0,0:0:0:0:
256,192,105463,1,0,0:0:0:0:
256,192,105542,1,0,0:0:0:0:
256,192,105621,1,0,0:0:0:0:
256,192,105700,1,0,0:0:0:0:
256,192,105778,1,0,0:0:0:0:
256,192,105857,1,0,0:0:0:0:
256,192,105936,1,0,0:0:0:0:
256,192,106015,1,0,0:0:0:0:
256,192,106094,1,0,0:0:0:0:
256,192,106173,1,8,0:0:0:0:
256,192,106252,1,8,0:0:0:0:
256,192,106331,1,0,0:0:0:0:
256,192,106489,1,8,0:0:0:0:
256,192,106647,1,8,0:0:0:0:
256,192,106805,1,0,0:0:0:0:
256,192,107042,1,0,0:0:0:0:
256,192,107121,1,0,0:0:0:0:
256,192,107278,1,0,0:0:0:0:
256,192,107436,1,8,0:0:0:0:
256,192,107515,1,0,0:0:0:0:
256,192,107594,1,0,0:0:0:0:
256,192,107673,1,0,0:0:0:0:
256,192,107752,1,0,0:0:0:0:
256,192,107831,1,0,0:0:0:0:
256,192,107910,1,0,0:0:0:0:
256,192,107989,1,0,0:0:0:0:
256,192,108068,1,0,0:0:0:0:
256,192,108147,1,0,0:0:0:0:
256,192,108226,1,0,0:0:0:0:
256,192,108305,1,0,0:0:0:0:
256,192,108384,1,0,0:0:0:0:
256,192,108463,1,0,0:0:0:0:
256,192,108542,1,0,0:0:0:0:
256,192,108621,1,0,0:0:0:0:
256,192,108700,1,8,0:0:0:0:
256,192,108857,1,8,0:0:0:0:
256,192,109015,1,0,0:0:0:0:
256,192,109173,1,8,0:0:0:0:
256,192,109331,1,0,0:0:0:0:
256,192,109568,1,0,0:0:0:0:
256,192,109647,1,0,0:0:0:0:
256,192,109805,1,0,0:0:0:0:
256,192,109963,1,8,0:0:0:0:
256,192,110042,1,0,0:0:0:0:
256,192,110121,1,0,0:0:0:0:
256,192,110200,1,0,0:0:0:0:
256,192,110278,1,0,0:0:0:0:
256,192,110357,1,0,0:0:0:0:
256,192,110436,1,0,0:0:0:0:
256,192,110515,1,0,0:0:0:0:
256,192,110594,1,0,0:0:0:0:
256,192,110673,1,0,0:0:0:0:
256,192,110752,1,0,0:0:0:0:
256,192,110831,1,0,0:0:0:0:
256,192,110910,1,0,0:0:0:0:
256,192,110989,1,0,0:0:0:0:
256,192,111068,1,0,0:0:0:0:
256,192,111147,1,0,0:0:0:0:
256,192,111226,1,8,0:0:0:0:
256,192,111305,1,8,0:0:0:0:
256,192,111384,1,0,0:0:0:0:
256,192,111542,1,8,0:0:0:0:
256,192,111700,1,8,0:0:0:0:
256,192,111857,1,0,0:0:0:0:
256,192,112015,1,8,0:0:0:0:
256,192,112094,1,0,0:0:0:0:
256,192,112173,1,0,0:0:0:0:
256,192,112331,1,8,0:0:0:0:
256,192,112489,1,8,0:0:0:0:
256,192,112568,1,0,0:0:0:0:
256,192,112647,1,8,0:0:0:0:
256,192,112726,1,0,0:0:0:0:
256,192,112805,1,8,0:0:0:0:
256,192,112884,1,0,0:0:0:0:
256,192,112963,1,8,0:0:0:0:
256,192,113042,1,0,0:0:0:0:
256,192,113121,1,8,0:0:0:0:
256,192,113200,1,0,0:0:0:0:
256,192,113278,1,8,0:0:0:0:
256,192,113357,1,0,0:0:0:0:
256,192,113436,1,8,0:0:0:0:
256,192,113515,1,0,0:0:0:0:
256,192,113594,1,8,0:0:0:0:
256,192,113673,1,0,0:0:0:0:
256,192,113752,1,8,0:0:0:0:
256,192,113910,1,8,0:0:0:0:
256,192,114068,1,0,0:0:0:0:
256,192,114226,1,8,0:0:0:0:
256,192,114384,1,0,0:0:0:0:
256,192,114621,1,8,0:0:0:0:
256,192,114700,1,0,0:0:0:0:
256,192,114857,1,0,0:0:0:0:
256,192,115015,1,8,0:0:0:0:
256,192,115094,1,8,0:0:0:0:
256,192,115173,1,0,0:0:0:0:
256,192,115252,1,0,0:0:0:0:
256,192,115331,1,0,0:0:0:0:
256,192,115410,1,0,0:0:0:0:
256,192,115489,1,0,0:0:0:0:
256,192,115568,1,0,0:0:0:0:
256,192,115647,1,8,0:0:0:0:
256,192,115726,1,8,0:0:0:0:
256,192,115805,1,0,0:0:0:0:
256,192,115884,1,0,0:0:0:0:
256,192,115963,1,0,0:0:0:0:
256,192,116042,1,0,0:0:0:0:
256,192,116121,1,0,0:0:0:0:
256,192,116200,1,0,0:0:0:0:
256,192,116278,1,8,0:0:0:0:
256,192,116357,1,8,0:0:0:0:
256,192,116436,1,0,0:0:0:0:
256,192,116594,1,8,0:0:0:0:
256,192,116752,1,8,0:0:0:0:
256,192,116910,1,0,0:0:0:0:
256,192,117147,1,0,0:0:0:0:
256,192,117226,1,8,0:0:0:0:
256,192,117384,1,0,0:0:0:0:
256,192,117542,1,8,0:0:0:0:
256,192,117621,1,8,0:0:0:0:
256,192,117700,1,0,0:0:0:0:
256,192,117778,1,0,0:0:0:0:
256,192,117857,1,0,0:0:0:0:
256,192,117936,1,0,0:0:0:0:
256,192,118015,1,0,0:0:0:0:
256,192,118094,1,0,0:0:0:0:
256,192,118173,1,8,0:0:0:0:
256,192,118252,1,8,0:0:0:0:
256,192,118331,1,0,0:0:0:0:
256,192,118410,1,0,0:0:0:0:
256,192,118489,1,0,0:0:0:0:
256,192,118568,1,0,0:0:0:0:
256,192,118647,1,0,0:0:0:0:
256,192,118726,1,0,0:0:0:0:
256,192,118805,1,8,0:0:0:0:
256,192,118963,1,8,0:0:0:0:
256,192,119121,1,0,0:0:0:0:
256,192,119278,1,8,0:0:0:0:
256,192,119436,1,0,0:0:0:0:
256,192,119594,1,0,0:0:0:0:
256,192,119673,1,0,0:0:0:0:
256,192,119752,1,0,0:0:0:0:
256,192,119831,1,0,0:0:0:0:
256,192,119910,1,0,0:0:0:0:
256,192,119989,1,0,0:0:0:0:
256,192,120068,1,8,0:0:0:0:
256,192,120147,1,0,0:0:0:0:
256,192,120226,1,0,0:0:0:0:
256,192,120305,1,0,0:0:0:0:
256,192,120384,1,0,0:0:0:0:
256,192,120463,1,0,0:0:0:0:
256,192,120542,1,0,0:0:0:0:
256,192,120621,1,0,0:0:0:0:
256,192,120700,1,0,0:0:0:0:
256,192,120857,1,0,0:0:0:0:
256,192,120936,1,0,0:0:0:0:
256,192,121015,1,0,0:0:0:0:
256,192,121094,1,0,0:0:0:0:
256,192,121173,1,0,0:0:0:0:
256,192,121252,1,0,0:0:0:0:
256,192,121331,1,8,0:0:0:0:
256,192,121410,1,0,0:0:0:0:
256,192,121489,1,0,0:0:0:0:
256,192,121568,1,0,0:0:0:0:
256,192,121647,1,8,0:0:0:0:
256,192,121726,1,8,0:0:0:0:
256,192,121805,1,8,0:0:0:0:
256,192,121884,1,8,0:0:0:0:
256,192,121963,1,0,0:0:0:0:
256,192,122042,1,0,0:0:0:0:
256,192,122121,1,8,0:0:0:0:
256,192,122200,1,0,0:0:0:0:
256,192,122278,1,8,0:0:0:0:
256,192,122357,1,0,0:0:0:0:
256,192,122436,1,8,0:0:0:0:
256,192,122515,1,8,0:0:0:0:
256,192,122594,1,8,0:0:0:0:
256,192,122673,1,0,0:0:0:0:
256,192,122752,1,8,0:0:0:0:
256,192,122831,1,8,0:0:0:0:
256,192,122910,1,0,0:0:0:0:
256,192,122989,1,0,0:0:0:0:
256,192,123068,1,8,0:0:0:0:
256,192,123147,1,0,0:0:0:0:
256,192,123226,1,8,0:0:0:0:
256,192,123305,1,0,0:0:0:0:
256,192,123384,1,8,0:0:0:0:
256,192,123463,1,0,0:0:0:0:
256,192,123542,1,8,0:0:0:0:
256,192,123621,1,0,0:0:0:0:
256,192,123700,1,8,0:0:0:0:
256,192,123778,1,0,0:0:0:0:
256,192,123857,1,8,0:0:0:0:
256,192,124173,1,8,0:0:0:0:
256,192,124489,1,0,0:0:0:0:
256,192,125121,1,0,0:0:0:0:
256,192,125752,1,8,0:0:0:0:
256,192,126226,1,0,0:0:0:0:
256,192,126384,1,8,0:0:0:0:
256,192,126542,1,8,0:0:0:0:
256,192,126700,1,0,0:0:0:0:
256,192,126857,1,0,0:0:0:0:
256,192,127015,1,8,0:0:0:0:
256,192,127331,1,0,0:0:0:0:
256,192,127647,1,8,0:0:0:0:
256,192,127805,1,0,0:0:0:0:
256,192,127963,1,8,0:0:0:0:
256,192,128121,1,8,0:0:0:0:
256,192,128278,1,0,0:0:0:0:
256,192,128594,1,0,0:0:0:0:
256,192,128752,1,0,0:0:0:0:
256,192,128831,1,0,0:0:0:0:
256,192,128910,1,8,0:0:0:0:
256,192,129068,1,8,0:0:0:0:
256,192,129226,1,0,0:0:0:0:
256,192,129384,1,0,0:0:0:0:
256,192,129542,1,8,0:0:0:0:
256,192,129700,1,8,0:0:0:0:
256,192,129857,1,8,0:0:0:0:
256,192,130173,1,0,0:0:0:0:
256,192,130331,1,0,0:0:0:0:
256,192,130489,1,8,0:0:0:0:
256,192,130647,1,8,0:0:0:0:
256,192,130805,1,0,0:0:0:0:
256,192,130963,1,0,0:0:0:0:
256,192,131121,1,0,0:0:0:0:
256,192,131436,1,8,0:0:0:0:
256,192,131594,1,8,0:0:0:0:
256,192,131752,1,0,0:0:0:0:
256,192,131910,1,0,0:0:0:0:
256,192,132068,1,8,0:0:0:0:
256,192,132226,1,8,0:0:0:0:
256,192,132384,1,0,0:0:0:0:
256,192,132542,1,0,0:0:0:0:
256,192,132700,1,8,0:0:0:0:
256,192,132857,1,0,0:0:0:0:
256,192,133015,1,8,0:0:0:0:
256,192,133173,1,8,0:0:0:0:
256,192,133331,2,0,L|288:192,8,24.4999992523194
256,192,134278,1,0,0:0:0:0:
256,192,134436,1,0,0:0:0:0:
256,192,134594,1,8,0:0:0:0:
256,192,134673,1,0,0:0:0:0:
256,192,134752,1,8,0:0:0:0:
256,192,134831,1,8,0:0:0:0:
256,192,134910,1,0,0:0:0:0:
256,192,134989,1,8,0:0:0:0:
256,192,135068,1,0,0:0:0:0:
256,192,135147,1,0,0:0:0:0:
256,192,135226,1,8,0:0:0:0:
256,192,135305,1,0,0:0:0:0:
256,192,135384,1,8,0:0:0:0:
256,192,135463,1,8,0:0:0:0:
256,192,135542,1,8,0:0:0:0:
256,192,135621,1,0,0:0:0:0:
256,192,135700,1,8,0:0:0:0:
256,192,135778,1,8,0:0:0:0:
256,192,135857,1,0,0:0:0:0:
256,192,135936,1,0,0:0:0:0:
256,192,136015,1,8,0:0:0:0:
256,192,136094,1,0,0:0:0:0:
256,192,136173,1,0,0:0:0:0:
256,192,136252,1,8,0:0:0:0:
256,192,136331,1,8,0:0:0:0:
256,192,136410,1,0,0:0:0:0:
256,192,136489,1,8,0:0:0:0:
256,192,136568,1,0,0:0:0:0:
256,192,136647,1,8,0:0:0:0:
256,192,136726,1,8,0:0:0:0:
256,192,136805,1,8,0:0:0:0:
256,192,136884,1,0,0:0:0:0:
256,192,136963,1,8,0:0:0:0:
256,192,137042,1,8,0:0:0:0:
256,192,137121,1,0,0:0:0:0:
256,192,137200,1,0,0:0:0:0:
256,192,137278,1,8,0:0:0:0:
256,192,137357,1,8,0:0:0:0:
256,192,137436,1,0,0:0:0:0:
256,192,137515,1,0,0:0:0:0:
256,192,137594,1,8,0:0:0:0:
256,192,137673,1,0,0:0:0:0:
256,192,137752,1,8,0:0:0:0:
256,192,137831,1,8,0:0:0:0:
256,192,137910,1,8,0:0:0:0:
256,192,137989,1,0,0:0:0:0:
256,192,138068,1,8,0:0:0:0:
256,192,138147,1,0,0:0:0:0:
256,192,138226,1,8,0:0:0:0:
256,192,138305,1,8,0:0:0:0:
256,192,138384,1,0,0:0:0:0:
256,192,138463,1,8,0:0:0:0:
256,192,138542,1,0,0:0:0:0:
256,192,138621,1,0,0:0:0:0:
256,192,138700,1,8,0:0:0:0:
256,192,138778,1,8,0:0:0:0:
256,192,138857,1,0,0:0:0:0:
256,192,138936,1,0,0:0:0:0:
256,192,139015,1,8,0:0:0:0:
256,192,139094,1,8,0:0:0:0:
256,192,139173,1,8,0:0:0:0:
256,192,139252,1,0,0:0:0:0:
256,192,139331,1,8,0:0:0:0:
256,192,139410,1,0,0:0:0:0:
256,192,139489,1,8,0:0:0:0:
256,192,139568,1,8,0:0:0:0:
256,192,139647,1,4,0:0:0:0:
256,192,139963,1,8,0:0:0:0:
256,192,140042,1,8,0:0:0:0:
256,192,140121,1,8,0:0:0:0:
256,192,140200,1,8,0:0:0:0:
256,192,140278,1,8,0:0:0:0:
256,192,140357,1,8,0:0:0:0:
256,192,140436,1,8,0:0:0:0:
256,192,140515,1,8,0:0:0:0:
256,192,140594,1,8,0:0:0:0:
256,192,140673,1,8,0:0:0:0:
256,192,140752,1,8,0:0:0:0:
256,192,140831,1,8,0:0:0:0:
256,192,140910,1,4,0:0:0:0:
256,192,141226,1,8,0:0:0:0:
256,192,141305,1,8,0:0:0:0:
256,192,141384,1,8,0:0:0:0:
256,192,141463,1,8,0:0:0:0:
256,192,141542,1,8,0:0:0:0:
256,192,141621,1,8,0:0:0:0:
256,192,141700,1,8,0:0:0:0:
256,192,141778,1,8,0:0:0:0:
256,192,141857,1,8,0:0:0:0:
256,192,141936,1,8,0:0:0:0:
256,192,142015,1,8,0:0:0:0:
256,192,142094,1,8,0:0:0:0:
256,192,142173,1,4,0:0:0:0:
256,192,142489,1,8,0:0:0:0:
256,192,142568,1,8,0:0:0:0:
256,192,142647,1,8,0:0:0:0:
256,192,142726,1,8,0:0:0:0:
256,192,142805,1,4,0:0:0:0:
256,192,143121,1,8,0:0:0:0:
256,192,143200,1,8,0:0:0:0:
256,192,143278,1,8,0:0:0:0:
256,192,143357,1,8,0:0:0:0:
256,192,143436,1,0,0:0:0:0:
256,192,143515,1,0,0:0:0:0:
256,192,143594,1,0,0:0:0:0:
256,192,143673,1,0,0:0:0:0:
256,192,143752,1,0,0:0:0:0:
256,192,143831,1,0,0:0:0:0:
256,192,143910,1,0,0:0:0:0:
256,192,143989,1,0,0:0:0:0:
256,192,144068,1,8,0:0:0:0:
256,192,144384,1,8,0:0:0:0:
256,192,144700,1,4,0:0:0:0:
256,192,144936,1,0,0:0:0:0:
256,192,145015,1,0,0:0:0:0:
256,192,145173,1,8,0:0:0:0:
256,192,145410,1,8,0:0:0:0:
256,192,145489,1,8,0:0:0:0:
256,192,145647,1,0,0:0:0:0:
256,192,145884,1,8,0:0:0:0:
256,192,145963,1,0,0:0:0:0:
256,192,146594,1,0,0:0:0:0:
256,192,146673,1,0,0:0:0:0:
256,192,146831,1,0,0:0:0:0:
256,192,146910,1,8,0:0:0:0:
256,192,147068,1,8,0:0:0:0:
256,192,147226,1,0,0:0:0:0:
256,192,147463,1,0,0:0:0:0:
256,192,147542,1,0,0:0:0:0:
256,192,147700,1,8,0:0:0:0:
256,192,147936,1,8,0:0:0:0:
256,192,148015,1,8,0:0:0:0:
256,192,148173,1,0,0:0:0:0:
256,192,148410,1,8,0:0:0:0:
256,192,148489,1,0,0:0:0:0:
256,192,148647,1,8,0:0:0:0:
256,192,148805,1,8,0:0:0:0:
256,192,148884,1,8,0:0:0:0:
256,192,148963,1,8,0:0:0:0:
256,192,149042,1,8,0:0:0:0:
256,192,149121,1,8,0:0:0:0:
256,192,149200,1,8,0:0:0:0:
256,192,149278,1,0,0:0:0:0:
256,192,149357,1,0,0:0:0:0:
256,192,149436,1,8,0:0:0:0:
256,192,149594,1,8,0:0:0:0:
256,192,149752,1,4,0:0:0:0:
256,192,149910,1,0,0:0:0:0:
256,192,149989,1,8,0:0:0:0:
256,192,150068,1,8,0:0:0:0:
256,192,150226,1,0,0:0:0:0:
256,192,150305,1,8,0:0:0:0:
256,192,150384,1,0,0:0:0:0:
256,192,150463,1,0,0:0:0:0:
256,192,150542,1,8,0:0:0:0:
256,192,150700,1,8,0:0:0:0:
256,192,150857,1,0,0:0:0:0:
256,192,150936,1,0,0:0:0:0:
256,192,151015,1,0,0:0:0:0:
256,192,151173,1,0,0:0:0:0:
256,192,151331,1,8,0:0:0:0:
256,192,151410,1,8,0:0:0:0:
256,192,151489,1,0,0:0:0:0:
256,192,151647,1,0,0:0:0:0:
256,192,151726,1,0,0:0:0:0:
256,192,151805,1,0,0:0:0:0:
256,192,151884,1,0,0:0:0:0:
256,192,151963,1,8,0:0:0:0:
256,192,152121,1,8,0:0:0:0:
256,192,152278,1,0,0:0:0:0:
256,192,152436,1,0,0:0:0:0:
256,192,152515,1,8,0:0:0:0:
256,192,152594,1,8,0:0:0:0:
256,192,152752,1,0,0:0:0:0:
256,192,152831,1,0,0:0:0:0:
256,192,152910,1,8,0:0:0:0:
256,192,152989,1,0,0:0:0:0:
256,192,153068,1,0,0:0:0:0:
256,192,153226,1,8,0:0:0:0:
256,192,153305,1,8,0:0:0:0:
256,192,153384,1,0,0:0:0:0:
256,192,153542,1,8,0:0:0:0:
256,192,153700,1,8,0:0:0:0:
256,192,153752,1,8,0:0:0:0:
256,192,153805,1,8,0:0:0:0:
256,192,153857,1,0,0:0:0:0:
256,192,153936,1,0,0:0:0:0:
256,192,154015,1,8,0:0:0:0:
256,192,154173,1,8,0:0:0:0:
256,192,154252,1,8,0:0:0:0:
256,192,154331,1,8,0:0:0:0:
256,192,154410,1,8,0:0:0:0:
256,192,154489,1,0,0:0:0:0:
256,192,154647,1,8,0:0:0:0:
256,192,154805,1,4,0:0:0:0:
256,192,155121,1,8,0:0:0:0:
256,192,155436,1,8,0:0:0:0:
256,192,155752,1,8,0:0:0:0:
256,192,156068,1,8,0:0:0:0:
256,192,156384,1,8,0:0:0:0:
256,192,156700,1,8,0:0:0:0:
256,192,157015,1,8,0:0:0:0:
256,192,157331,1,0,0:0:0:0:
256,192,157489,1,0,0:0:0:0:
256,192,157647,1,8,0:0:0:0:
256,192,157805,1,0,0:0:0:0:
256,192,157963,1,8,0:0:0:0:
256,192,158121,1,0,0:0:0:0:
256,192,158278,1,8,0:0:0:0:
256,192,158436,1,0,0:0:0:0:
256,192,158594,1,8,0:0:0:0:
256,192,158752,1,0,0:0:0:0:
256,192,158910,1,8,0:0:0:0:
256,192,159068,1,0,0:0:0:0:
256,192,159226,1,8,0:0:0:0:
256,192,159384,1,0,0:0:0:0:
256,192,159542,1,8,0:0:0:0:
256,192,159700,1,8,0:0:0:0:
256,192,159857,1,0,0:0:0:0:
256,192,159936,1,0,0:0:0:0:
256,192,160015,1,0,0:0:0:0:
256,192,160094,1,0,0:0:0:0:
256,192,160173,1,8,0:0:0:0:
256,192,160252,1,8,0:0:0:0:
256,192,160331,1,8,0:0:0:0:
256,192,160410,1,8,0:0:0:0:
256,192,160489,1,0,0:0:0:0:
256,192,160568,1,0,0:0:0:0:
256,192,160647,1,0,0:0:0:0:
256,192,160726,1,0,0:0:0:0:
256,192,160805,1,8,0:0:0:0:
256,192,160884,1,8,0:0:0:0:
256,192,160963,1,8,0:0:0:0:
256,192,161042,1,8,0:0:0:0:
256,192,161121,1,0,0:0:0:0:
256,192,161200,1,0,0:0:0:0:
256,192,161278,1,0,0:0:0:0:
256,192,161357,1,0,0:0:0:0:
256,192,161436,1,8,0:0:0:0:
256,192,161515,1,8,0:0:0:0:
256,192,161594,1,8,0:0:0:0:
256,192,161673,1,8,0:0:0:0:
256,192,161752,1,0,0:0:0:0:
256,192,161831,1,0,0:0:0:0:
256,192,161910,1,0,0:0:0:0:
256,192,161989,1,0,0:0:0:0:
256,192,162068,1,8,0:0:0:0:
256,192,162147,1,8,0:0:0:0:
256,192,162226,1,8,0:0:0:0:
256,192,162305,1,8,0:0:0:0:
256,192,162384,1,0,0:0:0:0:
256,192,162463,1,0,0:0:0:0:
256,192,162542,1,0,0:0:0:0:
256,192,162621,1,0,0:0:0:0:
256,192,162700,1,0,0:0:0:0:
256,192,162778,1,0,0:0:0:0:
256,192,162857,1,0,0:0:0:0:
256,192,162936,1,0,0:0:0:0:
256,192,163015,1,0,0:0:0:0:
256,192,163094,1,0,0:0:0:0:
256,192,163173,1,0,0:0:0:0:
256,192,163252,1,0,0:0:0:0:
256,192,163331,1,0,0:0:0:0:
256,192,163410,1,0,0:0:0:0:
256,192,163489,1,0,0:0:0:0:
256,192,163568,1,0,0:0:0:0:
256,192,163647,1,8,0:0:0:0:
256,192,163884,1,8,0:0:0:0:
256,192,164121,1,8,0:0:0:0:
256,192,164357,1,8,0:0:0:0:
256,192,164594,1,4,0:0:0:0:
256,192,164752,1,12,0:0:0:0:
256,192,164910,1,4,0:0:0:0:
256,192,165068,1,0,0:0:0:0:
256,192,165147,1,0,0:0:0:0:
256,192,165226,1,8,0:0:0:0:
256,192,165384,1,0,0:0:0:0:
256,192,165542,1,8,0:0:0:0:
256,192,165621,1,8,0:0:0:0:
256,192,165700,1,0,0:0:0:0:
256,192,165778,1,0,0:0:0:0:
256,192,165857,1,8,0:0:0:0:
256,192,165936,1,0,0:0:0:0:
256,192,166094,1,8,0:0:0:0:
256,192,166173,1,0,0:0:0:0:
256,192,166331,1,0,0:0:0:0:
256,192,166489,1,8,0:0:0:0:
256,192,166568,1,8,0:0:0:0:
256,192,166647,1,8,0:0:0:0:
256,192,166726,1,8,0:0:0:0:
256,192,166805,1,0,0:0:0:0:
256,192,166963,1,8,0:0:0:0:
256,192,167042,1,8,0:0:0:0:
256,192,167121,1,8,0:0:0:0:
256,192,167278,1,8,0:0:0:0:
256,192,167436,1,4,0:0:0:0:
256,192,167594,1,0,0:0:0:0:
256,192,167673,1,0,0:0:0:0:
256,192,167752,1,8,0:0:0:0:
256,192,167910,1,0,0:0:0:0:
256,192,168068,1,8,0:0:0:0:
256,192,168147,1,0,0:0:0:0:
256,192,168226,1,8,0:0:0:0:
256,192,168305,1,8,0:0:0:0:
256,192,168384,1,0,0:0:0:0:
256,192,168542,1,0,0:0:0:0:
256,192,168621,1,0,0:0:0:0:
256,192,168700,1,8,0:0:0:0:
256,192,168778,1,8,0:0:0:0:
256,192,168936,1,0,0:0:0:0:
256,192,169015,1,8,0:0:0:0:
256,192,169094,1,8,0:0:0:0:
256,192,169173,1,0,0:0:0:0:
256,192,169331,1,8,0:0:0:0:
256,192,169489,1,0,0:0:0:0:
256,192,169568,1,0,0:0:0:0:
256,192,169647,1,0,0:0:0:0:
256,192,169805,1,8,0:0:0:0:
256,192,169963,1,4,0:0:0:0:
256,192,170121,1,0,0:0:0:0:
256,192,170278,1,8,0:0:0:0:
256,192,170357,1,8,0:0:0:0:
256,192,170436,1,0,0:0:0:0:
256,192,170515,1,0,0:0:0:0:
256,192,170594,1,8,0:0:0:0:
256,192,170752,1,0,0:0:0:0:
256,192,170910,1,8,0:0:0:0:
256,192,171068,1,0,0:0:0:0:
256,192,171147,1,0,0:0:0:0:
256,192,171226,1,8,0:0:0:0:
256,192,171305,1,8,0:0:0:0:
256,192,171463,1,0,0:0:0:0:
256,192,171542,1,8,0:0:0:0:
256,192,171621,1,0,0:0:0:0:
256,192,171700,1,8,0:0:0:0:
256,192,171778,1,8,0:0:0:0:
256,192,171857,1,0,0:0:0:0:
256,192,172015,1,8,0:0:0:0:
256,192,172094,1,8,0:0:0:0:
256,192,172173,1,8,0:0:0:0:
256,192,172331,1,8,0:0:0:0:
256,192,172489,1,0,0:0:0:0:
256,192,172805,1,0,0:0:0:0:
256,192,172963,1,0,0:0:0:0:
256,192,173042,1,0,0:0:0:0:
256,192,173121,1,8,0:0:0:0:
256,192,173436,1,0,0:0:0:0:
256,192,173752,1,0,0:0:0:0:
256,192,173831,1,0,0:0:0:0:
256,192,173910,1,0,0:0:0:0:
256,192,173989,1,8,0:0:0:0:
256,192,174068,1,0,0:0:0:0:
256,192,174147,1,0,0:0:0:0:
256,192,174226,1,0,0:0:0:0:
256,192,174305,1,8,0:0:0:0:
256,192,174384,1,8,0:0:0:0:
256,192,174542,1,0,0:0:0:0:
256,192,174700,1,12,0:0:0:0:
256,192,174857,1,12,0:0:0:0:
256,192,175015,1,4,0:0:0:0:
256,192,175173,1,8,0:0:0:0:
256,192,175252,1,8,0:0:0:0:
256,192,175331,1,0,0:0:0:0:
256,192,175489,1,0,0:0:0:0:
256,192,175568,1,0,0:0:0:0:
256,192,175647,1,8,0:0:0:0:
256,192,175805,1,0,0:0:0:0:
256,192,175963,1,8,0:0:0:0:
256,192,176042,1,8,0:0:0:0:
256,192,176121,1,0,0:0:0:0:
256,192,176200,1,0,0:0:0:0:
256,192,176278,1,8,0:0:0:0:
256,192,176357,1,8,0:0:0:0:
256,192,176436,1,8,0:0:0:0:
256,192,176515,1,0,0:0:0:0:
256,192,176594,1,8,0:0:0:0:
256,192,176673,1,8,0:0:0:0:
256,192,176752,1,8,0:0:0:0:
256,192,176831,1,8,0:0:0:0:
256,192,176910,1,0,0:0:0:0:
256,192,177068,1,8,0:0:0:0:
256,192,177147,1,8,0:0:0:0:
256,192,177226,1,0,0:0:0:0:
256,192,177384,1,0,0:0:0:0:
256,192,177542,1,8,0:0:0:0:
256,192,177621,1,8,0:0:0:0:
256,192,177700,1,0,0:0:0:0:
256,192,177778,1,0,0:0:0:0:
256,192,177857,1,8,0:0:0:0:
256,192,177936,1,8,0:0:0:0:
256,192,178015,1,8,0:0:0:0:
256,192,178094,1,8,0:0:0:0:
256,192,178173,1,0,0:0:0:0:
256,192,178331,1,0,0:0:0:0:
256,192,178489,1,8,0:0:0:0:
256,192,178647,1,8,0:0:0:0:
256,192,178726,1,0,0:0:0:0:
256,192,178805,1,0,0:0:0:0:
256,192,178963,1,0,0:0:0:0:
256,192,179042,1,8,0:0:0:0:
256,192,179121,1,8,0:0:0:0:
256,192,179200,1,8,0:0:0:0:
256,192,179278,1,0,0:0:0:0:
256,192,179357,1,0,0:0:0:0:
256,192,179436,1,8,0:0:0:0:
256,192,179515,1,0,0:0:0:0:
256,192,179594,1,8,0:0:0:0:
256,192,179673,1,8,0:0:0:0:
256,192,179752,1,0,0:0:0:0:
256,192,179910,1,0,0:0:0:0:
256,192,180068,1,12,0:0:0:0:
256,192,180226,1,0,0:0:0:0:
256,192,180305,1,8,0:0:0:0:
256,192,180384,1,8,0:0:0:0:
256,192,180463,1,0,0:0:0:0:
256,192,180621,1,0,0:0:0:0:
256,192,180700,1,0,0:0:0:0:
256,192,180857,1,8,0:0:0:0:
256,192,180936,1,8,0:0:0:0:
256,192,181015,1,0,0:0:0:0:
256,192,181094,1,0,0:0:0:0:
256,192,181252,1,0,0:0:0:0:
256,192,181331,1,8,0:0:0:0:
256,192,181489,1,0,0:0:0:0:
256,192,181568,1,0,0:0:0:0:
256,192,181647,1,8,0:0:0:0:
256,192,181726,1,8,0:0:0:0:
256,192,181884,1,8,0:0:0:0:
256,192,181963,1,0,0:0:0:0:
256,192,182121,1,0,0:0:0:0:
256,192,182200,1,0,0:0:0:0:
256,192,182278,1,8,0:0:0:0:
256,192,182357,1,0,0:0:0:0:
256,192,182515,1,0,0:0:0:0:
256,192,182594,1,8,0:0:0:0:
256,192,182752,1,0,0:0:0:0:
256,192,182831,1,0,0:0:0:0:
256,192,182910,1,8,0:0:0:0:
256,192,182989,1,8,0:0:0:0:
256,192,183068,1,0,0:0:0:0:
256,192,183147,1,0,0:0:0:0:
256,192,183226,1,8,0:0:0:0:
256,192,183384,1,8,0:0:0:0:
256,192,183463,1,8,0:0:0:0:
256,192,183542,1,0,0:0:0:0:
256,192,183621,1,0,0:0:0:0:
256,192,183700,1,8,0:0:0:0:
256,192,183778,1,0,0:0:0:0:
256,192,183857,1,8,0:0:0:0:
256,192,184015,1,0,0:0:0:0:
256,192,184173,1,8,0:0:0:0:
256,192,184331,1,0,0:0:0:0:
256,192,184410,1,8,0:0:0:0:
256,192,184489,1,8,0:0:0:0:
256,192,184647,1,0,0:0:0:0:
256,192,184805,1,8,0:0:0:0:
256,192,184963,1,0,0:0:0:0:
256,192,185042,1,0,0:0:0:0:
256,192,185121,1,8,0:0:0:0:
256,192,185200,1,0,0:0:0:0:
256,192,185278,1,0,0:0:0:0:
256,192,185357,1,8,0:0:0:0:
256,192,185436,1,8,0:0:0:0:
256,192,185515,1,0,0:0:0:0:
256,192,185594,1,0,0:0:0:0:
256,192,185673,1,0,0:0:0:0:
256,192,185752,1,8,0:0:0:0:
256,192,185831,1,0,0:0:0:0:
256,192,185910,1,8,0:0:0:0:
256,192,185989,1,8,0:0:0:0:
256,192,186068,1,0,0:0:0:0:
256,192,186147,1,0,0:0:0:0:
256,192,186226,1,8,0:0:0:0:
256,192,186305,1,0,0:0:0:0:
256,192,186384,1,0,0:0:0:0:
256,192,186463,1,8,0:0:0:0:
256,192,186542,1,8,0:0:0:0:
256,192,186621,1,8,0:0:0:0:
256,192,186700,1,0,0:0:0:0:
256,192,186778,1,0,0:0:0:0:
256,192,186857,1,8,0:0:0:0:
256,192,186936,1,0,0:0:0:0:
256,192,187015,1,8,0:0:0:0:
256,192,187094,1,8,0:0:0:0:
256,192,187173,1,0,0:0:0:0:
256,192,187252,1,8,0:0:0:0:
256,192,187331,1,0,0:0:0:0:
256,192,187410,1,0,0:0:0:0:
256,192,187489,1,8,0:0:0:0:
256,192,187568,1,8,0:0:0:0:
256,192,187647,1,8,0:0:0:0:
256,192,187726,1,0,0:0:0:0:
256,192,187805,1,8,0:0:0:0:
256,192,187884,1,8,0:0:0:0:
256,192,187963,1,0,0:0:0:0:
256,192,188042,1,0,0:0:0:0:
256,192,188121,1,8,0:0:0:0:
256,192,188200,1,0,0:0:0:0:
256,192,188278,1,0,0:0:0:0:
256,192,188357,1,0,0:0:0:0:
256,192,188436,1,8,0:0:0:0:
256,192,188515,1,8,0:0:0:0:
256,192,188594,1,0,0:0:0:0:
256,192,188673,1,0,0:0:0:0:
256,192,188752,1,8,0:0:0:0:
256,192,188910,12,0,191436,0:0:0:0:
