osu file format v14

[General]
AudioFilename: audio.mp3
AudioLeadIn: 0
PreviewTime: 159247
Countdown: 0
SampleSet: Soft
StackLeniency: 0.5
Mode: 0
LetterboxInBreaks: 0
WidescreenStoryboard: 0

[Editor]
DistanceSpacing: 0.5
BeatDivisor: 4
GridSize: 4
TimelineZoom: 2.1

[Metadata]
Title:Time Alter
TitleUnicode:Time Alter
Artist:Cranky
ArtistUnicode:Cranky
Creator:Mirash
Version:Extra
Source:
Tags:trynna pandahero pishifat mappers' guild osu! featured artist fa RECORD5 SPEED hiroshi watanabe feline groove
BeatmapID:1773168
BeatmapSetID:847900

[Difficulty]
HPDrainRate:7
CircleSize:4
OverallDifficulty:8
ApproachRate:9.3
SliderMultiplier:2
SliderTickRate:1

[Events]
//Background and Video events
0,0,"blackbird.jpg",0,0
//Break Periods
//Storyboard Layer 0 (Background)
//Storyboard Layer 1 (Fail)
//Storyboard Layer 2 (Pass)
//Storyboard Layer 3 (Foreground)
//Storyboard Sound Samples

[TimingPoints]
12016,439.56043956044,3,2,1,40,1,0
29488,-166.666666666667,3,2,1,40,0,0
29598,441.176470588235,3,2,1,40,1,0
29598,-100,3,2,1,40,0,0
30480,441.176470588235,3,2,1,60,1,0
33127,-100,3,2,1,60,0,0
54303,-66.6666666666667,3,2,1,70,0,0
54744,-83.3333333333333,3,2,1,70,0,0
64891,-66.6666666666667,3,2,1,70,0,0
65332,-83.3333333333333,3,2,1,70,0,0
76803,-500,3,2,1,30,0,0
82979,-250,3,2,1,50,0,0
84082,-166.666666666667,3,2,1,50,0,0
84744,-125,3,2,1,50,0,0
86068,-125,3,2,1,60,0,0
90038,-333.333333333333,3,2,1,70,0,0
94009,-500,3,2,1,70,0,0
95332,-1000,3,2,1,90,0,0
96656,-66.6666666666667,3,2,1,60,0,0
97097,-83.3333333333333,3,2,1,60,0,0
112538,-71.4285714285714,3,2,1,60,0,0
123126,-333.333333333333,3,2,1,32,0,0
124449,-200,3,2,1,36,0,0
125773,-142.857142857143,3,2,1,40,0,0
127097,-111.111111111111,3,2,1,44,0,0
128420,-90.9090909090908,3,2,1,48,0,0
129744,-76.9230769230769,3,2,1,52,0,0
131067,-66.6666666666667,3,2,1,56,0,0
132391,-58.8235294117647,3,2,1,60,0,0
132832,-58.8235294117647,3,2,1,65,0,0
133274,-58.8235294117647,3,2,1,30,0,0
135149,-333.333333333333,3,2,1,20,0,0
136472,-166.666666666667,3,2,1,30,0,0
137024,-166.666666666667,3,2,1,50,0,0
137685,375,4,2,1,50,1,0
138247,-100,4,2,1,30,0,0
149685,-57.1428571428571,4,2,1,60,0,0
151185,-83.3333333333333,4,2,1,70,0,0
155685,-57.1428571428571,4,2,1,70,0,0
156060,-83.3333333333333,4,2,1,70,0,0
161685,-71.4285714285714,4,2,1,70,0,0
173685,-57.1428571428571,4,2,1,70,0,0
174060,-71.4285714285714,4,2,1,70,0,0
185685,-57.1428571428571,4,2,1,70,0,0
186060,-71.4285714285714,4,2,1,70,0,0
187185,-57.1428571428571,4,2,1,70,0,0
187560,-71.4285714285714,4,2,1,70,0,0
188685,-57.1428571428571,4,2,1,70,0,0
189060,-71.4285714285714,4,2,1,70,0,0
190185,-57.1428571428571,4,2,1,70,0,0
190560,-71.4285714285714,4,2,1,70,0,0
190747,-57.1428571428571,4,2,1,70,0,0
191122,-71.4285714285714,4,2,1,70,0,0
191310,-57.1428571428571,4,2,1,70,0,0
192060,-71.4285714285714,4,2,1,70,0,0
193185,-57.1428571428571,4,2,1,70,0,0
193560,-71.4285714285714,4,2,1,70,0,0
194685,-57.1428571428571,4,2,1,70,0,0
195060,-71.4285714285714,4,2,1,70,0,0
196185,-50,4,2,1,70,0,0
197685,375,7,2,1,70,1,0
197685,-200,4,2,1,70,0,0
198060,-71.4285714285714,4,2,1,70,0,0
198435,-50,4,2,1,70,0,0
198810,-71.4285714285714,4,2,1,70,0,0
200966,-50,4,2,1,70,0,0
201435,-71.4285714285714,4,2,1,70,0,0
203685,-50,4,2,1,70,0,0
204060,-71.4285714285714,4,2,1,70,0,0
206310,-50,4,2,1,70,0,0
206685,-71.4285714285714,4,2,1,70,0,0
208560,375,4,2,1,70,1,0
208560,-66.6666666666667,4,2,1,70,0,0
208935,-66.6666666666667,4,2,2,70,0,0
211560,-66.6666666666667,4,2,1,70,0,0
213060,-200,4,2,1,70,0,0
213341,-66.6666666666667,4,2,1,70,0,0
214935,-66.6666666666667,4,2,2,70,0,0
217560,-66.6666666666667,4,2,1,70,0,0
217935,-66.6666666666667,4,2,2,70,0,0
219060,-66.6666666666667,4,2,1,70,0,0
220560,-66.6666666666667,4,3,1,70,0,0
226560,-45.4545454545455,4,2,1,70,0,0
226841,-71.4285714285714,4,2,1,70,0,0
228060,-45.4545454545455,4,2,1,70,0,0
228435,-71.4285714285714,4,2,1,70,0,0
229560,-45.4545454545455,4,2,1,70,0,0
229935,-71.4285714285714,4,2,1,70,0,0
231060,-55.5555555555556,4,2,1,70,0,0
232185,-71.4285714285714,4,2,1,70,0,0
232560,-55.5555555555556,4,2,1,70,0,0
232935,-71.4285714285714,4,2,1,70,0,0
234060,-45.4545454545455,4,2,1,70,0,0
234435,-71.4285714285714,4,2,1,70,0,0
235560,-45.4545454545455,4,2,1,70,0,0
235935,-71.4285714285714,4,2,1,70,0,0
237060,-45.4545454545455,4,2,1,70,0,0
238185,-33.3333333333333,4,2,1,70,0,0
238560,375,7,2,1,70,1,0
238560,-62.5,4,2,1,70,0,0
239310,-38.4615384615385,4,2,1,70,0,0
239685,-62.5,4,2,1,70,0,0
241935,-38.4615384615385,4,2,1,70,0,0
242310,-62.5,4,2,1,70,0,0
244560,-38.4615384615385,4,2,1,70,0,0
244935,-62.5,4,2,1,70,0,0
247185,-38.4615384615385,4,2,1,70,0,0
247560,-62.5,4,2,1,70,0,0
249060,-71.4285714285714,4,2,1,70,0,0
249435,375,4,2,1,70,1,0
249435,-71.4285714285714,4,2,1,70,0,0

[Colours]
Combo1 : 255,255,255
Combo2 : 12,73,114
Combo3 : 102,163,217

[HitObjects]
15,195,12016,6,0,L|146:188,1,100,4|0,0:1|0:0,0:0:0:0:
186,237,12455,1,2,0:0:0:0:
186,237,12675,1,0,0:0:0:0:
269,230,12895,1,0,0:0:0:0:
269,230,13114,1,0,0:0:0:0:
417,296,13334,6,0,L|317:301,1,100,2|0,0:0|0:0,0:0:0:0:
457,214,13774,2,0,L|357:219,1,100,2|0,0:0|0:0,0:0:0:0:
281,161,14213,1,0,0:0:0:0:
281,161,14433,1,0,0:0:0:0:
109,112,14653,6,0,L|240:105,1,100,2|0,0:0|0:0,0:0:0:0:
38,38,15092,2,0,L|169:31,1,100,2|0,0:0|0:0,0:0:0:0:
231,26,15532,1,0,0:0:0:0:
231,26,15752,1,0,0:0:0:0:
395,96,15972,6,0,L|264:89,1,100,2|0,0:0|0:0,0:0:0:0:
142,168,16411,2,0,L|273:161,1,100,2|0,0:0|0:0,0:0:0:0:
397,238,16851,2,0,L|266:231,1,100,2|0,0:0|0:0,0:0:0:0:
418,326,17290,6,0,L|423:226,1,100,4|0,0:0|0:0,0:0:0:0:
326,315,17730,1,2,0:0:0:0:
326,315,17950,1,0,0:0:0:0:
251,326,18169,1,0,0:0:0:0:
251,326,18389,1,0,0:0:0:0:
165,241,18609,6,0,L|170:340,1,100,2|0,0:0|0:0,0:0:0:0:
78,195,19048,2,0,L|83:294,1,100,2|0,0:0|0:0,0:0:0:0:
40,362,19488,1,0,0:0:0:0:
40,362,19708,1,0,0:0:0:0:
12,189,19928,5,2,0:0:0:0:
53,125,20147,1,0,0:0:0:0:
116,170,20367,1,2,0:0:0:0:
251,130,20587,2,0,L|254:26,2,100
376,313,21246,5,2,0:0:0:0:
390,238,21466,1,0,0:0:0:0:
316,221,21686,1,2,0:0:0:0:
300,298,21906,1,0,0:0:0:0:
397,324,22125,5,2,0:0:0:0:
401,219,22345,1,0,0:0:0:0:
293,224,22565,6,0,L|193:229,1,100,2|0,0:0|0:0,0:0:0:0:
123,187,23005,1,0,0:0:0:0:
123,187,23224,1,0,0:0:0:0:
34,196,23444,1,0,0:0:0:0:
34,196,23664,1,0,0:0:0:0:
78,103,23884,6,0,L|177:108,1,100,2|0,0:0|0:0,0:0:0:0:
34,17,24323,2,0,L|133:22,1,100,2|0,0:0|0:0,0:0:0:0:
220,23,24763,1,0,0:0:0:0:
220,23,24983,1,0,0:0:0:0:
403,52,25202,6,0,L|303:57,1,100,2|0,0:0|0:0,0:0:0:0:
468,134,25642,2,0,L|368:139,1,100,2|0,0:0|0:0,0:0:0:0:
299,187,26081,1,0,0:0:0:0:
299,187,26301,1,0,0:0:0:0:
93,274,26521,6,0,B|81:223|81:223|100:172,1,100,2|0,0:0|0:0,0:0:0:0:
312,267,26961,2,0,B|324:318|324:318|305:369,1,100,2|0,0:0|0:0,0:0:0:0:
200,366,27400,2,0,L|212:152,1,200,2|4,0:0|0:0,0:0:0:0:
226,181,28059,1,0,0:0:0:0:
226,181,28279,1,0,0:0:0:0:
226,181,28499,1,0,0:0:0:0:
226,181,28719,2,0,L|232:61,1,100
502,192,29158,5,2,3:2:0:0:
502,192,29488,2,0,P|501:199|501:210,2,14.9999995422363,0|0|4,3:0|3:0|3:0,3:0:0:0:
343,338,29928,1,4,3:0:0:0:
351,319,30039,2,0,L|339:206,1,100,0|4,3:0|3:0,0:0:0:0:
187,106,30480,5,2,3:1:0:0:
191,110,30810,1,0,3:0:0:0:
191,110,30921,1,4,3:0:0:0:
112,88,31141,1,4,3:0:0:0:
96,161,31362,1,2,3:1:0:0:
177,189,31582,1,0,3:0:0:0:
177,189,31693,1,0,3:0:0:0:
177,189,31803,1,4,3:0:0:0:
297,159,32024,5,2,3:1:0:0:
348,290,32244,1,4,3:0:0:0:
219,308,32465,1,2,3:1:0:0:
273,241,32685,5,0,3:0:0:0:
307,315,32906,1,2,3:1:0:0:
30,237,33127,6,0,L|37:121,1,100,6|0,1:0|0:0,0:0:0:0:
63,126,33457,1,0,0:0:0:0:
60,95,33568,1,0,1:0:0:0:
202,14,33788,1,0,0:0:0:0:
203,44,33899,1,0,1:0:0:0:
180,63,34009,2,0,L|189:177,1,100,0|4,1:0|3:3,0:0:0:0:
312,254,34450,5,2,3:2:0:0:
487,136,34671,1,4,3:0:0:0:
479,164,34781,1,0,1:0:0:0:
472,193,34891,2,0,L|372:200,1,100,2|2,1:0|0:1,0:0:0:0:
162,319,35332,2,2,P|189:263|321:252,1,200,2|4,1:0|3:0,1:0:0:0:
398,350,35994,5,0,0:0:0:0:
398,350,36105,1,4,3:0:0:0:
398,350,36215,2,0,L|400:242,1,100,0|0,1:0|0:0,0:0:0:0:
457,205,36546,1,0,1:0:0:0:
390,171,36656,2,0,L|388:63,1,100,0|4,0:0|3:0,0:0:0:0:
252,49,37097,5,0,1:0:0:0:
222,52,37207,1,2,3:0:0:0:
192,55,37318,1,4,3:0:0:0:
162,58,37428,1,2,3:0:0:0:
132,62,37538,1,0,1:0:0:0:
219,155,37759,1,4,3:0:0:0:
249,158,37869,1,2,1:3:0:0:
279,162,37979,1,0,0:0:0:0:
338,336,38200,5,0,1:0:0:0:
261,326,38310,1,0,1:0:0:0:
184,316,38421,1,4,1:0:0:0:
127,233,38641,5,4,3:0:0:0:
61,326,38862,2,0,L|54:213,1,100,0|0,1:0|0:0,0:0:0:0:
4,176,39193,1,0,1:0:0:0:
78,148,39303,2,0,L|85:35,1,100,0|4,3:0|3:0,0:0:0:0:
92,53,39634,1,2,3:2:0:0:
92,53,39744,2,0,L|148:55,1,50
193,114,39965,2,0,L|323:119,2,100,4|0|0,3:0|1:0|0:0,0:0:0:0:
159,127,40516,1,0,3:0:0:0:
146,154,40627,1,4,3:0:0:0:
146,184,40737,1,0,1:0:0:0:
187,211,40847,5,4,3:0:0:0:
202,258,40957,1,6,3:0:0:0:
186,305,41068,2,0,L|81:312,1,100,0|0,1:0|0:0,0:0:0:0:
275,279,41509,2,0,L|374:272,1,100,0|4,1:0|3:0,0:0:0:0:
445,286,41840,1,0,1:0:0:0:
428,213,41950,2,0,L|421:113,1,100,2|4,3:2|3:0,0:0:0:0:
262,18,42391,5,0,1:0:0:0:
252,95,42502,1,2,3:0:0:0:
242,172,42612,1,4,3:0:0:0:
152,250,42832,5,6,3:0:0:0:
0,378,43053,1,4,3:0:0:0:
29,372,43163,1,2,1:3:0:0:
53,353,43274,1,4,3:0:0:0:
67,328,43384,1,2,3:0:0:0:
150,313,43494,5,0,1:0:0:0:
104,254,43604,1,2,3:0:0:0:
137,186,43715,2,0,B|151:138|151:138|132:65,1,100,4|0,1:0|0:0,0:0:0:0:
257,11,44156,5,0,1:0:0:0:
315,69,44377,1,0,0:0:0:0:
318,99,44487,1,0,1:0:0:0:
321,128,44597,1,0,1:0:0:0:
237,227,44818,2,0,L|240:117,2,100,4|2|2,3:0|3:2|3:2,0:0:0:0:
406,252,45479,2,0,B|351:237|351:237|307:253,1,100,0|0,1:0|0:0,0:0:0:0:
313,281,45810,1,2,3:0:0:0:
314,311,45921,1,2,3:0:0:0:
315,340,46031,1,0,3:0:0:0:
316,369,46141,1,0,1:0:0:0:
504,201,46362,5,0,1:0:0:0:
504,201,46582,1,4,3:0:0:0:
504,201,46693,1,0,0:0:0:0:
504,201,46803,2,0,L|499:95,1,100,0|0,1:0|0:0,0:0:0:0:
445,47,47134,1,2,3:2:0:0:
400,108,47244,2,0,L|300:103,1,100,0|4,1:0|3:0,0:0:0:0:
206,185,47685,5,0,1:0:0:0:
176,179,47796,1,2,3:0:0:0:
146,173,47906,1,4,3:0:0:0:
116,168,48016,1,2,3:0:0:0:
86,163,48127,1,0,1:0:0:0:
161,291,48347,1,2,3:0:0:0:
161,291,48457,1,2,3:0:0:0:
161,291,48568,1,2,3:2:0:0:
161,291,48678,1,0,1:0:0:0:
196,360,48788,5,4,3:0:0:0:
265,325,48899,1,0,1:0:0:0:
230,256,49009,2,0,L|239:134,1,100,4|0,1:0|0:0,0:0:0:0:
23,193,49450,2,0,L|14:71,1,100,0|0,1:0|0:0,0:0:0:0:
75,42,49781,1,0,1:0:0:0:
153,44,49891,2,0,L|145:143,1,100,0|4,0:0|3:0,0:0:0:0:
358,246,50332,6,0,L|351:147,2,100,2|4|0,3:2|3:0|1:0,0:0:0:0:
263,124,50994,1,0,3:0:0:0:
206,354,51215,1,0,1:0:0:0:
206,354,51325,1,2,1:3:0:0:
206,354,51435,1,0,3:0:0:0:
206,354,51546,1,4,3:0:0:0:
206,354,51656,2,0,L|213:254,1,100,0|0,1:0|0:0,0:0:0:0:
474,131,52097,6,0,L|481:230,1,100,0|4,1:0|3:0,0:0:0:0:
432,290,52428,1,0,1:0:0:0:
370,248,52538,2,0,L|320:251,1,50,2|0,3:2|0:0,0:0:0:0:
305,243,52759,2,0,L|355:240,1,50,2|0,1:0|0:0,0:0:0:0:
340,232,52979,6,2,L|208:239,1,100,4|2,3:0|3:1,1:0:0:0:
176,194,53310,5,2,3:0:0:0:
139,223,53421,1,2,1:0:0:0:
136,264,53531,1,0,3:0:0:0:
214,313,53641,5,2,3:3:0:0:
240,237,53752,1,2,1:0:0:0:
176,194,53862,2,0,L|167:160,2,33.3333333333333,2|0|0,1:3|1:0|1:0,0:0:0:0:
404,98,54193,5,0,1:0:0:0:
452,41,54303,2,2,B|345:9|345:9|232:56,1,225.000008583069,6|4,1:0|3:0,1:0:0:0:
189,20,54744,6,0,L|195:142,1,119.999996337891,0|0,1:0|0:0,0:0:0:0:
205,175,55075,1,2,3:2:0:0:
170,174,55185,1,0,0:0:0:0:
134,172,55296,1,2,3:2:0:0:
99,170,55406,1,4,3:0:0:0:
43,292,55627,6,0,L|172:282,2,119.999996337891,2|2|0,3:2|3:2|1:0,0:0:0:0:
236,242,56288,1,4,3:0:0:0:
270,251,56399,1,2,3:2:0:0:
304,259,56509,2,0,L|423:268,1,119.999996337891,2|0,3:2|1:0,0:0:0:0:
256,148,56950,5,4,3:0:0:0:
256,148,57060,1,0,0:0:0:0:
256,148,57171,2,0,L|259:67,1,59.9999981689454,4|0,3:0|0:0,0:0:0:0:
248,63,57391,2,0,L|395:71,1,119.999996337891,0|0,1:0|0:0,0:0:0:0:
174,131,57832,2,0,L|54:124,1,119.999996337891,2|4,3:2|3:0,0:0:0:0:
254,326,58274,5,4,3:0:0:0:
268,293,58384,1,2,3:0:0:0:
247,263,58494,1,0,0:0:0:0:
266,232,58604,1,2,3:0:0:0:
266,232,58715,2,0,L|146:238,1,119.999996337891,0|0,1:0|0:0,0:0:0:0:
118,215,59046,1,4,3:0:0:0:
82,221,59156,1,2,3:2:0:0:
46,227,59266,1,4,3:0:0:0:
13,293,59377,5,0,1:0:0:0:
30,363,59487,1,0,1:0:0:0:
103,347,59597,2,0,L|222:340,1,119.999996337891,4|0,1:0|0:0,0:0:0:0:
437,288,60038,5,0,1:0:0:0:
321,268,60259,1,0,0:0:0:0:
329,302,60369,1,0,1:0:0:0:
337,336,60479,2,0,L|351:200,1,119.999996337891,0|4,0:0|3:0,0:0:0:0:
287,174,60810,1,2,3:2:0:0:
354,139,60921,2,0,L|341:19,1,119.999996337891,0|4,0:0|3:0,0:0:0:0:
424,178,61362,1,0,1:0:0:0:
210,160,61582,5,2,3:2:0:0:
66,246,61803,1,0,1:0:0:0:
101,240,61913,1,2,3:0:0:0:
136,235,62024,1,2,3:2:0:0:
171,229,62134,1,2,3:0:0:0:
171,229,62244,2,0,L|40:223,1,119.999996337891,4|0,3:0|0:0,0:0:0:0:
251,364,62685,6,0,B|233:307|233:307|250:238,1,119.999996337891,0|0,1:0|0:0,0:0:0:0:
322,241,63016,1,0,1:0:0:0:
368,302,63127,2,0,L|497:295,1,119.999996337891,2|4,3:2|3:0,0:0:0:0:
330,225,63568,5,2,3:0:0:0:
325,153,63678,1,2,3:2:0:0:
320,81,63788,1,2,3:0:0:0:
329,6,64009,6,0,L|326:142,1,119.999996337891,0|4,1:0|3:0,0:0:0:0:
265,176,64340,1,2,3:0:0:0:
265,176,64450,2,0,B|231:171|231:171|193:183,2,59.9999981689454,0|2|0,1:0|3:0|1:0,0:0:0:0:
422,376,64781,5,0,1:0:0:0:
454,310,64891,2,0,B|349:270|349:270|213:307,1,225.000008583069,4|0,1:0|0:0,0:0:0:0:
199,341,65332,6,0,L|191:214,1,119.999996337891,4|0,1:3|0:0,0:0:0:0:
148,153,65663,1,4,3:0:0:0:
148,153,65774,1,0,1:0:0:0:
148,153,65884,2,0,P|196:139|234:69,1,119.999996337891,4|0,3:0|0:0,0:0:0:0:
313,25,66215,6,0,L|323:155,1,119.999996337891,4|0,1:3|0:0,0:0:0:0:
406,188,66546,2,0,L|410:111,1,59.9999981689454,4|0,3:0|1:0,0:0:0:0:
422,124,66766,2,0,L|418:183,1,59.9999981689454,4|0,3:0|0:0,0:0:0:0:
250,245,66987,5,2,3:2:0:0:
272,236,67097,2,0,L|331:244,1,59.9999981689454,4|0,3:0|0:0,0:0:0:0:
399,336,67318,1,0,1:0:0:0:
374,352,67428,2,0,L|314:348,1,59.9999981689454,4|0,3:0|0:0,0:0:0:0:
231,323,67649,1,0,1:0:0:0:
190,353,67759,2,0,L|101:343,1,59.9999981689454,4|0,3:0|0:0,0:0:0:0:
45,320,67979,6,0,L|175:334,1,119.999996337891,4|0,1:3|0:0,0:0:0:0:
196,324,68310,2,0,L|136:317,1,59.9999981689454,4|0,3:0|1:0,0:0:0:0:
128,305,68531,2,0,L|187:311,1,59.9999981689454,4|0,3:0|0:0,0:0:0:0:
244,263,68752,5,0,0:0:0:0:
277,276,68862,2,0,L|269:191,2,59.9999981689454,4|2|0,1:3|3:0|0:0,0:0:0:0:
352,292,69193,2,0,L|346:351,1,59.9999981689454,6|0,3:0|0:0,0:0:0:0:
360,364,69413,2,0,L|365:304,1,59.9999981689454,4|2,3:0|3:0,0:0:0:0:
281,142,69634,5,4,3:0:0:0:
291,125,69744,2,0,L|296:202,1,59.9999981689454,6|0,3:0|0:0,0:0:0:0:
216,94,69965,5,0,1:0:0:0:
178,29,70075,1,8,1:0:0:0:
119,75,70185,2,0,L|-1:63,1,119.999996337891,4|0,1:0|0:0,0:0:0:0:
262,29,70627,2,0,L|382:41,1,119.999996337891,8|0,1:0|0:0,0:0:0:0:
381,40,70957,2,0,L|261:52,1,119.999996337891,0|0,1:0|0:0,0:0:0:0:
171,195,71288,5,0,1:0:0:0:
171,195,71399,1,2,3:2:0:0:
171,195,71509,2,0,L|243:187,1,59.9999981689454,0|0,1:0|0:0,0:0:0:0:
300,214,71729,2,0,L|372:206,1,59.9999981689454,0|0,1:0|0:0,0:0:0:0:
429,233,71950,2,0,L|501:225,2,59.9999981689454,8|0|0,1:0|0:0|0:0,0:0:0:0:
374,283,72281,5,4,3:0:0:0:
352,322,72391,2,0,L|280:314,1,59.9999981689454,0|0,1:0|0:0,0:0:0:0:
223,341,72612,2,0,L|151:333,1,59.9999981689454,0|0,1:0|0:0,0:0:0:0:
96,372,72832,5,0,1:0:0:0:
30,336,72943,1,4,3:0:0:0:
38,263,73053,1,2,3:2:0:0:
106,227,73163,1,4,3:0:0:0:
176,263,73274,2,0,B|201:194|201:194|180:129,1,119.999996337891,8|4,1:0|3:0,0:0:0:0:
107,122,73604,5,8,1:0:0:0:
148,56,73715,2,0,L|154:125,1,59.9999981689454,2|4,3:2|3:0,0:0:0:0:
281,213,73935,2,0,L|286:153,1,59.9999981689454,8|0,1:0|0:0,0:0:0:0:
473,359,74156,5,8,1:0:0:0:
440,288,74266,1,0,1:0:0:0:
363,302,74377,2,0,B|332:300|332:300|292:313,1,59.9999981689454,8|4,1:0|3:0,0:0:0:0:
372,187,74597,5,4,1:3:0:0:
403,115,74707,1,0,0:0:0:0:
474,146,74818,1,8,1:0:0:0:
441,216,74928,1,0,1:0:0:0:
409,171,75038,5,4,1:3:0:0:
417,153,75149,1,0,1:0:0:0:
435,161,75259,1,8,1:0:0:0:
427,178,75369,1,6,3:0:0:0:
252,192,75479,5,4,1:0:0:0:
252,192,76803,6,0,L|130:184,1,120,2|2,0:0|0:0,0:0:0:0:
53,161,79450,6,0,P|39:216|57:281,1,120,2|2,0:0|0:0,0:0:0:0:
117,317,82097,6,0,L|179:312,1,60,2|2,0:0|0:0,0:0:0:0:
254,336,82979,6,2,L|259:288,1,40,2|0,0:1|0:0,0:1:0:0:
332,275,83421,6,0,L|322:183,1,80,2|0,0:0|0:0,0:0:0:0:
406,162,84082,6,0,L|324:72,1,119.999996337891,2|0,0:0|0:0,0:0:0:0:
280,8,84744,6,0,P|213:15|70:292,1,400,2|0,0:0|0:0,0:0:0:0:
254,373,86068,5,4,0:1:0:0:
334,347,86729,5,2,0:0:0:0:
341,354,87171,1,0,0:0:0:0:
341,354,87391,1,2,0:0:0:0:
174,320,88715,5,2,0:0:0:0:
192,337,89156,1,2,0:0:0:0:
192,337,89266,1,0,3:0:0:0:
192,337,89377,1,0,0:0:0:0:
192,337,89487,1,0,3:0:0:0:
192,337,89597,1,2,3:2:0:0:
231,276,89818,1,0,0:0:0:0:
162,250,90038,6,0,P|164:201|160:112,1,120,2|0,0:0|3:0,0:0:0:0:
161,130,91141,1,0,3:0:0:0:
326,48,91362,5,4,0:1:0:0:
329,51,91803,1,2,0:0:0:0:
406,24,92024,1,0,0:0:0:0:
406,24,92134,1,2,0:0:0:0:
406,24,92244,1,0,3:0:0:0:
434,93,92465,1,2,0:0:0:0:
364,123,92685,6,0,P|361:182|363:242,1,120,2|2,0:0|0:0,0:0:0:0:
60,358,94009,6,0,P|62:298|61:273,1,80,4|2,0:0|0:0,0:0:0:0:
485,180,95332,6,2,P|483:209|485:233,1,50,2|0,0:0|0:0,0:0:0:0:
312,132,96656,6,0,B|206:83|206:83|82:145,1,225.000008583069,4|0,1:0|0:0,0:0:0:0:
66,126,97097,6,0,P|75:189|73:253,1,119.999996337891,8|0,1:0|0:0,0:0:0:0:
105,263,97428,1,4,3:0:0:0:
105,298,97538,1,0,0:0:0:0:
281,226,97759,1,4,3:0:0:0:
211,370,97979,2,0,P|209:304|208:237,1,119.999996337891,2|0,0:0|0:0,0:0:0:0:
173,238,98310,1,0,0:0:0:0:
173,201,98421,1,8,1:0:0:0:
390,200,98641,5,4,3:0:0:0:
424,189,98752,1,2,3:0:0:0:
457,201,98862,1,4,3:0:0:0:
491,190,98972,1,2,3:0:0:0:
491,190,99082,2,0,P|485:257|485:276,1,59.9999981689454
433,308,99303,6,0,P|373:299|313:300,1,119.999996337891,4|0,1:2|0:0,0:0:0:0:
157,168,99744,5,8,1:0:0:0:
155,132,99854,1,0,0:0:0:0:
158,95,99965,1,2,0:0:0:0:
158,59,100075,1,4,3:0:0:0:
156,23,100185,2,0,P|236:30|284:26,1,119.999996337891,0|4,0:0|3:0,0:0:0:0:
405,161,100627,5,0,1:0:0:0:
440,168,100737,1,2,3:0:0:0:
328,96,100957,1,0,1:0:0:0:
292,100,101068,1,2,3:0:0:0:
210,246,101288,1,4,3:0:0:0:
246,244,101399,1,2,3:0:0:0:
281,242,101509,1,0,3:0:0:0:
78,208,101729,5,0,1:0:0:0:
7,194,101950,2,0,P|10:261|6:359,1,119.999996337891,4|0,1:0|0:0,0:0:0:0:
271,143,102391,2,0,P|268:76|272:-22,1,119.999996337891,8|0,1:0|0:0,0:0:0:0:
234,35,102722,1,4,3:0:0:0:
201,18,102832,1,0,0:0:0:0:
166,28,102943,1,4,3:0:0:0:
131,18,103053,1,0,0:0:0:0:
4,139,103274,6,0,P|48:139|93:66,1,119.999996337891,2|0,0:0|0:0,0:0:0:0:
324,147,103715,2,0,L|176:139,1,119.999996337891,8|4,1:0|3:0,0:0:0:0:
175,163,104046,1,0,0:0:0:0:
184,197,104156,1,4,3:0:0:0:
176,235,104266,1,0,1:0:0:0:
185,267,104377,1,4,3:0:0:0:
180,302,104487,1,0,0:0:0:0:
190,336,104597,2,0,L|338:328,1,119.999996337891,4|0,1:2|0:0,0:0:0:0:
489,234,105038,6,0,P|419:238|398:349,1,179.999994506836,8|0,1:0|0:0,0:0:0:0:
385,367,105479,2,0,L|511:341,1,119.999996337891,4|4,3:0|3:0,0:0:0:0:
309,239,105921,5,0,1:0:0:0:
291,207,106031,1,2,3:0:0:0:
403,55,106252,1,0,1:0:0:0:
402,91,106362,1,2,3:0:0:0:
236,74,106582,1,4,3:0:0:0:
200,80,106693,1,2,3:0:0:0:
164,86,106803,1,0,3:0:0:0:
37,221,107024,5,0,1:0:0:0:
109,213,107134,1,0,1:0:0:0:
181,205,107244,1,6,1:0:0:0:
256,265,107465,1,2,0:1:0:0:
331,207,107685,1,8,1:0:0:0:
254,142,107906,1,2,0:1:0:0:
215,369,108127,6,2,B|280:338|280:338|396:371,1,179.999994506836,2|0,1:0|0:0,1:0:0:0:
419,376,108568,2,2,P|412:322|411:249,1,119.999996337891,4|2,3:0|1:0,1:1:0:0:
325,188,109009,1,10,1:0:0:0:
330,152,109119,1,0,0:0:0:0:
326,116,109229,1,4,3:0:0:0:
327,79,109340,1,0,0:0:0:0:
327,79,109450,2,0,L|201:71,1,119.999996337891,4|0,3:0|0:0,0:0:0:0:
40,68,109891,6,0,P|113:92|134:246,1,239.999992675781,2|8,1:0|1:0,0:0:0:0:
57,352,110553,1,4,3:0:0:0:
69,305,110663,1,2,3:0:0:0:
49,260,110774,1,4,3:0:0:0:
65,214,110884,1,2,3:0:0:0:
50,168,110994,1,0,1:0:0:0:
254,188,111215,5,0,1:0:0:0:
254,188,111325,1,2,3:0:0:0:
257,372,111546,1,0,1:0:0:0:
257,372,111656,1,2,3:0:0:0:
257,372,111766,1,0,1:0:0:0:
257,12,111987,1,0,1:0:0:0:
257,12,112097,1,2,3:0:0:0:
257,12,112207,1,2,3:0:0:0:
257,12,112318,1,0,1:0:0:0:
257,12,112428,1,8,1:0:0:0:
257,12,112538,1,4,1:0:0:0:
264,102,112759,5,0,0:0:0:0:
262,196,112979,1,8,1:0:0:0:
273,291,113200,1,4,3:0:0:0:
273,291,113310,1,0,0:0:0:0:
273,291,113421,1,4,3:0:0:0:
287,180,113641,5,0,0:0:0:0:
247,75,113862,1,0,1:0:0:0:
343,19,114082,1,0,0:0:0:0:
394,118,114303,1,8,1:0:0:0:
319,98,114524,5,4,3:0:0:0:
319,98,114634,1,2,3:0:0:0:
319,98,114744,1,4,3:0:0:0:
186,82,114965,1,2,3:0:0:0:
53,66,115185,1,0,1:0:0:0:
53,66,115296,1,2,3:0:0:0:
53,66,115406,1,4,3:0:0:0:
130,12,115627,6,0,L|111:173,1,139.999995727539,8|0,1:0|0:0,0:0:0:0:
113,151,115957,1,0,0:0:0:0:
113,151,116068,1,4,3:0:0:0:
224,147,116288,1,0,0:0:0:0:
490,193,116509,5,0,1:0:0:0:
436,208,116619,1,2,3:0:0:0:
319,281,116840,1,0,1:0:0:0:
264,269,116950,1,2,3:0:0:0:
122,198,117171,1,4,3:0:0:0:
66,205,117281,1,2,3:0:0:0:
10,212,117391,1,0,3:0:0:0:
117,78,117612,5,0,1:0:0:0:
197,87,117722,1,8,1:0:0:0:
277,96,117832,1,4,1:0:0:0:
367,29,118053,1,0,0:0:0:0:
442,112,118274,1,8,1:0:0:0:
356,183,118494,1,4,3:0:0:0:
356,183,118604,1,0,0:0:0:0:
356,183,118715,1,4,3:0:0:0:
258,372,118935,5,0,0:0:0:0:
258,372,119046,1,2,3:0:0:0:
258,372,119156,2,0,P|258:293|250:228,1,139.999995727539,0|0,1:0|0:0,0:0:0:0:
149,184,119597,1,8,1:0:0:0:
45,191,119818,1,4,3:0:0:0:
45,191,119928,1,0,0:0:0:0:
45,191,120038,1,8,1:0:0:0:
98,207,120149,1,0,0:0:0:0:
149,184,120259,1,4,3:0:0:0:
203,170,120369,1,4,3:0:0:0:
257,180,120479,1,0,1:0:0:0:
480,153,120700,5,4,3:0:0:0:
434,120,120810,1,0,0:0:0:0:
377,116,120921,1,8,1:0:0:0:
223,332,121141,5,4,3:0:0:0:
167,327,121252,1,2,3:0:0:0:
125,288,121362,1,4,3:0:0:0:
121,232,121472,1,2,3:0:0:0:
149,184,121582,1,0,1:0:0:0:
427,303,121803,5,0,1:0:0:0:
427,303,121913,1,2,3:0:0:0:
109,350,122134,5,0,1:0:0:0:
109,350,122244,1,2,3:0:0:0:
109,350,122354,1,0,1:0:0:0:
109,350,122465,1,2,3:0:0:0:
260,80,122685,5,0,1:0:0:0:
260,80,122796,1,2,3:0:0:0:
260,80,122906,1,8,1:0:0:0:
260,80,123016,1,8,1:0:0:0:
260,80,123127,2,0,L|200:76,1,59.9999981689454,4|0,1:0|0:0,0:0:0:0:
126,56,124450,6,0,L|118:163,1,100,0|0,1:0|0:0,0:0:0:0:
95,229,125774,6,0,L|241:241,1,139.999995727539,0|0,1:0|0:0,0:0:0:0:
306,277,127097,6,0,L|320:91,1,179.999994506836,0|0,1:0|0:0,0:0:0:0:
352,24,128421,6,0,L|118:18,1,220.000006713867,0|0,1:0|1:0,0:0:0:0:
58,0,129744,6,0,L|40:264,1,259.999988098145,0|0,1:0|1:0,0:0:0:0:
17,332,131068,6,0,L|323:345,1,300.000011444092,0|0,1:0|1:0,0:0:0:0:
394,372,132391,6,0,L|413:29,2,340.000006484985,0|0|0,1:0|1:0|1:0,0:0:0:0:
388,327,135149,6,0,L|391:351,11,14.9999995422363,0|0|0|0|0|0|0|0|0|0|0|0,3:0|3:0|3:0|3:0|3:0|3:0|3:0|3:0|3:0|3:0|3:0|3:0,3:0:0:0:
311,294,136472,6,0,L|309:327,6,19.9999993896485,0|0|0|0|0|0|0,3:0|3:0|3:0|3:0|3:0|3:0|3:0,3:0:0:0:
374,235,137024,6,0,L|376:265,8,19.9999993896485,0|0|0|0|0|0|0|0|0,3:0|3:0|3:0|3:0|3:0|3:0|3:0|3:0|3:0,3:0:0:0:
255,194,137685,5,4,0:1:0:0:
255,194,138247,1,0,0:0:0:0:
255,194,138622,1,0,0:0:0:0:
255,194,138997,5,0,0:0:0:0:
182,212,139185,1,0,0:0:0:0:
112,188,139372,1,0,0:0:0:0:
112,188,139747,1,0,0:0:0:0:
112,188,140122,1,0,0:0:0:0:
112,188,140497,5,0,0:0:0:0:
182,212,140685,1,0,0:0:0:0:
255,194,140872,1,0,0:0:0:0:
255,194,141247,1,0,0:0:0:0:
255,194,141622,1,0,0:0:0:0:
255,194,141997,5,0,0:0:0:0:
328,176,142185,1,0,0:0:0:0:
398,200,142372,1,0,0:0:0:0:
325,218,142560,5,0,0:0:0:0:
255,194,142747,1,0,0:0:0:0:
182,212,142935,1,0,0:0:0:0:
112,188,143122,1,0,0:0:0:0:
185,170,143310,5,0,0:0:0:0:
255,194,143497,1,0,0:0:0:0:
325,218,143685,1,0,0:0:0:0:
398,200,143872,1,0,0:0:0:0:
398,200,144247,1,0,0:0:0:0:
398,200,144622,1,0,0:0:0:0:
398,200,144997,5,0,0:0:0:0:
328,176,145185,1,0,0:0:0:0:
255,194,145372,1,0,0:0:0:0:
255,194,145747,1,0,0:0:0:0:
255,194,146122,1,0,0:0:0:0:
255,194,146497,5,0,0:0:0:0:
182,212,146685,1,0,0:0:0:0:
112,188,146872,1,0,0:0:0:0:
112,188,147247,1,0,0:0:0:0:
112,188,147622,1,0,0:0:0:0:
112,188,147997,5,0,0:0:0:0:
185,170,148185,1,0,0:0:0:0:
255,194,148372,1,0,0:0:0:0:
325,218,148560,1,0,0:0:0:0:
398,200,148747,5,0,0:0:0:0:
328,176,148935,1,0,0:0:0:0:
255,194,149122,1,0,0:0:0:0:
182,212,149310,1,0,0:0:0:0:
112,188,149497,1,0,0:0:0:0:
232,41,149685,6,0,B|359:10|359:10|465:89,1,262.500002503395,4|0,1:0|0:0,0:0:0:0:
490,89,150060,1,0,3:0:0:0:
472,160,150247,1,0,0:0:0:0:
494,231,150435,1,4,3:0:0:0:
424,223,150622,1,0,0:0:0:0:
424,223,150716,1,0,0:0:0:0:
424,223,150810,1,0,3:0:0:0:
358,259,150997,1,0,3:0:0:0:
205,190,151185,6,0,P|134:204|70:359,1,239.999992675781,0|0,1:0|0:0,0:0:0:0:
141,358,151747,1,0,3:0:0:0:
211,342,151935,1,0,3:0:0:0:
282,349,152122,1,0,0:0:0:0:
354,353,152310,2,0,P|350:282|352:219,1,119.999996337891,0|0,3:0|0:0,0:0:0:0:
307,175,152685,6,0,P|295:105|142:56,1,239.999992675781,0|0,1:0|3:0,0:0:0:0:
80,60,153247,1,0,3:0:0:0:
47,124,153435,1,0,1:0:0:0:
53,195,153622,1,0,0:0:0:0:
187,186,153810,2,0,L|50:210,1,119.999996337891,0|0,0:0|3:0,0:0:0:0:
260,223,154185,5,0,1:0:0:0:
331,213,154372,1,0,0:0:0:0:
402,224,154560,1,0,0:0:0:0:
473,218,154747,1,0,3:0:0:0:
356,127,154935,6,0,P|384:62|493:51,1,179.999994506836,0|0,3:0|0:0,0:0:0:0:
491,67,155310,1,0,1:0:0:0:
486,138,155497,1,0,0:0:0:0:
261,108,155685,6,0,B|143:49|143:49|16:132,1,262.500002503395,4|0,1:0|0:0,0:0:0:0:
8,116,156060,1,0,3:0:0:0:
14,187,156247,1,0,0:0:0:0:
10,259,156435,1,4,3:0:0:0:
18,330,156622,1,0,0:0:0:0:
143,301,156810,2,0,L|14:313,1,119.999996337891,0|0,0:0|3:0,0:0:0:0:
183,222,157185,6,0,P|255:232|294:383,1,239.999992675781,0|0,1:0|0:0,0:0:0:0:
230,352,157747,1,0,3:0:0:0:
102,231,157935,2,0,P|110:156|114:90,1,119.999996337891,0|0,3:0|0:0,0:0:0:0:
169,66,158310,1,0,3:0:0:0:
235,93,158497,1,0,0:0:0:0:
306,80,158685,6,0,P|391:88|422:190,1,179.999994506836,0|2,3:0|3:0,0:0:0:0:
403,194,159060,1,0,1:0:0:0:
331,198,159247,1,2,3:0:0:0:
341,208,159622,1,0,1:0:0:0:
341,208,159716,1,2,3:0:0:0:
341,208,159810,1,0,1:0:0:0:
240,187,159997,1,2,3:0:0:0:
102,194,160185,5,2,3:0:0:0:
252,104,160372,1,0,1:0:0:0:
252,104,160466,1,2,3:0:0:0:
252,104,160560,1,0,1:0:0:0:
398,188,160747,1,2,3:0:0:0:
245,298,160935,1,2,3:0:0:0:
249,196,161122,5,0,1:0:0:0:
249,196,161216,1,2,3:0:0:0:
249,196,161310,1,0,1:0:0:0:
316,131,161497,1,2,3:0:0:0:
259,371,161685,6,0,P|193:367|128:238,1,209.999993591309,4|0,1:0|0:0,0:0:0:0:
146,244,162060,2,0,P|153:158|129:83,1,139.999995727539,8|0,1:0|0:0,0:0:0:0:
79,59,162341,1,2,0:0:0:0:
144,25,162435,2,0,L|301:34,1,139.999995727539,4|4,3:0|3:0,0:0:0:0:
295,109,162810,6,0,L|434:100,1,139.999995727539,8|0,1:0|1:0,0:0:0:0:
471,79,163091,1,2,3:0:0:0:
473,121,163185,1,4,3:0:0:0:
480,161,163278,1,2,3:0:0:0:
474,202,163372,1,0,1:0:0:0:
256,294,163560,5,8,1:0:0:0:
196,368,163747,1,2,0:0:0:0:
228,381,163841,1,0,0:0:0:0:
259,365,163935,1,4,3:0:0:0:
292,374,164028,1,4,3:0:0:0:
325,363,164122,1,4,3:0:0:0:
336,168,164310,5,8,1:0:0:0:
213,130,164497,1,0,1:0:0:0:
230,91,164591,1,0,0:0:0:0:
249,53,164685,2,0,L|259:242,1,139.999995727539,4|0,1:0|0:0,0:0:0:0:
9,245,165060,6,0,P|76:228|157:235,1,139.999995727539,8|0,1:0|0:0,0:0:0:0:
186,221,165341,1,4,3:0:0:0:
171,260,165435,1,0,0:0:0:0:
174,301,165528,1,0,0:0:0:0:
173,343,165622,1,4,3:0:0:0:
163,384,165716,1,2,3:0:0:0:
163,384,165810,2,0,P|215:379|236:375,1,69.9999978637696,8|0,1:0|0:0,0:0:0:0:
302,339,165997,2,0,P|328:307|346:270,1,69.9999978637696,2|0,3:0|0:0,0:0:0:0:
339,205,166185,6,2,P|360:118|485:77,1,209.999993591309,2|0,1:0|0:0,0:1:0:0:
496,64,166560,2,0,P|493:119|487:148,1,69.9999978637696,10|0,1:0|0:0,0:0:0:0:
273,119,166747,5,2,1:0:0:0:
232,130,166841,1,0,0:0:0:0:
190,122,166935,1,4,3:0:0:0:
164,88,167028,1,2,0:1:0:0:
161,45,167122,1,4,3:0:0:0:
188,13,167216,1,0,0:0:0:0:
188,13,167310,2,0,L|202:105,1,69.9999978637696,10|0,1:0|0:0,0:0:0:0:
131,174,167497,5,2,1:0:0:0:
134,215,167591,1,0,0:0:0:0:
139,256,167685,2,2,P|156:311|302:343,1,209.999993591309,2|0,1:0|0:0,0:1:0:0:
314,315,168060,2,0,P|300:267|296:231,1,69.9999978637696,10|0,1:0|0:0,0:0:0:0:
368,86,168247,5,0,0:0:0:0:
404,65,168341,1,2,3:0:0:0:
445,71,168435,1,4,3:0:0:0:
473,101,168528,1,0,0:0:0:0:
484,141,168622,1,6,3:0:0:0:
465,178,168716,1,0,0:0:0:0:
465,178,168810,2,0,P|479:226|483:262,1,69.9999978637696,10|0,1:0|0:0,0:0:0:0:
284,187,168997,5,6,3:0:0:0:
248,181,169091,1,0,3:0:0:0:
212,185,169185,1,0,3:0:0:0:
177,184,169278,1,2,3:0:0:0:
141,189,169372,1,4,3:0:0:0:
216,95,169560,5,8,1:0:0:0:
216,277,169747,1,2,3:0:0:0:
224,318,169841,1,0,3:0:0:0:
230,359,169935,1,4,3:0:0:0:
313,366,170122,1,6,3:0:0:0:
23,239,170310,6,0,L|33:87,1,139.999995727539,8|2,1:0|3:0,0:0:0:0:
13,60,170591,1,2,3:0:0:0:
69,56,170685,1,4,1:0:0:0:
124,55,170778,1,0,1:0:0:0:
180,54,170872,1,2,3:0:0:0:
363,59,171060,6,0,P|279:77|246:197,1,209.999993591309,8|2,1:0|3:0,0:0:0:0:
264,208,171435,2,0,P|294:200|336:182,1,69.9999978637696,4|0,3:0|0:0,0:0:0:0:
388,142,171622,2,0,P|426:145|461:161,1,69.9999978637696,6|0,3:0|0:0,0:0:0:0:
498,221,171810,1,8,1:0:0:0:
257,368,171997,5,4,3:0:0:0:
257,368,172091,1,2,3:0:0:0:
257,368,172185,2,0,P|180:363|99:365,1,139.999995727539,4|2,3:0|3:0,0:0:0:0:
54,327,172560,1,8,1:0:0:0:
147,65,172747,5,0,1:0:0:0:
145,121,172841,1,2,3:0:0:0:
147,177,172935,1,4,3:0:0:0:
152,232,173028,1,0,3:0:0:0:
152,232,173122,1,6,3:0:0:0:
469,257,173310,5,8,1:0:0:0:
413,251,173403,1,2,3:0:0:0:
373,290,173497,1,0,1:0:0:0:
372,349,173591,1,0,1:0:0:0:
372,349,173685,6,0,B|303:230|303:230|344:109,1,262.500002503395,4|0,1:0|0:0,0:0:0:0:
363,59,174060,6,0,P|312:60|239:125,1,139.999995727539,8|2,1:0|0:0,0:0:0:0:
206,176,174341,1,0,0:0:0:0:
131,161,174435,2,0,P|134:243|132:317,1,139.999995727539,4|8,3:0|1:0,0:0:0:0:
26,151,174810,5,8,1:0:0:0:
23,95,174903,1,0,0:0:0:0:
53,48,174997,1,2,0:0:0:0:
108,37,175091,1,0,0:0:0:0:
157,62,175185,2,0,P|200:62|246:52,1,69.9999978637696,0|0,1:0|0:0,0:0:0:0:
296,22,175372,2,0,P|341:23|387:33,1,69.9999978637696,2|0,0:0|0:0,0:0:0:0:
475,43,175560,6,0,P|457:119|456:197,1,139.999995727539,8|0,1:0|0:0,0:0:0:0:
425,183,175841,1,0,0:0:0:0:
431,224,175935,1,4,3:0:0:0:
427,265,176028,1,0,0:0:0:0:
429,307,176122,1,8,1:0:0:0:
167,314,176310,5,8,1:0:0:0:
254,252,176497,1,2,0:0:0:0:
254,252,176591,1,0,0:0:0:0:
254,252,176685,1,4,1:2:0:0:
266,354,176872,1,2,0:0:0:0:
150,207,177060,1,8,1:0:0:0:
150,207,177247,1,0,0:0:0:0:
150,207,177341,1,0,0:0:0:0:
150,207,177435,2,0,P|141:110|141:60,1,139.999995727539,4|8,3:0|1:0,0:0:0:0:
391,151,177810,5,8,1:0:0:0:
325,98,177997,1,2,0:0:0:0:
283,106,178091,1,0,0:0:0:0:
241,114,178185,1,0,1:0:0:0:
297,357,178372,5,2,0:0:0:0:
404,245,178560,1,8,1:0:0:0:
180,189,178747,1,0,0:0:0:0:
198,227,178841,1,2,0:0:0:0:
216,266,178935,1,4,3:0:0:0:
233,304,179028,1,8,1:0:0:0:
64,249,179216,1,0,0:0:0:0:
73,207,179310,1,8,1:0:0:0:
21,131,179497,1,8,1:0:0:0:
159,43,179685,6,0,P|260:54|329:214,1,279.999991455078,4|8,1:0|1:0,0:0:0:0:
155,309,180247,1,2,0:0:0:0:
155,309,180341,1,0,0:0:0:0:
155,309,180435,1,4,3:0:0:0:
213,234,180622,1,8,1:0:0:0:
251,326,180810,1,8,1:0:0:0:
124,222,180997,1,2,0:0:0:0:
326,272,181185,5,0,1:0:0:0:
366,280,181278,1,0,0:0:0:0:
407,288,181372,1,2,0:0:0:0:
448,296,181466,1,0,0:0:0:0:
488,305,181560,1,8,1:0:0:0:
403,169,181747,1,0,0:0:0:0:
360,171,181841,1,0,0:0:0:0:
317,173,181935,1,4,3:0:0:0:
386,45,182122,1,8,1:0:0:0:
429,47,182216,1,0,0:0:0:0:
472,49,182310,1,8,1:0:0:0:
232,112,182497,5,2,0:0:0:0:
169,64,182685,2,0,P|91:73|33:256,1,279.999991455078,4|8,1:2|1:0,0:0:0:0:
196,358,183247,1,2,0:0:0:0:
195,315,183341,1,8,1:0:0:0:
194,272,183435,1,4,3:0:0:0:
193,230,183528,1,0,0:0:0:0:
192,187,183622,1,8,1:0:0:0:
407,231,183810,5,8,1:0:0:0:
296,210,183997,1,4,3:0:0:0:
297,167,184091,1,8,1:0:0:0:
298,124,184185,1,0,1:0:0:0:
299,82,184278,1,0,0:0:0:0:
300,39,184372,1,8,1:0:0:0:
511,257,184560,5,8,1:0:0:0:
343,329,184747,1,8,1:0:0:0:
337,339,184841,1,2,3:0:0:0:
347,351,184935,1,8,1:0:0:0:
357,342,185028,1,0,0:0:0:0:
311,308,185122,5,2,3:0:0:0:
256,320,185216,1,8,1:0:0:0:
219,362,185310,1,2,3:0:0:0:
163,366,185403,1,0,1:0:0:0:
107,322,185497,5,8,1:1:0:0:
134,257,185591,1,8,1:0:0:0:
204,259,185685,2,0,B|236:110|143:154|183:-1,1,262.500002503395,6|0,1:0|0:0,0:0:0:0:
199,25,186060,6,0,P|244:32|283:56,1,69.9999978637696,8|0,1:0|0:0,0:0:0:0:
404,181,186247,1,2,0:0:0:0:
400,139,186341,1,0,0:0:0:0:
369,110,186435,2,0,P|324:117|285:141,1,69.9999978637696,4|0,3:0|0:0,0:0:0:0:
466,262,186622,2,0,P|482:219|481:173,1,69.9999978637696,0|0,1:0|0:0,0:0:0:0:
285,270,186810,2,0,P|313:305|353:327,1,69.9999978637696,8|0,1:0|0:0,0:0:0:0:
189,211,186997,5,8,1:0:0:0:
119,199,187091,1,0,1:0:0:0:
62,243,187185,2,0,B|113:117|113:117|52:-3,1,262.500002503395,2|0,1:0|0:0,0:0:0:0:
76,19,187560,6,0,P|116:12|153:13,1,69.9999978637696,8|0,1:0|0:0,0:0:0:0:
387,152,187747,1,2,0:0:0:0:
331,141,187841,1,0,0:0:0:0:
275,150,187935,1,4,3:0:0:0:
220,138,188028,1,0,0:0:0:0:
220,138,188122,2,0,P|224:215|231:237,1,69.9999978637696,8|0,1:0|0:0,0:0:0:0:
309,370,188310,2,0,P|314:289|299:223,1,139.999995727539,8|0,1:0|1:0,0:0:0:0:
312,45,188685,6,0,P|404:52|487:207,1,262.500002503395,6|0,1:0|0:0,0:0:0:0:
465,193,189060,2,0,P|461:234|468:286,1,69.9999978637696,8|0,1:0|0:0,0:0:0:0:
270,159,189247,1,2,0:0:0:0:
214,149,189341,1,0,0:0:0:0:
166,179,189435,2,0,P|170:220|163:272,1,69.9999978637696,6|0,3:0|0:0,0:0:0:0:
86,309,189622,2,0,P|48:291|6:259,1,69.9999978637696,8|2,1:0|3:0,0:0:0:0:
12,164,189810,2,0,P|45:140|94:120,1,69.9999978637696,8|0,1:0|0:0,0:0:0:0:
257,21,189997,5,2,1:3:0:0:
326,14,190091,1,0,0:0:0:0:
375,63,190185,2,0,P|363:157|363:244,1,175.00000166893,2|0,1:0|0:0,0:0:0:0:
383,263,190466,5,0,0:0:0:0:
393,233,190560,2,0,P|393:199|395:163,1,69.9999978637696,8|0,1:0|0:0,0:0:0:0:
270,188,190747,6,0,P|293:300|293:367,1,175.00000166893,2|4,1:0|3:0,0:0:0:0:
265,383,191028,5,8,1:0:0:0:
258,352,191122,2,0,P|258:318|256:282,1,69.9999978637696
146,210,191310,2,0,P|165:107|231:77,1,175.00000166893,10|0,1:0|0:0,0:0:0:0:
266,18,191591,1,8,1:0:0:0:
337,43,191685,6,0,P|447:58|489:221,1,262.500002503395,6|0,1:0|0:0,0:0:0:0:
429,203,192060,1,8,1:0:0:0:
363,232,192153,1,0,0:0:0:0:
366,306,192247,2,0,P|440:308|466:304,1,69.9999978637696,2|0,0:0|0:0,0:0:0:0:
300,271,192435,2,0,P|241:289|215:362,1,139.999995727539,4|8,3:0|1:0,0:0:0:0:
142,364,192716,1,0,0:0:0:0:
72,351,192810,2,0,P|71:266|73:181,1,139.999995727539,8|0,1:0|0:0,0:0:0:0:
298,29,193185,6,0,P|208:42|151:200,1,262.500002503395,2|0,1:0|0:0,0:0:0:0:
209,218,193560,1,8,1:0:0:0:
278,218,193653,1,0,0:0:0:0:
324,165,193747,2,0,P|326:123|322:77,1,69.9999978637696,2|0,0:0|0:0,0:0:0:0:
491,256,193935,2,0,P|419:240|347:234,1,139.999995727539,4|8,3:0|1:0,0:0:0:0:
174,361,194310,2,0,P|104:354|36:339,1,139.999995727539,2|8,1:3|1:0,0:0:0:0:
20,267,194591,1,2,3:0:0:0:
86,242,194685,6,0,P|91:148|234:70,1,262.500002503395,6|0,1:0|0:0,0:0:0:0:
240,83,195060,2,0,P|274:82|325:69,1,69.9999978637696,8|0,1:0|0:0,0:0:0:0:
201,150,195247,1,2,0:0:0:0:
233,212,195341,1,0,0:0:0:0:
223,281,195435,2,0,P|189:280|138:267,1,69.9999978637696,4|0,3:0|0:0,0:0:0:0:
295,255,195622,2,0,P|329:254|380:241,1,69.9999978637696,8|0,1:0|0:0,0:0:0:0:
445,237,195810,2,0,P|432:161|316:87,1,209.999993591309,8|0,1:0|0:0,0:0:0:0:
283,156,196185,6,0,P|184:188|167:368,1,300,2|8,1:0|1:0,0:0:0:0:
277,296,196560,5,0,1:0:0:0:
346,334,196653,1,0,0:0:0:0:
419,302,196747,2,0,P|454:187|306:90,1,300,10|8,1:0|1:0,0:0:0:0:
177,77,197122,5,0,1:0:0:0:
87,44,197216,1,0,0:0:0:0:
38,126,197310,2,0,P|44:242|266:242,1,300,10|0,1:0|0:0,0:0:0:0:
282,275,197685,6,0,P|269:344|268:364,1,75,4|0,1:0|0:0,0:0:0:0:
376,296,198060,6,0,P|369:214|338:128,1,139.999995727539,8|0,1:0|0:0,0:0:0:0:
271,130,198341,1,0,1:0:0:0:
335,83,198435,6,2,B|418:33|418:33|517:75,1,200,2|0,1:0|0:0,1:0:0:0:
248,50,198810,1,4,3:0:0:0:
215,62,198903,1,2,3:0:0:0:
140,100,199091,1,4,3:0:0:0:
106,89,199185,1,2,3:0:0:0:
72,78,199278,1,4,3:0:0:0:
38,68,199372,1,4,3:0:0:0:
70,199,199560,5,6,3:0:0:0:
104,196,199653,1,4,3:0:0:0:
136,210,199747,1,4,3:0:0:0:
156,238,199841,1,2,3:0:0:0:
156,273,199935,1,0,3:0:0:0:
152,322,200028,5,0,1:0:0:0:
222,322,200122,1,8,1:0:0:0:
291,331,200216,1,0,0:0:0:0:
361,327,200310,2,0,L|373:147,1,139.999995727539,4|0,1:0|0:0,0:0:0:0:
385,111,200591,1,0,1:0:0:0:
310,139,200685,2,0,L|298:-41,1,139.999995727539,8|0,1:0|0:0,0:0:0:0:
110,225,201060,6,2,B|193:182|193:182|298:221,1,200,2|0,1:0|0:0,1:0:0:0:
366,196,201341,5,2,3:0:0:0:
380,220,201435,2,0,L|382:289,2,69.9999978637696,4|0|2,3:0|0:0|3:0,0:0:0:0:
438,174,201716,1,4,3:0:0:0:
459,155,201810,2,0,P|413:74|351:70,1,139.999995727539,6|0,3:0|0:0,0:0:0:0:
306,100,202091,1,4,3:0:0:0:
283,116,202185,2,0,P|202:110|121:110,1,139.999995727539,6|0,3:0|0:0,0:0:0:0:
71,83,202466,1,2,3:0:0:0:
71,111,202560,1,4,3:0:0:0:
71,138,202653,1,0,0:0:0:0:
26,202,202747,5,2,1:3:0:0:
88,249,202841,1,8,1:0:0:0:
142,193,202935,2,0,P|214:210|236:301,1,139.999995727539,4|0,1:0|0:0,0:0:0:0:
443,357,203310,2,0,P|447:281|444:209,1,139.999995727539,8|0,1:0|0:0,0:0:0:0:
382,176,203591,1,8,1:0:0:0:
441,125,203685,6,2,B|354:78|354:78|249:105,1,200,2|0,1:0|0:0,1:0:0:0:
83,65,204060,1,4,3:0:0:0:
110,59,204153,1,2,3:0:0:0:
153,196,204341,1,4,3:0:0:0:
125,189,204435,1,2,3:0:0:0:
97,183,204528,1,4,3:0:0:0:
69,177,204622,1,4,3:0:0:0:
124,349,204810,1,6,3:0:0:0:
151,346,204903,1,4,3:0:0:0:
178,342,204997,1,4,3:0:0:0:
205,339,205091,1,2,3:0:0:0:
232,334,205185,1,0,0:0:0:0:
279,282,205278,5,0,1:0:0:0:
349,277,205372,1,8,1:0:0:0:
419,272,205466,1,0,3:0:0:0:
447,292,205560,6,0,P|441:211|438:125,1,139.999995727539,4|0,1:0|0:0,0:0:0:0:
410,131,205841,1,0,1:0:0:0:
376,141,205935,2,0,P|321:143|291:139,1,69.9999978637696,8|0,1:0|0:0,0:0:0:0:
72,95,206122,2,0,P|106:92|141:95,1,69.9999978637696,0|8,0:0|1:0,0:0:0:0:
228,19,206310,6,2,L|206:223,2,200,2|0|0,1:0|0:0|0:0,1:0:0:0:
228,19,206872,6,0,L|306:14,1,69.9999978637696,8|0,1:0|0:0,0:0:0:0:
358,65,207060,1,4,3:0:0:0:
358,65,207153,2,0,L|436:60,1,69.9999978637696,8|0,1:0|0:0,0:0:0:0:
220,134,207341,1,4,3:0:0:0:
220,134,207435,2,0,L|142:139,1,69.9999978637696,8|0,1:0|0:0,0:0:0:0:
94,207,207622,1,4,3:0:0:0:
94,207,207716,2,0,L|16:212,1,69.9999978637696,8|0,1:0|1:0,0:0:0:0:
311,235,207997,5,0,1:0:0:0:
240,232,208091,1,8,1:0:0:0:
241,302,208185,1,8,1:0:0:0:
310,307,208278,1,8,1:0:0:0:
311,235,208372,6,0,L|319:187,1,34.9999989318848,8|0,1:0|0:0,0:0:0:0:
294,228,208466,2,0,L|302:180,1,34.9999989318848,8|0,1:0|0:0,0:0:0:0:
277,221,208560,2,0,L|300:54,1,150.000005722046,4|0,1:0|0:0,0:0:0:0:
213,10,208841,1,0,1:0:0:0:
213,10,208935,2,0,B|197:46|197:46|206:100,1,75.0000028610231,10|0,1:0|0:0,0:0:0:70:drum-hitclap.wav
396,212,209122,1,0,0:0:0:0:
417,180,209216,1,0,1:0:0:0:
393,150,209310,2,0,B|409:114|409:114|400:60,1,75.0000028610231,0|0,1:0|3:0,0:0:0:0:
466,30,209497,1,0,1:0:0:0:
481,281,209685,6,0,P|413:282|372:353,1,150.000005722046,10|4,1:0|3:0,0:0:0:70:drum-hitclap.wav
341,367,209966,1,2,3:0:0:0:
303,364,210060,1,0,1:0:0:0:
265,362,210153,1,2,3:0:0:0:
227,360,210247,1,4,3:0:0:0:
83,279,210435,6,0,L|249:274,1,150.000005722046,10|0,1:0|0:0,0:0:0:70:drum-hitclap.wav
255,261,210716,1,0,1:0:0:0:
314,271,210810,1,0,1:0:0:0:
345,205,210903,1,0,0:0:0:0:
289,154,210997,2,0,P|258:154|201:167,1,75.0000028610231,0|0,1:0|0:0,0:0:0:0:
80,168,211185,2,0,P|95:141|112:85,1,75.0000028610231,10|0,1:0|0:0,0:0:0:70:drum-hitclap.wav
244,0,211372,2,0,P|259:26|299:69,1,75.0000028610231,8|0,1:0|0:0,0:0:0:0:
439,151,211560,5,6,1:0:0:0:
512,214,211653,5,2,3:0:0:0:
509,297,211747,5,0,0:0:0:0:
457,356,211841,5,0,1:0:0:0:
404,344,211935,5,10,1:0:0:0:
375,311,212028,1,0,0:3:0:0:
376,289,212122,1,2,3:0:0:0:
385,277,212216,1,0,1:0:0:0:
394,275,212310,1,2,1:0:0:0:
401,276,212403,1,0,0:0:0:0:
406,281,212497,1,2,1:3:0:0:
409,287,212591,1,0,0:0:0:0:
409,287,212685,6,0,L|232:278,1,150.000005722046,8|2,1:0|3:0,0:0:0:0:
187,304,212966,1,0,0:0:0:0:
127,248,213060,6,2,B|135:224|135:224|130:198,1,50,2|0,1:0|0:0,1:0:0:0:
139,75,213341,5,0,1:0:0:0:
216,91,213435,2,0,L|208:13,1,75.0000028610231,8|0,1:0|0:0,0:0:0:0:
288,69,213622,1,0,0:0:0:0:
319,49,213716,1,0,1:0:0:0:
354,60,213810,2,0,B|387:48|387:48|436:61,1,75.0000028610231,0|0,1:0|0:0,0:0:0:0:
490,235,213997,2,0,B|457:247|457:247|418:236,1,75.0000028610231,0|0,1:0|0:0,0:0:0:0:
200,163,214185,2,0,L|379:174,1,150.000005722046,8|0,1:0|0:0,0:0:0:0:
207,341,214560,6,0,P|122:324|89:239,1,150.000005722046,0|0,1:0|0:0,0:0:0:0:
106,239,214841,1,0,1:0:0:0:
71,224,214935,2,0,B|81:188|81:188|65:128,1,75.0000028610231,10|0,1:0|0:0,0:0:0:70:drum-hitclap.wav
144,31,215122,2,0,L|136:124,1,75.0000028610231,0|0,0:0|1:0,0:0:0:0:
201,259,215310,1,0,1:0:0:0:
238,258,215403,1,0,0:0:0:0:
274,247,215497,1,0,1:0:0:0:
302,222,215591,1,0,0:0:0:0:
330,197,215685,2,0,P|421:190|491:227,1,150.000005722046,10|4,1:0|3:0,0:0:0:0:
499,283,215966,5,2,3:0:0:0:
455,344,216060,1,0,1:0:0:0:
380,346,216153,1,2,3:0:0:0:
319,301,216247,1,4,3:0:0:0:
231,22,216435,6,0,P|286:33|367:128,1,150.000005722046,10|0,1:0|0:0,0:0:0:0:
297,144,216716,1,2,1:3:0:0:
219,132,216810,2,0,P|230:175|234:216,1,75.0000028610231,0|0,1:0|0:0,0:0:0:0:
117,283,216997,2,0,P|128:240|132:199,1,75.0000028610231,2|0,1:3|0:0,0:0:0:0:
58,35,217185,2,0,P|65:133|53:197,1,150.000005722046,10|0,1:0|1:0,0:0:0:0:
4,241,217466,5,2,1:3:0:0:
17,319,217560,2,0,P|97:354|196:334,1,150.000005722046,4|0,1:0|0:0,0:0:0:0:
185,314,217841,1,0,1:0:0:0:
230,316,217935,2,0,P|269:323|314:339,1,75.0000028610231,10|0,1:0|0:0,0:0:0:0:
442,343,218122,2,0,P|428:305|419:258,1,75.0000028610231,0|0,0:0|1:0,0:0:0:0:
343,147,218310,2,0,P|317:177|281:208,1,75.0000028610231,0|0,1:0|0:0,0:0:0:0:
72,177,218497,5,0,1:0:0:0:
39,145,218591,1,0,0:0:0:0:
41,99,218685,1,10,1:0:0:0:
76,72,218778,1,0,0:0:0:0:
135,79,218872,5,4,3:0:0:0:
205,113,218966,5,2,3:0:0:0:
290,106,219060,5,2,1:0:0:0:
370,36,219153,5,2,3:0:0:0:
462,61,219247,5,4,3:0:0:0:
501,142,219341,5,0,1:0:0:0:
479,210,219435,5,10,1:0:0:0:
444,242,219528,1,0,0:0:0:0:
401,242,219622,1,0,0:0:0:0:
373,225,219716,1,0,1:0:0:0:
359,201,219810,1,2,1:0:0:0:
360,178,219903,1,0,0:0:0:0:
371,162,219997,1,0,1:0:0:0:
384,155,220091,1,0,0:0:0:0:
398,153,220185,6,0,B|392:111,1,37.5000014305115,10|0,1:0|0:0,0:0:0:0:
408,150,220278,2,0,B|402:108,1,37.5000014305115
418,147,220372,2,0,B|412:105,1,37.5000014305115,10|0,1:0|0:0,0:0:0:0:
428,144,220466,2,0,B|422:102,1,37.5000014305115,8|0,1:0|0:0,0:0:0:0:
438,141,220560,5,4,1:0:0:0:
258,11,220747,1,0,0:0:0:0:
132,185,220935,1,8,1:0:0:0:
216,216,221122,5,0,0:0:0:0:
219,171,221216,1,0,0:0:0:0:
201,129,221310,1,0,0:0:0:0:
115,100,221497,1,4,0:0:0:0:
52,164,221685,1,8,1:0:0:0:
51,208,221778,1,0,0:0:0:0:
70,248,221872,1,2,0:0:0:0:
254,372,222060,5,4,0:0:0:0:
319,311,222247,1,4,0:0:0:0:
363,320,222341,1,2,0:0:0:0:
316,177,222528,1,2,0:0:0:0:
286,210,222622,1,4,0:0:0:0:
262,243,222716,1,0,0:0:0:0:
262,243,222810,2,0,B|225:232|225:232|188:242,1,75.0000028610231,8|0,1:0|0:0,0:0:0:0:
109,262,222997,2,0,B|72:251|72:251|35:261,1,75.0000028610231,4|0,0:0|0:0,0:0:0:0:
84,125,223185,6,0,B|121:114|121:114|158:124,1,75.0000028610231,2|0,0:0|0:0,0:0:0:0:
219,85,223372,1,8,1:0:0:0:
278,130,223466,2,0,B|315:119|315:119|352:129,1,75.0000028610231,8|4,1:0|1:0,0:0:0:0:
425,149,223653,2,0,B|462:138|462:138|499:148,1,75.0000028610231,4|0,0:0|0:0,0:0:0:0:
368,349,223841,5,4,0:0:0:0:
439,373,223935,2,0,L|447:215,1,150.000005722046,8|0,1:0|0:0,0:0:0:0:
374,245,224216,2,0,B|337:234|337:234|300:244,1,75.0000028610231,2|4,0:0|0:0,0:0:0:0:
227,264,224403,2,0,B|190:253|190:253|153:263,1,75.0000028610231,0|2,0:0|0:0,0:0:0:0:
32,235,224591,5,0,0:0:0:0:
103,212,224685,2,0,L|95:54,1,150.000005722046,8|0,1:0|0:0,0:0:0:0:
155,16,224966,1,2,0:0:0:0:
215,61,225060,2,0,L|219:145,2,75.0000028610231,0|0|2,1:0|0:0|0:0,0:0:0:0:
272,12,225341,1,0,0:0:0:0:
334,54,225435,2,0,L|338:138,1,75.0000028610231,8|0,1:0|0:0,0:0:0:0:
400,170,225622,5,2,0:0:0:0:
404,214,225716,1,2,1:3:0:0:
413,184,225810,1,8,1:0:0:0:
417,228,225903,1,0,1:0:0:0:
426,198,225997,1,8,1:0:0:0:
430,242,226091,1,0,1:0:0:0:
400,272,226185,5,2,0:0:0:0:
397,294,226278,1,8,1:0:0:0:
393,279,226372,1,2,0:0:0:0:
391,300,226466,1,8,1:0:0:0:
373,316,226560,6,2,B|271:272|271:272|176:332,1,220.000006713867,6|2,1:0|0:0,1:0:0:0:
121,281,226841,5,0,1:0:0:0:
89,294,226935,2,0,L|80:143,1,139.999995727539,8|0,1:0|0:0,0:0:0:0:
131,92,227216,1,0,1:0:0:0:
131,92,227310,2,0,B|162:81|162:81|205:90,1,69.9999978637696,0|0,1:0|0:0,0:0:0:0:
272,57,227497,2,0,L|281:147,1,69.9999978637696,4|0,3:0|0:0,0:0:0:0:
368,272,227685,1,8,1:0:0:0:
409,272,227778,1,0,0:0:0:0:
445,251,227872,1,0,0:0:0:0:
463,213,227966,1,0,0:0:0:0:
445,174,228060,6,2,L|215:203,1,220.000006713867,2|2,1:0|0:0,1:0:0:0:
157,181,228341,5,0,1:0:0:0:
123,207,228435,2,0,B|149:274|149:274|124:338,1,139.999995727539,8|0,1:0|0:0,0:0:0:0:
157,363,228716,1,0,1:0:0:0:
198,357,228810,1,0,1:0:0:0:
239,351,228903,1,0,0:0:0:0:
280,345,228997,1,0,1:0:0:0:
497,257,229185,2,0,L|328:264,1,139.999995727539,8|0,1:0|1:0,0:0:0:0:
283,264,229466,1,0,0:0:0:0:
222,213,229560,6,2,P|235:125|360:85,1,220.000006713867,6|2,1:0|0:0,1:0:0:0:
420,24,229841,5,0,1:0:0:0:
457,43,229935,2,0,L|445:226,1,139.999995727539,8|0,1:0|0:0,0:0:0:0:
375,196,230216,1,0,1:0:0:0:
375,196,230310,2,0,P|326:188|287:187,1,69.9999978637696,0|0,1:0|0:0,0:0:0:0:
141,282,230497,2,0,P|190:290|229:291,1,69.9999978637696,0|0,1:0|0:0,0:0:0:0:
147,79,230685,5,8,1:0:0:0:
105,79,230778,1,0,0:0:0:0:
71,104,230872,1,0,0:0:0:0:
61,144,230966,1,0,1:0:0:0:
70,184,231060,6,0,P|173:207|271:8,1,359.999989013672,2|8,1:0|1:0,1:0:0:0:
397,374,231622,2,0,P|377:213|393:15,1,359.999989013672,2|0,1:0|1:0,1:0:0:0:
255,215,232185,6,0,P|266:283|261:369,1,139.999995727539,10|0,1:0|0:0,0:0:0:0:
181,218,232466,1,0,1:0:0:0:
260,189,232560,6,2,P|276:270|273:374,1,179.999994506836,2|2,1:0|0:0,1:0:0:0:
6,192,232935,6,0,P|26:117|105:100,1,139.999995727539,8|0,1:0|0:0,0:0:0:0:
117,112,233216,1,0,1:0:0:0:
157,99,233310,2,0,P|223:100|309:92,1,139.999995727539,0|0,1:0|1:0,0:0:0:0:
356,34,233685,1,8,1:0:0:0:
447,306,233872,5,0,1:0:0:0:
445,263,233966,1,2,3:0:0:0:
423,226,234060,2,2,P|326:219|262:322,1,220.000006713867,2|0,1:0|0:0,1:0:0:0:
196,350,234341,5,0,1:0:0:0:
142,296,234435,2,0,P|150:223|155:137,1,139.999995727539,8|0,1:0|0:0,0:0:0:0:
216,115,234716,1,0,1:0:0:0:
216,115,234810,2,0,L|291:118,1,69.9999978637696,0|0,1:0|0:0,0:0:0:0:
141,82,234997,2,0,L|71:79,1,69.9999978637696,0|0,1:0|0:0,0:0:0:0:
19,19,235185,1,8,1:0:0:0:
256,15,235372,5,0,1:0:0:0:
330,11,235466,1,2,3:0:0:0:
404,7,235560,2,2,P|486:52|489:197,1,220.000006713867,6|0,1:0|0:0,1:0:0:0:
437,196,235841,5,0,1:0:0:0:
399,176,235935,2,0,B|329:158|329:158|263:185,1,139.999995727539,8|0,1:0|0:0,0:0:0:0:
189,182,236216,1,0,1:0:0:0:
189,182,236310,2,0,L|201:264,1,69.9999978637696,0|0,1:0|0:0,0:0:0:0:
149,310,236497,2,0,L|161:392,1,69.9999978637696,0|0,1:0|0:0,0:0:0:0:
112,191,236685,5,8,1:0:0:0:
70,191,236778,1,0,1:0:0:0:
38,163,236872,1,0,1:0:0:0:
36,120,236966,1,2,3:0:0:0:
55,85,237060,6,0,L|500:110,1,440.000013427735,6|8,1:0|1:0,0:0:0:0:
503,164,237528,5,2,3:0:0:0:
487,216,237622,2,0,L|47:191,1,440.000013427735,10|0,1:0|1:0,0:0:0:0:
15,260,238091,5,2,3:0:0:0:
55,329,238185,2,0,L|510:357,1,450.000017166138,10|0,1:0|0:0,0:0:0:0:
468,273,238560,6,0,B|440:190|440:190|469:109,1,160,4|0,1:0|0:0,0:0:0:0:
257,15,238935,2,0,L|80:29,1,160,8|0,1:0|0:0,0:0:0:0:
39,78,239216,1,0,1:0:0:0:
110,129,239310,6,2,L|397:104,1,259.999988098145,2|0,1:0|0:0,1:0:0:0:
231,222,239685,6,0,L|66:209,1,160,8|0,1:0|0:0,0:0:0:0:
38,232,239966,1,0,1:0:0:0:
46,271,240060,2,0,B|37:313|37:313|55:359,1,80,4|0,3:0|0:0,0:0:0:0:
205,384,240247,2,0,B|214:342|214:342|196:296,1,80,4|0,3:0|0:0,0:0:0:0:
323,171,240435,5,8,1:0:0:0:
309,208,240528,1,4,3:0:0:0:
309,248,240622,2,0,L|313:333,1,80,0|8,0:0|1:0,0:0:0:0:
485,337,240810,1,0,0:0:0:0:
485,297,240903,2,0,L|481:212,1,80,4|8,3:0|1:0,0:0:0:0:
53,72,241185,6,0,P|127:70|233:76,1,160,4|0,1:0|0:0,0:0:0:0:
244,98,241466,1,0,0:0:0:0:
282,85,241560,2,0,P|324:82|374:79,1,80,8|0,1:0|0:0,0:0:0:0:
342,340,241747,5,0,0:0:0:0:
303,349,241841,1,8,1:0:0:0:
262,348,241935,2,2,P|220:345|176:157,1,259.999988098145,2|0,1:0|0:0,1:0:0:0:
246,177,242216,1,0,0:0:0:0:
246,177,242310,2,0,P|253:240|254:276,1,80,0|0,1:0|0:0,0:0:0:0:
45,135,242497,5,0,0:0:0:0:
76,88,242591,1,4,3:0:0:0:
130,75,242685,2,0,L|292:83,1,160,8|0,1:0|0:0,0:0:0:0:
385,66,242966,1,0,1:0:0:0:
385,66,243060,2,0,P|376:111|371:154,1,80,8|0,1:0|0:0,0:0:0:0:
512,146,243247,2,0,P|506:106|498:67,1,80,0|4,0:0|3:0,0:0:0:0:
448,317,243435,1,8,1:0:0:0:
448,317,243622,5,0,1:0:0:0:
368,310,243716,1,8,1:0:0:0:
288,303,243810,2,0,L|121:323,1,160,4|0,1:0|0:0,0:0:0:0:
12,191,244185,1,8,1:0:0:0:
59,196,244278,1,4,3:0:0:0:
106,202,244372,1,0,0:0:0:0:
153,208,244466,1,8,1:0:0:0:
202,216,244560,6,2,L|499:183,1,259.999988098145,2|0,1:0|0:0,1:0:0:0:
129,322,244935,1,4,3:0:0:0:
129,322,245028,1,6,3:0:0:0:
383,62,245216,1,4,3:0:0:0:
383,62,245310,1,2,3:0:0:0:
339,278,245497,1,4,3:0:0:0:
173,106,245685,5,8,1:0:0:0:
68,36,245872,1,4,3:0:0:0:
76,66,245966,1,8,1:0:0:0:
193,287,246153,1,4,3:0:0:0:
201,257,246247,1,0,1:0:0:0:
211,226,246341,1,8,1:0:0:0:
221,195,246435,2,0,L|409:217,1,160,4|0,1:0|0:0,0:0:0:0:
232,356,246810,2,0,L|44:378,1,160,8|0,1:0|0:0,0:0:0:0:
24,314,247091,5,0,1:0:0:0:
47,238,247185,2,2,L|314:268,2,259.999988098145,2|0|0,1:0|0:0|0:0,1:0:0:0:
256,3,247747,5,8,1:0:0:0:
386,93,247935,1,4,3:0:0:0:
386,93,248028,1,8,1:0:0:0:
256,196,248216,1,4,3:0:0:0:
256,196,248310,1,8,1:0:0:0:
122,94,248497,1,4,3:0:0:0:
122,94,248591,1,8,1:0:0:0:
459,210,248778,5,4,3:0:0:0:
454,249,248872,1,0,1:0:0:0:
450,288,248966,1,8,1:0:0:0:
446,326,249060,2,0,L|477:370,3,46.6666652425131,0|0|0|4,1:0|1:0|1:0|1:3,0:0:0:0:
61,350,249435,6,0,L|77:198,1,139.999995727539,4|0,1:0|0:0,0:0:0:0:
157,134,249810,1,8,1:0:0:0:
222,224,249997,1,0,0:0:0:0:
222,224,250091,1,0,1:0:0:0:
222,224,250185,2,0,L|236:363,1,139.999995727539,4|4,3:0|3:0,0:0:0:0:
160,49,250560,5,8,1:0:0:0:
248,116,250747,1,4,3:0:0:0:
303,108,250841,1,2,3:0:0:0:
358,100,250935,1,0,1:0:0:0:
413,93,251028,1,2,3:0:0:0:
468,84,251122,1,4,3:0:0:0:
181,210,251310,5,8,1:0:0:0:
462,320,251497,1,4,3:0:0:0:
407,312,251591,1,2,3:0:0:0:
352,304,251685,1,0,1:0:0:0:
297,297,251778,1,0,0:0:0:0:
242,288,251872,1,6,3:0:0:0:
10,196,252060,6,0,P|8:127|13:40,1,139.999995727539,8|4,1:0|3:0,0:0:0:0:
53,37,252341,1,2,3:0:0:0:
109,37,252435,1,0,1:0:0:0:
164,34,252528,1,2,3:0:0:0:
220,33,252622,1,4,3:0:0:0:
447,17,252810,1,8,1:0:0:0:
390,89,252997,1,4,3:0:0:0:
390,89,253091,1,2,3:0:0:0:
390,89,253185,2,0,P|393:158|391:228,1,139.999995727539,0|2,1:0|3:0,0:0:0:0:
158,366,253560,5,8,1:0:0:0:
241,278,253747,1,4,3:0:0:0:
272,281,253841,1,2,3:0:0:0:
241,270,253935,1,0,1:0:0:0:
272,273,254028,1,2,3:0:0:0:
241,263,254122,1,4,3:0:0:0:
236,53,254310,6,0,P|173:82|131:151,1,139.999995727539,8|4,1:0|3:0,0:0:0:0:
168,184,254591,1,2,3:0:0:0:
224,186,254685,1,0,1:0:0:0:
279,184,254778,1,0,0:0:0:0:
335,181,254872,1,2,3:0:0:0:
509,53,255060,5,0,1:0:0:0:
445,87,255153,1,0,0:0:0:0:
428,160,255247,1,0,1:0:0:0:
468,228,255341,1,8,1:0:0:0:
468,228,255435,2,0,P|429:278|339:296,1,139.999995727539,4|0,1:0|0:0,0:0:0:0:
259,357,255810,6,0,P|211:354|85:353,1,139.999995727539,8|4,1:0|3:0,0:0:0:0:
63,348,256091,1,2,3:0:0:0:
69,292,256185,1,0,1:0:0:0:
66,236,256278,1,2,3:0:0:0:
65,179,256372,1,4,3:0:0:0:
152,105,256560,1,8,1:0:0:0:
270,172,256747,1,4,3:0:0:0:
270,172,256841,1,2,3:0:0:0:
270,172,256935,1,0,1:0:0:0:
270,172,257028,1,0,0:0:0:0:
270,172,257122,1,6,3:0:0:0:
252,11,257310,5,8,1:0:0:0:
140,14,257497,1,4,3:0:0:0:
84,20,257591,1,2,3:0:0:0:
28,26,257685,1,0,1:0:0:0:
120,88,257872,1,2,3:0:0:0:
220,138,258060,1,8,1:0:0:0:
502,190,258247,5,0,1:0:0:0:
446,183,258341,1,2,3:0:0:0:
390,189,258435,1,0,1:0:0:0:
334,195,258528,1,8,1:0:0:0:
334,195,258622,2,0,P|325:282|325:365,2,139.999995727539,0|8|0,1:0|1:0|1:0,0:0:0:0:
290,156,259091,5,2,3:0:0:0:
233,154,259185,1,0,1:0:0:0:
178,162,259278,1,8,1:0:0:0:
121,162,259372,2,0,P|130:249|130:332,2,139.999995727539,0|8|0,1:0|1:0|1:0,0:0:0:0:
98,107,259841,5,2,3:0:0:0:
122,56,259935,1,0,1:0:0:0:
168,25,260028,1,8,1:0:0:0:
223,18,260122,1,2,3:0:0:0:
273,43,260216,1,2,3:0:0:0:
282,98,260310,5,8,1:0:0:0:
262,102,260403,1,0,0:0:0:0:
242,105,260497,1,2,3:0:0:0:
222,109,260591,1,8,1:0:0:0:
203,181,260685,5,2,1:3:0:0:
273,195,260778,1,8,1:0:0:0:
343,205,260872,1,2,3:0:0:0:
413,219,260966,1,0,1:0:0:0:
483,233,261060,1,8,1:0:0:0:
150,364,261247,5,0,1:0:0:0:
150,364,261341,1,8,1:0:0:0:
150,364,261435,1,4,1:0:0:0:
190,259,261622,1,4,0:0:0:0:
87,214,261810,1,8,1:0:0:0:
46,325,261997,1,0,1:0:0:0:
46,325,262091,1,0,0:0:0:0:
46,325,262185,1,0,1:0:0:0:
150,364,262372,1,4,0:0:0:0:
255,194,262560,5,8,1:0:0:0:
255,194,262653,1,0,0:0:0:0:
255,194,262747,1,0,1:0:0:0:
255,194,262841,1,0,0:0:0:0:
255,194,262935,1,0,1:0:0:0:
295,299,263122,1,4,0:0:0:0:
399,260,263310,1,8,1:0:0:0:
358,149,263497,1,0,0:0:0:0:
231,262,263685,5,0,1:0:0:0:
365,322,263872,1,4,0:0:0:0:
424,190,264060,1,8,1:0:0:0:
285,126,264247,1,0,0:0:0:0:
326,217,264435,6,0,L|254:234,1,69.9999978637696,0|0,1:0|0:0,0:0:0:0:
85,213,264622,2,0,L|106:142,1,69.9999978637696,4|0,0:0|0:0,0:0:0:0:
208,29,264810,2,0,L|258:82,1,69.9999978637696,8|0,1:0|0:0,0:0:0:0:
322,238,264997,2,0,L|250:255,1,69.9999978637696,0|0,1:0|0:0,0:0:0:0:
56,210,265185,6,0,L|85:142,1,69.9999978637696,0|0,1:0|0:0,0:0:0:0:
200,43,265372,2,0,L|243:102,1,69.9999978637696,4|0,0:0|0:0,0:0:0:0:
288,264,265560,2,0,L|214:272,1,69.9999978637696,8|0,1:0|0:0,0:0:0:0:
40,193,265747,2,0,L|69:125,1,69.9999978637696
184,47,265935,6,0,L|220:111,1,69.9999978637696,0|0,1:0|0:0,0:0:0:0:
244,277,266122,2,0,L|170:276,1,69.9999978637696,4|0,0:0|0:0,0:0:0:0:
7,177,266310,2,0,L|44:113,1,69.9999978637696,8|0,1:0|0:0,0:0:0:0:
222,47,266497,6,0,L|258:111,1,69.9999978637696,4|0,1:3|1:0,0:0:0:0:
244,277,266685,2,0,L|281:213,1,69.9999978637696,8|0,1:0|0:0,0:0:0:0:
424,144,266872,2,0,L|350:143,1,69.9999978637696,4|0,1:2|0:0,0:0:0:0:
150,278,267060,5,8,1:0:0:0:
150,278,267153,1,0,1:0:0:0:
150,278,267247,1,4,0:3:0:0:
150,278,267341,1,8,1:0:0:0:
150,278,267435,2,0,L|161:377,1,69.9999978637696,4|0,1:0|0:0,0:0:0:0:
170,86,267622,2,0,L|71:97,1,69.9999978637696,4|0,0:0|0:0,0:0:0:0:
362,106,267810,2,0,L|351:7,1,69.9999978637696,8|0,1:0|0:0,0:0:0:0:
342,298,267997,2,0,L|441:287,1,69.9999978637696,0|0,1:0|0:0,0:0:0:0:
76,231,268185,6,0,L|120:177,1,69.9999978637696,0|0,1:0|0:0,0:0:0:0:
214,12,268372,2,0,L|270:56,1,69.9999978637696,4|0,0:0|0:0,0:0:0:0:
434,151,268560,2,0,L|391:206,1,69.9999978637696,8|0,1:0|0:0,0:0:0:0:
295,370,268747,2,0,L|241:327,1,69.9999978637696
172,88,268935,5,0,1:0:0:0:
172,88,269028,1,2,3:0:0:0:
172,88,269122,2,0,L|221:160,1,69.9999978637696,4|0,0:0|0:0,0:0:0:0:
340,296,269310,1,8,1:0:0:0:
340,296,269403,1,0,0:0:0:0:
340,296,269497,1,0,1:0:0:0:
340,296,269591,1,2,3:0:0:0:
340,296,269685,2,0,L|291:224,1,69.9999978637696,0|0,1:0|0:0,0:0:0:0:
380,93,269872,6,0,L|308:142,1,69.9999978637696,4|0,0:0|0:0,0:0:0:0:
132,291,270060,2,0,L|204:242,1,69.9999978637696,8|0,1:0|0:0,0:0:0:0:
144,55,270247,5,0,0:0:0:0:
144,55,270341,1,0,0:0:0:0:
144,55,270435,2,0,L|227:62,1,69.9999978637696,2|0,1:0|0:0,0:0:0:0:
393,80,270622,5,4,0:0:0:0:
393,80,270716,1,0,0:0:0:0:
393,80,270810,2,0,L|386:163,1,69.9999978637696,10|0,1:0|0:0,0:0:0:0:
368,329,270997,5,0,1:0:0:0:
368,329,271091,1,0,0:0:0:0:
368,329,271185,2,0,L|285:322,1,69.9999978637696,2|0,1:0|0:0,0:0:0:0:
119,304,271372,5,4,0:0:0:0:
119,304,271466,1,0,0:0:0:0:
119,304,271560,2,0,L|126:221,1,69.9999978637696,10|0,1:0|0:0,0:0:0:0:
144,55,271747,6,0,L|227:62,1,69.9999978637696,4|0,0:0|0:0,0:0:0:0:
470,115,271935,5,8,1:0:0:0:
461,169,272028,1,2,3:0:0:0:
453,224,272122,1,0,1:0:0:0:
445,279,272216,1,2,3:0:0:0:
437,334,272310,2,0,L|367:328,1,69.9999978637696,8|0,1:0|0:0,0:0:0:0:
42,269,272497,5,8,1:0:0:0:
51,215,272591,1,2,3:0:0:0:
59,160,272685,1,4,3:0:0:0:
67,105,272778,1,0,0:0:0:0:
75,50,272872,2,0,L|144:55,1,69.9999978637696,2|8,3:0|1:0,0:0:0:0:
304,37,273060,5,0,1:0:0:0:
280,116,273153,5,8,1:0:0:0:
256,196,273247,5,6,3:0:0:0:
232,276,273341,5,8,1:0:0:0:
209,357,273435,5,6,1:0:0:0:
209,357,273810,1,4,1:2:0:0:
505,195,274185,5,0,3:0:0:0:
505,195,274560,5,4,1:2:0:0:
0,194,274935,1,6,1:0:0:0:
0,194,275310,1,2,1:0:0:0:
258,2,275685,5,0,3:0:0:0:
505,195,276060,5,2,1:0:0:0:
0,194,276435,1,6,1:0:0:0:
