osu file format v14

[General]
AudioFilename: cranky - The Five.mp3
AudioLeadIn: 1004
PreviewTime: 35498
Countdown: 1
SampleSet: Normal
StackLeniency: 0.7
Mode: 0
LetterboxInBreaks: 1
WidescreenStoryboard: 1

[Editor]
DistanceSpacing: 1
BeatDivisor: 4
GridSize: 32
TimelineZoom: 1.9

[Metadata]
Title:The Five [Short Edit]
TitleUnicode:The Five [Short Edit]
Artist:Cranky
ArtistUnicode:Cranky
Creator:AJT
Version:Zero
Source:
Tags:flask yokespai deviouspanda pennek featured artist instrumental eurodance electronic
BeatmapID:2536224
BeatmapSetID:1194122

[Difficulty]
HPDrainRate:2
CircleSize:2
OverallDifficulty:2
ApproachRate:4
SliderMultiplier:1
SliderTickRate:1

[Events]
//Background and Video events
0,0,"five-title.png"
//Break Periods
2,49204,52814
2,61204,71564
//Storyboard Layer 0 (Background)
//Storyboard Layer 1 (Fail)
//Storyboard Layer 2 (Pass)
//Storyboard Layer 3 (Foreground)
//Storyboard Layer 4 (Overlay)
//Storyboard Sound Samples

[TimingPoints]
1004,375,4,1,0,80,1,0
13004,-100,4,1,0,50,0,0
13191,-100,4,1,0,80,0,0
14504,-100,4,1,0,50,0,0
14691,-100,4,1,0,80,0,0
16004,-100,4,1,0,50,0,0
16191,-100,4,1,0,80,0,0
17504,-100,4,1,0,50,0,0
17691,-100,4,1,0,80,0,0
19004,-100,4,1,0,50,0,0
19191,-100,4,1,0,80,0,0
20504,-100,4,1,0,50,0,0
20691,-100,4,1,0,80,0,0
22004,-100,4,1,0,50,0,0
22191,-100,4,1,0,80,0,0
23504,-100,4,1,0,50,0,0
23691,-100,4,1,0,80,0,0
37004,-100,4,1,0,80,0,1
49004,-100,4,1,0,80,0,0
61004,-100,4,1,0,50,0,0
73004,-100,4,1,0,80,0,0
97004,-100,4,1,0,50,0,0
106004,-100,4,1,0,80,0,0
109004,-100,4,1,0,80,0,1
121004,-100,4,1,0,80,0,0
122504,-100,4,1,0,70,0,0
122879,-100,4,1,0,60,0,0
123254,-100,4,1,0,50,0,0
123629,-100,4,1,0,40,0,0
124004,-100,4,1,0,30,0,0
124379,-100,4,1,0,20,0,0
124754,-100,4,1,0,10,0,0
125129,-100,4,1,0,5,0,0

[Colours]
Combo1 : 0,64,128
Combo2 : 255,128,128
Combo3 : 255,255,128

[HitObjects]
380,97,1004,5,4,1:0:0:0:
124,289,4004,5,4,1:0:0:0:
380,289,7004,5,4,1:0:0:0:
124,97,10004,5,4,1:0:0:0:
256,192,10191,12,2,11504,1:0:0:0:
474,360,13004,6,0,L|460:243,1,100,2|8,1:0|1:0,1:0:0:0:
374,211,13754,1,0,1:0:0:0:
307,285,14129,1,8,1:0:0:0:
223,229,14504,2,0,L|209:112,1,100,2|8,1:0|1:0,1:0:0:0:
261,43,15254,1,0,1:0:0:0:
356,75,15629,1,8,1:0:0:0:
441,22,16004,6,0,P|458:94|410:163,2,150,2|0|8,1:0|1:0|1:0,1:0:0:0:
341,11,17504,2,0,L|241:-1,1,100,2|8,1:0|1:0,1:0:0:0:
146,30,18254,2,0,L|134:129,1,100,0|8,1:0|1:0,1:0:0:0:
77,212,19004,6,0,P|62:266|84:315,2,100,2|8|0,1:0|1:0|1:0,1:0:0:0:
156,160,20129,1,8,1:0:0:0:
239,214,20504,2,0,P|254:268|232:317,2,100,2|8|0,1:0|1:0|1:0,1:0:0:0:
305,138,21629,1,8,1:0:0:0:
373,65,22004,6,0,P|448:44|516:74,2,150,2|0|8,1:0|1:0|1:0,1:0:0:0:
286,115,23504,2,0,P|301:169|279:218,2,100,2|8|0,1:0|1:0|1:0,1:0:0:0:
201,169,24629,1,8,1:0:0:0:
108,207,25004,6,0,L|119:306,1,100,4|8,1:0|1:0,1:0:0:0:
204,359,25754,1,2,1:0:0:0:
303,350,26129,1,0,1:0:0:0:
353,263,26504,2,0,L|364:163,1,100,0|8,1:0|1:0,1:0:0:0:
429,87,27254,1,2,1:0:0:0:
357,16,27629,1,0,1:0:0:0:
284,86,28004,6,0,L|178:67,1,100,4|8,1:0|1:0,1:0:0:0:
140,157,28754,2,0,L|128:256,1,100,2|0,1:0|1:0,1:0:0:0:
65,334,29504,1,8,1:0:0:0:
156,374,29879,1,8,1:0:0:0:
252,347,30254,1,2,1:0:0:0:
347,375,30629,1,2,1:0:0:0:
430,319,31004,6,0,P|445:265|423:216,2,100,4|8|2,1:0|1:0|1:0,1:0:0:0:
347,375,32129,1,0,1:0:0:0:
261,322,32504,2,0,P|207:307|158:329,2,100,8|8|2,1:0|1:0|1:0,1:0:0:0:
347,375,33629,1,0,1:0:0:0:
430,319,34004,6,0,L|441:219,1,100,8|8,1:0|1:0,1:0:0:0:
372,147,34754,1,2,1:0:0:0:
384,47,35129,1,0,1:0:0:0:
481,26,35504,1,8,1:0:0:0:
81,37,37004,5,6,1:0:0:0:
148,114,37379,2,0,L|135:215,2,100,0|0|8,1:0|1:0|1:0,1:0:0:0:
81,37,38504,1,6,1:0:0:0:
15,112,38879,1,0,1:0:0:0:
10,211,39254,1,2,1:0:0:0:
45,304,39629,1,8,1:0:0:0:
139,336,40004,6,0,L|182:241,2,100,4|0|0,1:0|1:0|1:0,1:0:0:0:
234,368,41129,1,8,1:0:0:0:
330,343,41504,2,0,L|287:248,2,100,4|0|8,1:0|1:0|1:0,1:0:0:0:
429,340,42629,1,0,1:0:0:0:
468,248,43004,6,0,P|483:194|465:143,1,100,6|0,1:0|1:0,1:0:0:0:
422,65,43754,2,0,P|368:50|317:68,1,100,0|2,1:0|1:0,1:0:0:0:
240,112,44504,1,14,1:0:0:0:
226,211,44879,1,0,1:0:0:0:
145,269,45254,1,10,1:0:0:0:
61,213,45629,1,8,1:0:0:0:
62,113,46004,6,0,L|62:28,2,50,8|2|8,1:0|1:0|1:0,1:0:0:0:
154,150,46754,1,8,1:0:0:0:
241,102,47129,1,8,1:0:0:0:
314,169,47504,2,0,P|368:154|419:172,1,100,0|0,1:0|1:0,1:0:0:0:
439,261,48254,6,0,B|387:275|387:275|373:296|373:296|349:289|349:289|326:309|326:309|302:306|302:306|282:319|282:319|239:331,1,200,4|4,1:0|1:0,1:0:0:0:
33,21,54254,6,0,P|18:67|38:137,1,100,2|2,2:0|2:0,2:0:0:0:
25,216,55004,5,4,2:0:0:0:
106,274,55379,1,8,2:0:0:0:
57,361,55754,2,0,P|108:377|151:365,1,100,0|0,2:0|1:0,1:0:0:0:
236,311,56504,1,0,2:0:0:0:
309,243,56879,1,8,2:0:0:0:
371,321,57254,2,0,P|418:333|465:317,1,100,0|0,2:0|1:0,1:0:0:0:
481,218,58004,5,0,2:0:0:0:
405,151,58379,1,8,2:0:0:0:
447,60,58754,2,0,P|399:47|352:63,1,100,0|0,2:0|1:0,1:0:0:0:
256,192,59504,12,6,61004,2:0:0:0:
32,352,73004,6,0,L|32:251,1,100,0|8,1:0|1:0,1:0:0:0:
131,242,73754,2,0,L|131:141,1,100,0|8,1:0|1:0,1:0:0:0:
31,134,74504,2,0,L|31:33,1,100,0|8,1:0|1:0,1:0:0:0:
130,35,75254,1,0,1:0:0:0:
329,31,76004,6,0,L|430:31,1,100,0|8,1:0|1:0,1:0:0:0:
479,117,76754,2,0,L|479:218,1,100,0|8,1:0|1:0,1:0:0:0:
382,243,77504,2,0,L|382:344,1,100,0|8,1:0|1:0,1:0:0:0:
282,344,78254,1,0,1:0:0:0:
182,344,78629,1,8,1:0:0:0:
96,292,79004,6,0,P|81:238|99:187,2,100,0|8|0,1:0|1:0|1:0,1:0:0:0:
182,344,80129,1,8,1:0:0:0:
260,282,80504,2,0,P|275:228|257:177,2,100,0|8|0,1:0|1:0|1:0,1:0:0:0:
182,344,81629,1,8,1:0:0:0:
119,265,82004,6,0,L|112:165,1,100,0|8,1:0|1:0,1:0:0:0:
15,138,82754,2,0,L|21:38,1,100,8|8,1:0|1:0,1:0:0:0:
120,21,83504,1,2,1:0:0:0:
211,61,83879,1,2,1:0:0:0:
303,23,84254,1,2,1:0:0:0:
397,55,84629,1,2,1:0:0:0:
443,143,85004,6,0,L|434:223,2,75,2|2|2,1:0|1:0|1:0,1:0:0:0:
346,257,86129,1,0,1:0:0:0:
251,289,86504,2,0,L|242:369,2,75,2|2|2,1:0|1:0|1:0,1:0:0:0:
108,334,87629,5,0,1:0:0:0:
50,251,88004,2,0,L|41:171,2,75,2|2|2,1:0|1:0|1:0,1:0:0:0:
199,236,89129,1,0,1:0:0:0:
280,177,89504,2,0,L|360:186,2,75,2|2|2,1:0|1:0|1:0,1:0:0:0:
132,148,90629,5,0,1:0:0:0:
84,60,91004,2,2,P|47:51|12:63,2,75,2|2|2,1:0|1:0|1:0,1:0:0:0:
231,87,92129,1,0,1:0:0:0:
331,81,92504,2,2,P|357:107|365:143,2,75,2|2|2,1:0|1:0|1:0,1:0:0:0:
304,228,93629,5,0,1:0:0:0:
204,234,94004,2,2,P|177:207|169:171,2,75,2|2|2,1:0|1:0|1:0,1:0:0:0:
231,87,95129,1,0,1:0:0:0:
329,104,95504,5,2,1:0:0:0:
388,184,95879,1,0,1:0:0:0:
374,283,96254,1,2,1:0:0:0:
292,341,96629,1,0,1:0:0:0:
256,192,96816,12,0,98504,2:0:0:0:
128,96,100004,5,0,1:0:0:0:
384,96,103004,5,0,1:0:0:0:
128,288,106004,5,8,2:0:0:0:
218,330,106379,1,0,1:0:0:0:
317,336,106754,1,0,1:0:0:0:
403,285,107129,1,0,1:0:0:0:
464,206,107504,2,0,P|476:158|465:108,2,100,0|8|8,1:0|1:0|1:0,2:0:0:0:
373,162,108629,1,8,1:0:0:0:
303,90,109004,5,6,1:0:0:0:
231,160,109379,2,0,L|216:269,2,100,0|0|8,1:0|1:0|1:0,1:0:0:0:
142,113,110504,1,6,1:0:0:0:
224,56,110879,1,0,1:0:0:0:
317,91,111254,1,2,1:0:0:0:
329,190,111629,1,8,1:0:0:0:
297,284,112004,6,0,L|388:325,2,100,4|0|0,1:0|1:0|1:0,1:0:0:0:
205,324,113129,1,8,1:0:0:0:
128,259,113504,2,0,L|171:164,2,100,4|0|8,1:0|1:0|1:0,1:0:0:0:
59,331,114629,1,0,1:0:0:0:
11,243,115004,6,0,P|-4:189|14:138,1,100,14|0,1:0|1:0,1:0:0:0:
64,65,115754,2,0,P|118:50|169:68,1,100,0|2,1:0|1:0,1:0:0:0:
242,116,116504,1,14,1:0:0:0:
317,50,116879,1,0,1:0:0:0:
416,61,117254,1,10,1:0:0:0:
466,147,117629,1,8,1:0:0:0:
469,246,118004,6,0,L|469:331,2,50,8|2|8,1:0|1:0|1:0,1:0:0:0:
373,275,118754,1,8,1:0:0:0:
286,325,119129,1,8,1:0:0:0:
215,254,119504,2,0,P|161:239|110:257,1,100,8|0,1:0|1:0,1:0:0:0:
92,153,120254,6,0,B|108:148|108:148|128:135|128:135|152:138|152:138|175:118|175:118|199:125|199:125|213:104|213:104|265:90,1,200,4|4,1:0|1:0,1:0:0:0:
404,297,121941,5,2,2:0:0:0:
256,192,122129,12,0,127097,2:0:0:0:
