osu file format v14

[General]
AudioFilename: cranky - The Five.mp3
AudioLeadIn: 1004
PreviewTime: 35498
Countdown: 1
SampleSet: Soft
StackLeniency: 0.7
Mode: 0
LetterboxInBreaks: 1
WidescreenStoryboard: 1

[Editor]
Bookmarks: 13004,25004,37004,49004,61004,73004,85004,97004,109004,121004
DistanceSpacing: 0.6
BeatDivisor: 4
GridSize: 8
TimelineZoom: 2.5

[Metadata]
Title:The Five [Short Edit]
TitleUnicode:The Five [Short Edit]
Artist:Cranky
ArtistUnicode:Cranky
Creator:AJT
Version:Yokes' Three
Source:
Tags:flask yokespai deviouspanda pennek featured artist instrumental eurodance electronic
BeatmapID:2506180
BeatmapSetID:1194122

[Difficulty]
HPDrainRate:5.2
CircleSize:4.2
OverallDifficulty:8.2
ApproachRate:8.2
SliderMultiplier:1.6
SliderTickRate:1

[Events]
//Background and Video events
0,0,"five-title.png"
//Break Periods
2,61203,66284
//Storyboard Layer 0 (Background)
//Storyboard Layer 1 (Fail)
//Storyboard Layer 2 (Pass)
//Storyboard Layer 3 (Foreground)
//Storyboard Layer 4 (Overlay)
//Storyboard Sound Samples

[TimingPoints]
1004,375,4,1,0,80,1,0
13004,-100,4,1,0,50,0,0
13191,-100,4,1,0,80,0,0
14504,-100,4,1,0,50,0,0
14691,-100,4,1,0,80,0,0
16004,-100,4,1,0,50,0,0
16191,-100,4,1,0,80,0,0
17504,-100,4,1,0,50,0,0
17691,-100,4,1,0,80,0,0
19004,-100,4,1,0,50,0,0
19191,-100,4,1,0,80,0,0
20504,-100,4,1,0,50,0,0
20691,-100,4,1,0,80,0,0
22004,-100,4,1,0,50,0,0
22191,-100,4,1,0,80,0,0
23504,-100,4,1,0,50,0,0
23691,-100,4,1,0,80,0,0
37004,-100,4,1,0,80,0,1
42347,-83.3333333333333,4,1,0,80,0,0
43004,-100,4,1,0,80,0,1
49004,-100,4,1,0,80,0,0
59504,-100,4,1,0,50,0,0
67004,-133.333333333333,4,1,0,60,0,0
71504,-133.333333333333,4,1,0,50,0,0
73004,-100,4,1,0,80,0,0
97004,-100,4,1,0,50,0,0
106004,-100,4,1,0,80,0,0
109004,-100,4,1,0,80,0,1
114347,-83.3333333333333,4,1,0,80,0,0
115004,-100,4,1,0,80,0,1
121004,-100,4,1,0,80,0,0
122504,-100,4,1,0,70,0,0
122879,-100,4,1,0,60,0,0
123254,-100,4,1,0,50,0,0
123629,-100,4,1,0,40,0,0
124004,-100,4,1,0,30,0,0
124379,-100,4,1,0,20,0,0
124754,-100,4,1,0,10,0,0
125129,-100,4,1,0,5,0,0

[Colours]
Combo1 : 0,64,128
Combo2 : 255,128,128
Combo3 : 255,255,128

[HitObjects]
10,257,1004,5,4,1:0:0:0:
0,384,1191,1,4,1:0:0:0:
94,161,1566,5,0,1:0:0:0:
94,161,1660,1,0,1:0:0:0:
94,161,1754,1,2,1:0:0:0:
84,288,1941,1,0,1:0:0:0:
178,65,2316,5,0,1:0:0:0:
178,65,2410,1,0,1:0:0:0:
178,65,2504,1,2,1:0:0:0:
168,192,2691,1,0,1:0:0:0:
368,185,3066,5,0,1:0:0:0:
368,185,3160,1,0,1:0:0:0:
368,185,3254,1,2,1:0:0:0:
300,124,3441,2,0,L|221:132,2,80,0|8|0,1:0|1:0|1:0,1:0:0:0:
419,5,4004,5,4,1:0:0:0:
435,132,4191,1,4,1:0:0:0:
509,75,4566,5,0,1:0:0:0:
509,75,4660,1,0,1:0:0:0:
509,75,4754,1,2,1:0:0:0:
493,202,4941,1,0,1:0:0:0:
423,147,5316,5,0,1:0:0:0:
423,147,5410,1,0,1:0:0:0:
423,147,5504,1,2,1:0:0:0:
439,274,5691,1,0,1:0:0:0:
511,218,6066,5,0,1:0:0:0:
511,218,6160,1,0,1:0:0:0:
511,218,6254,1,2,1:0:0:0:
495,345,6441,1,0,1:0:0:0:
439,274,6629,2,2,P|361:277|315:292,1,120,2|0,1:0|1:0,1:0:0:0:
313,300,7004,5,4,1:0:0:0:
186,312,7191,1,4,1:0:0:0:
243,244,7566,5,0,1:0:0:0:
243,244,7660,1,0,1:0:0:0:
243,244,7754,1,2,1:0:0:0:
116,232,7941,1,0,1:0:0:0:
313,164,8316,5,0,1:0:0:0:
313,164,8410,1,0,1:0:0:0:
313,164,8504,1,2,1:0:0:0:
186,176,8691,1,0,1:0:0:0:
243,108,9066,5,0,1:0:0:0:
243,108,9160,1,0,1:0:0:0:
243,108,9254,1,2,1:0:0:0:
116,96,9441,1,0,1:0:0:0:
186,40,9629,1,8,1:0:0:0:
313,28,9816,1,0,1:0:0:0:
325,155,10004,5,4,1:0:0:0:
313,28,10191,1,4,1:0:0:0:
386,232,10566,5,0,1:0:0:0:
386,232,10660,1,0,1:0:0:0:
386,232,10754,1,2,1:0:0:0:
398,105,10941,1,0,1:0:0:0:
478,166,11316,5,0,1:0:0:0:
478,166,11410,1,0,1:0:0:0:
478,166,11504,2,0,B|517:122|468:89|485:46,2,120,2|2|0,1:0|1:0|1:0,1:0:0:0:
398,105,12254,1,8,1:0:0:0:
506,250,12441,1,8,1:0:0:0:
386,232,12629,1,2,1:0:0:0:
386,232,12816,1,0,1:0:0:0:
437,305,13004,6,0,P|474:335|512:340,1,80,2|0,1:0|1:0,1:0:0:0:
512,340,13285,1,0,1:0:0:0:
352,311,13472,1,0,1:0:0:0:
344,309,13566,1,0,1:0:0:0:
336,308,13660,2,0,P|298:320|271:349,2,80,8|0|0,1:0|1:0|1:0,1:0:0:0:
383,219,14129,2,0,P|391:180|379:142,1,80,8|0,1:0|1:0,1:0:0:0:
375,136,14410,1,0,1:0:0:0:
368,132,14504,5,2,1:0:0:0:
297,96,14691,1,0,1:0:0:0:
299,88,14785,1,0,1:0:0:0:
425,70,14972,1,0,1:0:0:0:
423,62,15066,1,0,1:0:0:0:
421,54,15160,1,8,1:0:0:0:
349,19,15347,2,0,P|307:11|263:13,1,80,0|0,1:0|1:0,1:0:0:0:
262,13,15629,1,8,1:0:0:0:
196,147,15816,1,0,1:0:0:0:
196,147,15910,1,0,1:0:0:0:
196,147,16004,6,0,P|204:107|204:68,1,80,2|0,1:0|1:0,1:0:0:0:
200,61,16285,2,0,P|160:68|120:68,1,80,0|0,1:0|1:0,1:0:0:0:
114,64,16566,1,0,1:0:0:0:
107,60,16660,1,8,1:0:0:0:
22,16,16847,2,0,P|29:55|29:95,1,80,0|0,1:0|1:0,1:0:0:0:
27,103,17129,1,8,1:0:0:0:
102,149,17316,2,0,L|106:191,1,40,0|0,1:0|1:0,1:0:0:0:
10,285,17504,5,2,1:0:0:0:
91,264,17691,2,0,L|87:306,1,40,0|0,1:0|1:0,1:0:0:0:
61,384,17879,1,8,1:0:0:0:
80,380,17972,1,0,1:0:0:0:
100,378,18066,1,0,1:0:0:0:
120,378,18160,1,8,1:0:0:0:
140,378,18254,1,0,1:0:0:0:
318,340,18441,5,8,1:0:0:0:
226,374,18629,1,8,1:0:0:0:
165,297,18816,1,0,1:0:0:0:
314,241,19004,5,2,1:0:0:0:
219,215,19191,1,0,1:0:0:0:
318,340,19379,1,8,1:0:0:0:
406,206,19566,1,0,1:0:0:0:
410,232,19660,1,0,1:0:0:0:
412,258,19754,1,0,1:0:0:0:
411,285,19847,1,0,1:0:0:0:
469,377,20035,1,0,1:0:0:0:
469,350,20129,1,8,1:0:0:0:
500,275,20316,1,0,1:0:0:0:
500,275,20410,1,0,1:0:0:0:
500,275,20504,6,0,L|496:169,1,80,2|0,1:0|1:0,1:0:0:0:
496,179,20785,1,0,1:0:0:0:
495,163,20879,1,8,1:0:0:0:
494,147,20972,1,0,1:0:0:0:
493,131,21066,1,0,1:0:0:0:
492,115,21160,2,0,P|459:141|400:150,2,80,0|0|0,1:0|1:0|1:0,1:0:0:0:
491,99,21629,1,8,1:0:0:0:
374,48,21816,2,0,L|413:46,1,40,0|0,1:0|1:0,1:0:0:0:
495,8,22004,5,2,1:0:0:0:
405,130,22191,1,0,1:0:0:0:
407,146,22285,1,0,1:0:0:0:
409,162,22379,1,8,1:0:0:0:
320,132,22566,1,0,1:0:0:0:
322,116,22660,1,0,1:0:0:0:
291,38,22847,1,0,1:0:0:0:
234,100,23035,1,0,1:0:0:0:
236,116,23129,1,8,1:0:0:0:
147,146,23316,1,0,1:0:0:0:
149,130,23410,1,0,1:0:0:0:
151,114,23504,6,0,L|158:65,3,40,2|0|0|0,1:0|1:0|1:0|1:0,1:0:0:0:
59,105,23879,1,8,1:0:0:0:
61,121,23972,1,0,1:0:0:0:
63,137,24066,1,0,1:0:0:0:
65,153,24160,1,0,1:0:0:0:
67,169,24254,5,0,1:0:0:0:
126,226,24441,1,0,1:0:0:0:
147,146,24629,1,8,1:0:0:0:
46,249,24816,1,0,1:0:0:0:
206,203,25004,5,4,1:0:0:0:
208,219,25097,1,0,1:0:0:0:
210,235,25191,1,0,1:0:0:0:
212,251,25285,2,0,P|187:292|156:309,1,80,0|0,1:0|1:0,1:0:0:0:
12,334,25660,2,0,P|60:335|90:353,1,80,0|0,1:0|1:0,1:0:0:0:
218,242,26035,1,0,1:0:0:0:
220,258,26129,2,0,P|195:299|164:316,1,80,0|2,1:0|1:0,1:0:0:0:
294,368,26504,5,0,1:0:0:0:
296,352,26597,1,0,1:0:0:0:
298,336,26691,1,0,1:0:0:0:
300,320,26785,2,0,L|308:239,1,80,0|0,1:0|1:0,1:0:0:0:
399,189,27160,2,0,L|391:268,1,80,0|0,1:0|1:0,1:0:0:0:
469,356,27535,1,0,1:0:0:0:
471,340,27629,2,0,L|479:259,1,80,0|2,1:0|1:0,1:0:0:0:
480,244,27910,1,0,1:0:0:0:
482,228,28004,6,0,L|486:187,1,40,4|0,1:0|1:0,1:0:0:0:
500,52,28191,1,0,1:0:0:0:
502,68,28285,2,0,P|470:104|436:115,1,80,0|0,1:0|1:0,1:0:0:0:
298,70,28660,2,0,P|342:87|364:115,1,80,0|0,1:0|1:0,1:0:0:0:
509,42,29035,1,0,1:0:0:0:
511,58,29129,2,0,P|479:94|445:105,1,80,0|2,1:0|1:0,1:0:0:0:
210,31,29504,5,8,1:0:0:0:
211,46,29597,1,0,1:0:0:0:
212,62,29691,1,0,1:0:0:0:
213,78,29785,2,0,L|221:180,1,80,0|0,1:0|1:0,1:0:0:0:
124,34,30160,1,0,1:0:0:0:
125,49,30254,5,2,1:0:0:0:
47,128,30441,1,2,1:0:0:0:
38,37,30629,1,2,1:0:0:0:
134,140,30816,1,2,1:0:0:0:
56,219,31004,6,0,L|61:274,1,40,4|0,1:0|1:0,1:0:0:0:
50,367,31191,1,0,1:0:0:0:
52,351,31285,2,0,P|103:330|147:335,2,80,0|0|0,1:0|1:0|1:0,1:0:0:0:
241,209,31847,2,0,P|223:244|221:284,1,80,0|0,1:0|1:0,1:0:0:0:
201,364,32129,2,0,P|240:361|276:343,1,80,0|2,1:0|1:0,1:0:0:0:
241,191,32504,6,0,P|226:213|212:243,1,40,8|0,1:0|1:0,1:0:0:0:
300,267,32691,1,0,1:0:0:0:
300,267,32785,2,0,P|333:289|356:322,1,80,0|0,1:0|1:0,1:0:0:0:
358,338,33066,1,0,1:0:0:0:
357,354,33160,1,0,1:0:0:0:
441,371,33347,2,0,L|438:285,1,80,0|0,1:0|1:0,1:0:0:0:
501,234,33629,2,0,L|504:148,1,80,0|2,1:0|1:0,1:0:0:0:
483,54,34004,6,0,L|481:11,2,40,8|0|0,1:0|1:0|1:0,1:0:0:0:
490,68,34285,2,0,P|434:89|382:92,1,80,0|0,1:0|1:0,1:0:0:0:
260,85,34660,2,0,P|316:64|368:61,1,80,0|0,1:0|1:0,1:0:0:0:
193,30,35035,1,0,1:0:0:0:
182,42,35129,2,0,P|126:63|74:66,1,80,0|2,1:0|1:0,1:0:0:0:
0,0,35504,6,0,P|19:47|21:83,1,80,8|0,1:0|1:0,1:0:0:0:
72,144,35785,2,0,P|53:191|51:227,1,80,8|0,1:0|1:0,1:0:0:0:
0,288,36066,1,8,1:0:0:0:
88,362,36254,6,0,L|45:358,1,40,2|0,1:0|1:0,1:0:0:0:
150,302,36441,2,0,L|114:277,1,40,2|0,1:0|1:0,1:0:0:0:
233,281,36629,2,0,L|214:242,1,40,8|0,1:0|1:0,1:0:0:0:
315,304,36816,2,0,L|318:261,1,40,2|0,1:0|1:0,1:0:0:0:
375,366,37004,6,0,L|463:358,1,80,6|0,1:0|1:0,1:0:0:0:
470,363,37285,1,2,1:0:0:0:
397,284,37472,1,2,1:0:0:0:
502,261,37660,1,2,1:0:0:0:
397,284,37847,1,2,1:0:0:0:
429,182,38035,5,2,1:0:0:0:
448,167,38129,1,8,1:0:0:0:
471,163,38222,1,0,1:0:0:0:
490,148,38316,2,0,L|492:106,1,40,8|0,1:0|1:0,1:0:0:0:
508,24,38504,6,0,P|453:32|421:59,1,80,6|0,1:0|1:0,1:0:0:0:
424,58,38785,1,2,1:0:0:0:
491,108,38972,1,2,1:0:0:0:
342,71,39160,5,0,1:0:0:0:
327,64,39254,2,0,P|287:64|251:82,1,80,2|2,1:0|1:0,1:0:0:0:
285,250,39629,2,0,L|280:190,1,40,8|0,1:0|1:0,1:0:0:0:
203,190,39816,2,0,L|198:130,1,40,8|8,1:0|1:0,1:0:0:0:
179,6,40004,5,4,1:0:0:0:
176,37,40097,1,0,1:0:0:0:
174,69,40191,1,0,1:0:0:0:
100,101,40379,1,0,1:0:0:0:
103,132,40472,1,0,1:0:0:0:
105,164,40566,1,0,1:0:0:0:
179,200,40754,6,0,P|181:242|172:283,1,80,0|0,1:0|1:0,1:0:0:0:
159,286,41035,2,0,L|156:333,1,40,0|8,1:0|1:0,1:0:0:0:
5,365,41222,1,0,1:0:0:0:
22,348,41316,1,0,1:0:0:0:
43,337,41410,1,0,1:0:0:0:
66,334,41504,6,0,L|157:337,1,80,4|0,1:0|1:0,1:0:0:0:
227,366,41879,1,0,1:0:0:0:
249,358,41972,1,8,1:0:0:0:
333,342,42160,1,8,1:0:0:0:
348,324,42254,1,8,1:0:0:0:
364,305,42347,2,2,B|426:284|420:351|463:352|463:352|491:318|438:278|500:246,1,240,2|0,1:0|1:0,1:0:0:0:
500,246,43004,6,0,L|483:144,1,80,6|0,1:0|1:0,1:0:0:0:
490,152,43285,1,10,1:0:0:0:
495,52,43472,1,10,1:0:0:0:
421,121,43660,1,10,1:0:0:0:
495,52,43847,1,10,1:0:0:0:
394,49,44035,5,0,1:0:0:0:
370,52,44129,1,2,1:0:0:0:
349,40,44222,1,0,1:0:0:0:
325,43,44316,2,0,L|277:53,1,40,2|0,1:0|1:0,1:0:0:0:
226,115,44504,6,0,P|191:71|152:57,1,80,6|0,1:0|1:0,1:0:0:0:
154,58,44785,1,10,1:0:0:0:
144,141,44972,1,10,1:0:0:0:
53,22,45160,5,0,1:0:0:0:
62,34,45254,2,0,P|71:72|63:111,1,80,10|0,1:0|1:0,1:0:0:0:
0,170,45629,2,0,L|10:257,1,80,8|0,1:0|1:0,1:0:0:0:
153,259,46004,5,8,1:0:0:0:
126,242,46097,1,0,1:0:0:0:
94,237,46191,1,2,1:0:0:0:
34,341,46379,1,8,1:0:0:0:
61,324,46472,1,0,1:0:0:0:
93,319,46566,1,2,1:0:0:0:
173,360,46754,6,0,P|235:341|260:342,1,80,8|2,1:0|1:0,1:0:0:0:
260,353,47035,2,0,L|305:357,1,40,0|8,1:0|1:0,1:0:0:0:
372,281,47222,1,0,1:0:0:0:
352,270,47316,1,2,1:0:0:0:
329,268,47410,1,8,1:0:0:0:
307,278,47504,6,0,L|314:392,1,80,0|0,1:0|1:0,1:0:0:0:
395,380,47785,2,0,L|509:387,1,80,8|8,1:0|1:0,1:0:0:0:
512,308,48066,2,0,L|508:251,1,40,0|8,1:0|1:0,1:0:0:0:
490,145,48254,6,0,L|492:184,1,40,4|0,1:0|1:0,1:0:0:0:
426,285,48441,2,0,L|428:245,1,40,4|0,1:0|1:0,1:0:0:0:
408,125,48629,2,0,L|410:164,1,40,4|0,1:0|1:0,1:0:0:0:
344,265,48816,2,0,L|346:225,1,40,4|0,1:0|1:0,1:0:0:0:
326,105,49004,6,0,P|309:143|273:165,2,80,4|0|0,1:0|1:0|1:0,1:0:0:0:
337,21,49566,1,0,1:0:0:0:
337,21,49754,2,0,B|296:9|254:32|277:37|233:60|184:50,1,160,8|0,1:0|1:0,1:0:0:0:
174,46,50222,1,2,1:2:0:0:
164,39,50316,1,2,1:2:0:0:
70,16,50504,6,0,P|82:58|76:98,1,80,0|0,1:0|1:0,1:0:0:0:
167,131,50879,2,0,P|135:161|120:199,1,80,0|0,1:0|1:0,1:0:0:0:
147,271,51254,1,8,1:0:0:0:
17,359,51629,1,0,1:0:0:0:
40,351,51722,1,2,1:2:0:0:
65,347,51816,1,2,1:2:0:0:
90,346,51910,1,2,1:2:0:0:
115,349,52004,6,0,P|154:356|192:371,2,80,0|0|0,1:0|1:0|1:0,1:0:0:0:
232,297,52566,1,0,1:0:0:0:
232,297,52754,2,0,B|279:303|312:334|294:338|333:366|378:369,1,160,8|0,1:0|1:0,1:0:0:0:
383,367,53222,1,2,1:2:0:0:
395,362,53316,1,2,1:2:0:0:
490,384,53504,6,0,P|475:344|471:308,1,80,0|0,1:0|1:0,1:0:0:0:
380,281,53879,2,0,P|395:241|399:205,1,80,0|0,1:0|1:0,1:0:0:0:
484,225,54254,6,0,L|479:178,1,40,2|2,2:0|2:0,1:0:0:0:
422,124,54441,2,0,L|417:77,1,40,2|2,2:0|2:0,1:0:0:0:
512,34,54629,6,0,B|492:72|472:24|511:0,1,80,2|0,2:0|1:0,1:0:0:0:
414,4,55004,6,0,L|329:8,1,80,4|2,2:0|2:0,1:0:0:0:
336,91,55379,2,0,L|251:87,1,80,8|2,2:0|2:0,1:0:0:0:
208,18,55754,1,0,2:0:0:0:
208,18,55847,1,2,2:0:0:0:
123,37,56035,2,0,L|137:167,1,120,2|2,2:0|2:0,1:0:0:0:
24,3,56504,6,0,L|19:88,1,80,0|2,2:0|2:0,1:0:0:0:
104,106,56879,2,0,L|109:191,1,80,8|2,2:0|2:0,1:0:0:0:
45,248,57254,1,0,2:0:0:0:
45,248,57347,1,2,2:0:0:0:
69,329,57535,2,0,L|194:318,1,120,2|0,2:0|2:0,1:0:0:0:
268,351,58004,5,0,2:0:0:0:
247,258,58191,1,2,2:0:0:0:
363,360,58379,1,8,2:0:0:0:
328,209,58566,1,2,2:0:0:0:
399,271,58754,1,0,2:0:0:0:
399,271,58847,1,2,2:0:0:0:
449,379,59035,1,2,2:0:0:0:
449,379,59129,2,0,L|451:336,3,40,0|0|0|0,1:0|1:0|2:0|1:0,1:0:0:0:
469,330,59504,5,0,1:0:0:0:
469,310,59597,1,0,1:0:0:0:
470,290,59691,1,0,1:0:0:0:
471,270,59785,1,0,1:0:0:0:
472,250,59879,2,0,L|474:207,3,40,0|0|0|0,1:0|1:0|1:0|1:0,1:0:0:0:
490,198,60254,2,0,L|491:176,16,20,0|0|0|0|0|0|0|0|0|0|0|0|0|0|0|0|6,1:0|1:0|1:0|1:0|1:0|1:0|1:0|1:0|1:0|1:0|1:0|1:0|1:0|1:0|1:0|1:0|2:0,1:0:0:0:
22,198,67004,6,0,B|65:226|118:200|94:204|148:172|201:207,1,180,0|0,1:0|1:0,1:0:0:0:
229,276,67754,1,10,2:0:0:0:
149,280,67941,1,2,2:0:0:0:
153,360,68129,1,2,2:0:0:0:
233,356,68316,1,0,1:0:0:0:
304,233,68504,5,0,1:0:0:0:
309,272,68691,1,0,1:0:0:0:
332,303,68879,1,0,1:0:0:0:
367,318,69066,1,2,2:0:0:0:
449,263,69254,5,10,2:0:0:0:
444,286,69441,1,2,2:0:0:0:
456,307,69629,1,0,1:0:0:0:
451,330,69816,1,0,1:0:0:0:
471,353,70004,6,0,B|459:332|459:332|464:308|464:308|452:288|452:288|457:264|457:264|445:239|445:239|450:216|450:216|439:185,1,180,0|0,1:0|1:0,1:0:0:0:
471,18,70754,2,0,B|459:39|459:39|464:63|464:63|452:83|452:83|457:107|457:107|445:132|445:132|450:155|450:155|439:186,1,180,10|0,2:0|1:0,1:0:0:0:
359,186,71504,1,0,1:0:0:0:
256,192,71597,12,0,72629,1:0:0:0:
153,198,73004,6,0,P|168:263|170:287,1,80,0|0,1:0|1:0,1:0:0:0:
144,352,73379,1,8,1:0:0:0:
63,384,73566,1,0,1:0:0:0:
63,384,73660,1,0,1:0:0:0:
63,384,73754,2,0,L|68:303,1,80,0|0,1:0|1:0,1:0:0:0:
10,246,74129,2,0,L|5:165,1,80,8|0,1:0|1:0,1:0:0:0:
3,146,74410,1,0,1:0:0:0:
3,146,74504,6,0,P|49:140|100:143,2,80,0|0|8,1:0|1:0|1:0,1:0:0:0:
16,52,75066,1,0,1:0:0:0:
36,54,75160,1,0,1:0:0:0:
56,56,75254,1,0,1:0:0:0:
76,58,75347,1,0,1:0:0:0:
96,60,75441,2,0,L|184:69,1,80,0|8,1:0|1:0,1:0:0:0:
225,219,75910,1,0,1:0:0:0:
225,219,76004,6,0,P|218:142|222:128,1,80,0|0,1:0|1:0,1:0:0:0:
254,67,76379,1,8,1:0:0:0:
340,48,76566,1,0,1:0:0:0:
337,68,76660,1,0,1:0:0:0:
334,88,76754,2,0,L|326:146,4,40,0|0|0|0|8,1:0|1:0|1:0|1:0|1:0,1:0:0:0:
417,88,77316,1,0,1:0:0:0:
492,26,77504,6,0,L|501:115,1,80,0|0,1:0|1:0,1:0:0:0:
508,189,77879,2,0,P|476:196|421:187,1,80,8|0,1:0|1:0,1:0:0:0:
338,262,78254,2,0,P|370:263|421:286,1,80,0|8,1:0|1:0,1:0:0:0:
464,356,78535,1,0,1:0:0:0:
464,356,78629,2,0,P|434:371|379:376,1,80,8|0,1:0|1:0,1:0:0:0:
311,343,79004,6,0,L|222:357,1,80,0|0,1:0|1:0,1:0:0:0:
213,360,79285,1,0,1:0:0:0:
213,360,79379,2,0,L|198:269,1,80,8|0,1:0|1:0,1:0:0:0:
108,185,79754,5,0,1:0:0:0:
118,266,79941,1,0,1:0:0:0:
34,317,80129,2,0,L|39:230,1,80,8|0,1:0|1:0,1:0:0:0:
17,88,80504,5,0,1:0:0:0:
98,104,80691,1,0,1:0:0:0:
189,201,80879,2,0,L|271:207,1,80,8|0,1:0|1:0,1:0:0:0:
345,130,81254,5,0,1:0:0:0:
347,150,81347,1,0,1:0:0:0:
349,170,81441,2,0,L|356:226,2,40,0|0|8,1:0|1:0|1:0,1:0:0:0:
409,331,81910,1,0,1:0:0:0:
409,331,82004,6,0,P|419:281|432:249,1,80,0|0,1:0|1:0,1:0:0:0:
512,233,82379,2,0,L|507:152,1,80,8|0,1:0|1:0,1:0:0:0:
464,0,82754,5,8,1:0:0:0:
512,69,82941,1,0,1:0:0:0:
388,37,83129,1,8,1:0:0:0:
436,106,83316,1,8,1:0:0:0:
312,74,83504,6,2,L|320:203,1,120,2|0,1:0|2:0,1:0:0:0:
269,256,83879,2,2,L|276:136,1,120,2|0,1:0|2:0,1:0:0:0:
234,68,84254,6,0,L|184:75,1,40,2|0,1:0|2:0,1:0:0:0:
155,81,84441,2,0,L|105:88,1,40,2|0,1:0|2:0,1:0:0:0:
12,27,84629,2,0,L|62:34,1,40,2|0,1:0|2:0,1:0:0:0:
91,40,84816,2,0,L|141:47,1,40,2|0,1:0|2:0,1:0:0:0:
191,150,85004,6,0,L|187:243,1,80,2|0,1:0|2:0,1:0:0:0:
204,308,85285,2,2,L|200:228,1,80,2|0,1:0|2:0,1:0:0:0:
111,185,85566,1,2,1:0:0:0:
30,326,85941,6,0,L|43:378,1,40,0|0,1:0|2:0,1:0:0:0:
116,306,86129,2,0,L|116:360,1,40,0|0,1:0|2:0,1:0:0:0:
204,308,86316,2,0,L|190:360,1,40,0|0,1:0|2:0,1:0:0:0:
268,366,86504,6,0,L|314:288,1,80,2|0,1:0|2:0,1:0:0:0:
281,222,86785,2,2,L|327:300,1,80,2|0,1:0|2:0,1:0:0:0:
356,368,87066,1,2,1:0:0:0:
477,383,87441,6,0,L|473:330,1,40,0|0,1:0|2:0,1:0:0:0:
406,299,87629,2,0,L|410:246,1,40,0|0,1:0|2:0,1:0:0:0:
492,244,87816,2,0,L|488:191,1,40,0|0,1:0|2:0,1:0:0:0:
403,180,88004,6,0,L|408:100,1,80,2|0,1:0|2:0,1:0:0:0:
485,75,88285,2,2,L|413:109,1,80,2|0,1:0|2:0,1:0:0:0:
354,57,88566,1,2,1:0:0:0:
308,165,88941,6,0,L|314:125,1,40,0|0,1:0|2:0,1:0:0:0:
234,117,89129,2,0,L|226:77,1,40,0|0,1:0|2:0,1:0:0:0:
148,97,89316,2,0,L|127:62,1,40,0|0,1:0|2:0,1:0:0:0:
0,58,89504,6,0,L|61:108,1,80,2|0,1:0|2:0,1:0:0:0:
87,185,89785,2,2,L|46:116,1,80,2|0,1:0|2:0,1:0:0:0:
67,11,90066,1,2,1:0:0:0:
128,252,90441,6,0,L|164:236,1,40,0|0,1:0|2:0,1:0:0:0:
243,195,90629,2,0,L|238:234,1,40,0|0,1:0|2:0,1:0:0:0:
234,323,90816,2,0,L|201:299,1,40,0|0,1:0|2:0,1:0:0:0:
121,259,91004,6,2,L|120:352,1,80,2|0,1:0|2:0,1:0:0:0:
44,364,91285,2,2,L|113:324,1,80,2|0,1:0|2:0,1:0:0:0:
174,380,91566,2,2,L|93:332,1,80,2|0,1:0|2:0,1:0:0:0:
201,299,91941,6,0,L|249:308,1,40,0|0,1:0|2:0,1:0:0:0:
321,344,92129,2,0,L|330:296,1,40,0|0,1:0|2:0,1:0:0:0:
326,216,92316,2,0,L|366:224,1,40,0|0,1:0|2:0,1:0:0:0:
416,295,92504,6,2,B|417:296|423:379,1,80,2|0,1:0|2:0,1:0:0:0:
489,311,92785,2,2,B|488:311|405:317,1,80,2|0,1:0|2:0,1:0:0:0:
473,383,93066,2,2,B|472:382|466:299,1,80,2|0,1:0|2:0,1:0:0:0:
373,231,93441,6,0,L|420:238,1,40,0|0,1:0|2:0,1:0:0:0:
482,190,93629,2,0,L|503:147,1,40,0|0,1:0|2:0,1:0:0:0:
476,73,93816,2,0,L|442:39,1,40,0|0,1:0|2:0,1:0:0:0:
362,43,94004,6,2,L|281:87,1,80,2|0,1:0|2:0,1:0:0:0:
264,165,94285,2,2,L|303:81,1,80,2|0,1:0|2:0,1:0:0:0:
271,8,94566,2,2,L|287:98,1,80,2|0,1:0|1:0,1:0:0:0:
409,142,94941,6,0,L|364:146,1,40,0|0,1:0|1:0,1:0:0:0:
298,92,95129,2,0,L|253:96,1,40,0|0,1:0|1:0,1:0:0:0:
187,42,95316,2,0,L|142:46,1,40,0|0,1:0|1:0,1:0:0:0:
62,8,95504,6,0,L|56:93,1,80,2|0,1:0|1:0,1:0:0:0:
49,176,95879,1,0,1:0:0:0:
49,176,96066,1,2,1:0:0:0:
130,142,96254,1,2,1:0:0:0:
132,170,96347,1,0,1:0:0:0:
134,198,96441,1,0,1:0:0:0:
136,226,96535,1,2,1:0:0:0:
138,254,96629,2,0,L|143:312,3,40,0|0|2|0,1:0|1:0|1:0|1:0,1:0:0:0:
160,329,97004,5,0,1:0:0:0:
33,345,97191,1,0,1:0:0:0:
215,263,97566,5,0,2:0:0:0:
215,263,97660,1,0,2:0:0:0:
215,263,97754,1,2,2:0:0:0:
88,279,97941,1,2,2:0:0:0:
270,197,98316,5,0,2:0:0:0:
270,197,98410,1,0,2:0:0:0:
270,197,98504,1,2,2:0:0:0:
143,213,98691,1,2,2:0:0:0:
325,131,99066,5,0,2:0:0:0:
325,131,99160,1,0,2:0:0:0:
325,131,99254,1,2,2:0:0:0:
229,124,99441,2,0,L|147:119,2,80,2|0|0,2:0|2:0|1:0,2:0:0:0:
385,189,100004,5,0,1:0:0:0:
373,62,100191,1,0,1:0:0:0:
438,259,100566,5,0,2:0:0:0:
438,259,100660,1,0,2:0:0:0:
438,259,100754,1,2,2:0:0:0:
450,132,100941,1,2,2:0:0:0:
379,324,101316,5,0,2:0:0:0:
379,324,101410,1,0,2:0:0:0:
379,324,101504,1,2,2:0:0:0:
367,197,101691,1,2,2:0:0:0:
455,372,102066,5,0,2:0:0:0:
455,372,102160,1,0,2:0:0:0:
455,372,102254,1,2,2:0:0:0:
379,324,102441,1,2,2:0:0:0:
317,380,102629,2,0,P|250:333|206:331,1,120,2|0,2:0|2:0,2:0:0:0:
202,334,103004,5,0,1:0:0:0:
76,352,103191,1,0,1:0:0:0:
132,280,103566,5,0,2:0:0:0:
132,280,103660,1,0,2:0:0:0:
132,280,103754,1,2,2:0:0:0:
6,262,103941,1,2,2:0:0:0:
199,187,104316,5,0,2:0:0:0:
199,187,104410,1,0,2:0:0:0:
199,187,104504,1,2,2:0:0:0:
73,205,104691,1,2,2:0:0:0:
126,138,105066,5,0,2:0:0:0:
126,138,105160,1,0,2:0:0:0:
126,138,105254,1,2,2:0:0:0:
43,131,105441,2,0,L|32:48,2,80,2|0|0,2:0|2:0|1:0,1:0:0:0:
146,254,106004,5,8,2:0:0:0:
209,143,106191,2,0,L|220:60,1,80,0|0,2:0|1:0,2:0:0:0:
349,109,106566,1,0,2:0:0:0:
349,109,106660,1,0,2:0:0:0:
349,109,106754,2,0,L|432:98,1,80,0|0,1:0|2:0,2:0:0:0:
512,0,107129,1,0,1:0:0:0:
504,128,107316,1,0,2:0:0:0:
503,148,107410,1,0,2:0:0:0:
502,168,107504,5,0,1:0:0:0:
425,219,107691,1,0,1:0:0:0:
422,187,107785,1,0,1:0:0:0:
502,250,107972,1,0,1:0:0:0:
499,282,108066,1,0,1:0:0:0:
496,314,108160,1,0,1:0:0:0:
493,346,108254,2,0,L|453:355,3,40,8|0|8|0,1:0|1:0|1:0|1:0,2:0:0:0:
440,369,108629,1,8,1:0:0:0:
414,351,108722,1,0,1:0:0:0:
383,342,108816,1,8,1:0:0:0:
351,344,108910,1,0,1:0:0:0:
321,357,109004,6,0,L|232:364,1,80,6|0,1:0|1:0,1:0:0:0:
230,369,109285,1,2,1:0:0:0:
179,261,109472,1,2,1:0:0:0:
111,360,109660,1,2,1:0:0:0:
179,261,109847,1,2,1:0:0:0:
60,252,110035,1,2,1:0:0:0:
52,221,110129,1,8,1:0:0:0:
70,195,110222,1,0,1:0:0:0:
62,164,110316,2,0,L|58:119,1,40,8|0,1:0|1:0,1:0:0:0:
28,41,110504,6,0,P|93:43|116:58,1,80,6|0,1:0|1:0,1:0:0:0:
113,58,110785,1,2,1:0:0:0:
62,164,110972,1,2,1:0:0:0:
196,57,111160,5,0,1:0:0:0:
204,48,111254,2,0,P|241:34|280:39,1,80,2|0,1:0|1:0,1:0:0:0:
246,162,111629,1,8,1:0:0:0:
369,129,111816,1,8,1:0:0:0:
429,0,112004,5,4,1:0:0:0:
432,32,112097,1,0,1:0:0:0:
435,64,112191,1,0,1:0:0:0:
509,119,112379,1,0,1:0:0:0:
506,151,112472,1,0,1:0:0:0:
503,183,112566,1,0,1:0:0:0:
406,207,112754,6,0,P|399:247|405:300,1,80,0|0,1:0|1:0,1:0:0:0:
413,290,113035,2,0,L|413:339,1,40,0|8,1:0|1:0,1:0:0:0:
497,373,113222,1,0,1:0:0:0:
474,355,113316,1,0,1:0:0:0:
448,344,113410,1,0,1:0:0:0:
420,340,113504,6,0,L|328:340,1,80,4|0,1:0|1:0,1:0:0:0:
249,372,113879,1,0,1:0:0:0:
219,362,113972,1,8,1:0:0:0:
180,273,114160,1,8,1:0:0:0:
175,235,114254,1,8,1:0:0:0:
170,197,114347,2,2,B|120:211|120:211|134:349|134:349|80:367,1,240,2|0,1:0|1:0,1:0:0:0:
13,302,115004,6,0,L|3:206,1,80,14|0,1:0|1:0,1:0:0:0:
3,210,115285,1,10,1:0:0:0:
3,94,115472,1,10,1:0:0:0:
86,177,115660,1,10,1:0:0:0:
3,94,115847,1,10,1:0:0:0:
119,94,116035,1,0,1:0:0:0:
147,78,116129,1,2,1:0:0:0:
178,84,116222,1,0,1:0:0:0:
206,68,116316,2,0,L|248:63,1,40,2|0,1:0|1:0,1:0:0:0:
338,32,116504,6,0,P|327:72|355:129,1,80,6|0,1:0|1:0,1:0:0:0:
346,117,116785,1,10,1:0:0:0:
472,95,116972,1,10,1:0:0:0:
346,199,117160,5,0,1:0:0:0:
337,207,117254,2,0,P|326:245|337:283,1,80,10|0,1:0|1:0,1:0:0:0:
472,221,117629,2,0,L|470:305,1,80,8|0,1:0|1:0,1:0:0:0:
441,384,118004,5,8,1:0:0:0:
412,370,118097,1,0,1:0:0:0:
391,345,118191,1,2,1:0:0:0:
361,225,118379,1,8,1:0:0:0:
342,251,118472,1,0,1:0:0:0:
337,283,118566,1,2,1:0:0:0:
275,359,118754,6,0,P|262:317|234:288,1,80,8|2,1:0|1:0,1:0:0:0:
227,286,119035,2,0,L|173:282,1,40,0|8,1:0|1:0,1:0:0:0:
139,365,119222,1,0,1:0:0:0:
158,343,119316,1,2,1:0:0:0:
172,318,119410,1,8,1:0:0:0:
178,291,119504,6,0,L|186:199,1,80,8|0,1:0|1:0,1:0:0:0:
232,132,119785,2,0,L|140:123,1,80,8|8,1:0|1:0,1:0:0:0:
73,78,120066,2,0,L|68:123,1,40,0|8,1:0|1:0,1:0:0:0:
17,202,120254,6,0,L|62:197,1,40,4|0,1:0|1:0,1:0:0:0:
184,211,120441,2,0,L|144:207,1,40,4|0,1:0|1:0,1:0:0:0:
11,282,120629,2,0,L|56:277,1,40,4|0,1:0|1:0,1:0:0:0:
178,291,120816,2,0,L|138:287,1,40,4|0,1:0|1:0,1:0:0:0:
5,362,121004,5,4,1:0:0:0:
5,362,121097,1,8,1:0:0:0:
138,287,121285,1,10,2:0:0:0:
269,364,121472,1,8,1:0:0:0:
402,289,121660,1,10,2:0:0:0:
411,320,121754,1,0,1:0:0:0:
436,340,121847,1,10,2:0:0:0:
445,371,121941,1,2,2:0:0:0:
256,192,122035,12,0,127004,2:0:0:0:
