osu file format v14

[General]
AudioFilename: cranky - The Five.mp3
AudioLeadIn: 1004
PreviewTime: 35498
Countdown: 1
SampleSet: Normal
StackLeniency: 0.7
Mode: 0
LetterboxInBreaks: 1
WidescreenStoryboard: 1

[Editor]
Bookmarks: 13004,18629,25014,35514,42066,55014,72994,90994,96994
DistanceSpacing: 0.9
BeatDivisor: 4
GridSize: 8
TimelineZoom: 1.9

[Metadata]
Title:The Five [Short Edit]
TitleUnicode:The Five [Short Edit]
Artist:Cranky
ArtistUnicode:Cranky
Creator:AJT
Version:Pennek's One
Source:
Tags:flask yokespai deviouspanda pennek featured artist instrumental eurodance electronic
BeatmapID:2529108
BeatmapSetID:1194122

[Difficulty]
HPDrainRate:4
CircleSize:3.2
OverallDifficulty:4
ApproachRate:5
SliderMultiplier:1.2
SliderTickRate:1

[Events]
//Background and Video events
0,0,"five-title.png",0,0
//Break Periods
2,49204,53804
//Storyboard Layer 0 (Background)
//Storyboard Layer 1 (Fail)
//Storyboard Layer 2 (Pass)
//Storyboard Layer 3 (Foreground)
//Storyboard Layer 4 (Overlay)
//Storyboard Sound Samples

[TimingPoints]
1004,375,4,1,0,80,1,0
13004,-100,4,1,0,50,0,0
13191,-100,4,1,0,80,0,0
14504,-100,4,1,0,50,0,0
14691,-100,4,1,0,80,0,0
16004,-100,4,1,0,50,0,0
16191,-100,4,1,0,80,0,0
17504,-100,4,1,0,50,0,0
17879,-100,4,1,0,80,0,0
19004,-100,4,1,0,50,0,0
19191,-100,4,1,0,80,0,0
20504,-100,4,1,0,50,0,0
20691,-100,4,1,0,80,0,0
22004,-100,4,1,0,50,0,0
22191,-100,4,1,0,80,0,0
23504,-100,4,1,0,50,0,0
23879,-100,4,1,0,80,0,0
37004,-90.9090909090909,4,1,0,80,0,1
49004,-90.9090909090909,4,1,0,80,0,0
55004,-100,4,1,0,80,0,0
59504,-100,4,1,0,50,0,0
67004,-100,4,1,0,60,0,0
71504,-100,4,1,0,50,0,0
73004,-100,4,1,0,80,0,0
97004,-100,4,1,0,50,0,0
108254,-100,4,1,0,80,0,0
109004,-90.9090909090909,4,1,0,80,0,1
121004,-90.9090909090909,4,1,0,80,0,0
122504,-90.9090909090909,4,1,0,70,0,0
122879,-90.9090909090909,4,1,0,60,0,0
123254,-90.9090909090909,4,1,0,50,0,0
123629,-90.9090909090909,4,1,0,40,0,0
124004,-90.9090909090909,4,1,0,30,0,0
124379,-90.9090909090909,4,1,0,20,0,0
124754,-90.9090909090909,4,1,0,10,0,0
125129,-90.9090909090909,4,1,0,5,0,0

[Colours]
Combo1 : 0,64,128
Combo2 : 255,128,128
Combo3 : 255,255,128

[HitObjects]
478,275,1004,6,0,L|459:339,1,60,4|4,1:0|1:0,1:0:0:0:
344,284,4004,5,4,1:0:0:0:
326,340,4191,1,4,1:0:0:0:
206,311,5504,6,0,B|149:311|91:346|91:346|50:293|4:265|4:265|3:264|3:264|32:199|30:148,1,360,2|2,1:0|1:0,1:0:0:0:
105,53,7004,5,4,1:0:0:0:
163,40,7191,1,4,1:0:0:0:
259,133,10004,5,4,1:0:0:0:
201,146,10191,1,4,1:0:0:0:
256,192,10379,12,8,12254,1:0:0:0:
224,284,13004,6,0,P|168:310|142:365,1,120,2|8,1:0|1:0,1:0:0:0:
38,329,13754,1,0,1:0:0:0:
20,222,14129,1,8,1:0:0:0:
104,153,14504,6,0,P|145:194|204:201,1,120,2|8,1:0|1:0,1:0:0:0:
253,178,15066,2,0,L|277:53,1,120,0|8,1:0|1:0,1:0:0:0:
287,7,15629,1,8,1:0:0:0:
394,9,16004,6,0,P|464:25|487:72,1,120,2|8,1:0|1:0,1:0:0:0:
493,116,16566,2,0,P|434:131|404:189,1,120,0|0,1:0|1:0,1:0:0:0:
401,233,17129,1,8,1:0:0:0:
425,338,17504,5,2,1:0:0:0:
321,301,17879,1,8,1:0:0:0:
217,331,18254,1,0,1:0:0:0:
113,360,18629,1,8,1:0:0:0:
22,301,19004,6,0,L|46:172,1,120,2|8,1:0|1:0,1:0:0:0:
64,76,19754,1,0,1:0:0:0:
156,19,20129,1,8,1:0:0:0:
263,39,20504,6,0,L|380:60,1,120,2|8,1:0|1:0,1:0:0:0:
407,107,21066,2,0,P|356:120|314:178,1,120,0|0,1:0|1:0,1:0:0:0:
301,223,21629,1,8,1:0:0:0:
204,175,22004,6,0,L|86:196,1,120,2|8,1:0|1:0,1:0:0:0:
62,245,22566,2,0,L|83:362,1,120,0|0,1:0|1:0,1:0:0:0:
134,381,23129,1,8,1:0:0:0:
241,382,23504,5,2,1:0:0:0:
309,298,23879,1,8,1:0:0:0:
254,204,24254,1,0,1:0:0:0:
322,120,24629,1,8,1:0:0:0:
259,23,25004,6,0,P|194:13|146:43,1,120,4|8,1:0|1:0,1:0:0:0:
94,132,25754,1,2,1:0:0:0:
4,72,26129,1,0,1:0:0:0:
1,198,26504,6,0,L|22:327,1,120,0|8,1:0|1:0,1:0:0:0:
112,371,27254,1,2,1:0:0:0:
170,280,27629,1,0,1:0:0:0:
253,361,28004,6,0,P|318:371|366:341,1,120,4|8,1:0|1:0,1:0:0:0:
418,252,28754,1,2,1:0:0:0:
508,312,29129,1,0,1:0:0:0:
511,186,29504,6,0,L|490:57,1,120,8|8,1:0|1:0,1:0:0:0:
400,13,30254,1,2,1:0:0:0:
342,104,30629,1,2,1:0:0:0:
259,23,31004,6,0,P|212:52|206:126,1,120,4|8,1:0|1:0,1:0:0:0:
125,190,31754,1,2,1:0:0:0:
89,88,32129,1,0,1:0:0:0:
20,171,32504,6,0,L|34:308,1,120,8|8,1:0|1:0,1:0:0:0:
92,380,33254,1,2,1:0:0:0:
161,297,33629,1,0,1:0:0:0:
253,361,34004,6,0,P|300:332|306:258,1,120,8|8,1:0|1:0,1:0:0:0:
387,194,34754,1,2,1:0:0:0:
423,296,35129,1,0,1:0:0:0:
492,213,35504,6,0,B|505:183|489:150|461:138|461:138|431:127|417:92|430:64,1,180,8|8,1:0|1:0,1:0:0:0:
459,18,36254,1,2,1:0:0:0:
351,30,36629,1,8,1:0:0:0:
263,110,37004,6,0,L|185:95,2,66,6|0|0,1:0|1:0|1:0,1:0:0:0:
310,145,37566,1,0,1:0:0:0:
322,203,37754,1,0,1:0:0:0:
223,269,38129,2,0,L|238:350,1,66,8|8,1:0|1:0,1:0:0:0:
185,367,38504,6,0,P|107:334|87:386,1,132,6|0,1:0|1:0,1:0:0:0:
30,258,39254,2,0,P|94:206|59:162,1,132,2|8,1:0|1:0,1:0:0:0:
32,140,39816,1,8,1:0:0:0:
41,81,40004,6,0,L|94:31,1,66,4|0,1:0|1:0,1:0:0:0:
149,38,40379,2,0,L|198:91,1,66,0|0,1:0|1:0,1:0:0:0:
253,89,40754,1,0,1:0:0:0:
353,25,41129,1,8,1:0:0:0:
440,105,41504,6,0,L|518:90,2,66,4|0|0,1:0|1:0|1:0,1:0:0:0:
393,140,42066,1,0,1:0:0:0:
381,198,42254,1,8,1:0:0:0:
493,235,42629,1,0,1:0:0:0:
394,300,43004,6,0,L|409:378,2,66,6|0|0,1:0|1:0|1:0,1:0:0:0:
343,268,43566,1,0,1:0:0:0:
292,299,43754,1,0,1:0:0:0:
191,362,44129,2,0,L|107:331,1,66,2|2,1:0|1:0,1:0:0:0:
73,318,44504,6,0,P|105:240|155:263,1,132,14|0,1:0|1:0,1:0:0:0:
106,131,45254,2,0,P|23:140|17:84,1,132,10|8,1:0|1:0,1:0:0:0:
84,13,46004,6,0,L|153:32,1,66,8|2,1:0|1:0,1:0:0:0:
191,70,46379,2,0,L|207:147,1,66,8|2,1:0|1:0,1:0:0:0:
213,193,46754,1,8,1:0:0:0:
110,250,47129,1,8,1:0:0:0:
90,367,47504,6,0,L|12:352,2,66,0|0|0,1:0|1:0|1:0,1:0:0:0:
148,377,48066,1,0,1:0:0:0:
200,349,48254,2,0,B|218:317|256:304|291:313|314:335|314:335|339:362|378:367|410:350|426:323,1,264,4|4,1:0|1:0,1:0:0:0:
488,309,55004,6,0,P|484:246|390:260,1,180,4|2,2:0|2:0,1:0:0:0:
358,301,55754,2,0,P|282:328|261:250,1,180,0|2,2:0|2:0,1:0:0:0:
286,205,56504,5,0,2:0:0:0:
391,179,56879,1,8,2:0:0:0:
399,71,57254,1,0,2:0:0:0:
299,30,57629,1,0,1:0:0:0:
229,112,58004,6,0,P|150:132|86:64,1,180,8|2,2:0|2:0,1:0:0:0:
42,36,58754,2,0,B|1:100|1:100|38:215,1,180,8|0,2:0|2:0,1:0:0:0:
48,250,59504,5,0,1:0:0:0:
164,379,60254,1,0,1:0:0:0:
305,265,61004,6,0,P|253:179|206:265,2,240,6|2|0,2:0|2:0|1:0,1:0:0:0:
258,362,62879,1,0,1:0:0:0:
258,362,63254,1,2,2:0:0:0:
374,241,64004,6,0,P|402:127|497:22,1,240,2|2,2:0|2:0,1:0:0:0:
510,248,65504,1,0,1:0:0:0:
448,352,65879,1,0,1:0:0:0:
351,302,66254,1,2,2:0:0:0:
207,129,67004,6,0,P|259:215|306:129,2,240,0|10|0,1:0|2:0|1:0,1:0:0:0:
254,32,68879,1,0,1:0:0:0:
254,32,69254,1,10,2:0:0:0:
138,143,70004,6,0,P|110:257|15:362,1,240,0|10,1:0|2:0,1:0:0:0:
0,244,71129,1,0,2:0:0:0:
32,141,71504,1,0,1:0:0:0:
219,33,72254,1,0,1:0:0:0:
430,75,73004,6,0,P|461:114|449:183,1,120,0|8,1:0|1:0,1:0:0:0:
365,246,73754,2,0,P|352:303|386:350,1,120,0|8,1:0|1:0,1:0:0:0:
493,360,74504,5,0,1:0:0:0:
472,253,74879,1,8,1:0:0:0:
365,246,75254,1,0,1:0:0:0:
352,138,75629,1,8,1:0:0:0:
403,122,75816,1,0,1:0:0:0:
430,75,76004,6,0,P|367:22|316:27,1,120,0|8,1:0|1:0,1:0:0:0:
227,46,76754,2,0,L|107:73,1,120,0|8,1:0|1:0,1:0:0:0:
4,96,77504,5,0,1:0:0:0:
70,181,77879,1,8,1:0:0:0:
3,266,78254,1,0,1:0:0:0:
68,351,78629,1,8,1:0:0:0:
117,328,78816,1,0,1:0:0:0:
169,339,79004,6,0,L|187:274,1,60,0|0,1:0|1:0,1:0:0:0:
231,253,79379,2,0,P|268:275|315:360,1,120,8|0,1:0|1:0,1:0:0:0:
413,369,80129,1,8,1:0:0:0:
457,270,80504,6,0,P|457:220|405:173,1,120,0|8,1:0|1:0,1:0:0:0:
304,199,81254,2,0,P|259:161|256:103,1,120,0|8,1:0|1:0,1:0:0:0:
295,2,82004,5,0,1:0:0:0:
355,91,82379,1,8,1:0:0:0:
445,31,82754,1,8,1:0:0:0:
499,123,83129,1,8,1:0:0:0:
479,173,83316,1,8,1:0:0:0:
500,222,83504,6,2,L|469:357,1,120,2|2,1:0|1:0,1:0:0:0:
366,320,84254,1,2,1:0:0:0:
327,281,84441,1,2,1:0:0:0:
273,286,84629,2,0,L|255:356,1,60,2|2,1:0|1:0,1:0:0:0:
212,372,85004,6,0,P|159:360|129:317,2,90,2|2|2,1:0|1:0|1:0,1:0:0:0:
273,286,85941,1,0,1:0:0:0:
325,271,86129,2,0,L|391:292,1,60,0|0,1:0|1:0,1:0:0:0:
433,307,86504,6,0,L|484:383,2,90,2|2|2,1:0|1:0|1:0,1:0:0:0:
463,203,87441,1,0,1:0:0:0:
419,170,87629,2,0,P|416:134|422:109,1,60,0|0,1:0|1:0,1:0:0:0:
465,82,88004,6,0,P|493:53|491:-18,2,90,2|2|2,1:0|1:0|1:0,1:0:0:0:
360,55,88941,1,0,1:0:0:0:
306,46,89129,2,0,L|238:71,1,60,0|0,1:0|1:0,1:0:0:0:
198,84,89504,6,0,L|115:43,2,90,2|2|2,1:0|1:0|1:0,1:0:0:0:
278,156,90441,1,0,1:0:0:0:
322,189,90629,2,0,P|325:225|319:250,1,60,0|0,1:0|1:0,1:0:0:0:
324,301,91004,6,2,P|376:313|407:355,2,90,2|2|2,1:0|1:0|1:0,1:0:0:0:
230,355,91941,1,0,1:0:0:0:
197,311,92129,2,0,L|131:290,1,60,0|0,1:0|1:0,1:0:0:0:
86,281,92504,6,2,L|35:357,2,90,2|2|2,1:0|1:0|1:0,1:0:0:0:
65,174,93441,1,0,1:0:0:0:
44,124,93629,2,0,P|75:106|100:101,1,60,0|0,1:0|1:0,1:0:0:0:
152,98,94004,6,2,P|141:44|167:0,2,90,2|2|2,1:0|1:0|1:0,1:0:0:0:
254,132,94941,1,0,1:0:0:0:
302,108,95129,2,0,L|368:129,1,60,0|0,1:0|1:0,1:0:0:0:
409,146,95504,5,2,1:0:0:0:
488,218,95879,1,0,1:0:0:0:
439,311,96254,2,0,L|363:304,1,60,2|0,1:0|1:0,1:0:0:0:
332,295,96629,2,0,L|310:218,1,60,0|2,1:0|1:0,1:0:0:0:
298,185,97004,5,0,1:0:0:0:
245,195,97191,1,0,1:0:0:0:
190,299,97566,1,0,2:0:0:0:
190,299,97754,2,0,P|170:266|135:252,1,60,2|2,2:0|2:0,2:0:0:0:
46,228,98316,5,0,2:0:0:0:
46,228,98504,2,0,P|70:198|73:161,1,60,2|2,2:0|2:0,2:0:0:0:
79,74,99066,1,0,2:0:0:0:
125,46,99254,2,0,L|187:57,1,60,2|2,2:0|2:0,2:0:0:0:
237,66,99629,1,0,2:0:0:0:
335,21,100004,5,0,1:0:0:0:
388,11,100191,1,0,1:0:0:0:
478,65,100566,1,0,2:0:0:0:
478,65,100754,2,0,L|487:140,1,60,2|2,2:0|2:0,2:0:0:0:
400,191,101316,5,0,2:0:0:0:
400,191,101504,2,0,L|325:200,1,60,2|2,2:0|2:0,2:0:0:0:
246,251,102066,1,0,2:0:0:0:
251,304,102254,2,0,L|260:379,1,60,2|2,2:0|2:0,2:0:0:0:
310,384,102629,2,0,P|343:376|370:340,1,60,2|0,2:0|2:0,2:0:0:0:
383,309,103004,5,0,1:0:0:0:
401,258,103191,1,0,1:0:0:0:
329,184,103566,1,0,2:0:0:0:
329,184,103754,2,0,P|294:166|278:132,1,60,2|2,2:0|2:0,2:0:0:0:
371,85,104316,5,0,2:0:0:0:
371,85,104504,2,0,P|377:46|404:20,1,60,2|2,2:0|2:0,2:0:0:0:
484,82,105066,1,0,2:0:0:0:
512,128,105254,2,0,L|501:190,1,60,2|2,2:0|2:0,2:0:0:0:
492,240,105629,1,0,2:0:0:0:
256,192,106004,12,8,108254,1:0:0:0:
96,131,109004,6,0,L|171:154,2,66,6|0|0,1:0|1:0|1:0,1:0:0:0:
38,139,109566,1,0,1:0:0:0:
0,185,109754,1,0,1:0:0:0:
15,302,110129,2,0,L|87:281,1,66,8|8,1:0|1:0,1:0:0:0:
135,266,110504,6,0,P|189:330|145:365,1,132,6|0,1:0|1:0,1:0:0:0:
284,382,111254,2,0,P|315:305|367:326,1,132,2|8,1:0|1:0,1:0:0:0:
403,334,111816,1,8,1:0:0:0:
448,372,112004,6,0,L|498:319,1,66,4|0,1:0|1:0,1:0:0:0:
491,264,112379,2,0,L|438:215,1,66,0|0,1:0|1:0,1:0:0:0:
440,160,112754,1,0,1:0:0:0:
504,66,113129,1,8,1:0:0:0:
386,46,113504,6,0,L|330:0,2,66,4|0|0,1:0|1:0|1:0,1:0:0:0:
405,101,114066,1,0,1:0:0:0:
369,148,114254,1,8,1:0:0:0:
257,108,114629,1,0,1:0:0:0:
148,156,115004,6,0,L|163:234,2,66,14|0|0,1:0|1:0|1:0,1:0:0:0:
103,117,115566,1,0,1:0:0:0:
49,142,115754,1,0,1:0:0:0:
3,251,116129,2,0,L|10:316,1,66,2|2,1:0|1:0,1:0:0:0:
69,328,116504,6,0,P|151:343|139:396,1,132,14|0,1:0|1:0,1:0:0:0:
269,345,117254,2,0,P|246:288|296:252,1,132,10|8,1:0|1:0,1:0:0:0:
412,279,118004,6,0,L|462:335,1,66,8|2,1:0|1:0,1:0:0:0:
510,303,118379,2,0,L|496:238,1,66,8|2,1:0|1:0,1:0:0:0:
487,179,118754,1,8,1:0:0:0:
470,61,119129,1,8,1:0:0:0:
351,64,119504,6,0,L|336:-14,2,66,8|0|0,1:0|1:0|1:0,1:0:0:0:
359,122,120066,1,0,1:0:0:0:
371,180,120254,2,0,P|259:209|254:345,1,264,4|4,1:0|1:0,1:0:0:0:
512,309,121941,5,2,2:0:0:0:
256,192,122129,12,0,127004,2:0:0:0:
