osu file format v14

[General]
AudioFilename: cranky - The Five.mp3
AudioLeadIn: 1004
PreviewTime: 35498
Countdown: 1
SampleSet: Normal
StackLeniency: 0.7
Mode: 0
LetterboxInBreaks: 1
WidescreenStoryboard: 1

[Editor]
Bookmarks: 25014,35514,55014,72994,90994,96994
DistanceSpacing: 1.6
BeatDivisor: 4
GridSize: 8
TimelineZoom: 2.5

[Metadata]
Title:The Five [Short Edit]
TitleUnicode:The Five [Short Edit]
Artist:Cranky
ArtistUnicode:Cranky
Creator:AJT
Version:Flask's Two
Source:
Tags:flask yokespai deviouspanda pennek featured artist instrumental eurodance electronic
BeatmapID:2498978
BeatmapSetID:1194122

[Difficulty]
HPDrainRate:5
CircleSize:3.5
OverallDifficulty:6
ApproachRate:7.5
SliderMultiplier:1.4
SliderTickRate:1

[Events]
//Background and Video events
0,0,"five-title.png"
//Break Periods
2,61203,66179
//Storyboard Layer 0 (Background)
//Storyboard Layer 1 (Fail)
//Storyboard Layer 2 (Pass)
//Storyboard Layer 3 (Foreground)
//Storyboard Layer 4 (Overlay)
//Storyboard Sound Samples

[TimingPoints]
1004,375,4,1,0,80,1,0
13004,-100,4,1,0,50,0,0
13191,-100,4,1,0,80,0,0
14504,-100,4,1,0,50,0,0
14691,-100,4,1,0,80,0,0
16004,-100,4,1,0,50,0,0
16191,-100,4,1,0,80,0,0
17504,-100,4,1,0,50,0,0
17691,-100,4,1,0,80,0,0
19004,-100,4,1,0,50,0,0
19191,-100,4,1,0,80,0,0
20504,-100,4,1,0,50,0,0
20691,-100,4,1,0,80,0,0
22004,-100,4,1,0,50,0,0
22191,-100,4,1,0,80,0,0
23504,-100,4,1,0,50,0,0
23691,-100,4,1,0,80,0,0
37004,-100,4,1,0,80,0,1
42254,-83.3333333333333,4,1,0,80,0,0
43004,-83.3333333333333,4,1,0,80,0,1
43285,-100,4,1,0,80,0,1
49004,-100,4,1,0,80,0,0
59504,-100,4,1,0,50,0,0
67379,-100,4,1,0,60,0,0
71504,-100,4,1,0,50,0,0
73004,-100,4,1,0,80,0,0
97004,-100,4,1,0,50,0,0
106004,-100,4,1,0,80,0,0
109004,-100,4,1,0,80,0,1
114254,-83.3333333333333,4,1,0,80,0,0
115004,-83.3333333333333,4,1,0,80,0,1
115285,-100,4,1,0,80,0,1
121004,-100,4,1,0,80,0,0
122504,-100,4,1,0,70,0,0
122879,-100,4,1,0,60,0,0
123254,-100,4,1,0,50,0,0
123629,-100,4,1,0,40,0,0
124004,-100,4,1,0,30,0,0
124379,-100,4,1,0,20,0,0
124754,-100,4,1,0,10,0,0
125129,-100,4,1,0,5,0,0

[Colours]
Combo1 : 0,64,128
Combo2 : 255,128,128
Combo3 : 255,255,128

[HitObjects]
46,73,1004,6,0,L|131:54,1,70,4|4,1:0|1:0,1:0:0:0:
99,165,1566,1,0,1:0:0:0:
99,165,1660,1,0,1:0:0:0:
99,165,1754,2,0,L|184:146,1,70,2|0,1:0|1:0,1:0:0:0:
152,257,2316,5,0,1:0:0:0:
152,257,2410,1,0,1:0:0:0:
152,257,2504,2,0,L|237:238,1,70,2|0,1:0|1:0,1:0:0:0:
205,349,3066,5,0,1:0:0:0:
205,349,3160,1,0,1:0:0:0:
205,349,3254,2,0,L|290:330,2,70,2|0|8,1:0|1:0|1:0,1:0:0:0:
331,263,3816,1,0,1:0:0:0:
420,361,4004,6,0,L|433:284,1,70,4|4,1:0|1:0,1:0:0:0:
331,263,4566,1,0,1:0:0:0:
331,263,4660,1,0,1:0:0:0:
331,263,4754,2,0,L|344:186,1,70,2|0,1:0|1:0,1:0:0:0:
253,95,5316,5,0,1:0:0:0:
253,95,5410,1,0,1:0:0:0:
253,95,5504,2,0,L|242:165,1,70,2|0,1:0|1:0,1:0:0:0:
156,29,6066,5,0,1:0:0:0:
156,29,6160,1,0,1:0:0:0:
156,29,6254,2,0,L|144:98,1,70,2|0,1:0|1:0,1:0:0:0:
64,155,6629,2,2,P|116:192|174:188,1,105,2|0,1:0|1:0,1:0:0:0:
203,183,7004,5,4,1:0:0:0:
188,279,7191,1,4,1:0:0:0:
188,279,7566,2,0,L|137:297,2,35,0|0|2,1:0|1:0|1:0,1:0:0:0:
281,309,7941,1,0,1:0:0:0:
427,178,8316,6,0,L|478:196,2,35,0|0|2,1:0|1:0|1:0,1:0:0:0:
333,208,8691,1,0,1:0:0:0:
185,78,9066,6,0,L|134:96,2,35,0|0|2,1:0|1:0|1:0,1:0:0:0:
279,108,9441,1,0,1:0:0:0:
355,46,9629,2,0,L|432:63,1,70,8|0,1:0|1:0,1:0:0:0:
487,211,10004,5,4,1:0:0:0:
441,297,10191,1,4,1:0:0:0:
255,359,10566,5,0,1:0:0:0:
255,359,10660,1,0,1:0:0:0:
255,359,10754,1,2,1:0:0:0:
198,278,10941,1,0,1:0:0:0:
111,102,11316,5,0,1:0:0:0:
111,102,11410,1,0,1:0:0:0:
111,102,11504,2,0,L|3:91,2,105,2|2|0,1:0|1:0|1:0,1:0:0:0:
184,36,12254,1,8,1:0:0:0:
255,102,12441,1,8,1:0:0:0:
338,50,12629,1,2,1:0:0:0:
423,97,12816,1,0,1:0:0:0:
402,193,13004,6,0,L|322:206,1,70,2|0,1:0|1:0,1:0:0:0:
278,286,13379,1,0,1:0:0:0:
344,357,13566,2,0,P|398:372|451:303,1,140,0|0,1:0|1:0,1:0:0:0:
496,228,14129,2,0,L|485:157,1,70,8|0,1:0|1:0,1:0:0:0:
414,90,14504,6,0,L|339:77,2,70,2|0|0,1:0|1:0|1:0,1:0:0:0:
376,179,15066,2,0,B|324:186|324:186|312:202|312:202|239:213,1,140,0|0,1:0|1:0,1:0:0:0:
177,283,15629,2,0,B|156:248|156:248|154:208,1,70,8|0,1:0|1:0,1:0:0:0:
118,65,16004,5,2,1:0:0:0:
215,57,16191,2,0,B|211:97|211:97|189:131,1,70,0|0,1:0|1:0,1:0:0:0:
104,159,16566,2,0,B|-3:179|-3:179|39:197,1,140,0|0,1:0|1:0,1:0:0:0:
83,316,17129,2,0,L|94:244,1,70,8|0,1:0|1:0,1:0:0:0:
198,357,17504,6,0,L|185:281,2,70,2|0|8,1:0|1:0|1:0,1:0:0:0:
326,258,18066,1,0,1:0:0:0:
326,258,18160,1,8,1:0:0:0:
326,258,18254,2,0,L|266:307,1,70,0|8,1:0|1:0,1:0:0:0:
176,196,18629,2,0,L|248:222,1,70,8|0,1:0|1:0,1:0:0:0:
406,214,19004,5,2,1:0:0:0:
426,118,19191,1,0,1:0:0:0:
332,148,19379,2,0,L|318:71,2,70,8|0|0,1:0|1:0|1:0,1:0:0:0:
406,214,19941,1,0,1:0:0:0:
355,298,20129,2,0,P|317:305|281:290,1,70,8|0,1:0|1:0,1:0:0:0:
156,231,20504,6,0,L|83:240,1,70,2|0,1:0|1:0,1:0:0:0:
31,321,20879,1,8,1:0:0:0:
119,363,21066,2,0,P|177:371|235:304,1,140,0|0,1:0|1:0,1:0:0:0:
319,272,21629,2,0,L|297:122,1,140,8|2,1:0|1:0,1:0:0:0:
347,48,22191,5,0,1:0:0:0:
398,131,22379,1,8,1:0:0:0:
334,205,22566,2,0,P|270:208|215:150,1,140,0|0,1:0|1:0,1:0:0:0:
189,64,23129,1,8,1:0:0:0:
119,133,23316,1,0,1:0:0:0:
119,133,23410,1,0,1:0:0:0:
119,133,23504,6,0,L|52:153,2,70,2|0|8,1:0|1:0|1:0,1:0:0:0:
112,229,24066,2,0,L|99:273,2,35,0|0|0,1:0|1:0|1:0,1:0:0:0:
207,208,24441,1,0,1:0:0:0:
257,292,24629,2,0,L|333:283,1,70,8|0,1:0|1:0,1:0:0:0:
406,341,25004,5,4,1:0:0:0:
472,184,25191,2,0,L|479:144,2,35,0|0|0,1:0|1:0|1:0,1:0:0:0:
492,280,25566,1,0,1:0:0:0:
398,250,25754,2,0,L|306:234,1,70,0|0,1:0|1:0,1:0:0:0:
264,163,26129,2,0,L|270:121,2,35,0|0|2,1:0|1:0|1:0,1:0:0:0:
190,228,26504,5,0,1:0:0:0:
265,289,26691,1,0,1:0:0:0:
265,289,26785,1,0,1:0:0:0:
265,289,26879,2,0,L|252:357,1,70,0|0,1:0|1:0,1:0:0:0:
171,303,27254,2,0,L|157:223,1,70,0|0,1:0|1:0,1:0:0:0:
216,154,27629,2,0,L|254:168,2,35,0|0|2,1:0|1:0|1:0,1:0:0:0:
155,76,28004,5,4,1:0:0:0:
95,143,28191,1,0,1:0:0:0:
95,143,28285,1,0,1:0:0:0:
95,144,28379,2,0,P|62:154|28:151,1,70,0|0,1:0|1:0,1:0:0:0:
155,76,28754,2,0,P|192:73|228:86,1,70,0|0,1:0|1:0,1:0:0:0:
282,161,29129,2,0,P|335:177|408:128,1,140,0|8,1:0|1:0,1:0:0:0:
322,26,29691,5,0,1:0:0:0:
322,26,29785,1,0,1:0:0:0:
322,26,29879,2,0,L|333:99,1,70,0|0,1:0|1:0,1:0:0:0:
439,104,30254,1,2,1:0:0:0:
437,200,30441,1,2,1:0:0:0:
350,236,30629,2,0,B|291:229|291:229|268:246|268:246|203:238,1,140,2|4,1:0|1:0,1:0:0:0:
41,317,31191,6,0,L|49:358,2,35,0|0|0,1:0|1:0|1:0,1:0:0:0:
118,256,31566,1,0,1:0:0:0:
50,184,31754,2,0,B|42:148|42:148|56:106,1,70,0|0,1:0|1:0,1:0:0:0:
129,55,32129,1,0,1:0:0:0:
129,55,32222,1,0,1:0:0:0:
129,55,32316,2,0,L|179:48,2,35,2|0|8,1:0|1:0|1:0,1:0:0:0:
179,139,32691,6,0,L|223:150,1,35,0|0,1:0|1:0,1:0:0:0:
254,175,32879,2,0,L|277:90,1,70,0|0,1:0|1:0,1:0:0:0:
368,241,33254,2,0,L|350:163,1,70,0|0,1:0|1:0,1:0:0:0:
198,285,33629,2,0,L|274:265,1,70,0|2,1:0|1:0,1:0:0:0:
432,316,34004,5,8,1:0:0:0:
327,354,34191,1,0,1:0:0:0:
327,354,34285,1,0,1:0:0:0:
327,354,34379,2,0,L|356:280,1,70,0|0,1:0|1:0,1:0:0:0:
319,196,34754,2,0,L|310:156,2,35,0|0|0,1:0|1:0|1:0,1:0:0:0:
220,202,35129,2,0,L|180:194,2,35,0|0|2,1:0|1:0|1:0,1:0:0:0:
15,238,35504,5,8,1:0:0:0:
43,331,35691,1,0,1:0:0:0:
140,334,35879,1,0,1:0:0:0:
172,242,36066,1,8,1:0:0:0:
172,242,36160,1,0,1:0:0:0:
172,242,36254,2,0,B|237:229|210:272|292:253,1,105,2|0,1:0|1:0,1:0:0:0:
296,278,36629,2,0,L|312:156,1,105,8|0,1:0|1:0,1:0:0:0:
316,125,37004,5,6,1:0:0:0:
405,85,37191,1,0,1:0:0:0:
405,85,37285,2,0,P|445:99|468:132,1,70,2|2,1:0|1:0,1:0:0:0:
495,211,37660,2,0,L|478:286,1,70,2|2,1:0|1:0,1:0:0:0:
421,358,38035,1,2,1:0:0:0:
421,358,38129,2,0,L|370:368,3,35,8|0|8|0,1:0|1:0|1:0|1:0,1:0:0:0:
340,349,38504,6,0,L|261:339,1,70,6|0,1:0|1:0,1:0:0:0:
234,306,38785,2,0,L|251:226,1,70,2|2,1:0|1:0,1:0:0:0:
346,246,39160,1,0,1:0:0:0:
346,246,39254,2,0,L|338:164,1,70,2|2,1:0|1:0,1:0:0:0:
306,91,39629,1,8,1:0:0:0:
306,91,39816,1,8,1:0:0:0:
211,118,40004,6,0,L|163:109,2,35,4|0|0,1:0|1:0|1:0,1:0:0:0:
144,192,40379,2,0,L|88:192,2,35,0|0|0,1:0|1:0|1:0,1:0:0:0:
211,266,40754,2,0,L|163:275,2,35,0|0|0,1:0|1:0|1:0,1:0:0:0:
274,191,41129,2,0,P|314:206|335:235,1,70,8|0,1:0|1:0,1:0:0:0:
353,270,41410,6,0,L|370:145,1,105,0|0,1:0|1:0,1:0:0:0:
435,31,41879,1,0,1:0:0:0:
457,127,42066,1,0,1:0:0:0:
336,65,42254,6,0,B|298:56|270:21|270:21|243:63|197:70,2,168,8|0|6,1:0|1:0|1:0,1:0:0:0:
271,138,43191,1,0,1:0:0:0:
271,138,43285,2,0,L|281:222,1,70,10|10,1:0|1:0,1:0:0:0:
348,276,43660,2,0,P|316:302|278:305,1,70,10|10,1:0|1:0,1:0:0:0:
199,348,44035,1,0,1:0:0:0:
199,348,44129,2,0,L|153:342,3,35,2|0|2|0,1:0|1:0|1:0|1:0,1:0:0:0:
118,360,44504,6,0,L|101:278,1,70,6|0,1:0|1:0,1:0:0:0:
59,269,44785,2,0,B|51:236|51:236|65:203,1,70,10|10,1:0|1:0,1:0:0:0:
164,193,45160,1,0,1:0:0:0:
164,193,45254,2,0,L|241:202,1,70,10|0,1:0|1:0,1:0:0:0:
268,236,45535,2,0,L|345:227,2,70,0|0|0,1:0|1:0|1:0,1:0:0:0:
250,113,46004,6,0,L|242:68,2,35,8|0|2,1:0|1:0|1:0,1:0:0:0:
342,78,46379,2,0,L|348:41,2,35,8|0|2,1:0|1:0|1:0,1:0:0:0:
412,146,46754,2,0,L|443:110,2,35,8|0|2,1:0|1:0|1:0,1:0:0:0:
378,238,47129,1,8,1:0:0:0:
280,229,47316,2,0,P|228:269|235:343,1,140,2|0,1:0|1:0,1:0:0:0:
325,369,47879,6,0,L|406:362,1,70,0|0,1:0|1:0,1:0:0:0:
411,266,48254,1,4,1:0:0:0:
411,266,48441,1,4,1:0:0:0:
393,169,48629,1,4,1:0:0:0:
393,169,48816,1,4,1:0:0:0:
339,86,49004,6,0,L|191:66,1,140,4|0,1:0|1:0,1:0:0:0:
200,67,49754,1,8,1:0:0:0:
178,162,49941,1,0,1:0:0:0:
152,256,50129,2,0,L|170:293,2,35,0|2|2,1:0|1:2|1:2,1:0:0:0:
54,241,50504,6,0,B|20:212|20:212|12:104,1,140,0|0,1:0|1:0,1:0:0:0:
12,116,51254,1,8,1:0:0:0:
63,32,51441,1,0,1:0:0:0:
114,115,51629,2,0,L|166:103,1,35,0|2,1:0|1:2,1:0:0:0:
196,117,51816,2,0,L|248:105,1,35,2|2,1:2|1:2,1:0:0:0:
268,142,52004,6,0,L|275:63,2,70,0|0|0,1:0|1:0|1:0,1:0:0:0:
268,142,52754,2,0,L|294:183,2,35,8|0|0,1:0|1:0|1:0,1:0:0:0:
195,208,53129,2,0,L|172:251,2,35,0|2|2,1:0|1:2|1:2,1:0:0:0:
272,267,53504,6,0,L|294:346,1,70,0|0,1:0|1:0,1:0:0:0:
384,363,53879,2,0,P|421:357|446:320,1,70,0|0,1:0|1:0,1:0:0:0:
490,248,54254,2,0,L|442:235,1,35,2|2,2:0|2:0,1:0:0:0:
417,208,54441,2,0,L|369:221,1,35,2|2,2:0|2:0,1:0:0:0:
341,243,54629,2,0,P|325:199|328:134,1,105,2|0,2:0|1:0,1:0:0:0:
342,95,55004,5,4,2:0:0:0:
254,52,55191,1,2,2:0:0:0:
169,102,55379,2,0,L|185:177,1,70,8|2,2:0|2:0,1:0:0:0:
236,253,55754,1,0,2:0:0:0:
236,253,55847,1,2,2:0:0:0:
179,333,56035,2,0,P|130:338|83:306,1,105,2|2,2:0|2:0,1:0:0:0:
14,239,56504,5,0,2:0:0:0:
107,210,56691,1,2,2:0:0:0:
34,143,56879,2,0,L|26:59,1,70,8|2,2:0|2:0,1:0:0:0:
130,117,57254,1,0,2:0:0:0:
130,117,57347,1,2,2:0:0:0:
197,187,57535,2,0,P|243:186|292:138,1,105,2|0,2:0|2:0,1:0:0:0:
357,80,58004,6,0,P|326:59|292:52,1,70,0|2,2:0|2:0,1:0:0:0:
208,98,58379,2,0,P|192:63|191:29,1,70,8|2,2:0|2:0,1:0:0:0:
93,45,58754,1,0,2:0:0:0:
93,45,58847,1,2,2:0:0:0:
8,94,59035,2,0,L|28:200,1,105,2|0,2:0|2:0,1:0:0:0:
30,294,59504,6,0,L|79:306,3,35,0|0|0|0,1:0|1:0|1:0|1:0,1:0:0:0:
109,321,59879,2,0,L|158:309,3,35,0|0|0|0,1:0|1:0|1:0|1:0,1:0:0:0:
185,287,60254,2,0,L|212:294,16,17.5,0|0|0|0|0|0|0|0|0|0|0|0|0|0|0|0|6,1:0|1:0|1:0|1:0|1:0|1:0|1:0|1:0|1:0|1:0|1:0|1:0|1:0|1:0|1:0|1:0|2:0,1:0:0:0:
256,192,67004,12,0,72629,1:0:0:0:
46,104,73004,6,0,P|90:111|165:49,1,140,0|8,1:0|1:0,1:0:0:0:
239,116,73566,1,0,1:0:0:0:
239,116,73660,1,0,1:0:0:0:
239,116,73754,2,0,L|317:95,1,70,0|0,1:0|1:0,1:0:0:0:
390,47,74129,2,0,L|411:125,1,70,8|0,1:0|1:0,1:0:0:0:
479,182,74504,5,0,1:0:0:0:
479,182,74691,1,0,1:0:0:0:
416,257,74879,2,0,B|328:279|362:225|261:246,2,140,8|0|8,1:0|1:0|1:0,1:0:0:0:
235,334,76004,6,0,P|194:295|192:208,1,140,0|8,1:0|1:0,1:0:0:0:
254,142,76566,1,0,1:0:0:0:
254,142,76660,1,0,1:0:0:0:
254,142,76754,2,0,L|239:47,1,70,0|0,1:0|1:0,1:0:0:0:
144,69,77129,2,0,L|129:164,1,70,8|0,1:0|1:0,1:0:0:0:
53,195,77504,5,0,1:0:0:0:
53,195,77691,1,0,1:0:0:0:
94,284,77879,2,0,B|159:303|159:303|170:322|170:322|231:340,2,140,8|0|8,1:0|1:0|1:0,1:0:0:0:
227,249,78816,1,0,1:0:0:0:
311,299,79004,6,0,L|319:218,1,70,0|0,1:0|1:0,1:0:0:0:
370,146,79379,2,0,P|365:108|343:78,1,70,8|0,1:0|1:0,1:0:0:0:
251,58,79754,1,0,1:0:0:0:
175,119,79941,2,0,L|183:160,2,35,0|0|8,1:0|1:0|1:0,1:0:0:0:
159,21,80316,1,0,1:0:0:0:
251,58,80504,6,0,L|399:29,1,140,0|8,1:0|1:0,1:0:0:0:
452,105,81066,1,0,1:0:0:0:
452,105,81160,1,0,1:0:0:0:
452,105,81254,2,0,B|454:149|454:149|441:175,1,70,0|0,1:0|1:0,1:0:0:0:
437,270,81629,2,0,L|357:254,1,70,8|0,1:0|1:0,1:0:0:0:
348,271,81910,1,0,1:0:0:0:
330,287,82004,6,0,L|311:195,1,70,0|0,1:0|1:0,1:0:0:0:
217,227,82379,2,0,L|236:84,1,140,8|8,1:0|1:0,1:0:0:0:
147,46,82941,1,0,1:0:0:0:
83,120,83129,2,0,L|5:130,1,70,8|8,1:0|1:0,1:0:0:0:
0,226,83504,5,2,1:0:0:0:
256,368,83879,1,2,1:0:0:0:
512,226,84254,1,2,1:0:0:0:
512,226,84441,1,2,1:0:0:0:
401,204,84629,1,2,1:0:0:0:
401,204,84816,1,2,1:0:0:0:
433,311,85004,6,0,L|457:208,2,105,2|2|2,1:0|1:0|1:0,1:0:0:0:
244,363,85941,1,0,1:0:0:0:
153,324,86129,1,0,1:0:0:0:
161,225,86316,1,0,1:0:0:0:
257,202,86504,6,0,P|312:207|357:164,2,105,2|2|2,1:0|1:0|1:0,1:0:0:0:
147,43,87441,1,0,1:0:0:0:
53,73,87629,1,0,1:0:0:0:
52,171,87816,1,0,1:0:0:0:
144,202,88004,6,0,B|192:193|192:193|213:197|213:197|259:186,2,105,2|2|2,1:0|1:0|1:0,1:0:0:0:
304,314,88941,1,0,1:0:0:0:
395,349,89129,1,0,1:0:0:0:
456,273,89316,1,0,1:0:0:0:
402,191,89504,6,0,B|428:115|387:140|410:75,2,105,2|2|2,1:0|1:0|1:0,1:0:0:0:
311,152,90254,1,0,1:0:0:0:
233,212,90441,2,0,L|247:253,2,35,0|0|0,1:0|2:0|1:0,1:0:0:0:
146,168,90816,2,0,L|97:175,1,35,0|0,1:0|2:0,1:0:0:0:
72,203,91004,6,2,B|74:144|74:144|37:95,1,105,2|2,1:0|1:0,1:0:0:0:
188,70,91566,1,2,1:0:0:0:
205,265,91941,1,0,1:0:0:0:
300,289,92129,1,0,1:0:0:0:
324,194,92316,1,0,1:0:0:0:
229,170,92504,6,2,B|181:172|181:172|170:183|170:183|121:187,1,105,2|2,1:0|1:0,1:0:0:0:
156,42,93066,1,2,1:0:0:0:
347,83,93441,1,0,1:0:0:0:
440,112,93629,1,0,1:0:0:0:
411,205,93816,1,0,1:0:0:0:
318,176,94004,6,2,L|344:296,1,105,2|2,1:0|1:0,1:0:0:0:
226,371,94566,1,2,1:0:0:0:
117,207,94941,1,0,1:0:0:0:
52,133,95129,1,0,1:0:0:0:
126,68,95316,1,0,1:0:0:0:
191,142,95504,6,0,L|267:152,1,70,2|0,1:0|1:0,1:0:0:0:
357,137,95879,2,0,L|347:213,1,70,0|2,1:0|1:0,1:0:0:0:
322,301,96254,2,0,L|335:346,2,35,2|0|0,1:0|1:0|1:0,1:0:0:0:
224,291,96629,2,0,L|139:278,1,70,0|2,1:0|1:0,1:0:0:0:
69,328,97004,5,0,1:0:0:0:
32,237,97191,1,0,1:0:0:0:
132,68,97566,6,0,L|172:49,2,35,0|0|2,2:0|2:0|2:0,2:0:0:0:
108,163,97941,1,2,2:0:0:0:
212,328,98316,6,0,L|252:347,2,35,0|0|2,2:0|2:0|2:0,2:0:0:0:
188,233,98691,1,2,2:0:0:0:
280,60,99066,6,0,L|320:41,2,35,0|0|2,2:0|2:0|2:0,2:0:0:0:
256,155,99441,1,2,2:0:0:0:
326,223,99629,2,0,L|407:204,1,70,0|0,2:0|1:0,2:0:0:0:
476,260,100004,5,0,1:0:0:0:
457,355,100191,1,0,1:0:0:0:
263,322,100566,6,0,L|223:344,2,35,0|0|2,2:0|2:0|2:0,2:0:0:0:
347,271,100941,1,2,2:0:0:0:
175,176,101316,2,0,L|135:154,2,35,0|0|2,2:0|2:0|2:0,2:0:0:0:
259,227,101691,1,2,2:0:0:0:
228,33,102066,6,0,L|211:-9,2,35,0|0|2,2:0|2:0|2:0,2:0:0:0:
259,126,102441,1,2,2:0:0:0:
161,110,102629,2,0,P|102:110|60:178,1,140,2|0,2:0|1:0,2:0:0:0:
88,265,103191,5,0,1:0:0:0:
262,354,103566,1,0,2:0:0:0:
262,354,103660,1,0,2:0:0:0:
262,354,103754,2,0,L|351:337,1,70,2|2,2:0|2:0,2:0:0:0:
447,186,104316,5,0,2:0:0:0:
447,186,104410,1,0,2:0:0:0:
447,186,104504,2,0,L|378:172,1,70,2|2,2:0|2:0,2:0:0:0:
233,57,105066,5,0,2:0:0:0:
233,57,105160,1,0,2:0:0:0:
233,57,105254,2,0,L|164:70,1,70,2|2,2:0|2:0,2:0:0:0:
67,55,105629,2,0,P|68:97|87:131,1,70,0|0,2:0|1:0,2:0:0:0:
162,174,106004,5,8,2:0:0:0:
110,256,106191,2,0,L|126:329,1,70,0|0,2:0|1:0,2:0:0:0:
216,360,106566,1,0,2:0:0:0:
216,360,106660,1,0,2:0:0:0:
216,360,106754,2,0,P|262:358|285:335,1,70,0|0,1:0|2:0,2:0:0:0:
331,260,107129,1,0,1:0:0:0:
262,132,107316,5,0,2:0:0:0:
262,132,107410,1,0,2:0:0:0:
262,132,107504,2,0,L|250:214,1,70,0|0,1:0|1:0,2:0:0:0:
211,290,107879,2,0,L|175:270,1,35,0|0,2:0|1:0,2:0:0:0:
89,309,108160,2,0,L|77:353,3,35,0|8|0|8,1:0|1:0|1:0|1:0,2:0:0:0:
42,220,108629,2,0,L|29:183,1,35,8|0,1:0|1:0,2:0:0:0:
46,140,108816,2,0,L|33:103,1,35,8|0,1:0|1:0,2:0:0:0:
57,63,109004,6,0,L|133:84,1,70,6|0,1:0|1:0,1:0:0:0:
171,67,109285,2,0,L|188:-20,1,70,2|2,1:0|1:0,1:0:0:0:
277,28,109660,2,0,L|301:106,1,70,2|2,1:0|1:0,1:0:0:0:
298,193,110035,1,2,1:0:0:0:
298,193,110129,2,0,L|312:248,3,35,8|0|8|0,1:0|1:0|1:0|1:0,1:0:0:0:
280,268,110504,6,0,P|285:306|315:333,1,70,6|0,1:0|1:0,1:0:0:0:
349,351,110785,2,0,P|384:355|422:340,1,70,2|2,1:0|1:0,1:0:0:0:
512,362,111160,1,0,1:0:0:0:
512,362,111254,2,0,L|498:286,1,70,2|0,1:0|1:0,1:0:0:0:
470,199,111629,1,8,1:0:0:0:
470,199,111816,1,8,1:0:0:0:
429,110,112004,6,0,L|352:116,1,70,4|0,1:0|1:0,1:0:0:0:
339,129,112285,1,0,1:0:0:0:
318,143,112379,2,0,L|237:131,1,70,0|0,1:0|1:0,1:0:0:0:
163,181,112754,2,0,L|173:230,2,35,0|0|0,1:0|1:0|1:0,1:0:0:0:
75,135,113129,2,0,L|83:59,1,70,8|0,1:0|1:0,1:0:0:0:
91,17,113410,6,0,P|132:8|198:44,1,105,0|0,1:0|1:0,1:0:0:0:
277,106,113879,1,0,1:0:0:0:
183,191,114066,1,0,1:0:0:0:
299,250,114254,6,0,B|343:242|343:242|381:328|381:328|415:322,2,168,8|0|14,1:0|1:0|1:0,1:0:0:0:
222,311,115191,1,0,1:0:0:0:
222,311,115285,2,0,L|137:298,1,70,10|10,1:0|1:0,1:0:0:0:
68,350,115660,2,0,P|53:314|54:282,1,70,10|10,1:0|1:0,1:0:0:0:
75,187,116035,1,0,1:0:0:0:
75,187,116129,2,0,L|82:142,3,35,2|0|2|0,1:0|1:0|1:0|1:0,1:0:0:0:
112,115,116504,6,0,P|151:112|185:132,1,70,6|0,1:0|1:0,1:0:0:0:
224,111,116785,2,0,L|214:194,1,70,10|10,1:0|1:0,1:0:0:0:
302,226,117160,1,0,1:0:0:0:
302,226,117254,2,0,L|387:211,1,70,10|0,1:0|1:0,1:0:0:0:
416,233,117535,2,0,L|461:286,2,70,0|0|0,1:0|1:0|1:0,1:0:0:0:
411,184,118004,6,0,L|434:118,1,70,8|2,1:0|1:0,1:0:0:0:
445,96,118285,1,0,1:0:0:0:
452,72,118379,2,0,P|432:42|400:25,1,70,8|2,1:0|1:0,1:0:0:0:
312,64,118754,2,0,L|319:107,2,35,8|0|2,1:0|1:0|1:0,1:0:0:0:
216,39,119129,2,0,L|126:28,1,70,8|2,1:0|1:0,1:0:0:0:
99,16,119410,2,0,B|120:57|120:57|106:130,1,105,8|0,1:0|1:0,1:0:0:0:
103,213,119879,6,0,L|183:202,1,70,0|0,1:0|1:0,1:0:0:0:
244,289,120254,1,4,1:0:0:0:
244,289,120441,1,4,1:0:0:0:
285,184,120629,1,4,1:0:0:0:
285,184,120816,1,4,1:0:0:0:
174,206,121004,6,0,L|137:215,1,35,4|8,1:0|1:0,1:0:0:0:
55,164,121285,1,10,2:0:0:0:
1,245,121472,1,8,1:0:0:0:
62,322,121660,1,10,2:0:0:0:
62,322,121754,2,0,L|53:360,2,35,0|10|2,1:0|2:0|2:0,1:0:0:0:
256,192,122035,12,0,127004,2:0:0:0:
