osu file format v14

[General]
AudioFilename: cranky - The Five.mp3
AudioLeadIn: 1004
PreviewTime: 35498
Countdown: 1
SampleSet: Soft
StackLeniency: 0.4
Mode: 0
LetterboxInBreaks: 1
WidescreenStoryboard: 1

[Editor]
DistanceSpacing: 0.4
BeatDivisor: 4
GridSize: 16
TimelineZoom: 1.7

[Metadata]
Title:The Five [Short Edit]
TitleUnicode:The Five [Short Edit]
Artist:Cranky
ArtistUnicode:Cranky
Creator:AJT
Version:Five
Source:
Tags:flask yokespai deviouspanda pennek featured artist instrumental eurodance electronic
BeatmapID:2487840
BeatmapSetID:1194122

[Difficulty]
HPDrainRate:6
CircleSize:5
OverallDifficulty:8
ApproachRate:8
SliderMultiplier:1.8
SliderTickRate:0.5

[Events]
//Background and Video events
0,0,"five-title.png"
//Break Periods
2,49204,53504
//Storyboard Layer 0 (Background)
//Storyboard Layer 1 (Fail)
//Storyboard Layer 2 (Pass)
//Storyboard Layer 3 (Foreground)
//Storyboard Layer 4 (Overlay)
//Storyboard Sound Samples

[TimingPoints]
1004,375,4,1,0,80,1,0
12629,-50,4,1,0,80,0,0
12910,-50,4,1,0,50,0,0
13191,-50,4,1,0,80,0,0
14504,-50,4,1,0,50,0,0
14691,-50,4,1,0,80,0,0
16004,-50,4,1,0,50,0,0
16191,-50,4,1,0,80,0,0
16566,-100,4,1,0,80,0,0
17504,-100,4,1,0,50,0,0
17691,-100,4,1,0,80,0,0
19004,-100,4,1,0,50,0,0
19191,-100,4,1,0,80,0,0
20504,-100,4,1,0,50,0,0
20691,-100,4,1,0,80,0,0
22004,-100,4,1,0,50,0,0
22191,-100,4,1,0,80,0,0
23504,-100,4,1,0,50,0,0
23691,-100,4,1,0,80,0,0
37004,-100,4,1,0,80,0,1
42347,-50,4,1,0,80,0,0
43004,-50,4,1,0,80,0,1
44035,-100,4,1,0,80,0,1
49004,-100,4,1,0,80,0,0
54629,-200,4,1,0,80,0,0
56035,-100,4,1,0,80,0,0
59504,-100,4,1,0,50,0,0
61004,-200,4,1,0,50,0,0
62504,-200,4,1,0,20,0,0
63254,-200,4,1,0,50,0,0
65504,-200,4,1,0,20,0,0
66629,-200,4,1,0,50,0,0
67004,-200,4,1,0,60,0,0
67754,-200,4,1,0,40,0,0
70379,-200,4,1,0,60,0,0
71504,-181.818181818182,4,1,0,50,0,0
72254,-200,4,1,0,50,0,0
73004,-200,4,1,0,80,0,0
83504,-100,4,1,0,80,0,0
85004,-50,4,1,0,80,0,0
97004,-50,4,1,0,50,0,0
97191,-200,4,1,0,50,0,0
97379,-200,4,2,0,50,0,0
100191,-200,4,1,0,50,0,0
100379,-200,4,2,0,50,0,0
103191,-200,4,1,0,50,0,0
103379,-200,4,2,0,50,0,0
106004,-200,4,2,0,80,0,0
109004,-200,4,2,0,90,0,1
114347,-50,4,2,0,90,0,0
115004,-50,4,2,0,90,0,1
121004,-50,4,2,0,80,0,0
122504,-50,4,2,0,70,0,0
122879,-50,4,2,0,60,0,0
123254,-50,4,2,0,50,0,0
123629,-50,4,2,0,40,0,0
124004,-50,4,2,0,30,0,0
124379,-50,4,2,0,20,0,0
124754,-50,4,2,0,10,0,0
125129,-50,4,2,0,5,0,0

[Colours]
Combo1 : 0,64,128
Combo2 : 255,128,128
Combo3 : 255,255,128

[HitObjects]
16,32,1004,5,4,1:0:0:0:
24,128,1191,1,4,1:0:0:0:
496,32,1566,5,0,1:0:0:0:
496,32,1660,1,0,1:0:0:0:
496,32,1754,1,2,1:0:0:0:
488,128,1941,1,0,1:0:0:0:
24,128,2316,5,0,1:0:0:0:
24,128,2410,1,0,1:0:0:0:
24,128,2504,1,2,1:0:0:0:
32,224,2691,1,0,1:0:0:0:
488,128,3066,5,0,1:0:0:0:
488,128,3160,1,0,1:0:0:0:
488,128,3254,1,2,1:0:0:0:
400,128,3441,1,0,1:0:0:0:
304,128,3629,1,8,1:0:0:0:
208,128,3816,1,0,1:0:0:0:
32,224,4004,5,4,1:0:0:0:
40,328,4191,1,4,1:0:0:0:
480,224,4566,5,0,1:0:0:0:
480,224,4660,1,0,1:0:0:0:
480,224,4754,1,2,1:0:0:0:
472,328,4941,1,0,1:0:0:0:
24,128,5316,5,0,1:0:0:0:
24,128,5410,1,0,1:0:0:0:
24,128,5504,1,2,1:0:0:0:
32,224,5691,1,0,1:0:0:0:
488,128,6066,5,0,1:0:0:0:
488,128,6160,1,0,1:0:0:0:
488,128,6254,1,2,1:0:0:0:
480,248,6441,1,0,1:0:0:0:
350,48,6629,2,2,B|198:40,1,135,2|0,1:0|1:0,1:0:0:0:
178,40,7004,5,4,1:0:0:0:
16,32,7191,1,4,1:0:0:0:
329,135,7566,5,0,1:0:0:0:
329,135,7660,1,0,1:0:0:0:
329,135,7754,1,2,1:0:0:0:
488,128,7941,1,0,1:0:0:0:
200,232,8316,5,0,1:0:0:0:
200,232,8410,1,0,1:0:0:0:
200,232,8504,1,2,1:0:0:0:
32,224,8691,1,0,1:0:0:0:
304,336,9066,5,0,1:0:0:0:
304,336,9160,1,0,1:0:0:0:
304,336,9254,1,2,1:0:0:0:
472,328,9441,1,0,1:0:0:0:
480,248,9629,1,8,1:0:0:0:
328,256,9816,1,0,1:0:0:0:
160,80,10004,5,4,1:0:0:0:
184,256,10191,1,4,1:0:0:0:
352,80,10566,5,0,1:0:0:0:
352,80,10660,1,0,1:0:0:0:
352,80,10754,1,2,1:0:0:0:
328,256,10941,1,0,1:0:0:0:
77,30,11316,5,0,1:0:0:0:
92,82,11410,1,0,1:0:0:0:
107,136,11504,1,2,1:0:0:0:
190,209,11785,1,2,1:0:0:0:
74,382,12066,5,0,1:0:0:0:
89,328,12160,1,0,1:0:0:0:
104,276,12254,1,8,1:0:0:0:
18,208,12441,1,8,1:0:0:0:
107,136,12629,2,2,B|203:80|206:270|382:227,1,270,2|0,1:0|1:0,1:0:0:0:
366,245,13004,5,2,1:0:0:0:
475,215,13191,1,0,1:0:0:0:
504,110,13379,1,8,1:0:0:0:
472,4,13566,1,0,1:0:0:0:
472,4,13660,1,8,1:0:0:0:
377,65,13847,1,0,1:0:0:0:
377,65,13941,1,0,1:0:0:0:
377,65,14035,1,0,1:0:0:0:
377,65,14129,1,8,1:0:0:0:
279,17,14316,5,0,1:0:0:0:
279,17,14410,1,0,1:0:0:0:
279,17,14504,1,2,1:0:0:0:
177,75,14691,1,0,1:0:0:0:
80,8,14879,1,8,1:0:0:0:
7,99,15066,1,0,1:0:0:0:
7,99,15160,1,8,1:0:0:0:
68,213,15347,1,0,1:0:0:0:
68,213,15441,1,8,1:0:0:0:
68,213,15535,1,0,1:0:0:0:
68,213,15629,1,8,1:0:0:0:
357,273,15816,5,0,1:0:0:0:
340,289,15910,1,0,1:0:0:0:
323,306,16004,1,2,1:0:0:0:
200,332,16191,1,0,1:0:0:0:
158,223,16379,1,8,1:0:0:0:
257,122,16566,2,0,L|226:78,1,45,0|8,1:0|1:0,1:0:0:0:
384,105,16847,2,0,L|408:146,1,45,0|0,1:0|1:0,1:0:0:0:
398,168,17035,2,0,L|359:192,1,45,0|8,1:0|1:0,1:0:0:0:
181,201,17316,5,0,1:0:0:0:
203,212,17410,1,0,1:0:0:0:
223,223,17504,1,2,1:0:0:0:
165,344,17691,1,0,1:0:0:0:
294,383,17879,1,8,1:0:0:0:
419,334,18066,1,0,1:0:0:0:
439,346,18160,1,8,1:0:0:0:
506,229,18347,1,0,1:0:0:0:
490,211,18441,1,8,1:0:0:0:
463,78,18629,1,8,1:0:0:0:
336,30,18816,1,0,1:0:0:0:
189,258,19004,5,2,1:0:0:0:
172,179,19191,1,0,1:0:0:0:
150,103,19379,1,8,1:0:0:0:
113,14,19566,2,0,P|117:100|67:177,1,180,0|0,1:0|1:0,1:0:0:0:
57,192,20035,1,0,1:0:0:0:
45,210,20129,2,0,P|28:255|37:306,1,90,8|0,1:0|1:0,1:0:0:0:
293,346,20504,5,2,1:0:0:0:
321,250,20691,1,0,1:0:0:0:
350,159,20879,1,8,1:0:0:0:
377,38,21066,2,0,P|373:124|423:201,1,180,0|0,1:0|1:0,1:0:0:0:
433,216,21535,1,0,1:0:0:0:
445,234,21629,2,0,P|462:279|453:330,1,90,8|0,1:0|1:0,1:0:0:0:
57,121,22004,5,2,1:0:0:0:
192,56,22191,1,0,1:0:0:0:
336,64,22379,1,8,1:0:0:0:
452,166,22566,2,0,B|382:172|382:172|347:143|347:143|283:149,1,180,0|0,1:0|1:0,1:0:0:0:
267,142,23035,1,0,1:0:0:0:
251,136,23129,2,0,L|243:46,1,90,8|0,1:0|1:0,1:0:0:0:
455,263,23504,5,2,1:0:0:0:
320,328,23691,1,0,1:0:0:0:
176,320,23879,1,8,1:0:0:0:
60,218,24066,2,0,B|130:212|130:212|165:241|165:241|229:235,1,180,0|0,1:0|1:0,1:0:0:0:
296,176,24629,6,0,P|287:98|329:50,1,135,8|0,1:0|1:0,1:0:0:0:
330,60,25004,5,4,1:0:0:0:
446,92,25191,1,0,1:0:0:0:
412,210,25379,1,8,1:0:0:0:
296,176,25566,1,0,1:0:0:0:
182,324,25754,5,2,1:0:0:0:
66,292,25941,1,2,1:0:0:0:
100,174,26129,1,0,1:0:0:0:
216,208,26316,1,2,1:0:0:0:
503,366,26597,5,0,1:0:0:0:
503,366,26691,1,0,1:0:0:0:
471,291,26879,1,8,1:0:0:0:
440,216,27066,1,0,1:0:0:0:
312,365,27254,5,2,1:0:0:0:
397,365,27441,1,2,1:0:0:0:
440,216,27629,1,0,1:0:0:0:
354,216,27816,1,2,1:0:0:0:
224,368,28004,5,4,1:0:0:0:
200,367,28097,1,0,1:0:0:0:
176,367,28191,1,0,1:0:0:0:
64,256,28379,1,8,1:0:0:0:
64,364,28566,1,0,1:0:0:0:
152,260,28754,5,2,1:0:0:0:
152,152,28941,1,2,1:0:0:0:
64,24,29129,1,0,1:0:0:0:
64,132,29316,1,2,1:0:0:0:
384,205,29504,5,8,1:0:0:0:
391,169,29597,1,0,1:0:0:0:
397,134,29691,1,0,1:0:0:0:
410,64,29879,1,8,1:0:0:0:
320,48,30066,1,0,1:0:0:0:
128,179,30254,5,2,1:0:0:0:
122,215,30347,1,0,1:0:0:0:
115,250,30441,1,2,1:0:0:0:
102,320,30629,1,2,1:0:0:0:
192,336,30816,1,2,1:0:0:0:
386,211,31004,5,4,1:0:0:0:
392,175,31097,1,0,1:0:0:0:
399,140,31191,1,0,1:0:0:0:
412,70,31379,1,8,1:0:0:0:
425,0,31566,1,0,1:0:0:0:
348,22,31754,5,2,1:0:0:0:
271,44,31941,1,2,1:0:0:0:
332,109,32129,1,0,1:0:0:0:
392,175,32316,1,2,1:0:0:0:
169,206,32504,5,8,1:0:0:0:
182,167,32597,1,0,1:0:0:0:
195,134,32691,1,0,1:0:0:0:
226,43,32879,1,8,1:0:0:0:
65,0,33066,1,0,1:0:0:0:
7,145,33254,5,2,1:0:0:0:
65,0,33441,1,2,1:0:0:0:
226,43,33629,1,0,1:0:0:0:
169,206,33816,1,2,1:0:0:0:
488,195,34004,5,8,1:0:0:0:
480,234,34097,1,0,1:0:0:0:
473,279,34191,1,0,1:0:0:0:
465,319,34285,1,0,1:0:0:0:
457,363,34379,1,8,1:0:0:0:
290,336,34566,1,0,1:0:0:0:
457,363,34754,5,2,1:0:0:0:
290,336,34941,1,2,1:0:0:0:
488,195,35129,1,0,1:0:0:0:
315,169,35316,1,2,1:0:0:0:
172,368,35504,6,0,P|183:325|175:282,1,90,8|0,1:0|1:0,1:0:0:0:
117,222,35785,2,0,P|103:265|111:309,1,90,8|0,1:0|1:0,1:0:0:0:
35,348,36066,1,8,1:0:0:0:
54,147,36254,6,0,L|31:97,1,45,2|0,1:0|1:0,1:0:0:0:
146,46,36441,2,0,L|165:-6,1,45,2|0,1:0|1:0,1:0:0:0:
287,25,36629,2,0,L|337:2,1,45,8|0,1:0|1:0,1:0:0:0:
403,107,36816,2,0,L|454:126,1,45,2|0,1:0|1:0,1:0:0:0:
482,248,37004,5,6,1:0:0:0:
396,352,37191,1,0,1:0:0:0:
396,352,37285,1,2,1:0:0:0:
356,223,37472,1,2,1:0:0:0:
271,329,37660,1,2,1:0:0:0:
226,202,37847,1,2,1:0:0:0:
128,296,38035,5,2,1:0:0:0:
96,296,38129,1,8,1:0:0:0:
88,264,38222,1,0,1:0:0:0:
58,266,38316,1,8,1:0:0:0:
64,227,38410,1,0,1:0:0:0:
32,227,38504,1,6,1:0:0:0:
59,96,38691,1,0,1:0:0:0:
53,108,38785,1,2,1:0:0:0:
186,112,38972,1,2,1:0:0:0:
286,43,39160,5,0,1:0:0:0:
294,66,39254,1,2,1:0:0:0:
413,100,39441,1,2,1:0:0:0:
413,100,39535,1,2,1:0:0:0:
413,100,39629,1,8,1:0:0:0:
159,334,39816,1,8,1:0:0:0:
173,278,39910,1,8,1:0:0:0:
181,223,40004,5,4,1:0:0:0:
318,219,40191,1,0,1:0:0:0:
318,219,40285,1,0,1:0:0:0:
373,96,40472,1,8,1:0:0:0:
273,4,40660,1,0,1:0:0:0:
139,18,40847,1,8,1:0:0:0:
29,97,41035,5,0,1:0:0:0:
37,129,41129,1,8,1:0:0:0:
76,141,41222,1,0,1:0:0:0:
68,169,41316,1,0,1:0:0:0:
40,193,41410,1,0,1:0:0:0:
56,225,41504,1,4,1:0:0:0:
18,356,41691,1,0,1:0:0:0:
18,356,41785,1,8,1:0:0:0:
177,380,41972,1,8,1:0:0:0:
209,220,42160,5,8,1:0:0:0:
251,244,42254,1,8,1:0:0:0:
295,219,42347,2,2,P|392:253|277:46,1,630,2|6,1:0|1:0,1:0:0:0:
22,10,43191,5,0,1:0:0:0:
21,54,43285,1,10,1:0:0:0:
99,153,43472,1,10,1:0:0:0:
15,247,43660,1,10,1:0:0:0:
104,334,43847,1,10,1:0:0:0:
185,237,44035,6,0,C|229:249,1,45,0|2,1:0|1:0,1:0:0:0:
292,141,44222,2,0,C|249:132,1,45,0|2,1:0|1:0,1:0:0:0:
196,25,44410,1,0,1:0:0:0:
239,36,44504,1,14,1:0:0:0:
401,34,44691,5,0,1:0:0:0:
439,44,44785,1,10,1:0:0:0:
509,118,44972,1,10,1:0:0:0:
385,217,45160,5,0,1:0:0:0:
428,207,45254,1,10,1:0:0:0:
298,341,45441,1,0,1:0:0:0:
285,297,45535,1,2,1:0:0:0:
277,253,45629,1,8,1:0:0:0:
265,210,45722,1,2,1:0:0:0:
0,5,45910,5,2,1:0:0:0:
0,5,46004,1,8,1:0:0:0:
129,1,46191,1,2,1:0:0:0:
58,233,46379,5,8,1:0:0:0:
76,103,46566,1,2,1:0:0:0:
306,108,46754,5,8,1:0:0:0:
202,189,46941,1,2,1:0:0:0:
316,369,47129,5,8,1:0:0:0:
336,226,47316,1,2,1:0:0:0:
326,296,47410,1,8,1:0:0:0:
316,369,47504,1,0,1:0:0:0:
455,260,47691,5,0,1:0:0:0:
472,193,47785,1,8,1:0:0:0:
316,369,47972,1,8,1:0:0:0:
228,185,48160,5,8,1:0:0:0:
228,185,48254,1,4,1:0:0:0:
77,301,48441,1,4,1:0:0:0:
0,140,48629,1,4,1:0:0:0:
150,20,48816,1,4,1:0:0:0:
228,185,49004,5,4,1:0:0:0:
512,384,54254,6,0,B|467:384,1,45,2|2,2:0|2:0,2:0:0:0:
352,384,54441,2,0,B|307:384,1,45,2|2,2:0|2:0,2:0:0:0:
176,384,54629,2,0,B|96:384,1,67.5,2|0,2:0|2:0,2:0:0:0:
0,384,55004,5,4,2:0:0:0:
40,293,55191,1,2,2:0:0:0:
0,203,55379,1,8,2:0:0:0:
40,112,55566,1,2,2:0:0:0:
0,22,55754,1,0,2:0:0:0:
0,22,55847,1,2,2:0:0:0:
0,22,56035,2,0,B|69:5|159:28,1,135,2|2,2:0|2:0,2:0:0:0:
512,0,56504,5,0,2:0:0:0:
472,91,56691,1,2,2:0:0:0:
512,181,56879,1,8,2:0:0:0:
472,272,57066,1,2,2:0:0:0:
512,362,57254,1,0,2:0:0:0:
512,362,57347,1,2,2:0:0:0:
512,362,57535,2,0,B|443:379|353:356,1,135,2|0,2:0|2:0,2:0:0:0:
0,384,58004,5,0,2:0:0:0:
40,293,58191,1,2,2:0:0:0:
0,203,58379,1,8,2:0:0:0:
40,112,58566,1,2,2:0:0:0:
0,22,58754,1,0,2:0:0:0:
0,22,58847,1,2,2:0:0:0:
0,22,59035,2,0,B|69:5|159:28,1,135,2|0,2:0|2:0,2:0:0:0:
304,48,59504,5,0,1:0:0:0:
317,34,59597,1,0,1:0:0:0:
302,90,59691,1,0,1:0:0:0:
316,76,59785,1,0,1:0:0:0:
304,130,59879,1,0,1:0:0:0:
317,117,59972,1,0,1:0:0:0:
304,172,60066,1,0,1:0:0:0:
317,158,60160,1,0,1:0:0:0:
316,199,60254,6,0,B|347:223,7,22.5,0|0|0|0|0|0|0|0,1:0|1:0|1:0|1:0|1:0|1:0|1:0|1:0,1:0:0:0:
297,209,60629,2,0,B|316:243,7,22.5,0|0|0|0|0|0|0|0,1:0|1:0|1:0|1:0|1:0|1:0|1:0|1:0,1:0:0:0:
289,180,61004,6,0,P|245:201|207:244,1,90,6|0,2:0|2:0,2:0:0:0:
223,324,61754,2,0,P|177:309|133:272,1,90,2|0,2:0|2:0,2:0:0:0:
151,166,62504,2,2,P|71:203|27:280,1,180,2|0,2:1|2:0,2:1:0:0:
143,284,63629,1,0,2:0:0:0:
393,288,64004,6,0,P|358:316|316:331,1,90,2|0,2:0|2:0,2:0:0:0:
341,137,64754,2,0,P|326:180|326:225,1,90,2|0,2:0|2:0,2:0:0:0:
455,132,65504,2,2,B|392:46|347:23|277:26|277:26|293:95,1,270,2|0,2:1|2:0,2:1:0:0:
0,77,67004,5,0,1:0:0:0:
52,148,67379,1,0,2:0:0:0:
136,127,67754,5,10,2:0:0:0:
163,167,67941,1,2,2:0:0:0:
195,207,68129,1,2,2:0:0:0:
242,220,68316,1,0,1:0:0:0:
291,215,68504,1,0,1:0:0:0:
324,180,68691,1,0,1:0:0:0:
372,180,68879,1,0,1:0:0:0:
468,172,69066,5,2,2:0:0:0:
421,185,69254,1,10,2:0:0:0:
372,180,69441,1,2,2:0:0:0:
324,180,69629,1,0,1:0:0:0:
291,215,69816,1,0,1:0:0:0:
242,220,70004,6,0,B|186:203|186:135,1,90,0|0,1:0|2:0,1:0:0:0:
329,106,70754,2,0,B|370:79|429:104,1,90,10|0,2:0|2:0,2:0:0:0:
483,287,71504,6,2,B|446:243|446:243|441:333,1,148.5,0|0,1:0|2:0,1:0:0:0:
352,342,72254,2,2,B|350:286|350:286|367:255|367:255|359:212,1,135,0|0,1:0|2:0,1:0:0:0:
487,94,73004,5,0,1:0:0:0:
380,94,73191,1,0,1:0:0:0:
269,94,73379,1,8,1:0:0:0:
161,94,73566,1,0,1:0:0:0:
2,209,73754,5,0,1:0:0:0:
109,209,73941,1,0,1:0:0:0:
221,209,74129,1,8,1:0:0:0:
328,209,74316,1,0,1:0:0:0:
487,323,74504,5,0,1:0:0:0:
380,323,74691,1,0,1:0:0:0:
269,323,74879,1,8,1:0:0:0:
161,323,75066,1,0,1:0:0:0:
269,209,75254,5,0,1:0:0:0:
354,113,75441,1,0,1:0:0:0:
430,209,75629,1,8,1:0:0:0:
88,349,75910,5,0,1:0:0:0:
88,349,76004,1,0,1:0:0:0:
88,251,76191,1,0,1:0:0:0:
88,149,76379,1,8,1:0:0:0:
88,50,76566,1,0,1:0:0:0:
219,0,76754,5,0,1:0:0:0:
219,98,76941,1,0,1:0:0:0:
219,201,77129,1,8,1:0:0:0:
219,299,77316,1,0,1:0:0:0:
341,349,77504,5,0,1:0:0:0:
341,251,77691,1,0,1:0:0:0:
341,149,77879,1,8,1:0:0:0:
341,50,78066,1,0,1:0:0:0:
454,0,78254,5,0,1:0:0:0:
454,98,78441,1,8,1:0:0:0:
455,158,78535,1,0,1:0:0:0:
456,217,78629,1,8,1:0:0:0:
456,315,78816,1,0,1:0:0:0:
48,361,79004,5,0,1:0:0:0:
61,234,79191,1,0,1:0:0:0:
182,247,79379,1,8,1:0:0:0:
169,372,79566,1,0,1:0:0:0:
428,361,79754,5,0,1:0:0:0:
415,234,79941,1,0,1:0:0:0:
294,247,80129,1,8,1:0:0:0:
307,372,80316,1,0,1:0:0:0:
300,312,80410,1,0,1:0:0:0:
294,247,80504,5,0,1:0:0:0:
420,234,80691,1,0,1:0:0:0:
407,113,80879,1,8,1:0:0:0:
282,126,81066,1,0,1:0:0:0:
182,247,81254,5,0,1:0:0:0:
56,234,81441,1,0,1:0:0:0:
69,113,81629,1,8,1:0:0:0:
194,126,81816,1,0,1:0:0:0:
187,187,81910,1,0,1:0:0:0:
182,247,82004,5,0,1:0:0:0:
295,284,82191,1,0,1:0:0:0:
412,284,82379,1,8,1:0:0:0:
494,202,82566,1,0,1:0:0:0:
496,84,82754,1,8,1:0:0:0:
413,1,82941,1,0,1:0:0:0:
296,0,83129,1,8,1:0:0:0:
214,82,83316,1,8,1:0:0:0:
147,179,83504,6,2,B|125:252|125:252|151:316,1,135,2|0,1:0|2:0,1:0:0:0:
220,383,83879,2,2,B|247:318|247:318|225:252,1,135,2|0,1:0|2:0,1:0:0:0:
354,318,84254,6,0,B|371:240,1,45,2|0,1:0|2:0,1:0:0:0:
384,192,84441,2,0,B|394:148,1,45,2|0,1:0|2:0,1:0:0:0:
423,22,84629,2,0,B|406:100,1,45,2|0,1:0|2:0,1:0:0:0:
393,148,84816,2,0,B|383:192,1,45,2|0,1:0|2:0,1:0:0:0:
354,318,85004,6,0,B|267:344|267:344|171:304,1,180,2|0,1:0|2:0,1:0:0:0:
184,309,85285,2,2,B|267:344|267:344|354:318,1,180,2|0,1:0|2:0,1:0:0:0:
354,318,85566,2,2,B|267:344|267:344|184:309,1,180,2|0,1:0|2:0,1:0:0:0:
48,304,85941,6,0,B|56:208,1,90,0|0,1:0|2:0,1:0:0:0:
144,224,86129,2,0,B|152:128,1,90,0|0,1:0|2:0,1:0:0:0:
240,152,86316,2,0,B|248:56,1,90,0|0,1:0|2:0,1:0:0:0:
382,94,86504,6,0,B|408:181|408:181|368:277,1,180,2|0,1:0|2:0,1:0:0:0:
373,263,86785,2,2,B|408:181|408:181|382:94,1,180,2|0,1:0|2:0,1:0:0:0:
382,94,87066,2,2,B|408:181|408:181|373:263,1,180,2|0,1:0|2:0,1:0:0:0:
272,328,87441,6,0,B|264:232,1,90,0|0,1:0|2:0,1:0:0:0:
176,248,87629,2,0,B|168:152,1,90,0|0,1:0|2:0,1:0:0:0:
80,176,87816,2,0,B|72:80,1,90,0|0,1:0|2:0,1:0:0:0:
184,56,88004,6,0,B|271:30|271:30|367:70,1,180,2|0,1:0|2:0,1:0:0:0:
353,64,88285,2,2,B|270:29|270:29|183:55,1,180,2|0,1:0|2:0,1:0:0:0:
184,56,88566,2,2,B|271:30|271:30|353:64,1,180,2|0,1:0|2:0,1:0:0:0:
80,88,88941,6,0,B|88:184,1,90,0|0,1:0|2:0,1:0:0:0:
176,168,89129,2,0,B|184:264,1,90,0|0,1:0|2:0,1:0:0:0:
272,240,89316,2,0,B|280:336,1,90,0|0,1:0|2:0,1:0:0:0:
400,88,89504,6,0,B|426:175|426:175|391:257,1,180,2|0,1:0|2:0,1:0:0:0:
391,257,89785,2,2,B|425:174|425:174|399:87,1,180,2|0,1:0|2:0,1:0:0:0:
400,88,90066,2,2,B|426:175|426:175|391:257,1,180,2|0,1:0|2:0,1:0:0:0:
242,338,90441,6,0,P|254:289|234:242,1,90,0|0,1:0|2:0,1:0:0:0:
101,147,90629,2,0,P|131:178|174:189,1,90,0|0,1:0|2:0,1:0:0:0:
335,121,90816,2,0,P|291:131|261:163,1,90,0|0,1:0|2:0,1:0:0:0:
101,2,91004,6,2,P|176:43|183:129,1,180,2|0,1:0|2:0,1:0:0:0:
115,265,91285,2,2,P|112:178|183:129,1,180,2|0,1:0|2:0,1:0:0:0:
335,121,91566,2,2,P|261:166|183:129,1,180,2|0,1:0|2:0,1:0:0:0:
498,127,91941,6,0,P|457:156|405:155,1,90,0|0,1:0|2:0,1:0:0:0:
268,67,92129,2,0,P|307:83|334:118,1,90,0|0,1:0|2:0,1:0:0:0:
331,294,92316,2,0,P|323:249|342:209,1,90,0|0,1:0|2:0,1:0:0:0:
130,120,92504,6,2,P|196:174|278:148,1,180,2|0,1:0|2:0,1:0:0:0:
380,34,92785,2,2,P|298:63|279:147,1,180,2|0,1:0|2:0,1:0:0:0:
328,290,93066,2,2,P|342:204|278:146,1,180,2|0,1:0|2:0,1:0:0:0:
48,352,93441,6,0,L|56:256,1,90,0|0,1:0|2:0,1:0:0:0:
136,296,93629,2,0,L|144:200,1,90,0|0,1:0|2:0,1:0:0:0:
224,240,93816,2,0,L|232:144,1,90,0|0,1:0|2:0,1:0:0:0:
464,208,94004,6,2,L|449:29,1,180,2|0,1:0|2:0,1:0:0:0:
368,39,94285,2,2,L|382:218,1,180,2|0,1:0|2:0,1:0:0:0:
301,228,94566,2,2,L|287:49,1,180,2|0,1:0|1:0,1:0:0:0:
32,0,94941,5,0,1:0:0:0:
64,112,95129,1,0,1:0:0:0:
96,224,95316,1,0,1:0:0:0:
128,336,95504,5,2,1:0:0:0:
256,192,95691,1,0,1:0:0:0:
384,336,95879,1,0,1:0:0:0:
256,192,96066,1,2,1:0:0:0:
120,56,96254,5,2,1:0:0:0:
142,28,96347,1,0,1:0:0:0:
274,18,96535,1,2,1:0:0:0:
238,42,96629,2,0,L|227:131,1,90,0|0,1:0|1:0,1:0:0:0:
301,283,96816,2,0,L|312:194,1,90,2|0,1:0|1:0,1:0:0:0:
392,56,97004,5,0,1:0:0:0:
392,56,97191,2,0,B|460:197|460:197|392:344,1,315,0|0,1:0|2:0,0:0:0:0:
304,288,98879,1,2,2:0:0:0:
256,344,99254,1,0,2:0:0:0:
208,288,99629,1,2,2:0:0:0:
118,340,100004,5,0,1:0:0:0:
118,340,100191,2,0,B|52:197|52:197|120:56,1,315,0|0,1:0|2:0,0:0:0:0:
208,96,101879,1,2,2:0:0:0:
256,40,102254,1,0,2:0:0:0:
304,96,102629,1,2,2:0:0:0:
392,56,103004,5,0,1:0:0:0:
392,56,103191,2,0,B|460:197|460:197|394:340,1,315,0|0,1:0|2:0,0:0:0:0:
256,336,105254,2,0,B|256:192,1,135,0|0,2:0|2:0,2:0:0:0:
256,176,106004,5,8,2:0:0:0:
165,266,106379,1,0,1:0:0:0:
256,357,106754,1,0,1:0:0:0:
346,266,107129,1,0,1:0:0:0:
448,176,107504,5,0,1:0:0:0:
366,59,107691,5,0,1:0:0:0:
328,47,107785,1,0,1:0:0:0:
334,91,107879,1,8,1:0:0:0:
296,79,107972,1,0,1:0:0:0:
295,127,108066,1,0,1:0:0:0:
258,115,108160,1,0,1:0:0:0:
264,159,108254,1,8,1:0:0:0:
227,147,108347,1,0,1:0:0:0:
220,193,108441,1,8,1:0:0:0:
183,181,108535,1,0,1:0:0:0:
189,225,108629,1,8,1:0:0:0:
151,212,108722,1,0,1:0:0:0:
148,250,108816,1,8,1:0:0:0:
110,238,108910,1,0,1:0:0:0:
109,279,109004,5,6,1:0:0:0:
4,325,109191,1,0,1:0:0:0:
4,325,109285,1,2,1:0:0:0:
119,373,109472,1,2,1:0:0:0:
237,328,109660,1,2,1:0:0:0:
355,368,109847,1,2,1:0:0:0:
472,322,110035,5,2,1:0:0:0:
486,287,110129,1,8,1:0:0:0:
455,262,110222,1,0,1:0:0:0:
471,227,110316,1,8,1:0:0:0:
438,200,110410,1,0,1:0:0:0:
454,163,110504,1,6,1:0:0:0:
341,106,110691,1,0,1:0:0:0:
331,128,110785,1,2,1:0:0:0:
240,214,110972,1,2,1:0:0:0:
95,165,111160,5,0,1:0:0:0:
103,193,111254,1,2,1:0:0:0:
33,65,111441,1,2,1:0:0:0:
33,65,111535,1,2,1:0:0:0:
33,65,111629,1,8,1:0:0:0:
468,0,111816,1,8,1:0:0:0:
406,20,111910,1,8,1:0:0:0:
346,51,112004,5,4,1:0:0:0:
230,31,112191,1,0,1:0:0:0:
230,31,112285,1,0,1:0:0:0:
194,151,112472,1,8,1:0:0:0:
70,159,112660,1,0,1:0:0:0:
51,283,112847,1,8,1:0:0:0:
153,356,113035,5,0,1:0:0:0:
189,342,113129,1,8,1:0:0:0:
191,309,113222,1,0,1:0:0:0:
233,311,113316,1,0,1:0:0:0:
256,344,113410,1,0,1:0:0:0:
298,330,113504,1,4,1:0:0:0:
395,250,113691,1,0,1:0:0:0:
395,250,113785,1,8,1:0:0:0:
416,126,113972,1,8,1:0:0:0:
307,56,114160,5,8,1:0:0:0:
261,85,114254,1,8,1:0:0:0:
214,63,114347,2,2,P|111:39|227:253,1,585,2|0,1:0|2:0,1:0:0:0:
227,252,115004,5,14,1:0:0:0:
382,328,115191,1,0,1:0:0:0:
387,283,115285,1,10,1:0:0:0:
317,177,115472,1,10,1:0:0:0:
192,158,115660,1,10,1:0:0:0:
220,35,115847,1,10,1:0:0:0:
377,15,116035,5,0,1:0:0:0:
415,41,116129,1,2,1:0:0:0:
402,80,116222,1,0,1:0:0:0:
441,106,116316,1,2,1:0:0:0:
428,144,116410,1,0,1:0:0:0:
467,170,116504,1,14,1:0:0:0:
413,289,116691,1,0,1:0:0:0:
403,251,116785,1,10,1:0:0:0:
289,353,116972,1,10,1:0:0:0:
198,209,117160,5,0,1:0:0:0:
188,252,117254,1,10,1:0:0:0:
122,59,117441,1,0,1:0:0:0:
165,68,117535,1,2,1:0:0:0:
210,80,117629,1,8,1:0:0:0:
254,91,117722,1,2,1:0:0:0:
502,377,117910,5,2,1:0:0:0:
502,377,118004,1,8,1:0:0:0:
499,226,118191,1,2,1:0:0:0:
238,316,118379,5,8,1:0:0:0:
385,290,118566,1,2,1:0:0:0:
372,29,118754,5,8,1:0:0:0:
284,150,118941,1,2,1:0:0:0:
73,28,119129,5,8,1:0:0:0:
43,199,119316,1,2,1:0:0:0:
58,112,119410,1,8,1:0:0:0:
73,28,119504,1,8,1:0:0:0:
170,93,119691,5,0,1:0:0:0:
155,180,119785,1,8,1:0:0:0:
185,9,119972,1,8,1:0:0:0:
395,25,120160,5,8,1:0:0:0:
395,25,120254,1,4,1:0:0:0:
450,280,120441,1,4,1:0:0:0:
499,75,120629,1,4,1:0:0:0:
320,283,120816,1,4,1:0:0:0:
227,36,121004,5,4,1:0:0:0:
227,36,121097,1,8,1:0:0:0:
71,161,121285,1,10,2:0:0:0:
129,329,121472,1,8,1:0:0:0:
493,378,121660,5,10,2:0:0:0:
454,312,121754,1,0,1:0:0:0:
512,242,121847,1,10,2:0:0:0:
470,147,121941,1,2,2:0:0:0:
256,192,122035,12,0,127004,2:0:0:0:
