osu file format v14

[General]
AudioFilename: cranky - The Five.mp3
AudioLeadIn: 1004
PreviewTime: 35498
Countdown: 1
SampleSet: Normal
StackLeniency: 1
Mode: 0
LetterboxInBreaks: 1
WidescreenStoryboard: 1

[Editor]
DistanceSpacing: 1.1
BeatDivisor: 4
GridSize: 8
TimelineZoom: 1.7

[Metadata]
Title:The Five [Short Edit]
TitleUnicode:The Five [Short Edit]
Artist:Cranky
ArtistUnicode:Cranky
Creator:AJT
Version:DeviousPanda's Four
Source:
Tags:flask yokespai deviouspanda pennek featured artist instrumental eurodance electronic
BeatmapID:2499141
BeatmapSetID:1194122

[Difficulty]
HPDrainRate:5.4
CircleSize:4.6
OverallDifficulty:7.5
ApproachRate:8.5
SliderMultiplier:1.8
SliderTickRate:0.5

[Events]
//Background and Video events
0,0,"five-title.png"
//Break Periods
2,61204,72329
2,97391,99329
2,100391,102329
2,103391,105329
//Storyboard Layer 0 (Background)
//Storyboard Layer 1 (Fail)
//Storyboard Layer 2 (Pass)
//Storyboard Layer 3 (Foreground)
//Storyboard Layer 4 (Overlay)
//Storyboard Sound Samples

[TimingPoints]
1004,375,4,1,0,80,1,0
13004,-100,4,1,0,50,0,0
13191,-100,4,1,0,80,0,0
14504,-100,4,1,0,50,0,0
14691,-100,4,1,0,80,0,0
16004,-100,4,1,0,50,0,0
16191,-100,4,1,0,80,0,0
17504,-100,4,1,0,50,0,0
17550,-100,4,1,0,80,0,0
19004,-100,4,1,0,50,0,0
19050,-100,4,1,0,80,0,0
20504,-100,4,1,0,50,0,0
20550,-100,4,1,0,80,0,0
22004,-100,4,1,0,50,0,0
22191,-100,4,1,0,80,0,0
23504,-100,4,1,0,50,0,0
23550,-100,4,1,0,80,0,0
24629,-333.333333333333,4,1,0,80,0,0
25004,-90.9090909090909,4,1,0,80,0,0
35504,-100,4,1,0,80,0,0
37004,-100,4,1,0,80,0,1
37379,-66.6666666666667,4,1,0,80,0,1
39254,-55.5555555555556,4,1,0,80,0,1
41129,-76.9230769230769,4,1,0,80,0,1
42347,-66.6666666666667,4,1,0,80,0,1
45254,-50,4,1,0,80,0,1
48254,-100,4,1,0,80,0,1
49004,-100,4,1,0,80,0,0
54629,-66.6666666666667,4,1,0,80,0,0
55004,-83.3333333333333,4,1,0,80,0,0
59504,-83.3333333333333,4,1,0,50,0,0
61004,-83.3333333333333,4,1,0,80,0,0
76004,-76.9230769230769,4,1,0,80,0,0
83504,-90.9090909090909,4,1,0,80,0,0
83879,-50,4,1,0,80,0,0
85004,-45.4545454545455,4,1,0,80,0,1
90629,-44.4444444444445,4,1,0,80,0,1
90816,-43.4782608695652,4,1,0,80,0,1
91004,-41.6666666666667,4,1,0,80,0,1
94004,-40,4,1,0,80,0,1
97004,-40,4,1,0,80,0,0
100004,-40,4,1,0,50,0,0
106004,-40,4,1,0,80,0,0
107972,-90.9090909090909,4,1,0,80,0,0
108254,-55.5555555555556,4,1,0,80,0,0
108629,-41.6666666666667,4,1,0,80,0,0
109004,-41.6666666666667,4,1,0,100,0,1
109379,-55.5555555555556,4,1,0,100,0,1
111254,-50,4,1,0,100,0,1
112004,-55.5555555555556,4,1,0,100,0,1
114254,-55.5555555555556,4,1,0,80,0,1
117254,-50,4,1,0,80,0,1
121941,-50,4,1,0,80,0,0
122504,-50,4,1,0,70,0,0
122879,-50,4,1,0,60,0,0
123254,-50,4,1,0,50,0,0
123629,-50,4,1,0,40,0,0
124004,-50,4,1,0,30,0,0
124379,-50,4,1,0,20,0,0
124754,-50,4,1,0,10,0,0
125129,-50,4,1,0,5,0,0

[Colours]
Combo1 : 0,64,128
Combo2 : 255,128,128
Combo3 : 255,255,128

[HitObjects]
115,68,1004,6,0,B|91:66|91:66|66:22,1,45,4|0,1:0|1:0,1:0:0:0:
188,56,1191,1,4,1:0:0:0:
317,224,1566,5,0,1:0:0:0:
317,224,1660,1,0,1:0:0:0:
317,224,1754,1,2,1:0:0:0:
241,218,1941,1,0,1:0:0:0:
282,37,2316,5,0,1:0:0:0:
282,37,2410,1,0,1:0:0:0:
282,37,2504,1,2,1:0:0:0:
294,110,2691,1,0,1:0:0:0:
114,233,3066,5,0,1:0:0:0:
114,233,3160,1,0,1:0:0:0:
114,233,3254,1,2,1:0:0:0:
131,162,3441,1,0,1:0:0:0:
214,136,3629,5,8,1:0:0:0:
214,136,3816,1,0,1:0:0:0:
180,300,4004,6,0,B|159:313|159:313|119:303,1,45,4|0,1:0|1:0,1:0:0:0:
72,292,4191,1,4,1:0:0:0:
228,246,4566,5,0,1:0:0:0:
228,246,4660,1,0,1:0:0:0:
228,246,4754,1,2,1:0:0:0:
296,260,4941,1,0,1:0:0:0:
332,334,5316,5,0,1:0:0:0:
332,334,5410,1,0,1:0:0:0:
332,334,5504,1,2,1:0:0:0:
397,319,5691,1,0,1:0:0:0:
430,255,6066,5,0,1:0:0:0:
430,255,6160,1,0,1:0:0:0:
430,255,6254,1,2,1:0:0:0:
498,269,6441,1,0,1:0:0:0:
368,203,6629,6,0,B|336:179|336:179|363:79|363:79,1,135,2|0,1:0|1:0,1:0:0:0:
253,0,7004,5,4,1:0:0:0:
253,0,7191,1,4,1:0:0:0:
156,63,7566,5,0,1:0:0:0:
156,63,7660,1,0,1:0:0:0:
156,63,7754,1,2,1:0:0:0:
166,138,7941,1,0,1:0:0:0:
357,158,8316,5,0,1:0:0:0:
357,158,8410,1,0,1:0:0:0:
357,158,8504,1,2,1:0:0:0:
347,233,8691,1,0,1:0:0:0:
193,295,9066,5,0,1:0:0:0:
193,295,9160,1,0,1:0:0:0:
193,295,9254,1,2,1:0:0:0:
202,363,9441,1,0,1:0:0:0:
256,192,9629,5,8,1:0:0:0:
256,192,9816,1,0,1:0:0:0:
255,5,10004,6,0,L|257:57,1,45,4|0,1:0|1:0,1:0:0:0:
256,49,10191,1,4,1:0:0:0:
256,192,10379,12,0,11410,1:0:0:0:
256,0,11504,5,2,1:0:0:0:
275,66,11785,1,2,1:0:0:0:
242,128,12066,1,0,1:0:0:0:
269,195,12254,5,8,1:0:0:0:
239,259,12441,1,8,1:0:0:0:
272,320,12629,1,2,1:0:0:0:
249,384,12816,1,0,1:0:0:0:
345,300,13004,5,2,1:0:0:0:
408,334,13191,1,0,1:0:0:0:
444,274,13379,1,8,1:0:0:0:
365,213,13566,5,0,1:0:0:0:
351,210,13660,1,8,1:0:0:0:
338,207,13754,1,0,1:0:0:0:
327,204,13847,1,0,1:0:0:0:
314,201,13941,1,0,1:0:0:0:
204,234,14129,6,0,B|159:241|159:241|111:171,1,90,8|0,1:0|1:0,1:0:0:0:
133,204,14410,1,0,1:0:0:0:
133,204,14504,1,2,1:0:0:0:
75,249,14691,1,0,1:0:0:0:
22,202,14879,2,0,L|39:123,1,45,8|0,1:0|1:0,1:0:0:0:
6,90,15066,5,0,1:0:0:0:
20,87,15160,1,8,1:0:0:0:
33,84,15254,1,0,1:0:0:0:
44,81,15347,1,0,1:0:0:0:
57,78,15441,1,8,1:0:0:0:
140,15,15629,6,0,B|182:33|182:33|171:111,1,90,8|0,1:0|1:0,1:0:0:0:
175,77,15910,1,0,1:0:0:0:
175,77,16004,1,2,1:0:0:0:
238,132,16191,1,0,1:0:0:0:
299,89,16379,1,8,1:0:0:0:
377,147,16566,5,0,1:0:0:0:
380,161,16660,1,8,1:0:0:0:
383,174,16754,1,0,1:0:0:0:
386,185,16847,1,0,1:0:0:0:
389,198,16941,1,0,1:0:0:0:
344,289,17129,6,0,B|321:291|321:291|291:260,1,45,8|0,1:0|1:0,1:0:0:0:
257,221,17316,1,0,1:0:0:0:
257,221,17410,1,0,1:0:0:0:
257,221,17504,2,0,L|269:149,1,45,2|0,1:0|1:0,1:0:0:0:
202,274,17691,2,0,L|214:346,1,45,0|0,1:0|1:0,1:0:0:0:
143,235,17879,1,8,1:0:0:0:
49,330,18066,5,0,1:0:0:0:
63,333,18160,1,8,1:0:0:0:
76,336,18254,1,0,1:0:0:0:
87,339,18347,1,0,1:0:0:0:
100,342,18441,1,8,1:0:0:0:
271,378,18629,5,8,1:0:0:0:
271,378,18816,1,0,1:0:0:0:
364,343,19004,6,0,B|386:325|386:325|369:228,1,90,2|0,1:0|1:0,1:0:0:0:
321,215,19285,1,0,1:0:0:0:
321,215,19379,2,0,B|299:197|299:197|316:100,1,90,8|0,1:0|1:0,1:0:0:0:
373,94,19660,1,0,1:0:0:0:
373,94,19754,1,0,1:0:0:0:
397,101,19847,1,0,1:0:0:0:
422,108,19941,1,0,1:0:0:0:
512,188,20129,6,0,L|397:204,1,90,8|0,1:0|1:0,1:0:0:0:
378,259,20410,1,0,1:0:0:0:
378,259,20504,2,0,B|329:250|329:250|306:152,1,135,2|0,1:0|1:0,1:0:0:0:
253,122,20879,1,8,1:0:0:0:
165,235,21066,5,0,1:0:0:0:
152,238,21160,1,0,1:0:0:0:
141,241,21254,1,0,1:0:0:0:
128,244,21347,1,0,1:0:0:0:
114,247,21441,1,0,1:0:0:0:
222,306,21629,6,0,L|294:318,1,45,8|0,1:0|1:0,1:0:0:0:
274,309,21816,1,0,1:0:0:0:
157,361,22004,5,2,1:0:0:0:
88,376,22191,1,0,1:0:0:0:
51,316,22379,1,8,1:0:0:0:
165,235,22566,5,0,1:0:0:0:
162,222,22660,1,0,1:0:0:0:
159,211,22754,1,0,1:0:0:0:
156,198,22847,1,0,1:0:0:0:
153,184,22941,1,0,1:0:0:0:
92,81,23129,6,0,B|45:75|45:75|15:114,1,90,8|0,1:0|1:0,1:0:0:0:
19,108,23410,1,0,1:0:0:0:
19,108,23504,2,0,L|29:177,1,45,2|0,1:0|1:0,1:0:0:0:
78,200,23691,2,0,L|68:269,1,45,0|0,1:0|1:0,1:0:0:0:
62,249,23879,1,8,1:0:0:0:
174,327,24066,5,0,1:0:0:0:
187,324,24160,1,0,1:0:0:0:
198,321,24254,1,0,1:0:0:0:
211,318,24347,1,0,1:0:0:0:
225,315,24441,1,0,1:0:0:0:
255,212,24629,6,0,L|257:165,1,40.5,8|0,1:0|1:0,1:0:0:0:
225,95,25004,6,0,B|250:72|250:72|333:96,1,99,4|0,1:0|1:0,1:0:0:0:
379,117,25285,1,0,1:0:0:0:
379,117,25379,1,8,1:0:0:0:
507,66,25566,5,0,1:0:0:0:
507,66,25660,1,0,1:0:0:0:
470,4,25754,2,0,B|445:11|445:11|438:48,1,49.5,2|0,1:0|1:0,1:0:0:0:
442,162,25941,5,2,1:0:0:0:
446,183,26035,1,0,1:0:0:0:
450,207,26129,1,0,1:0:0:0:
464,276,26316,1,2,1:0:0:0:
417,335,26504,6,0,B|393:353|393:353|310:337,1,99,0|0,1:0|1:0,1:0:0:0:
258,323,26785,1,0,1:0:0:0:
258,323,26879,1,8,1:0:0:0:
164,162,27066,5,0,1:0:0:0:
164,162,27160,1,0,1:0:0:0:
229,188,27254,2,0,B|238:208|238:208|218:249,1,49.5,2|0,1:0|1:0,1:0:0:0:
94,145,27441,2,0,B|85:125|85:125|105:84,1,49.5,2|0,1:0|1:0,1:0:0:0:
213,69,27629,5,0,1:0:0:0:
115,270,27816,1,2,1:0:0:0:
115,270,27910,1,0,1:0:0:0:
115,270,28004,2,0,L|14:254,1,99,4|0,1:0|1:0,1:0:0:0:
17,254,28285,1,0,1:0:0:0:
17,254,28379,1,8,1:0:0:0:
0,366,28566,5,0,1:0:0:0:
15,362,28660,1,0,1:0:0:0:
29,358,28754,1,2,1:0:0:0:
45,354,28847,1,0,1:0:0:0:
62,351,28941,1,2,1:0:0:0:
139,366,29129,6,0,B|190:374|190:374|225:327,1,99,0|2,1:0|1:0,1:0:0:0:
274,284,29410,1,0,1:0:0:0:
274,284,29504,2,0,B|325:276|325:276|360:323,1,99,8|0,1:0|1:0,1:0:0:0:
417,351,29785,1,0,1:0:0:0:
417,351,29879,2,0,L|505:339,1,49.5,8|0,1:0|1:0,1:0:0:0:
509,288,30066,1,0,1:0:0:0:
509,288,30160,1,0,1:0:0:0:
509,288,30254,5,2,1:0:0:0:
478,202,30441,1,2,1:0:0:0:
390,231,30629,1,2,1:0:0:0:
351,148,30816,1,2,1:0:0:0:
257,227,31004,6,0,B|225:222|225:222|202:140|202:140|143:132,1,148.5,4|0,1:0|1:0,1:0:0:0:
102,130,31379,1,8,1:0:0:0:
44,239,31566,5,0,1:0:0:0:
44,239,31660,1,0,1:0:0:0:
99,283,31754,2,0,B|117:268|117:268|112:215,1,49.5,2|0,1:0|1:0,1:0:0:0:
102,130,31941,5,2,1:0:0:0:
100,104,32035,1,0,1:0:0:0:
97,79,32129,1,0,1:0:0:0:
90,6,32316,1,2,1:0:0:0:
217,42,32504,6,0,B|246:49|246:49|259:134|259:134|309:147,1,148.5,8|0,1:0|1:0,1:0:0:0:
296,151,32879,2,0,L|366:141,1,49.5,8|0,1:0|1:0,1:0:0:0:
428,71,33066,5,0,1:0:0:0:
428,71,33160,1,0,1:0:0:0:
480,120,33254,2,0,B|486:149|486:149|463:172,1,49.5,2|0,1:0|1:0,1:0:0:0:
358,96,33441,2,0,B|343:110|343:110|349:139,1,49.5,2|0,1:0|1:0,1:0:0:0:
496,232,33629,6,0,L|365:247,1,99,0|2,1:0|1:0,1:0:0:0:
332,279,33910,1,0,1:0:0:0:
332,279,34004,2,0,B|308:294|308:294|306:353,1,49.5,8|0,1:0|1:0,1:0:0:0:
372,350,34191,2,0,B|396:335|396:335|398:276,1,49.5,0|0,1:0|1:0,1:0:0:0:
337,205,34379,1,8,1:0:0:0:
203,289,34566,5,0,1:0:0:0:
203,289,34660,1,0,1:0:0:0:
152,340,34754,2,0,B|147:364|147:364|164:389,1,49.5,2|0,1:0|1:0,1:0:0:0:
254,235,34941,2,0,B|259:211|259:211|242:186,1,49.5,2|0,1:0|1:0,1:0:0:0:
72,0,35129,5,0,1:0:0:0:
72,0,35316,1,2,1:0:0:0:
86,65,35504,6,0,P|108:131|116:189,1,90,8|0,1:0|1:0,1:0:0:0:
140,6,35785,2,0,P|173:51|213:91,1,90,8|0,1:0|1:0,1:0:0:0:
185,149,36066,1,8,1:0:0:0:
261,112,36254,6,0,P|293:127|334:132,1,45,2|0,1:0|1:0,1:0:0:0:
296,50,36441,2,0,P|331:46|369:31,1,45,2|0,1:0|1:0,1:0:0:0:
122,220,36629,6,0,P|118:255|102:293,1,45,8|0,1:0|1:0,1:0:0:0:
52,220,36816,2,0,P|31:248|-1:273,1,45,2|0,1:0|1:0,1:0:0:0:
208,384,37004,5,6,1:0:0:0:
350,215,37191,1,0,1:0:0:0:
402,281,37285,1,2,1:0:0:0:
402,281,37379,6,0,P|369:281|210:311,1,135,0|0,1:0|1:0,1:0:0:0:
122,220,37660,1,2,1:0:0:0:
122,220,37754,2,0,P|155:220|281:196,1,135,0|0,1:0|1:0,1:0:0:0:
313,111,38035,5,2,1:0:0:0:
313,111,38129,1,8,1:0:0:0:
266,56,38222,1,0,1:0:0:0:
203,78,38316,1,8,1:0:0:0:
206,147,38410,1,0,1:0:0:0:
275,179,38504,6,0,L|257:324,1,135,4|0,1:0|1:0,1:0:0:0:
472,331,38785,2,0,L|493:156,1,135,2|2,1:0|1:0,1:0:0:0:
436,149,39066,5,0,1:0:0:0:
436,149,39160,1,0,1:0:0:0:
495,195,39254,6,0,B|525:276|525:276|468:344,1,162,2|2,1:0|1:0,1:0:0:0:
250,316,39535,2,2,B|220:238|220:238|277:167,2,162,2|0|8,1:0|1:0|1:0,1:0:0:0:
366,302,40004,5,4,1:0:0:0:
423,261,40191,1,0,1:0:0:0:
375,208,40379,1,0,1:0:0:0:
318,247,40566,1,0,1:0:0:0:
397,87,40754,5,0,1:0:0:0:
397,87,40847,1,2,1:0:0:0:
397,87,40941,1,0,1:0:0:0:
397,87,41035,1,0,1:0:0:0:
397,87,41129,6,0,P|409:38|427:0,1,58.5,8|0,1:0|1:0,1:0:0:0:
145,81,41316,2,0,P|159:129|162:171,1,58.5,0|0,1:0|1:0,1:0:0:0:
276,190,41504,6,0,L|280:73,1,117,4|0,1:0|1:0,1:0:0:0:
283,76,41785,1,0,1:0:0:0:
235,22,41972,1,2,1:0:0:0:
304,0,42160,1,8,1:0:0:0:
307,4,42254,1,8,1:0:0:0:
310,8,42347,6,0,B|251:-20|218:29|219:38|222:47|195:98|131:76,1,202.5,2|0,1:0|1:0,1:0:0:0:
140,78,42816,1,0,1:0:0:0:
153,7,43004,5,6,1:0:0:0:
0,152,43191,1,0,1:0:0:0:
53,208,43285,1,10,1:0:0:0:
53,208,43379,6,0,P|44:132|30:66,1,135,0|0,1:0|1:0,1:0:0:0:
142,159,43660,1,10,1:0:0:0:
142,159,43754,2,0,P|128:225|121:303,1,135,0|0,1:0|1:0,1:0:0:0:
199,357,44035,5,0,1:0:0:0:
199,357,44129,1,2,1:0:0:0:
265,383,44222,1,0,1:0:0:0:
313,329,44316,1,2,1:0:0:0:
281,264,44410,1,0,1:0:0:0:
333,192,44504,6,0,L|512:178,1,135,14|0,1:0|1:0,1:0:0:0:
272,62,44785,2,0,L|93:76,1,135,10|10,1:0|1:0,1:0:0:0:
95,128,45066,5,0,1:0:0:0:
95,128,45160,1,0,1:0:0:0:
131,65,45254,6,2,B|209:11|209:11|312:74,1,180,10|0,1:0|1:0,1:0:0:0:
473,193,45535,2,2,B|395:247|395:247|292:184,2,180,2|2|2,1:0|1:0|1:0,1:0:0:0:
402,77,46004,5,8,1:0:0:0:
395,146,46191,1,2,1:0:0:0:
217,176,46379,5,8,1:0:0:0:
211,108,46566,1,2,1:0:0:0:
304,132,46754,5,8,1:0:0:0:
304,132,46847,1,0,1:0:0:0:
304,132,46941,1,2,1:0:0:0:
317,314,47129,5,8,1:0:0:0:
255,283,47316,1,2,1:0:0:0:
255,283,47410,1,8,1:0:0:0:
255,283,47504,1,0,1:0:0:0:
199,324,47691,1,0,1:0:0:0:
199,324,47785,1,8,1:0:0:0:
257,360,47972,1,8,1:0:0:0:
391,346,48160,5,8,1:0:0:0:
391,346,48254,2,0,L|452:336,1,45,4|0,1:0|1:0,1:0:0:0:
341,222,48441,2,0,L|406:235,1,45,4|0,1:0|1:0,1:0:0:0:
109,366,48629,6,0,L|48:356,1,45,4|0,1:0|1:0,1:0:0:0:
159,242,48816,2,0,L|94:255,1,45,4|0,1:0|1:0,1:0:0:0:
260,363,49004,5,4,1:0:0:0:
256,192,49097,12,0,53504,1:0:0:0:
216,73,54254,5,2,2:0:0:0:
220,58,54347,1,2,2:0:0:0:
289,109,54441,5,2,2:0:0:0:
293,92,54535,1,2,2:0:0:0:
345,46,54629,6,0,B|295:37|249:74|256:87|262:100|241:144|161:130,1,202.5,2|0,2:0|2:0,2:0:0:0:
179,138,55004,6,0,B|136:175|136:175|159:228,1,108,4|2,3:2|2:0,2:0:0:0:
335,257,55379,2,0,B|378:220|378:220|355:167,1,108,8|2,2:0|2:0,2:0:0:0:
232,268,55754,5,0,3:2:0:0:
238,273,55847,2,0,L|247:358,1,54,2|0,2:0|2:0,2:0:0:0:
259,148,56035,6,0,L|268:233,2,54,2|0|0,2:0|2:0|2:0,2:0:0:0:
254,143,56316,1,2,2:0:0:0:
247,330,56504,5,0,3:2:0:0:
186,378,56691,1,2,2:0:0:0:
126,336,56879,1,8,2:0:0:0:
63,376,57066,1,2,2:0:0:0:
13,224,57254,5,0,3:2:0:0:
18,218,57347,2,0,B|41:217|41:217|59:257,1,54,2|0,2:0|2:0,2:0:0:0:
60,133,57535,6,0,B|36:133|36:133|18:93,2,54,2|0|0,2:0|2:0|2:0,2:0:0:0:
65,127,57816,1,2,2:0:0:0:
149,234,58004,6,0,L|294:222,1,108,0|2,3:2|2:0,2:0:0:0:
225,55,58379,2,0,L|80:67,1,108,8|2,2:0|2:0,2:0:0:0:
302,101,58754,5,0,3:2:0:0:
309,106,58847,2,0,L|392:96,1,54,2|0,2:0|2:0,2:0:0:0:
340,259,59035,6,0,L|423:249,2,54,2|0|0,2:0|2:0|2:0,2:0:0:0:
333,254,59316,1,2,2:0:0:0:
256,384,59504,5,0,1:0:0:0:
256,381,59597,1,0,1:0:0:0:
256,378,59691,1,0,1:0:0:0:
256,375,59785,1,0,1:0:0:0:
256,372,59879,1,0,1:0:0:0:
256,369,59972,1,0,1:0:0:0:
256,366,60066,1,0,1:0:0:0:
256,363,60160,1,0,1:0:0:0:
220,300,60254,6,0,L|177:307,2,27,0|0|0,1:0|1:0|1:0,1:0:0:0:
281,260,60441,2,0,L|324:267,2,27,0|0|0,1:0|1:0|1:0,1:0:0:0:
248,195,60629,6,0,L|208:190,1,27,0|0,1:0|1:0,1:0:0:0:
257,189,60722,2,0,L|297:184,1,27,0|0,1:0|1:0,1:0:0:0:
249,182,60816,2,0,L|209:177,1,27,0|0,1:0|1:0,1:0:0:0:
259,176,60910,2,0,L|294:171,1,27,0|0,1:0|1:0,1:0:0:0:
253,106,61004,5,6,2:0:0:0:
178,32,73004,6,0,B|129:61|129:61|150:122,1,108,0|0,1:0|1:0,1:0:0:0:
220,140,73379,2,0,B|269:111|269:111|248:50,1,108,8|0,1:0|1:0,1:0:0:0:
113,188,73754,6,0,L|126:309,1,108,0|0,1:0|1:0,1:0:0:0:
272,315,74129,2,0,L|259:194,1,108,8|0,1:0|1:0,1:0:0:0:
193,245,74504,1,0,1:0:0:0:
193,245,74691,1,0,1:0:0:0:
341,350,74879,6,0,B|365:343|365:343|381:289|381:289|421:276,1,108,8|0,1:0|1:0,1:0:0:0:
478,296,75160,1,0,1:0:0:0:
478,296,75254,2,0,B|505:285|505:285|500:175,1,108,0|0,1:0|1:0,1:0:0:0:
464,147,75535,1,0,1:0:0:0:
464,147,75629,2,0,B|410:135|410:135|372:211,1,108,8|0,1:0|1:0,1:0:0:0:
312,221,75910,5,0,1:0:0:0:
312,221,76004,2,0,L|157:209,1,117,0|0,1:0|1:0,1:0:0:0:
195,135,76379,2,0,L|350:147,1,117,8|0,1:0|1:0,1:0:0:0:
312,66,76754,6,0,B|263:33|263:33|180:72,1,117,0|0,1:0|1:0,1:0:0:0:
194,289,77129,2,0,B|243:322|243:322|325:283,1,117,8|0,1:0|1:0,1:0:0:0:
196,168,77504,6,0,L|93:183,1,58.5,0|0,1:0|1:0,1:0:0:0:
72,190,77691,1,0,1:0:0:0:
72,190,77785,1,0,1:0:0:0:
72,190,77879,2,0,L|224:170,1,117,8|0,1:0|1:0,1:0:0:0:
248,215,78160,1,0,1:0:0:0:
255,220,78254,2,0,B|266:245|266:245|232:284,1,58.5,0|0,1:0|1:0,1:0:0:0:
143,309,78441,5,8,1:0:0:0:
111,302,78535,1,0,1:0:0:0:
77,297,78629,1,8,1:0:0:0:
77,297,78816,1,0,1:0:0:0:
194,367,79004,6,0,B|225:345|225:345|328:361,1,117,0|0,1:0|1:0,1:0:0:0:
364,321,79285,1,0,1:0:0:0:
372,322,79379,2,0,B|398:301|398:301|388:240,1,58.5,8|0,1:0|1:0,1:0:0:0:
323,241,79566,2,0,B|297:262|297:262|307:323,1,58.5,0|0,1:0|1:0,1:0:0:0:
468,384,79754,5,0,1:0:0:0:
476,309,79941,1,0,1:0:0:0:
483,230,80129,1,8,1:0:0:0:
491,151,80316,1,0,1:0:0:0:
400,68,80504,6,0,B|368:71|368:71|346:122|346:122|303:131,1,117,0|0,1:0|1:0,1:0:0:0:
163,61,80879,2,0,B|194:57|194:57|216:6|216:6|259:-2,1,117,8|0,1:0|1:0,1:0:0:0:
288,65,81254,1,0,1:0:0:0:
288,65,81347,1,0,1:0:0:0:
288,65,81441,1,0,1:0:0:0:
227,140,81629,6,0,L|236:205,1,58.5,8|0,1:0|1:0,1:0:0:0:
249,266,81816,1,0,1:0:0:0:
253,289,81910,1,0,1:0:0:0:
259,314,82004,5,0,1:0:0:0:
310,375,82191,1,0,1:0:0:0:
369,324,82379,1,8,1:0:0:0:
319,264,82566,1,0,1:0:0:0:
172,261,82754,5,8,1:0:0:0:
99,347,82941,1,0,1:0:0:0:
15,275,83129,1,8,1:0:0:0:
86,190,83316,1,8,1:0:0:0:
201,149,83504,6,0,B|241:154|241:154|273:90|273:90|336:93,1,148.5,2|0,1:0|2:0,1:0:0:0:
358,160,83879,6,0,B|283:167|283:167|232:64|232:64|131:69,1,270,2|0,1:0|2:0,1:0:0:0:
83,103,84254,6,0,B|57:132|57:132|96:215,1,90,2|0,1:0|2:0,1:0:0:0:
418,212,84441,6,0,B|444:241|444:241|405:324,1,90,2|0,1:0|2:0,1:0:0:0:
239,384,84629,6,0,L|173:378,2,45,2|0|0,1:0|1:0|1:0,1:0:0:0:
294,330,84816,5,2,1:0:0:0:
238,269,84910,5,0,1:0:0:0:
300,190,85004,6,0,B|307:151|307:151|188:124|188:124|175:166,1,198,2|0,1:0|2:0,1:0:0:0:
112,194,85285,2,0,B|73:186|73:186|47:303|47:303|91:317,1,198,2|0,1:0|2:0,1:0:0:0:
124,373,85566,2,0,B|157:380|157:380|179:292,1,98.9999999999999,2|0,1:0|1:0,1:0:0:0:
230,105,85754,5,0,1:0:0:0:
230,105,85941,6,0,B|220:57|220:57|286:43,1,98.9999999999999,0|0,1:0|2:0,1:0:0:0:
325,85,86129,2,0,B|316:122|316:122|382:136,1,98.9999999999999,0|0,1:0|2:0,1:0:0:0:
442,91,86316,2,0,B|438:64|438:64|527:47,1,98.9999999999999,0|0,1:0|2:0,1:0:0:0:
512,41,86504,6,0,B|429:58|429:58|455:196,1,198,2|0,1:0|2:0,1:0:0:0:
451,242,86785,2,0,B|434:159|434:159|297:181,1,198,2|0,1:0|2:0,1:0:0:0:
288,241,87066,2,0,B|294:278|294:278|216:292,1,98.9999999999999,2|0,1:0|1:0,1:0:0:0:
53,323,87254,5,0,1:0:0:0:
53,323,87441,6,0,B|97:330|97:330|111:258,1,98.9999999999999,0|0,1:0|2:0,1:0:0:0:
66,212,87629,2,0,B|30:219|30:219|16:147,1,98.9999999999999,0|0,1:0|2:0,1:0:0:0:
62,100,87816,2,0,B|92:106|92:106|106:34,1,98.9999999999999,0|0,1:0|2:0,1:0:0:0:
112,44,88004,6,0,B|163:38|163:38|186:117|186:117|259:107,1,198,2|0,1:0|2:0,1:0:0:0:
270,181,88285,2,0,B|321:187|321:187|344:108|344:108|417:118,1,198,2|0,1:0|2:0,1:0:0:0:
448,56,88566,2,0,B|494:63|494:63|483:162,1,98.9999999999999,2|0,1:0|1:0,1:0:0:0:
474,259,88754,5,0,1:0:0:0:
474,259,88941,6,0,B|424:266|424:266|429:328,1,98.9999999999999,0|0,1:0|2:0,1:0:0:0:
362,357,89129,2,0,B|322:347|322:347|327:285,1,98.9999999999999,0|0,1:0|2:0,1:0:0:0:
262,244,89316,2,0,B|237:247|237:247|243:324,1,98.9999999999999,0|0,1:0|2:0,1:0:0:0:
236,325,89504,6,0,L|223:127,1,198,2|0,1:0|2:0,1:0:0:0:
148,155,89785,2,0,L|160:352,1,198,2|0,1:0|2:0,1:0:0:0:
91,377,90066,2,0,B|41:368|41:368|50:301,1,98.9999999999999,2|0,1:0|1:0,1:0:0:0:
89,34,90254,5,0,1:0:0:0:
89,34,90441,6,0,B|139:23|139:23|155:92,1,98.9999999999999,0|0,1:0|2:0,1:0:0:0:
301,178,90629,6,0,B|283:226|283:226|210:208,1,101.25,0|0,1:0|2:0,1:0:0:0:
52,316,90816,6,0,B|19:277|19:277|76:219,1,103.5,0|0,1:0|2:0,1:0:0:0:
143,158,91004,6,0,B|242:146|242:146|247:138|247:138|404:119,1,216,2|0,1:0|2:0,1:0:0:0:
446,16,91285,2,0,B|347:28|347:28|342:36|342:36|185:55,1,216,2|0,1:0|2:0,1:0:0:0:
130,31,91566,5,2,1:0:0:0:
94,38,91660,1,0,1:0:0:0:
56,48,91754,1,0,1:0:0:0:
56,48,91941,6,0,B|24:73|24:73|52:169,1,108,0|0,1:0|2:0,1:0:0:0:
48,340,92129,6,0,B|85:355|85:355|154:282,1,108,0|0,1:0|2:0,1:0:0:0:
321,176,92316,6,0,B|315:135|315:135|218:112,1,108,0|0,1:0|2:0,1:0:0:0:
120,184,92504,6,0,B|170:170|170:170|185:66|185:66|254:47,1,216,2|0,1:0|2:0,1:0:0:0:
461,114,92785,2,0,B|404:129|404:129|389:233|389:233|339:247,1,216,2|0,1:0|2:0,1:0:0:0:
258,299,93066,5,2,1:0:0:0:
254,250,93160,1,0,1:0:0:0:
252,203,93254,1,0,1:0:0:0:
252,203,93441,6,0,B|201:186|201:186|149:260,1,108,0|0,1:0|2:0,1:0:0:0:
466,120,93629,6,0,B|506:84|506:84|468:2,1,108,0|0,1:0|2:0,1:0:0:0:
443,325,93816,6,0,B|453:377|453:377|543:385,1,108,0|0,1:0|2:0,1:0:0:0:
380,223,94004,6,0,L|352:-22,1,225,2|0,1:0|2:0,1:0:0:0:
79,136,94285,2,0,L|107:381,1,225,2|0,1:0|2:0,1:0:0:0:
254,265,94566,5,2,1:0:0:0:
244,196,94660,1,0,1:0:0:0:
238,128,94754,1,0,1:0:0:0:
238,128,94941,6,0,B|278:86|278:86|357:122,1,112.5,0|0,1:0|1:0,1:0:0:0:
174,364,95129,6,0,B|117:350|117:350|109:263,1,112.5,0|0,1:0|1:0,1:0:0:0:
478,296,95316,6,0,B|494:351|494:351|423:402,1,112.5,0|0,1:0|1:0,1:0:0:0:
332,224,95504,5,2,1:0:0:0:
317,355,95691,1,0,1:0:0:0:
501,138,95879,5,0,1:0:0:0:
512,2,96066,1,2,1:0:0:0:
401,204,96254,6,0,L|499:187,4,56.25,2|0|0|0|0,1:0|1:0|1:0|1:0|1:0,1:0:0:0:
328,220,96535,5,2,1:0:0:0:
328,220,96629,1,0,1:0:0:0:
261,190,96722,1,0,1:0:0:0:
206,239,96816,1,2,1:0:0:0:
141,210,96910,1,0,1:0:0:0:
92,263,97004,5,0,1:0:0:0:
92,263,97191,1,0,1:0:0:0:
342,331,100004,5,0,1:0:0:0:
342,331,100191,1,0,1:0:0:0:
410,81,103004,5,0,1:0:0:0:
410,81,103191,1,0,1:0:0:0:
160,13,106004,5,0,1:0:0:0:
160,13,106191,1,0,1:0:0:0:
178,262,106379,5,0,1:0:0:0:
178,262,106566,1,0,1:0:0:0:
335,249,106754,5,0,1:0:0:0:
335,249,106941,1,0,1:0:0:0:
322,92,107129,5,0,1:0:0:0:
322,92,107316,1,0,1:0:0:0:
247,173,107504,5,0,1:0:0:0:
247,173,107691,1,0,1:0:0:0:
385,358,107879,5,8,1:0:0:0:
385,358,107972,2,0,L|510:339,1,99,0|0,1:0|1:0,1:0:0:0:
504,196,108254,6,0,L|516:135,2,40.5,8|0|0,1:0|1:0|1:0,1:0:0:0:
442,241,108441,1,8,1:0:0:0:
385,197,108535,1,0,1:0:0:0:
321,238,108629,6,0,L|331:315,2,54,8|0|0,1:0|1:0|1:0,1:0:0:0:
254,195,108816,1,8,1:0:0:0:
189,238,108910,1,0,1:0:0:0:
125,191,109004,5,6,1:0:0:0:
232,46,109191,1,0,1:0:0:0:
176,0,109285,1,2,1:0:0:0:
176,0,109379,6,0,P|186:71|190:183,1,162,0|0,1:0|1:0,1:0:0:0:
328,216,109660,1,2,1:0:0:0:
328,216,109754,2,0,P|318:145|314:33,1,162,0|0,1:0|1:0,1:0:0:0:
387,5,110035,5,2,1:0:0:0:
387,5,110129,1,8,1:0:0:0:
461,7,110222,1,0,1:0:0:0:
490,79,110316,1,8,1:0:0:0:
441,140,110410,1,0,1:0:0:0:
474,213,110504,6,0,L|459:376,1,162,4|0,1:0|1:0,1:0:0:0:
276,312,110785,2,0,L|291:149,1,162,2|2,1:0|1:0,1:0:0:0:
362,91,111066,5,0,1:0:0:0:
362,91,111160,1,0,1:0:0:0:
282,151,111254,6,0,B|232:229|232:229|269:320,1,180,2|0,1:0|1:0,1:0:0:0:
465,373,111535,2,0,B|515:295|515:295|478:204,2,180,2|0|8,1:0|1:0|1:0,1:0:0:0:
359,384,112004,6,0,L|352:302,1,80.9999999999999,4|0,1:0|1:0,1:0:0:0:
393,154,112191,2,0,L|400:236,1,80.9999999999999,0|0,1:0|1:0,1:0:0:0:
372,266,112379,5,0,1:0:0:0:
372,266,112566,1,0,1:0:0:0:
251,334,112754,5,0,1:0:0:0:
186,361,112847,1,2,1:0:0:0:
143,304,112941,1,0,1:0:0:0:
78,323,113035,1,0,1:0:0:0:
28,272,113129,6,0,B|22:232|22:232|53:197,1,80.9999999999999,8|0,1:0|1:0,1:0:0:0:
169,234,113316,2,0,B|175:274|175:274|144:309,1,80.9999999999999,0|0,1:0|1:0,1:0:0:0:
0,131,113504,5,6,1:0:0:0:
143,102,113691,1,0,1:0:0:0:
143,102,113785,1,0,1:0:0:0:
280,72,113972,1,10,1:0:0:0:
451,51,114160,5,8,1:0:0:0:
451,51,114254,1,8,1:0:0:0:
451,51,114347,2,0,P|386:72|348:-7,1,162,2|0,1:0|1:0,1:0:0:0:
354,0,114629,6,0,B|376:24|376:24|359:90,1,80.9999999999999,0|0,1:0|1:0,1:0:0:0:
286,79,114816,2,0,B|264:103|264:103|281:169,1,80.9999999999999,0|0,1:0|2:0,1:0:0:0:
396,214,115004,5,14,1:0:0:0:
268,362,115191,1,0,1:0:0:0:
212,318,115285,1,10,1:0:0:0:
212,318,115379,6,0,P|284:327|388:360,1,162,0|0,1:0|1:0,1:0:0:0:
265,231,115660,1,10,1:0:0:0:
265,231,115754,2,0,P|193:222|89:189,1,162,0|0,1:0|1:0,1:0:0:0:
39,234,116035,5,0,1:0:0:0:
39,234,116129,1,2,1:0:0:0:
13,302,116222,1,0,1:0:0:0:
64,354,116316,1,2,1:0:0:0:
133,329,116410,1,0,1:0:0:0:
181,242,116504,6,0,L|157:59,1,162,14|0,1:0|1:0,1:0:0:0:
388,50,116785,2,0,L|412:233,1,162,10|10,1:0|1:0,1:0:0:0:
362,290,117066,5,0,1:0:0:0:
362,290,117160,1,0,1:0:0:0:
415,212,117254,6,0,B|443:127|443:127|386:37,1,180,10|0,1:0|1:0,1:0:0:0:
155,81,117535,2,2,B|127:166|127:166|183:257,2,180,2|2|2,1:0|1:0|1:0,1:0:0:0:
262,0,118004,6,0,L|253:106,1,90,8|0,1:0|1:0,1:0:0:0:
304,330,118191,2,0,L|313:224,1,90,2|0,1:0|1:0,1:0:0:0:
276,174,118379,5,8,1:0:0:0:
276,174,118472,1,0,1:0:0:0:
276,174,118566,1,2,1:0:0:0:
112,197,118754,6,0,L|218:206,1,90,8|0,1:0|1:0,1:0:0:0:
435,162,118941,2,0,L|329:153,1,90,2|0,1:0|1:0,1:0:0:0:
276,174,119129,1,8,1:0:0:0:
256,380,119316,5,2,1:0:0:0:
256,380,119410,1,8,1:0:0:0:
256,380,119504,1,8,1:0:0:0:
261,341,119597,1,0,1:0:0:0:
266,302,119691,1,0,1:0:0:0:
272,264,119785,1,8,1:0:0:0:
246,233,119879,5,0,1:0:0:0:
238,186,119972,1,8,1:0:0:0:
232,137,120066,1,0,1:0:0:0:
225,90,120160,1,8,1:0:0:0:
251,45,120254,6,0,B|294:31|294:31|354:81,1,90,4|0,1:0|1:0,1:0:0:0:
469,160,120441,6,0,B|483:203|483:203|433:263,1,90,4|0,1:0|1:0,1:0:0:0:
354,377,120629,6,0,B|311:391|311:391|251:341,1,90,4|0,1:0|1:0,1:0:0:0:
137,262,120816,6,0,B|123:219|123:219|173:159,1,90,4|0,1:0|1:0,1:0:0:0:
335,219,121004,5,4,1:0:0:0:
335,219,121097,1,8,1:0:0:0:
335,219,121285,5,10,2:0:0:0:
335,219,121472,5,8,1:0:0:0:
335,219,121660,5,10,2:0:0:0:
335,219,121754,1,0,1:0:0:0:
335,219,121847,1,10,2:0:0:0:
335,219,121941,1,2,2:0:0:0:
256,192,122035,12,0,127004,2:0:0:0:
