osu file format v14

[General]
AudioFilename: audio.mp3
AudioLeadIn: 0
PreviewTime: 107052
Countdown: 0
SampleSet: Soft
StackLeniency: 0.2
Mode: 0
LetterboxInBreaks: 0
WidescreenStoryboard: 1

[Editor]
Bookmarks: 31578,51789,71999,87157,97263,107368,127578
DistanceSpacing: 0.9
BeatDivisor: 4
GridSize: 8
TimelineZoom: 2

[Metadata]
Title:R176 [Short Edit]
TitleUnicode:R176 [Short Edit]
Artist:Cranky
ArtistUnicode:Cranky
Creator:AJT
Version:fanzhen's EX
Source:
Tags:electronic instrumental trance happy hardcore feline groove owc2023gffm3 osu! world cup owc 2023 grand finals fm3 fa featured artist Niva Nivalis Sonnyc fanzhen0019 Ascended yf_bmp
BeatmapID:4411320
BeatmapSetID:2095168

[Difficulty]
HPDrainRate:5
CircleSize:4.6
OverallDifficulty:8
ApproachRate:9
SliderMultiplier:1.6
SliderTickRate:2

[Events]
//Background and Video events
0,0,"bg.jpg",0,0
//Break Periods
2,14726,20873
//Storyboard Layer 0 (Background)
//Storyboard Layer 1 (Fail)
//Storyboard Layer 2 (Pass)
//Storyboard Layer 3 (Foreground)
//Storyboard Layer 4 (Overlay)
//Storyboard Sound Samples

[TimingPoints]
1263,315.789473684211,4,2,0,50,1,0
27473,-100,4,2,0,15,0,0
29052,-100,4,2,0,50,0,0
31578,-100,4,2,0,70,0,0
34420,-66.6666666666667,4,2,0,70,0,0
35368,-100,4,2,0,70,0,0
36631,-80,4,2,0,70,0,0
41684,-80,4,2,0,60,0,0
50526,-80,4,2,0,50,0,0
51789,-66.6666666666667,4,2,0,50,0,0
59368,-100,4,2,0,50,0,0
59999,-200,4,2,0,40,0,0
61578,-100,4,2,0,40,0,0
61894,-133.333333333333,4,2,0,45,0,0
63157,-100,4,2,0,45,0,0
66947,-100,4,2,0,50,0,0
71999,-100,4,2,0,60,0,0
73894,-133.333333333333,4,2,0,60,0,0
74210,-400,4,2,0,60,0,0
74526,-100,4,2,0,60,0,0
76420,-133.333333333333,4,2,0,60,0,0
76736,-400,4,2,0,60,0,0
77052,-100,4,2,0,60,0,0
82105,-100,4,2,0,50,0,0
85894,-66.6666666666667,4,2,0,50,0,0
87157,-80,4,2,0,50,0,0
95999,-80,4,2,0,50,0,0
107368,-66.6666666666667,4,2,0,70,0,1
111789,-100,4,2,0,70,0,1
112420,-80,4,2,0,70,0,1
117473,-66.6666666666667,4,2,0,70,0,1
121894,-100,4,2,0,70,0,1
122526,-80,4,2,0,70,0,1
123789,-66.6666666666667,4,2,0,70,0,1
125052,-80,4,2,0,70,0,1
132631,-66.6666666666667,4,2,0,60,0,0

[Colours]
Combo1 : 255,255,87
Combo2 : 0,255,255
Combo3 : 128,128,128
Combo4 : 244,66,92

[HitObjects]
382,315,10263,5,0,1:0:0:0:
376,304,10341,1,0,1:0:0:0:
377,288,10420,1,0,1:0:0:0:
391,281,10499,1,0,1:0:0:0:
406,284,10578,1,0,1:0:0:0:
421,296,10657,1,0,1:0:0:0:
429,314,10736,1,0,1:0:0:0:
428,334,10815,1,0,1:0:0:0:
420,352,10894,1,0,1:0:0:0:
395,365,10973,1,0,1:0:0:0:
367,368,11052,1,0,1:0:0:0:
332,356,11131,1,0,1:0:0:0:
308,323,11210,1,0,1:0:0:0:
278,296,11289,1,0,1:0:0:0:
230,287,11368,5,4,1:2:0:0:
235,384,11684,1,0,1:0:0:0:
8,35,11999,5,0,1:0:0:0:
241,83,12315,1,0,1:0:0:0:
12,108,12631,1,0,1:0:0:0:
237,156,12947,1,0,1:0:0:0:
19,182,13263,1,0,1:0:0:0:
230,230,13579,1,0,1:0:0:0:
23,255,13895,1,0,1:0:0:0:
226,303,14211,1,2,0:0:0:0:
30,326,14526,1,0,0:0:0:0:
256,192,21473,5,0,1:0:0:0:
256,192,22736,5,0,1:0:0:0:
256,368,23368,6,0,L|256:264,1,80,2|0,0:0|0:0,0:0:0:0:
256,16,23684,2,0,L|256:120,1,80,2|0,0:0|0:0,0:0:0:0:
256,192,23999,5,4,1:0:0:0:
256,96,24315,1,0,0:0:0:0:
160,192,24631,1,0,0:0:0:0:
256,288,24947,1,0,0:0:0:0:
352,192,25263,1,0,0:0:0:0:
4,200,27789,6,0,B|16:144|36:56|36:56|32:52|32:52|72:60|112:68|112:68|108:68|120:108|148:112|120:104|104:140|104:140|96:144|96:144|76:140|57:135|57:135|52:138|52:138|50:151|50:151|76:160|86:180|76:224|140:240,1,480,2|0,0:0|0:0,0:0:0:0:
256,192,29052,12,0,30236,3:0:0:0:
344,276,30315,5,0,1:0:0:0:
344,276,30394,1,0,1:0:0:0:
344,276,30473,1,0,1:0:0:0:
344,276,30552,1,0,1:0:0:0:
344,276,30631,1,0,1:0:0:0:
344,276,30710,1,0,1:0:0:0:
344,276,30789,1,0,1:0:0:0:
344,276,30868,1,0,1:0:0:0:
344,276,30947,1,0,1:0:0:0:
344,276,31026,1,0,1:0:0:0:
344,276,31105,1,0,1:0:0:0:
344,276,31184,1,0,1:0:0:0:
344,276,31263,1,0,1:0:0:0:
344,276,31341,1,0,1:0:0:0:
344,276,31420,1,0,1:0:0:0:
344,276,31499,1,0,1:0:0:0:
416,296,31578,6,0,L|496:296,1,80,4|0,1:2|0:0,0:0:0:0:
376,176,31894,2,0,L|296:176,1,80,10|0,1:0|0:0,0:0:0:0:
32,224,32210,1,0,1:0:0:0:
64,360,32368,1,2,0:1:0:0:
208,328,32526,1,8,1:0:0:0:
176,192,32684,1,2,0:1:0:0:
32,224,32841,6,0,L|24:312,1,80,2|0,1:1|0:0,0:0:0:0:
192,40,33157,2,0,L|184:128,1,80,10|0,1:0|0:0,0:0:0:0:
320,280,33473,2,0,L|312:368,1,80,2|0,1:0|0:0,0:0:0:0:
464,248,33710,1,0,1:0:0:0:
472,175,33789,2,0,L|480:96,1,80,8|0,1:0|1:0,0:0:0:0:
488,24,34105,1,0,1:0:0:0:
240,192,34420,6,0,L|0:176,2,240.000009155274,10|0|10,1:0|1:0|1:0,0:0:0:0:
488,24,35210,1,0,0:0:0:0:
224,40,35368,2,0,L|232:136,1,80,2|0,1:1|0:0,0:0:0:0:
400,352,35684,2,0,L|393:272,1,80,8|2,1:0|0:1,0:0:0:0:
40,160,35999,1,2,1:0:0:0:
8,296,36157,1,0,1:1:0:0:
152,328,36315,1,10,1:0:0:0:
184,192,36473,1,2,3:2:0:0:
184,192,36552,1,2,3:2:0:0:
184,192,36631,6,0,L|288:184,1,100,6|0,1:1|0:0,0:0:0:0:
493,264,36947,2,0,L|393:271,1,100,8|2,1:0|0:1,0:0:0:0:
84,199,37263,2,0,L|188:191,1,100,0|2,1:0|3:1,0:0:0:0:
408,32,37578,2,0,L|415:131,1,100,8|2,1:0|0:1,0:0:0:0:
200,344,37894,6,0,L|-8:328,2,200,2|8|2,1:0|1:0|1:0,0:0:0:0:
320,304,38684,1,0,3:0:0:0:
320,304,38763,1,0,3:0:0:0:
320,304,38841,1,8,1:0:0:0:
208,256,38999,1,2,1:1:0:0:
488,192,39157,1,4,1:2:0:0:
488,16,39315,5,2,0:1:0:0:
24,16,39631,1,2,0:1:0:0:
488,16,39947,1,2,3:1:0:0:
24,16,40263,1,2,0:1:0:0:
256,104,40420,1,0,1:0:0:0:
368,40,40578,5,2,1:2:0:0:
144,40,40736,1,8,1:0:0:0:
368,40,40894,1,2,1:2:0:0:
144,40,41052,1,0,1:0:0:0:
256,360,41289,1,0,1:0:0:0:
368,40,41526,1,2,1:2:0:0:
432,40,41605,1,0,1:0:0:0:
496,40,41684,1,4,1:2:0:0:
512,216,41841,5,2,0:1:0:0:
440,168,42157,1,2,0:1:0:0:
384,232,42473,1,2,0:1:0:0:
312,184,42789,1,2,0:1:0:0:
256,248,43105,1,2,0:1:0:0:
184,200,43421,1,2,3:1:0:0:
128,264,43737,1,2,0:1:0:0:
40,224,44053,1,2,0:1:0:0:
32,200,44131,1,0,1:0:0:0:
24,176,44210,5,0,1:0:0:0:
0,96,44368,1,2,3:1:0:0:
504,144,44684,1,2,0:1:0:0:
96,168,44999,1,2,0:1:0:0:
416,208,45315,1,2,0:1:0:0:
160,248,45631,1,2,0:1:0:0:
352,288,45947,1,2,0:1:0:0:
208,336,46263,1,2,0:1:0:0:
256,384,46420,1,8,1:0:0:0:
304,336,46578,1,2,3:1:0:0:
256,384,46736,5,4,1:2:0:0:
136,312,46894,1,2,0:1:0:0:
256,384,47052,1,8,1:0:0:0:
56,320,47210,1,2,0:1:0:0:
256,248,47368,1,0,1:0:0:0:
456,320,47526,1,2,0:1:0:0:
256,384,47684,1,8,1:0:0:0:
376,312,47842,1,2,0:1:0:0:
256,384,48000,1,0,1:0:0:0:
112,176,48157,1,2,0:1:0:0:
256,384,48315,1,8,1:0:0:0:
48,128,48473,1,2,0:1:0:0:
256,248,48631,1,0,1:0:0:0:
464,128,48789,1,2,1:1:0:0:
256,384,48947,1,8,1:0:0:0:
400,176,49105,1,2,0:1:0:0:
256,384,49262,1,0,1:0:0:0:
256,316,49420,1,2,0:1:0:0:
256,248,49578,1,8,1:0:0:0:
256,176,49736,1,2,3:1:0:0:
256,108,49894,1,0,1:0:0:0:
256,40,50052,1,2,3:1:0:0:
192,72,50210,1,8,1:0:0:0:
320,72,50368,1,2,0:1:0:0:
500,72,50526,5,4,1:0:0:0:
256,40,50684,1,0,1:0:0:0:
256,72,50763,1,0,1:0:0:0:
256,108,50841,1,0,1:0:0:0:
192,72,50999,1,0,1:0:0:0:
320,72,51157,1,0,1:0:0:0:
104,72,51315,1,0,1:0:0:0:
408,72,51473,1,0,1:0:0:0:
12,72,51631,5,2,1:2:0:0:
12,72,51789,1,0,1:0:0:0:
256,40,51947,1,2,0:0:0:0:
288,280,52105,1,2,0:0:0:0:
44,312,52263,1,2,0:0:0:0:
256,40,52578,6,2,L|272:184,1,120.000004577637,4|0,1:2|0:0,0:1:0:0:
500,72,52894,5,0,1:2:0:0:
500,72,53052,1,0,1:0:0:0:
256,40,53210,1,4,1:2:0:0:
224,280,53368,1,2,0:0:0:0:
468,312,53526,1,2,0:0:0:0:
256,40,53841,6,2,L|240:184,1,120.000004577637,4|0,1:2|0:0,0:1:0:0:
12,312,54157,5,2,0:0:0:0:
12,312,54315,1,4,1:2:0:0:
44,72,54473,1,0,1:0:0:0:
288,104,54631,1,2,0:0:0:0:
256,344,54789,1,2,0:0:0:0:
256,344,55104,6,2,L|272:200,1,120.000004577637,4|0,1:2|0:0,0:1:0:0:
500,312,55420,5,0,1:2:0:0:
500,312,55578,1,4,1:2:0:0:
468,72,55736,1,0,1:2:0:0:
224,104,55894,1,2,0:0:0:0:
256,344,56052,1,0,1:2:0:0:
336,360,56210,6,0,P|354:302|352:240,1,120.000004577637,6|0,1:1|0:0,0:1:0:0:
176,360,56447,2,0,P|157:302|160:240,1,120.000004577637,6|0,1:1|0:0,0:1:0:0:
256,264,56684,2,0,L|256:192,1,60.0000022888184,6|0,1:0|0:0,0:0:0:0:
200,40,56841,5,4,1:2:0:0:
120,128,56999,1,2,0:0:0:0:
312,40,57157,1,2,0:0:0:0:
8,128,57315,1,2,0:0:0:0:
504,128,57631,2,2,L|368:128,1,120.000004577637,4|0,1:2|0:0,0:1:0:0:
8,256,57947,5,0,1:2:0:0:
312,344,58105,1,0,1:0:0:0:
392,256,58263,1,4,1:2:0:0:
200,344,58421,1,2,0:0:0:0:
504,256,58579,1,2,0:0:0:0:
128,256,58894,2,2,L|8:256,1,120.000004577637,4|0,1:2|0:0,0:1:0:0:
256,21,59210,5,2,0:0:0:0:
256,21,59368,1,0,1:2:0:0:
94,183,59526,1,0,1:0:0:0:
256,344,59684,1,6,0:0:0:0:
417,183,59842,1,2,0:0:0:0:
256,184,59999,1,2,0:0:0:0:
152,80,60157,6,0,L|180:108,1,40,2|2,0:0|0:0,0:0:0:0:
360,80,60473,2,0,L|331:108,1,40,2|2,0:0|0:0,0:0:0:0:
360,288,60789,2,0,L|331:259,1,40,2|2,0:0|0:0,0:0:0:0:
152,288,61105,2,0,L|180:259,1,40,2|0,0:0|0:0,0:0:0:0:
256,184,61420,1,2,0:0:0:0:
256,184,61578,1,2,0:0:0:0:
16,96,61894,5,2,0:0:0:0:
256,96,62210,1,2,0:0:0:0:
16,96,62526,1,2,0:0:0:0:
136,96,62684,1,2,0:0:0:0:
256,96,62841,1,2,0:0:0:0:
136,96,62999,1,2,0:0:0:0:
64,168,63157,5,2,0:0:0:0:
208,168,63315,1,0,0:0:0:0:
208,24,63473,1,2,0:0:0:0:
64,24,63631,1,0,0:0:0:0:
208,24,63789,1,2,0:0:0:0:
208,168,63947,1,0,0:0:0:0:
64,168,64105,1,2,0:0:0:0:
136,96,64263,1,2,0:0:0:0:
256,96,64420,5,2,0:0:0:0:
496,96,64736,1,2,0:0:0:0:
256,96,65052,1,2,0:0:0:0:
496,96,65210,1,2,0:0:0:0:
376,24,65367,1,2,0:0:0:0:
376,168,65525,1,2,0:0:0:0:
136,96,65684,6,0,P|144:48|160:16,1,80,2|0,3:2|3:0,0:0:0:0:
376,288,65999,2,0,P|368:336|352:368,1,80,2|0,3:2|3:0,0:0:0:0:
128,96,66315,2,0,P|136:48|152:16,1,80,2|0,3:2|3:0,0:0:0:0:
384,288,66630,2,0,P|376:336|360:368,1,80,2|0,3:2|3:0,0:0:0:0:
256,192,66947,5,0,1:2:0:0:
256,192,67263,1,0,1:2:0:0:
32,192,67578,5,0,1:2:0:0:
256,192,67736,1,0,1:2:0:0:
480,192,67894,1,0,1:2:0:0:
256,192,68210,1,0,1:2:0:0:
176,192,68368,1,0,1:2:0:0:
256,192,68447,1,0,1:2:0:0:
336,192,68526,1,0,1:2:0:0:
104,192,68684,1,0,1:2:0:0:
408,192,68841,1,0,1:2:0:0:
104,192,68999,1,0,1:2:0:0:
408,192,69156,1,0,1:2:0:0:
256,192,69473,5,0,1:2:0:0:
256,192,69789,1,0,1:2:0:0:
224,280,70026,1,0,1:2:0:0:
288,280,70105,1,0,1:2:0:0:
192,368,70263,1,0,1:2:0:0:
256,368,70342,1,0,1:2:0:0:
320,368,70420,1,0,1:2:0:0:
256,96,70578,1,0,1:2:0:0:
48,64,70736,6,0,L|16:24,1,40,0|0,1:2|1:2,0:0:0:0:
128,128,70894,2,0,L|104:72,1,40,0|0,1:2|1:2,0:0:0:0:
192,216,71052,2,0,L|184:168,1,40,0|0,1:0|1:2,0:0:0:0:
224,320,71210,2,0,L|224:272,1,40,0|0,1:2|1:2,0:0:0:0:
288,320,71368,6,0,L|288:280,1,40,0|0,1:2|1:2,0:0:0:0:
320,216,71526,2,0,L|326:176,1,40,0|0,1:2|1:0,0:0:0:0:
384,128,71684,2,0,L|399:91,1,40,0|0,1:0|1:2,0:0:0:0:
464,64,71842,2,0,L|488:32,1,40,0|0,1:2|1:2,0:0:0:0:
496,192,71999,6,0,L|400:192,1,80,4|0,1:2|0:0,0:0:0:0:
496,264,72315,2,0,L|400:264,1,80,8|0,1:0|0:0,0:0:0:0:
496,336,72631,2,0,L|400:336,1,80,0|2,1:0|0:0,0:0:0:0:
384,336,72868,1,2,0:0:0:0:
352,336,72947,1,8,1:0:0:0:
352,192,73105,1,0,0:0:0:0:
280,336,73263,2,0,L|280:248,1,80,0|2,1:0|0:0,0:0:0:0:
280,224,73499,1,0,0:0:0:0:
280,192,73578,1,8,1:0:0:0:
352,264,73736,1,2,0:0:0:0:
208,192,73894,5,2,1:0:0:0:
208,264,74052,5,2,1:0:0:0:
208,336,74210,5,10,1:0:0:0:
8,24,74526,6,0,L|104:24,1,80,0|0,1:0|0:0,0:0:0:0:
8,96,74842,2,0,L|104:96,1,80,8|0,1:0|0:0,0:0:0:0:
8,168,75158,2,0,L|104:168,1,80,0|2,1:0|0:0,0:0:0:0:
120,168,75395,1,2,0:0:0:0:
152,168,75474,1,8,1:0:0:0:
152,24,75632,1,2,0:0:0:0:
224,168,75790,2,0,L|224:80,1,80,0|2,1:0|0:0,0:0:0:0:
224,56,76026,1,2,0:0:0:0:
224,24,76105,1,8,1:0:0:0:
152,96,76263,1,2,0:0:0:0:
296,168,76421,5,2,1:0:0:0:
296,96,76579,5,2,1:0:0:0:
296,24,76737,5,10,1:0:0:0:
440,96,76894,1,2,1:2:0:0:
368,360,77052,6,0,L|280:360,1,80,4|2,1:2|0:0,0:0:0:0:
256,360,77289,1,2,0:0:0:0:
224,360,77368,1,8,1:0:0:0:
256,224,77526,1,2,0:0:0:0:
144,288,77684,2,0,L|232:288,1,80,2|0,1:2|0:0,0:0:0:0:
368,160,77999,2,0,L|280:160,1,80,8|0,1:0|0:0,0:0:0:0:
160,160,78315,1,0,1:0:0:0:
352,288,78473,1,2,0:0:0:0:
224,160,78631,1,8,1:0:0:0:
288,288,78789,1,2,0:0:0:0:
352,32,78947,5,2,1:0:0:0:
288,32,79026,1,2,3:2:0:0:
256,96,79105,1,2,3:1:0:0:
224,160,79184,1,2,3:2:0:0:
160,160,79263,1,10,1:0:0:0:
144,360,79578,6,0,L|232:360,1,80,0|2,1:0|0:0,0:0:0:0:
256,360,79815,1,2,0:0:0:0:
288,360,79894,1,8,1:0:0:0:
256,288,80052,1,2,0:0:0:0:
32,360,80210,5,0,1:0:0:0:
32,296,80368,1,2,0:0:0:0:
32,232,80526,1,8,1:0:0:0:
32,168,80684,1,2,0:0:0:0:
192,216,80841,6,0,L|184:168,1,40,2|0,1:2|0:0,0:0:0:0:
224,320,80999,2,0,L|224:272,1,40,2|0,0:0|0:0,0:0:0:0:
288,320,81157,6,0,L|288:280,1,40,6|0,0:0|0:0,0:0:0:0:
320,216,81315,2,0,L|326:176,1,40,2|0,0:0|0:0,0:0:0:0:
384,128,81473,2,0,L|399:91,1,40,6|0,0:0|0:0,0:0:0:0:
464,64,81631,2,0,L|488:32,1,40,0|0,1:0|1:0,0:0:0:0:
128,128,81789,6,0,L|104:72,1,40,4|0,1:2|1:0,0:0:0:0:
48,64,81947,2,0,L|16:24,1,40,0|0,1:0|1:0,0:0:0:0:
216,24,82105,5,4,1:2:0:0:
296,56,82263,1,2,0:0:0:0:
296,56,82341,1,2,0:0:0:0:
296,56,82420,1,2,0:0:0:0:
216,96,82578,1,2,0:0:0:0:
296,128,82736,1,2,0:0:0:0:
216,168,82894,1,2,0:0:0:0:
296,200,83052,1,2,0:0:0:0:
112,368,83210,5,2,0:0:0:0:
400,320,83368,1,4,1:2:0:0:
112,288,83526,1,4,1:2:0:0:
112,288,83605,1,2,0:0:0:0:
112,288,83684,1,2,0:0:0:0:
400,240,83841,1,2,0:0:0:0:
32,192,83999,5,2,0:0:0:0:
256,288,84157,1,2,0:0:0:0:
480,192,84315,1,2,0:0:0:0:
256,96,84473,1,2,0:0:0:0:
296,24,84631,5,4,1:2:0:0:
216,56,84789,1,2,0:0:0:0:
216,56,84867,1,2,0:0:0:0:
216,56,84946,1,2,0:0:0:0:
296,96,85104,1,2,0:0:0:0:
216,128,85262,1,2,0:0:0:0:
296,168,85420,1,2,0:0:0:0:
216,200,85578,1,2,0:0:0:0:
400,368,85736,5,4,1:2:0:0:
112,320,85894,1,6,1:1:0:0:
400,288,86052,1,2,0:0:0:0:
400,288,86131,1,2,0:0:0:0:
400,288,86210,1,6,1:1:0:0:
112,240,86367,1,2,0:0:0:0:
400,208,86526,1,6,1:1:0:0:
112,160,86683,1,2,0:0:0:0:
400,128,86841,1,4,1:2:0:0:
112,80,86998,1,2,0:1:0:0:
400,48,87157,1,0,1:0:0:0:
480,0,87315,6,0,L|480:112,1,100,2|8,0:1|1:0,0:0:0:0:
320,0,87631,2,0,L|320:112,1,100,2|0,0:1|1:0,0:0:0:0:
480,0,87947,2,0,L|480:112,1,100,2|8,0:1|1:0,0:0:0:0:
320,0,88263,2,0,L|320:112,1,100,2|0,0:1|1:0,0:0:0:0:
480,0,88578,2,0,L|480:112,1,100,2|8,0:1|1:0,0:0:0:0:
320,0,88894,2,0,L|320:112,1,100,2|0,0:1|1:0,0:0:0:0:
480,0,89210,2,0,L|480:112,1,100,2|8,0:1|1:0,0:0:0:0:
320,0,89526,1,2,0:1:0:0:
256,192,89684,5,0,1:0:0:0:
32,0,89841,6,0,L|32:112,1,100,2|8,3:1|1:0,0:0:0:0:
184,8,90157,2,0,L|184:120,1,100,2|0,0:1|1:0,0:0:0:0:
40,8,90473,2,0,L|40:120,1,100,2|8,0:1|1:0,0:0:0:0:
176,16,90789,2,0,L|176:128,1,100,2|0,0:1|1:0,0:0:0:0:
48,16,91105,2,0,L|48:128,1,100,2|8,0:1|1:0,0:0:0:0:
168,24,91420,2,0,L|168:136,1,100,2|0,0:1|1:0,0:0:0:0:
56,24,91736,2,0,L|56:136,1,100,2|8,0:1|1:0,0:0:0:0:
160,32,92052,1,2,3:2:0:0:
256,192,92210,5,4,1:2:0:0:
392,256,92368,1,2,0:1:0:0:
256,192,92526,1,8,1:0:0:0:
120,256,92684,1,2,0:1:0:0:
256,192,92841,1,0,1:0:0:0:
472,280,92999,1,2,3:1:0:0:
464,320,93078,1,0,1:0:0:0:
456,360,93157,1,8,1:0:0:0:
256,312,93315,1,2,0:1:0:0:
392,256,93473,1,0,1:0:0:0:
56,360,93631,1,2,0:1:0:0:
48,320,93710,1,2,0:0:0:0:
40,280,93789,1,8,1:0:0:0:
256,312,93947,1,2,0:1:0:0:
120,256,94105,1,0,1:0:0:0:
112,216,94184,1,0,3:0:0:0:
104,176,94263,1,2,1:1:0:0:
96,136,94341,1,0,1:0:0:0:
88,96,94420,1,8,1:0:0:0:
256,32,94578,1,2,0:1:0:0:
192,56,94736,5,0,1:0:0:0:
320,56,94894,1,2,0:1:0:0:
128,32,95052,1,8,1:0:0:0:
384,32,95210,1,2,3:1:0:0:
64,72,95368,1,0,1:0:0:0:
448,72,95526,1,2,3:1:0:0:
0,16,95684,1,8,1:0:0:0:
512,16,95841,1,2,0:1:0:0:
256,192,95999,5,0,1:0:0:0:
392,368,96315,1,4,1:2:0:0:
256,368,96631,1,4,1:2:0:0:
120,368,96947,1,4,1:2:0:0:
8,88,97263,6,0,L|8:192,2,100,4|2|2,1:2|0:0|0:0,0:0:0:0:
80,48,97736,2,0,P|152:48|224:152,2,200,2|2|2,0:0|0:0|0:0,0:0:0:0:
136,296,98684,1,2,0:0:0:0:
0,336,98841,2,0,L|216:336,1,200,2|2,0:0|0:0,0:0:0:0:
264,256,99315,2,0,L|464:256,1,200,2|2,0:0|0:0,0:0:0:0:
504,88,99789,6,0,L|504:192,2,100,2|2|2,1:2|0:0|0:0,0:0:0:0:
432,48,100262,2,0,P|360:48|288:152,2,200,2|2|2,0:0|0:0|0:0,0:0:0:0:
392,144,101052,5,0,1:0:0:0:
256,360,101210,1,2,0:0:0:0:
120,144,101368,1,0,1:0:0:0:
256,232,101526,1,2,0:0:0:0:
256,232,101684,1,4,1:2:0:0:
256,24,101999,6,0,L|256:96,1,50,2|0,0:0|0:0,0:0:0:0:
16,328,102315,6,0,L|120:336,1,100,4|0,1:2|0:0,0:0:0:0:
176,224,102631,2,0,L|76:216,1,100,8|0,1:0|0:0,0:0:0:0:
192,360,102947,2,0,L|296:368,1,100,0|0,1:0|0:0,0:0:0:0:
336,352,103184,1,2,0:0:0:0:
376,336,103263,1,8,1:0:0:0:
464,344,103420,1,0,0:0:0:0:
472,256,103578,5,0,1:0:0:0:
320,136,103736,1,2,0:0:0:0:
408,112,103894,2,0,P|408:168|384:206,1,100,8|0,1:0|0:0,0:0:0:0:
256,64,104210,1,0,1:0:0:0:
125,204,104368,2,0,P|102:161|104:112,1,100,0|8,1:0|1:0,0:0:0:0:
192,136,104683,1,0,0:0:0:0:
320,136,104841,5,4,1:2:0:0:
256,64,104999,1,0,0:0:0:0:
192,136,105157,1,8,1:0:0:0:
256,208,105315,1,0,0:0:0:0:
432,136,105473,5,4,1:2:0:0:
256,64,105631,1,0,0:0:0:0:
80,136,105789,1,8,1:0:0:0:
256,208,105947,1,0,0:0:0:0:
256,64,106105,5,6,1:2:0:0:
368,264,106263,5,2,1:2:0:0:
336,304,106341,1,2,1:2:0:0:
288,288,106420,1,12,1:0:0:0:
256,328,106499,1,2,1:2:0:0:
224,288,106578,1,2,1:2:0:0:
176,304,106657,1,2,1:2:0:0:
144,264,106736,1,6,1:2:0:0:
16,104,107052,5,2,0:0:0:0:
80,24,107210,1,2,0:0:0:0:
168,80,107368,2,0,L|312:80,1,120.000004577637,4|0,1:2|0:0,0:0:0:0:
496,24,107684,2,0,L|376:24,1,120.000004577637,10|0,1:0|0:0,0:0:0:0:
168,184,107999,1,0,1:0:0:0:
208,288,108157,1,2,0:1:0:0:
296,344,108315,1,8,1:0:0:0:
400,352,108473,1,2,0:1:0:0:
512,352,108631,6,0,L|512:224,1,120.000004577637,2|0,1:0|0:0,0:0:0:0:
352,152,108947,2,0,L|352:272,1,120.000004577637,10|0,1:0|0:0,0:0:0:0:
168,352,109263,2,0,L|168:224,1,120.000004577637,2|0,1:0|0:0,0:0:0:0:
72,112,109499,1,0,1:0:0:0:
8,152,109579,2,0,L|8:272,1,120.000004577637,8|0,1:0|1:0,0:0:0:0:
8,344,109894,1,0,1:0:0:0:
256,128,110210,6,0,L|504:128,2,240.000009155274,10|0|10,1:0|1:0|1:0,0:0:0:0:
168,192,110999,1,0,3:0:0:0:
16,40,111157,2,0,L|256:40,1,240.000009155274,2|8,1:1|1:0,0:0:0:0:
344,192,111631,1,2,0:1:0:0:
168,192,111789,5,2,1:0:0:0:
448,224,111947,1,0,1:1:0:0:
344,192,112105,1,10,1:0:0:0:
64,224,112263,1,2,3:2:0:0:
48,192,112341,1,2,1:2:0:0:
32,152,112420,6,0,L|32:32,1,100,6|0,1:1|0:0,0:0:0:0:
256,192,112736,1,8,1:0:0:0:
64,324,112894,2,0,L|64:204,1,100,2|0,0:1|1:0,0:0:0:0:
288,264,113210,1,2,3:1:0:0:
304,304,113289,1,2,1:2:0:0:
288,344,113368,1,8,1:0:0:0:
136,304,113526,1,2,0:1:0:0:
308,136,113684,6,0,L|408:136,1,100,2|2,1:0|0:0,0:0:0:0:
208,64,113999,2,0,L|108:64,1,100,10|2,1:0|0:0,0:0:0:0:
376,32,114315,1,2,1:0:0:0:
408,192,114473,1,2,1:2:0:0:
240,224,114631,1,8,1:0:0:0:
208,64,114789,1,2,3:2:0:0:
480,152,114947,6,0,L|480:32,1,100,6|0,1:1|0:0,0:0:0:0:
256,136,115263,1,10,1:0:0:0:
448,324,115421,2,0,L|448:204,1,100,2|0,0:1|1:0,0:0:0:0:
240,224,115737,1,2,3:1:0:0:
224,264,115816,1,0,1:0:0:0:
240,304,115895,1,8,1:0:0:0:
400,168,116053,1,2,0:1:0:0:
304,64,116210,5,6,1:1:0:0:
304,352,116368,1,2,1:2:0:0:
208,64,116526,1,14,1:0:0:0:
208,352,116684,1,2,1:2:0:0:
104,160,116841,2,0,L|224:160,1,100,6|2,1:1|1:2,0:0:0:0:
256,112,117078,1,0,1:0:0:0:
308,160,117157,2,0,L|408:160,1,100,14|2,1:0|0:0,0:0:0:0:
512,64,117473,6,0,L|368:64,1,120.000004577637,6|0,1:1|1:0,0:0:0:0:
16,24,117789,2,0,L|136:24,1,120.000004577637,10|0,1:1|0:0,0:0:0:0:
344,184,118104,1,0,1:0:0:0:
304,288,118262,1,2,0:1:0:0:
216,344,118420,1,8,1:0:0:0:
112,352,118578,1,2,0:1:0:0:
0,352,118736,6,0,L|0:224,1,120.000004577637,2|0,1:0|0:0,0:0:0:0:
160,152,119052,2,0,L|160:272,1,120.000004577637,10|0,1:0|0:0,0:0:0:0:
344,352,119368,2,0,L|344:224,1,120.000004577637,2|0,1:0|0:0,0:0:0:0:
440,112,119604,1,0,1:0:0:0:
504,152,119684,2,0,L|504:272,1,120.000004577637,8|0,1:0|1:0,0:0:0:0:
504,344,119999,1,4,1:2:0:0:
256,128,120315,6,0,L|8:128,2,240.000009155274,10|0|10,1:0|1:0|1:0,0:0:0:0:
344,192,121104,1,0,3:0:0:0:
496,40,121262,2,0,L|256:40,1,240.000009155274,2|8,1:1|1:0,0:0:0:0:
168,192,121736,1,2,0:1:0:0:
344,192,121894,5,2,1:0:0:0:
256,352,122052,1,0,1:1:0:0:
256,320,122131,1,2,1:2:0:0:
256,288,122210,1,10,1:0:0:0:
168,192,122368,1,2,1:2:0:0:
480,152,122526,6,0,L|480:32,1,100,6|0,1:1|0:0,0:0:0:0:
256,192,122841,1,8,1:0:0:0:
448,324,122999,2,0,L|448:204,1,100,2|0,0:1|1:0,0:0:0:0:
224,264,123315,1,2,3:1:0:0:
208,304,123394,1,2,1:2:0:0:
224,344,123473,1,8,1:0:0:0:
376,304,123631,1,2,0:1:0:0:
336,192,123789,6,0,L|80:192,1,240.000009155274,6|8,1:1|1:0,0:0:0:0:
200,24,124420,2,0,L|456:24,1,240.000009155274,2|8,1:1|1:0,0:0:0:0:
256,136,124894,1,8,1:0:0:0:
32,152,125052,6,0,L|32:32,1,100,6|0,1:1|0:0,0:0:0:0:
256,136,125368,1,10,1:0:0:0:
64,324,125526,2,0,L|64:204,1,100,2|0,0:1|1:0,0:0:0:0:
272,224,125842,1,2,1:1:0:0:
288,264,125921,1,0,1:0:0:0:
272,304,126000,1,8,1:0:0:0:
112,168,126158,1,2,1:1:0:0:
208,64,126315,5,6,1:1:0:0:
208,352,126473,1,0,1:0:0:0:
304,64,126631,1,8,1:0:0:0:
304,352,126789,1,0,1:0:0:0:
308,160,126947,1,2,1:1:0:0:
256,112,127026,1,0,1:0:0:0:
204,160,127105,1,0,1:0:0:0:
456,112,127263,1,8,1:0:0:0:
56,112,127420,1,6,1:1:0:0:
256,192,127499,12,0,132631,1:0:0:0:
