osu file format v14

[General]
AudioFilename: audio.mp3
AudioLeadIn: 0
PreviewTime: 107052
Countdown: 0
SampleSet: Soft
StackLeniency: 0
Mode: 0
LetterboxInBreaks: 0
WidescreenStoryboard: 1

[Editor]
Bookmarks: 31578,51789,71999,87157,97263,107368,127578
DistanceSpacing: 1
BeatDivisor: 4
GridSize: 4
TimelineZoom: 2

[Metadata]
Title:R176 [Short Edit]
TitleUnicode:R176 [Short Edit]
Artist:Cranky
ArtistUnicode:Cranky
Creator:AJT
Version:Sonnyc's EX
Source:
Tags:electronic instrumental trance happy hardcore feline groove owc2023gffm3 osu! world cup owc 2023 grand finals fm3 fa featured artist Niva Nivalis Sonnyc fanzhen0019 Ascended yf_bmp
BeatmapID:4416884
BeatmapSetID:2095168

[Difficulty]
HPDrainRate:5
CircleSize:4.7
OverallDifficulty:8
ApproachRate:8
SliderMultiplier:2
SliderTickRate:2

[Events]
//Background and Video events
0,0,"bg.jpg",0,0
//Break Periods
//Storyboard Layer 0 (Background)
//Storyboard Layer 1 (Fail)
//Storyboard Layer 2 (Pass)
//Storyboard Layer 3 (Foreground)
//Storyboard Layer 4 (Overlay)
//Storyboard Sound Samples

[TimingPoints]
1263,315.789473684211,4,2,0,50,1,0
27473,-100,4,2,0,5,0,0
29052,-100,4,2,0,50,0,0
31578,-100,4,2,0,70,0,0
41684,-100,4,2,0,60,0,0
50526,-100,4,2,0,50,0,0
51631,-66.6666666666667,4,2,0,70,0,0
59999,-133.333333333333,4,2,0,40,0,0
61894,-100,4,2,0,45,0,0
66947,-100,4,2,0,50,0,0
71999,-100,4,2,0,60,0,0
82105,-100,4,2,0,50,0,0
102315,-100,4,2,0,60,0,0
107368,-66.6666666666667,4,2,0,70,0,1
132631,-100,4,2,0,60,0,0

[Colours]
Combo1 : 255,255,87
Combo2 : 0,255,255
Combo3 : 128,128,128
Combo4 : 244,66,92

[HitObjects]
256,192,21473,5,4,1:2:0:0:
256,192,22736,1,4,1:2:0:0:
256,192,23999,1,4,0:0:0:0:
256,192,24078,12,0,27473,0:0:0:0:
85,22,29052,6,0,L|94:77,15,50,2|0|0|0|0|0|0|0|0|0|0|0|0|0|0|0,3:1|3:0|3:0|3:0|3:0|3:0|3:0|3:0|3:0|3:0|3:0|3:0|3:0|3:0|3:0|3:0,0:0:0:0:
184,145,30315,2,0,L|131:125,3,50,2|0|0|0,3:1|3:0|3:0|3:0,0:0:0:0:
27,173,30631,2,0,L|70:137,3,50,8|0|0|0,1:0|3:0|3:0|3:0,0:0:0:0:
115,200,30947,1,0,1:0:0:0:
118,221,31026,1,0,1:0:0:0:
121,242,31105,1,0,1:0:0:0:
125,263,31184,1,0,1:0:0:0:
128,284,31263,1,8,1:0:0:0:
132,306,31341,1,0,1:0:0:0:
135,327,31420,1,0,1:0:0:0:
360,384,31578,6,0,P|409:385|443:337,1,100,4|0,1:0|0:0,0:0:0:0:
348,260,31894,2,0,P|299:258|267:294,1,100,10|0,1:0|0:0,0:0:0:0:
435,162,32210,1,2,1:0:0:0:
337,75,32368,1,2,0:0:0:0:
250,173,32526,1,8,1:0:0:0:
348,260,32684,1,2,0:0:0:0:
167,356,32841,6,0,L|49:378,1,100,2|2,1:0|0:0,0:0:0:0:
0,261,33157,2,0,L|98:242,1,100,10|2,1:0|0:0,0:0:0:0:
225,136,33473,2,0,L|166:125,1,50,2|2,1:0|0:0,0:0:0:0:
109,8,33710,2,0,L|158:17,1,50,0|8,1:0|0:1,0:0:0:0:
283,42,33947,1,2,0:0:0:0:
195,230,34105,6,0,P|227:266|275:264,1,100,0|2,1:2|0:0,0:0:0:0:
488,61,34420,2,0,P|409:88|384:292,1,300,10|2,1:0|0:0,0:0:0:0:
512,384,35052,2,0,P|479:347|431:349,1,100,10|2,1:0|0:0,0:0:0:0:
203,308,35368,2,0,L|506:258,1,300,2|2,1:0|0:0,0:0:0:0:
362,40,35999,1,2,1:0:0:0:
239,78,36157,1,2,0:0:0:0:
333,165,36315,1,8,1:0:0:0:
203,308,36473,5,0,0:0:0:0:
203,308,36552,1,0,0:0:0:0:
203,308,36631,2,0,P|154:309|122:273,1,100,6|2,1:0|0:0,0:0:0:0:
202,168,36947,1,8,1:0:0:0:
68,64,37105,2,0,L|87:187,1,100,2|0,0:1|1:0,0:0:0:0:
0,115,37420,2,0,L|19:238,1,100,2|8,0:1|1:0,0:0:0:0:
272,272,37736,5,2,0:1:0:0:
206,354,37894,2,0,P|275:382|464:259,1,300,2|2,1:0|0:0,0:0:0:0:
389,57,38526,2,0,P|245:33|138:130,1,300,2|2,1:0|0:1,0:0:0:0:
138,257,39157,1,4,1:0:0:0:
415,160,39315,6,0,L|518:184,1,100,2|0,0:1|1:0,0:0:0:0:
349,202,39631,2,0,L|325:305,1,100,2|0,0:1|1:0,0:0:0:0:
377,88,39947,2,0,L|401:-15,1,100,2|0,0:1|1:0,0:0:0:0:
310,129,40263,2,0,L|207:105,1,100,2|0,0:1|1:0,0:0:0:0:
512,182,40578,5,0,1:0:0:0:
512,182,40736,2,0,L|414:159,1,100,0|2,1:1|0:1,0:0:0:0:
310,129,40973,1,0,0:0:0:0:
310,129,41052,2,0,L|207:105,1,100,0|2,1:1|1:1,0:0:0:0:
108,76,41289,1,0,0:0:0:0:
108,76,41368,2,0,L|5:52,1,100,0|2,1:1|1:1,0:0:0:0:
256,192,41684,5,4,1:0:0:0:
112,276,41841,5,2,0:1:0:0:
112,276,41999,1,0,1:0:0:0:
233,355,42157,1,2,0:1:0:0:
233,355,42315,1,0,1:0:0:0:
370,310,42473,1,2,0:1:0:0:
370,310,42631,1,0,1:0:0:0:
420,176,42789,1,2,0:1:0:0:
420,176,42947,1,0,1:0:0:0:
346,52,43105,1,2,0:1:0:0:
346,52,43263,1,0,1:0:0:0:
203,33,43420,1,2,0:1:0:0:
203,33,43578,1,0,1:0:0:0:
100,133,43736,1,2,0:1:0:0:
100,133,43815,1,0,0:0:0:0:
100,133,43894,1,0,1:0:0:0:
112,276,44052,1,2,0:1:0:0:
256,192,44210,5,4,1:0:0:0:
461,264,44368,5,2,0:1:0:0:
381,231,44526,1,0,1:0:0:0:
335,350,44684,1,2,0:1:0:0:
302,278,44841,1,0,1:0:0:0:
176,350,44999,1,2,0:1:0:0:
209,278,45157,1,0,1:0:0:0:
50,264,45315,1,2,0:1:0:0:
130,231,45473,1,0,1:0:0:0:
88,120,45631,1,2,0:1:0:0:
168,153,45789,1,0,1:0:0:0:
188,32,45947,1,2,0:1:0:0:
221,104,46105,1,0,1:0:0:0:
324,32,46263,1,2,0:1:0:0:
291,104,46420,1,0,1:0:0:0:
424,120,46578,1,2,0:1:0:0:
424,120,46657,1,0,0:0:0:0:
424,120,46736,1,4,1:0:0:0:
304,272,46894,6,0,P|344:264|384:304,1,100,2|0,0:1|1:0,0:0:0:0:
208,112,47210,2,0,P|168:120|128:80,1,100,2|0,0:1|1:0,0:0:0:0:
336,144,47526,2,0,P|328:104|368:64,1,100,2|0,0:1|1:0,0:0:0:0:
176,240,47841,2,0,P|184:280|144:320,1,100,2|0,0:1|1:0,0:0:0:0:
337,237,48157,2,0,P|368:210|422:224,1,100,2|0,0:1|1:0,0:0:0:0:
254,98,48473,2,0,P|215:85|201:31,1,100,2|0,0:1|1:0,0:0:0:0:
224,36,48710,1,0,3:0:0:0:
244,50,48789,1,2,3:2:0:0:
254,73,48868,1,0,3:0:0:0:
253,98,48947,1,0,1:0:0:0:
72,168,49105,1,2,0:1:0:0:
256,359,49263,5,0,1:0:0:0:
330,266,49420,1,2,0:1:0:0:
423,192,49578,1,0,1:0:0:0:
330,116,49736,1,2,0:1:0:0:
255,24,49894,1,0,1:0:0:0:
180,116,50052,1,2,0:1:0:0:
88,192,50210,1,0,1:0:0:0:
180,266,50368,1,2,0:1:0:0:
256,192,50526,5,4,1:2:0:0:
256,192,50684,1,2,3:0:0:0:
256,192,50763,1,2,3:0:0:0:
256,192,50841,1,4,3:2:0:0:
256,192,50999,1,2,3:0:0:0:
256,192,51157,1,4,3:2:0:0:
256,192,51315,1,2,3:0:0:0:
256,192,51473,1,4,3:2:0:0:
435,370,51631,5,0,0:0:0:0:
363,226,51789,1,4,1:2:0:0:
505,300,51947,1,2,0:0:0:0:
346,321,52105,1,2,0:0:0:0:
461,211,52263,1,0,0:0:0:0:
256,40,52578,2,0,L|256:344,1,300.000011444092,6|0,1:0|0:0,0:0:0:0:
7,300,53052,5,4,1:2:0:0:
149,226,53210,1,2,1:2:0:0:
77,370,53368,1,0,0:0:0:0:
51,211,53526,1,0,0:0:0:0:
256,40,53841,2,0,L|256:344,1,300.000011444092,6|0,1:0|0:0,0:0:0:0:
512,192,54315,5,4,1:2:0:0:
364,126,54473,1,2,0:0:0:0:
472,85,54631,1,2,0:0:0:0:
406,233,54789,1,0,0:0:0:0:
256,40,55105,2,0,L|256:344,1,300.000011444092,6|0,1:0|0:0,0:0:0:0:
0,192,55578,5,4,1:2:0:0:
40,85,55736,1,2,0:0:0:0:
148,126,55894,1,2,0:0:0:0:
106,233,56052,1,0,0:0:0:0:
148,340,56210,1,6,1:0:0:0:
445,233,56447,1,6,1:0:0:0:
148,126,56684,1,6,1:0:0:0:
231,54,56841,5,4,1:2:0:0:
342,53,56999,1,2,0:0:0:0:
426,124,57157,1,2,0:0:0:0:
446,232,57315,1,0,0:0:0:0:
32,192,57631,2,0,L|336:192,1,300.000011444092,6|0,1:0|0:0,0:0:0:0:
280,329,58105,5,4,1:2:0:0:
169,330,58263,1,2,0:0:0:0:
85,259,58420,1,2,0:0:0:0:
65,151,58578,1,0,0:0:0:0:
480,192,58894,2,0,L|180:192,1,300.000011444092,6|0,1:0|0:0,0:0:0:0:
308,4,59368,5,6,1:2:0:0:
171,104,59526,1,2,0:0:0:0:
203,4,59684,1,2,0:0:0:0:
340,104,59841,1,0,0:0:0:0:
255,165,59999,5,2,0:0:0:0:
255,165,60157,1,0,0:0:0:0:
256,240,60315,1,2,0:0:0:0:
256,240,60473,1,0,0:0:0:0:
192,288,60631,2,0,P|240:320|320:288,2,150.000005722046,2|2|2,0:0|0:0|0:0,0:0:0:0:
120,320,61420,1,2,0:1:0:0:
392,320,61578,1,4,0:2:0:0:
8,40,61894,6,0,P|56:72|56:112,1,100,8|0,0:0|0:0,0:0:0:0:
120,176,62210,2,0,P|168:144|168:104,1,100,8|0,0:0|0:0,0:0:0:0:
232,40,62526,1,8,0:0:0:0:
256,128,62684,1,0,0:0:0:0:
320,64,62841,1,8,0:0:0:0:
344,152,62999,1,0,0:0:0:0:
280,216,63157,1,8,0:0:0:0:
280,216,63315,2,0,P|232:248|232:288,1,100,0|8,0:0|0:0,0:0:0:0:
288,360,63631,1,0,0:0:0:0:
288,360,63789,2,0,P|336:328|336:288,1,100,8|0,0:0|0:0,0:0:0:0:
408,232,64105,1,8,0:0:0:0:
168,48,64420,6,0,P|240:40|296:144,2,200,8|8|8,0:0|0:0|0:0,0:0:0:0:
96,104,65210,1,0,0:0:0:0:
96,192,65368,1,8,0:0:0:0:
184,192,65526,1,0,0:0:0:0:
208,280,65684,6,0,B|160:296|160:296|155:309|155:309|24:360,1,200,2|0,1:1|0:0,0:0:0:0:
304,280,66315,2,0,B|352:296|352:296|357:309|357:309|488:360,1,200,2|0,0:1|0:0,0:0:0:0:
344,48,66947,6,0,P|272:40|216:144,2,200,8|8|8,1:2|1:2|1:2,0:0:0:0:
440,112,67736,1,0,0:0:0:0:
440,232,67894,1,8,1:2:0:0:
72,232,68210,1,8,1:2:0:0:
128,336,68368,1,0,0:0:0:0:
128,336,68447,1,0,0:0:0:0:
128,336,68526,1,8,1:2:0:0:
256,336,68684,1,0,0:0:0:0:
192,232,68841,1,8,1:2:0:0:
312,232,68999,1,0,0:2:0:0:
368,336,69157,1,8,1:2:0:0:
48,128,69473,6,0,P|82:40|177:36,1,200,8|8,1:2|1:2,0:0:0:0:
256,208,70026,1,0,0:0:0:0:
256,208,70105,1,8,1:2:0:0:
192,312,70263,1,0,1:0:0:0:
192,312,70341,1,0,1:0:0:0:
192,312,70420,1,8,1:2:0:0:
312,312,70578,1,0,1:0:0:0:
338,108,70736,5,2,1:0:0:0:
256,73,70894,1,2,0:0:0:0:
172,108,71052,1,2,0:3:0:0:
137,192,71210,1,2,0:0:0:0:
172,274,71368,1,2,0:3:0:0:
256,309,71526,1,2,0:0:0:0:
338,274,71684,1,2,0:3:0:0:
373,190,71841,1,2,0:0:0:0:
147,68,71999,6,0,L|137:187,1,100,2|2,1:0|0:0,0:0:0:0:
29,102,72315,2,0,L|19:221,1,100,2|2,1:0|0:0,0:0:0:0:
206,196,72631,1,2,1:0:0:0:
88,230,72789,1,2,0:0:0:0:
88,230,72868,1,2,0:0:0:0:
88,230,72947,2,0,L|78:349,1,100,2|2,1:0|0:0,0:0:0:0:
256,376,73263,5,2,1:0:0:0:
301,300,73420,1,2,0:0:0:0:
223,257,73578,1,2,1:0:0:0:
268,181,73736,1,2,0:0:0:0:
190,138,73894,1,2,1:0:0:0:
256,376,74052,1,2,0:0:0:0:
256,376,74131,1,2,0:0:0:0:
256,376,74210,1,2,1:0:0:0:
365,68,74526,6,0,L|375:187,1,100,2|2,1:0|0:0,0:0:0:0:
483,102,74841,2,0,L|493:221,1,100,2|2,1:0|0:0,0:0:0:0:
306,196,75157,1,2,1:0:0:0:
424,230,75315,1,2,0:0:0:0:
424,230,75394,1,2,0:0:0:0:
424,230,75473,2,0,L|434:349,1,100,2|2,1:0|0:0,0:0:0:0:
256,376,75789,5,2,1:0:0:0:
211,300,75947,1,2,0:0:0:0:
289,257,76105,1,2,1:0:0:0:
244,181,76263,1,2,0:0:0:0:
322,138,76420,1,2,1:0:0:0:
83,200,76578,1,2,1:0:0:0:
256,376,76736,1,2,1:0:0:0:
420,314,76894,5,2,0:0:0:0:
420,314,76973,1,2,0:0:0:0:
420,314,77052,2,0,L|411:214,1,100,6|2,1:0|0:0,0:0:0:0:
432,223,77289,1,2,0:0:0:0:
432,223,77368,2,0,L|423:123,1,100,2|2,1:0|0:0,0:0:0:0:
315,187,77684,2,0,L|306:87,1,100,2|2,1:0|0:0,0:0:0:0:
142,167,77999,5,2,1:0:0:0:
216,234,78157,1,2,0:0:0:0:
47,198,78315,1,2,1:0:0:0:
122,265,78473,1,2,0:0:0:0:
26,296,78631,1,2,1:0:0:0:
101,362,78789,1,2,0:0:0:0:
196,332,78947,1,2,1:0:0:0:
196,332,79026,1,2,0:0:0:0:
196,332,79105,1,2,0:0:0:0:
196,332,79184,1,2,0:0:0:0:
196,332,79263,1,2,1:0:0:0:
92,70,79578,6,0,L|101:170,1,100,2|2,1:0|0:0,0:0:0:0:
80,161,79815,1,2,0:0:0:0:
80,161,79894,2,0,L|89:261,1,100,2|2,1:0|0:0,0:0:0:0:
197,197,80210,2,0,L|206:297,1,100,2|2,1:0|0:0,0:0:0:0:
74,233,80526,2,0,L|83:333,1,100,2|2,1:0|0:0,0:0:0:0:
340,275,80841,5,2,1:0:0:0:
375,192,80999,1,2,0:0:0:0:
340,109,81157,1,2,0:3:0:0:
256,74,81315,1,2,0:0:0:0:
174,109,81473,1,2,0:3:0:0:
139,192,81631,1,2,0:0:0:0:
174,275,81789,1,2,0:3:0:0:
258,310,81947,1,2,0:0:0:0:
386,384,82105,5,4,1:2:0:0:
457,358,82263,1,2,3:0:0:0:
457,358,82341,1,2,3:0:0:0:
457,358,82420,1,2,3:0:0:0:
386,384,82578,1,2,3:0:0:0:
386,384,82736,1,2,3:0:0:0:
386,384,82894,1,2,3:0:0:0:
457,358,83052,1,2,3:0:0:0:
386,384,83210,1,2,3:0:0:0:
414,256,83368,5,4,1:2:0:0:
321,222,83526,1,2,1:3:0:0:
321,222,83605,1,2,3:0:0:0:
321,222,83684,1,2,3:0:0:0:
414,256,83841,1,2,3:0:0:0:
321,222,83999,1,2,3:0:0:0:
321,222,84157,1,2,3:0:0:0:
414,256,84315,1,2,3:0:0:0:
414,256,84473,1,2,3:0:0:0:
207,339,84631,5,4,1:2:0:0:
86,383,84789,1,2,1:3:0:0:
86,383,84868,1,2,3:0:0:0:
86,383,84947,1,2,3:0:0:0:
207,339,85105,1,2,3:0:0:0:
86,383,85263,1,2,3:0:0:0:
86,383,85420,1,2,3:0:0:0:
207,339,85578,1,2,3:0:0:0:
0,166,85736,5,4,1:2:0:0:
157,223,85894,1,4,1:2:0:0:
0,166,86052,1,2,1:3:0:0:
0,166,86131,1,2,3:0:0:0:
0,166,86210,1,4,1:2:0:0:
157,223,86368,1,2,3:0:0:0:
0,166,86526,1,6,1:2:0:0:
157,223,86684,1,2,3:0:0:0:
0,166,86841,1,6,1:2:0:0:
168,46,86999,6,0,P|220:54|233:124,1,100,2|0,0:1|1:0,0:0:0:0:
402,104,87315,2,0,P|394:156|324:169,1,100,2|0,0:1|1:0,0:0:0:0:
344,338,87631,2,0,P|292:330|279:260,1,100,2|0,0:1|1:0,0:0:0:0:
110,280,87947,2,0,P|118:228|188:215,1,100,2|0,0:1|1:0,0:0:0:0:
297,26,88263,2,0,P|328:68|287:127,1,100,2|0,0:1|1:0,0:0:0:0:
421,233,88578,2,0,P|379:264|320:223,1,100,2|0,0:1|1:0,0:0:0:0:
214,357,88894,2,0,P|183:315|224:256,1,100,2|0,0:1|1:0,0:0:0:0:
90,150,89210,2,0,P|132:119|191:160,1,100,2|0,0:1|1:0,0:0:0:0:
403,92,89526,5,2,0:1:0:0:
375,196,89684,1,0,1:0:0:0:
396,301,89841,1,2,0:1:0:0:
289,307,89999,1,0,1:0:0:0:
195,359,90157,1,2,0:1:0:0:
156,259,90315,1,0,1:0:0:0:
78,185,90473,1,2,0:1:0:0:
161,118,90631,1,0,1:0:0:0:
206,20,90789,1,2,0:1:0:0:
297,79,90947,1,0,1:0:0:0:
331,251,91105,5,2,0:1:0:0:
223,282,91263,1,0,1:0:0:0:
160,188,91420,1,2,0:1:0:0:
229,99,91578,1,0,1:0:0:0:
335,138,91736,1,2,0:1:0:0:
331,251,91894,1,0,1:1:0:0:
256,192,92052,5,2,0:1:0:0:
256,192,92131,1,0,0:0:0:0:
256,192,92210,1,4,1:0:0:0:
208,272,92368,6,0,P|168:264|128:304,1,100,2|0,0:1|1:0,0:0:0:0:
304,112,92684,2,0,P|344:120|384:80,1,100,2|0,0:1|1:0,0:0:0:0:
176,144,92999,2,0,P|184:104|144:64,1,100,2|0,0:1|1:0,0:0:0:0:
336,240,93315,2,0,P|328:280|368:320,1,100,2|0,0:1|1:0,0:0:0:0:
175,237,93631,2,0,P|144:210|90:224,1,100,2|0,0:1|1:0,0:0:0:0:
258,98,93947,2,0,P|297:85|311:31,1,100,2|0,0:1|1:0,0:0:0:0:
288,36,94184,1,0,3:0:0:0:
268,50,94263,1,2,3:2:0:0:
258,73,94341,1,0,3:0:0:0:
259,98,94420,1,0,1:0:0:0:
440,168,94578,1,2,0:1:0:0:
256,359,94736,5,0,1:0:0:0:
130,317,94894,1,2,0:1:0:0:
89,192,95052,1,0,1:0:0:0:
130,62,95210,1,2,0:1:0:0:
257,24,95368,1,0,1:0:0:0:
385,62,95526,1,2,0:1:0:0:
424,192,95684,1,0,1:0:0:0:
385,317,95841,1,2,0:1:0:0:
256,192,95999,5,4,1:2:0:0:
256,192,96315,1,4,0:2:0:0:
256,192,96631,1,4,0:2:0:0:
256,192,96947,1,4,0:2:0:0:
0,287,97263,5,4,1:2:0:0:
118,339,97420,1,2,0:0:0:0:
33,372,97578,1,8,0:0:0:0:
86,254,97736,2,0,L|286:269,1,200,2|0,0:0|0:0,0:0:0:0:
250,358,98210,1,8,0:0:0:0:
250,358,98368,2,0,L|450:343,1,200,2|0,0:0|0:0,0:0:0:0:
504,269,98841,2,0,P|510:200|399:134,1,200,8|2,0:0|0:0,0:0:0:0:
336,186,99315,1,0,0:0:0:0:
336,186,99473,1,8,1:2:0:0:
209,76,99631,5,0,1:0:0:0:
209,76,99710,1,0,1:0:0:0:
209,76,99789,1,4,1:2:0:0:
91,128,99947,1,2,0:0:0:0:
176,161,100105,1,8,0:0:0:0:
123,43,100263,1,0,0:0:0:0:
105,219,100420,5,4,1:2:0:0:
176,161,100578,1,2,0:0:0:0:
163,290,100736,1,8,0:0:0:0:
234,232,100894,1,0,0:0:0:0:
72,304,101052,5,4,1:2:0:0:
91,128,101210,1,2,0:0:0:0:
163,290,101368,5,4,1:2:0:0:
182,114,101526,1,2,0:0:0:0:
182,114,101605,1,0,0:0:0:0:
182,114,101684,1,4,1:2:0:0:
494,327,102315,5,4,1:2:0:0:
346,261,102473,1,2,0:0:0:0:
388,368,102631,1,8,1:2:0:0:
454,220,102789,2,0,P|423:179|374:179,1,100,2|0,0:0|1:3,0:0:0:0:
286,144,103105,1,2,0:0:0:0:
286,144,103184,1,0,0:0:0:0:
286,144,103263,1,8,0:0:0:0:
137,252,103420,2,0,P|188:245|212:203,1,100,2|0,0:0|1:0,0:0:0:0:
286,144,103736,1,2,0:0:0:0:
110,94,103894,2,0,P|160:82|197:114,1,100,8|0,1:2|0:0,0:0:0:0:
27,216,104210,5,0,1:0:0:0:
25,235,104289,1,2,0:0:0:0:
24,255,104368,1,0,1:0:0:0:
23,275,104447,1,0,1:0:0:0:
21,295,104526,1,8,1:2:0:0:
137,353,104684,1,0,1:0:0:0:
315,163,104841,5,4,1:2:0:0:
167,229,104999,1,2,0:0:0:0:
209,122,105157,1,8,1:2:0:0:
275,270,105315,2,0,P|312:304|360:296,1,100,2|4,0:0|1:2,0:0:0:0:
480,174,105631,2,0,P|430:189|414:235,1,100,2|8,0:0|0:2,0:0:0:0:
443,313,105947,1,2,0:0:0:0:
443,313,106026,1,2,0:0:0:0:
443,313,106105,5,6,1:2:0:0:
373,68,106263,1,2,1:2:0:0:
127,138,106420,1,6,1:2:0:0:
198,384,106578,1,2,1:2:0:0:
443,313,106736,1,6,1:2:0:0:
69,71,107052,5,2,0:0:0:0:
69,71,107210,1,0,0:0:0:0:
127,138,107368,2,0,P|172:149|219:69,1,150.000005722046,4|0,1:0|0:0,0:0:0:0:
421,173,107684,2,0,P|398:106|327:107,1,150.000005722046,10|0,1:0|0:0,0:0:0:0:
226,229,107999,1,2,1:0:0:0:
378,306,108157,1,2,0:0:0:0:
341,192,108315,1,10,1:0:0:0:
264,344,108473,1,2,0:0:0:0:
46,286,108631,6,0,L|194:249,1,150.000005722046,2|2,1:0|0:0,0:0:0:0:
133,101,108947,2,0,L|281:138,1,150.000005722046,10|2,1:0|0:0,0:0:0:0:
204,321,109263,2,0,L|352:284,1,150.000005722046,2|2,1:0|0:0,0:0:0:0:
339,212,109499,1,2,0:0:0:0:
339,212,109578,2,0,L|487:249,1,150.000005722046,8|2,1:0|0:0,0:0:0:0:
331,58,109894,6,0,P|273:57|245:138,1,150.000005722046,0|2,1:0|0:0,0:0:0:0:
429,362,110210,2,0,P|398:208|103:205,1,450.000017166138,10|2,1:0|0:0,0:0:0:0:
181,326,110841,2,0,P|239:327|267:246,1,150.000005722046,10|2,1:0|0:0,0:0:0:0:
40,73,111157,2,0,L|68:376,1,300.000011444092,2|8,1:0|1:0,0:0:0:0:
268,250,111631,1,2,0:0:0:0:
172,204,111789,1,2,1:0:0:0:
244,134,111947,1,2,0:0:0:0:
340,180,112105,1,8,1:0:0:0:
287,363,112263,5,2,0:0:0:0:
287,363,112341,1,0,0:0:0:0:
287,363,112420,2,0,P|343:383|383:307,1,150.000005722046,6|2,1:0|0:0,0:0:0:0:
256,218,112736,1,8,1:0:0:0:
464,114,112894,2,0,L|456:269,1,150.000005722046,2|0,0:1|1:0,0:0:0:0:
366,81,113210,2,0,L|358:236,1,150.000005722046,2|8,0:1|1:0,0:0:0:0:
217,304,113526,1,2,0:0:0:0:
38,186,113684,2,0,P|33:126|106:80,1,150.000005722046,2|2,1:0|0:0,0:0:0:0:
263,141,113999,2,0,L|93:160,1,150.000005722046,10|2,1:0|0:0,0:0:0:0:
291,301,114315,1,2,1:0:0:0:
321,79,114473,1,2,0:0:0:0:
321,79,114552,1,2,0:0:0:0:
321,79,114631,1,8,1:0:0:0:
114,163,114789,1,0,1:0:0:0:
225,363,114947,6,0,P|169:383|129:307,1,150.000005722046,2|2,1:0|0:0,0:0:0:0:
256,218,115263,1,8,1:0:0:0:
48,114,115420,2,0,L|56:269,1,150.000005722046,2|0,0:1|1:0,0:0:0:0:
146,81,115736,2,0,L|154:236,1,150.000005722046,2|8,0:1|1:0,0:0:0:0:
295,304,116052,1,2,0:1:0:0:
274,43,116210,6,0,P|293:102|376:100,1,150.000005722046,6|0,1:0|1:0,1:0:0:0:
117,250,116526,6,0,P|159:204|116:134,1,150.000005722046,12|0,1:0|1:0,1:0:0:0:
376,282,116841,6,0,P|306:272|274:335,1,150.000005722046,4|0,1:0|1:0,1:0:0:0:
443,71,117157,5,8,1:0:0:0:
443,71,117315,1,0,0:0:0:0:
385,138,117473,2,0,P|340:149|293:69,1,150.000005722046,4|0,1:0|0:0,0:0:0:0:
91,174,117789,2,0,P|114:107|185:108,1,150.000005722046,10|0,1:0|0:0,0:0:0:0:
333,224,118105,1,2,1:0:0:0:
174,189,118263,1,2,0:0:0:0:
139,348,118420,1,10,1:0:0:0:
298,383,118578,1,2,0:0:0:0:
474,175,118736,6,0,L|500:334,1,150.000005722046,2|2,1:0|0:0,0:0:0:0:
390,107,119052,2,0,L|364:266,1,150.000005722046,10|2,1:0|0:0,0:0:0:0:
244,73,119368,1,2,1:0:0:0:
248,95,119446,1,2,0:0:0:0:
252,117,119525,1,2,0:0:0:0:
255,139,119604,1,2,0:0:0:0:
258,161,119685,2,0,L|284:320,1,150.000005722046,8|2,1:0|0:0,0:0:0:0:
55,352,119999,6,0,P|39:303|116:263,1,150.000005722046,0|2,1:0|0:0,0:0:0:0:
389,309,120315,2,0,P|398:117|160:124,1,450.000017166138,10|2,1:0|0:0,0:0:0:0:
234,345,120947,2,0,P|299:323|291:254,1,150.000005722046,10|2,1:0|0:0,0:0:0:0:
43,211,121263,2,0,L|361:171,1,300.000011444092,2|8,1:0|1:0,0:0:0:0:
115,128,121736,1,2,0:0:0:0:
189,346,121894,1,2,1:0:0:0:
340,173,122052,1,2,0:0:0:0:
115,128,122210,1,8,1:0:0:0:
390,79,122368,5,2,0:0:0:0:
390,79,122447,1,0,0:0:0:0:
390,79,122526,2,0,P|450:108|443:205,1,150.000005722046,6|0,1:0|0:0,0:0:0:0:
206,264,122841,1,8,1:1:0:0:
314,141,122999,2,0,L|297:318,1,150.000005722046,2|0,0:1|1:0,0:0:0:0:
220,114,123315,2,0,L|203:291,1,150.000005722046,2|8,0:1|1:0,0:0:0:0:
78,85,123631,5,2,0:1:0:0:
198,29,123789,2,0,P|342:29|342:317,1,450.000017166138,2|2,1:0|0:0,0:0:0:0:
288,332,124420,2,0,P|152:282|251:12,1,450.000017166138,2|2,1:0|0:0,0:0:0:0:
473,104,125052,6,0,P|393:99|392:195,1,150.000005722046,2|2,1:0|0:0,0:0:0:0:
444,375,125368,1,8,1:0:0:0:
363,293,125526,2,0,L|540:276,1,150.000005722046,2|0,0:1|1:0,0:0:0:0:
149,255,125841,2,0,L|-28:272,1,150.000005722046,2|8,0:1|1:0,0:0:0:0:
68,173,126157,5,2,0:1:0:0:
237,380,126315,1,0,1:1:0:0:
444,211,126473,1,0,1:1:0:0:
275,4,126631,1,8,1:1:0:0:
213,235,126789,5,0,1:0:0:0:
263,251,126868,1,0,1:0:0:0:
307,223,126947,1,0,1:0:0:0:
312,171,127026,1,0,1:0:0:0:
274,134,127105,1,0,1:0:0:0:
222,141,127184,1,0,1:0:0:0:
195,186,127263,1,8,1:0:0:0:
512,278,127420,5,6,1:0:0:0:
256,192,127499,12,0,132631,1:2:0:0:
