osu file format v14

[General]
AudioFilename: audio.mp3
AudioLeadIn: 0
PreviewTime: 107052
Countdown: 0
SampleSet: Soft
StackLeniency: 0.4
Mode: 0
LetterboxInBreaks: 0
WidescreenStoryboard: 1

[Editor]
Bookmarks: 31578,51789,71999,87157,97263,107368,127578
DistanceSpacing: 1
BeatDivisor: 4
GridSize: 4
TimelineZoom: 2

[Metadata]
Title:R176 [Short Edit]
TitleUnicode:R176 [Short Edit]
Artist:Cranky
ArtistUnicode:Cranky
Creator:AJT
Version:Niva's INSANE
Source:
Tags:electronic instrumental trance happy hardcore feline groove owc2023gffm3 osu! world cup owc 2023 grand finals fm3 fa featured artist Niva Nivalis Sonnyc fanzhen0019 Ascended yf_bmp
BeatmapID:4421457
BeatmapSetID:2095168

[Difficulty]
HPDrainRate:6
CircleSize:4
OverallDifficulty:8
ApproachRate:8
SliderMultiplier:1
SliderTickRate:2

[Events]
//Background and Video events
0,0,"bg.jpg",0,0
//Break Periods
//Storyboard Layer 0 (Background)
//Storyboard Layer 1 (Fail)
//Storyboard Layer 2 (Pass)
//Storyboard Layer 3 (Foreground)
//Storyboard Layer 4 (Overlay)
//Storyboard Sound Samples

[TimingPoints]
1263,315.789473684211,4,2,0,50,1,0
2526,-83.3333333333333,4,2,0,50,0,0
3157,-100,4,2,0,50,0,0
3789,-117.647058823529,4,2,0,50,0,0
4105,-83.3333333333333,4,2,0,50,0,0
4736,-100,4,2,0,50,0,0
5052,-83.3333333333333,4,2,0,50,0,0
5999,-111.111111111111,4,2,0,50,0,0
6315,-83.3333333333333,4,2,0,50,0,0
6789,-83.3333333333333,4,2,0,50,0,0
7105,-83.3333333333333,4,2,0,50,0,0
7578,-76.9230769230769,4,2,0,50,0,0
7894,-90.9090909090909,4,2,0,50,0,0
8210,-111.111111111111,4,2,0,50,0,0
8841,-83.3333333333333,4,2,0,50,0,0
10105,-125,4,2,0,50,0,0
10420,-100,4,2,0,50,0,0
10736,-83.3333333333333,4,2,0,50,0,0
11999,-100,4,2,0,50,0,0
12631,-83.3333333333333,4,2,0,50,0,0
13894,-117.647058823529,4,2,0,50,0,0
14210,-76.9230769230769,4,2,0,50,0,0
14841,-100,4,2,0,50,0,0
15157,-83.3333333333333,4,2,0,50,0,0
16105,-100,4,2,0,50,0,0
16420,-83.3333333333333,4,2,0,50,0,0
17684,-76.9230769230769,4,2,0,50,0,0
18315,-100,4,2,0,50,0,0
18947,-76.9230769230769,4,2,0,50,0,0
21157,-100,4,2,0,50,0,0
21473,-76.9230769230769,4,2,0,50,0,0
22105,-83.3333333333333,4,2,0,50,0,0
22736,-76.9230769230769,4,2,0,50,0,0
23368,-90.9090909090909,4,2,0,50,0,0
23999,-125,4,2,0,50,0,0
27473,-125,4,2,0,5,0,0
27789,-285.714285714286,4,2,0,15,0,0
29052,-100,4,2,0,50,0,0
29526,-62.5,4,2,0,50,0,0
30315,-66.6666666666667,4,2,0,50,0,0
30947,-58.8235294117647,4,2,0,50,0,0
31263,-32.258064516129,4,2,0,50,0,0
31341,-32.258064516129,4,2,0,5,0,0
31578,-58.8235294117647,4,1,0,70,0,0
31815,-58.8235294117647,4,1,0,5,0,0
31894,-58.8235294117647,4,1,0,70,0,0
32131,-58.8235294117647,4,1,0,5,0,0
32210,-58.8235294117647,4,1,0,70,0,0
32841,-83.3333333333333,4,1,0,70,0,0
34105,-90.9090909090909,4,1,0,70,0,0
34420,-66.6666666666667,4,1,0,70,0,0
35052,-90.9090909090909,4,1,0,70,0,0
35368,-57.1428571428571,4,1,0,70,0,0
36315,-83.3333333333333,4,1,0,70,0,0
36631,-62.5,4,1,0,70,0,0
37105,-83.3333333333333,4,1,0,70,0,0
37894,-58.8235294117647,4,1,0,70,0,0
38526,-55.5555555555556,4,1,0,70,0,0
39157,-90.9090909090909,4,1,0,70,0,0
39789,-80,4,1,0,70,0,0
41052,-66.6666666666667,4,1,0,70,0,0
41684,-83.3333333333333,4,2,0,60,0,0
41999,-100,4,2,0,60,0,0
42315,-83.3333333333333,4,2,0,60,0,0
42631,-100,4,2,0,60,0,0
42947,-83.3333333333333,4,2,0,60,0,0
43263,-100,4,2,0,60,0,0
43578,-83.3333333333333,4,2,0,60,0,0
44684,-86.9565217391304,4,2,0,60,0,0
44999,-90.9090909090909,4,2,0,60,0,0
45315,-100,4,2,0,60,0,0
45631,-111.111111111111,4,2,0,60,0,0
45947,-125,4,2,0,60,0,0
46894,-71.4285714285714,4,2,0,60,0,0
47210,-62.5,4,2,0,60,0,0
47684,-83.3333333333333,4,2,0,60,0,0
48157,-83.3333333333333,4,2,0,60,0,0
48473,-62.5,4,2,0,60,0,0
48947,-71.4285714285714,4,2,0,60,0,0
49420,-66.6666666666667,4,2,0,60,0,0
49736,-83.3333333333333,4,2,0,60,0,0
50210,-62.5,4,2,0,60,0,0
50526,-50,4,2,0,50,0,0
52263,-166.666666666667,4,2,0,50,0,0
52499,-166.666666666667,4,2,0,5,0,0
52578,-57.1428571428571,4,2,0,50,0,0
53052,-76.9230769230769,4,2,0,50,0,0
53841,-64.5161290322581,4,2,0,50,0,0
54789,-142.857142857143,4,2,0,50,0,0
55026,-142.857142857143,4,2,0,5,0,0
55105,-55.5555555555556,4,2,0,50,0,0
55578,-142.857142857143,4,2,0,50,0,0
56210,-58.8235294117647,4,2,0,50,0,0
57315,-142.857142857143,4,2,0,50,0,0
57552,-142.857142857143,4,2,0,5,0,0
57631,-58.8235294117647,4,2,0,50,0,0
58105,-64.5161290322581,4,2,0,50,0,0
58420,-71.4285714285714,4,2,0,50,0,0
58894,-66.6666666666667,4,2,0,50,0,0
59999,-125,4,2,0,40,0,0
60315,-142.857142857143,4,2,0,40,0,0
60631,-166.666666666667,4,2,0,40,0,0
60947,-200,4,2,0,40,0,0
61578,-55.5555555555556,4,2,0,40,0,0
61815,-55.5555555555556,4,2,0,5,0,0
61894,-83.3333333333333,4,2,0,45,0,0
62526,-100,4,2,0,45,0,0
63947,-83.3333333333333,4,2,0,45,0,0
65684,-66.6666666666667,4,2,0,45,0,0
65723,-66.6666666666667,4,2,0,5,0,0
65999,-66.6666666666667,4,2,0,45,0,0
66039,-66.6666666666667,4,2,0,5,0,0
66315,-50,4,2,0,45,0,0
66355,-50,4,2,0,5,0,0
66631,-50,4,2,0,45,0,0
66670,-50,4,2,0,5,0,0
66947,-66.6666666666667,4,2,0,50,0,0
67184,-66.6666666666667,4,2,0,5,0,0
67263,-83.3333333333333,4,2,0,50,0,0
67894,-100,4,2,0,50,0,0
68210,-71.4285714285714,4,2,0,50,0,0
68841,-90.9090909090909,4,2,0,50,0,0
69157,-66.6666666666667,4,2,0,50,0,0
69394,-66.6666666666667,4,2,0,5,0,0
69473,-66.6666666666667,4,2,0,50,0,0
70263,-100,4,2,0,50,0,0
70736,-76.9230769230769,4,2,0,50,0,0
71999,-58.8235294117647,4,2,0,60,0,0
72236,-58.8235294117647,4,2,0,5,0,0
72315,-58.8235294117647,4,2,0,60,0,0
72552,-58.8235294117647,4,2,0,5,0,0
72631,-58.8235294117647,4,2,0,60,0,0
73263,-90.9090909090909,4,2,0,60,0,0
74526,-58.8235294117647,4,2,0,60,0,0
74763,-58.8235294117647,4,2,0,5,0,0
74841,-66.6666666666667,4,2,0,60,0,0
75078,-66.6666666666667,4,2,0,5,0,0
75157,-66.6666666666667,4,2,0,60,0,0
75789,-100,4,2,0,60,0,0
76105,-90.9090909090909,4,2,0,60,0,0
77052,-83.3333333333333,4,2,0,60,0,0
77684,-55.5555555555556,4,2,0,60,0,0
78315,-83.3333333333333,4,2,0,60,0,0
78631,-74.0740740740741,4,2,0,60,0,0
80210,-100,4,2,0,60,0,0
80526,-83.3333333333333,4,2,0,60,0,0
80841,-62.5,4,2,0,60,0,0
82105,-166.666666666667,4,2,0,50,0,0
83368,-66.6666666666667,4,2,0,50,0,0
83447,-66.6666666666667,4,2,0,5,0,0
83526,-66.6666666666667,4,2,0,50,0,0
83605,-66.6666666666667,4,2,0,5,0,0
84631,-142.857142857143,4,2,0,50,0,0
85736,-55.5555555555556,4,2,0,50,0,0
85815,-55.5555555555556,4,2,0,5,0,0
85894,-55.5555555555556,4,2,0,50,0,0
86526,-66.6666666666667,4,2,0,50,0,0
87315,-83.3333333333333,4,2,0,50,0,0
87631,-100,4,2,0,50,0,0
87947,-83.3333333333333,4,2,0,50,0,0
88263,-100,4,2,0,50,0,0
88578,-83.3333333333333,4,2,0,50,0,0
88894,-100,4,2,0,50,0,0
89841,-66.6666666666667,4,2,0,50,0,0
90157,-74.0740740740741,4,2,0,50,0,0
90473,-83.3333333333333,4,2,0,50,0,0
90789,-95.2380952380952,4,2,0,50,0,0
91100,-105.263157894737,4,2,0,50,0,0
91420,-125,4,2,0,50,0,0
92368,-90.9090909090909,4,2,0,50,0,0
92684,-58.8235294117647,4,2,0,50,0,0
93157,-90.9090909090909,4,2,0,50,0,0
93947,-62.5,4,2,0,50,0,0
94420,-71.4285714285714,4,2,0,50,0,0
94736,-142.857142857143,4,2,0,50,0,0
95052,-100,4,2,0,50,0,0
95368,-95.2380952380952,4,2,0,50,0,0
95684,-71.4285714285714,4,2,0,50,0,0
95999,-62.5,4,2,0,50,0,0
97263,-83.3333333333333,4,2,0,50,0,0
99789,-111.111111111111,4,2,0,50,0,0
100420,-83.3333333333333,4,2,0,50,0,0
101052,-142.857142857143,4,2,0,50,0,0
101368,-100,4,2,0,50,0,0
101684,-71.4285714285714,4,2,0,50,0,0
101920,-71.4285714285714,4,2,0,5,0,0
101999,-90.9090909090909,4,2,0,50,0,0
102078,-90.9090909090909,4,2,0,5,0,0
102315,-90.9090909090909,4,2,0,50,0,0
102789,-90.9090909090909,4,2,0,50,0,0
103105,-66.6666666666667,4,2,0,50,0,0
103341,-66.6666666666667,4,2,0,5,0,0
103420,-66.6666666666667,4,2,0,50,0,0
103894,-83.3333333333333,4,2,0,50,0,0
104841,-76.9230769230769,4,2,0,50,0,0
105631,-62.5,4,2,0,50,0,0
107368,-45.4545454545455,4,1,0,70,0,1
107605,-45.4545454545455,4,1,0,5,0,1
107684,-58.8235294117647,4,1,0,70,0,1
107920,-58.8235294117647,4,1,0,5,0,1
107999,-58.8235294117647,4,1,0,70,0,1
108631,-90.9090909090909,4,1,0,70,0,1
108947,-100,4,1,0,70,0,1
109894,-111.111111111111,4,1,0,70,0,1
110210,-54.054054054054,4,1,0,70,0,1
110841,-71.4285714285714,4,1,0,70,0,1
111157,-55.5555555555556,4,1,0,70,0,1
112105,-90.9090909090909,4,1,0,70,0,1
112420,-62.5,4,1,0,70,0,1
112894,-90.9090909090909,4,1,0,70,0,1
113210,-83.3333333333333,4,1,0,70,0,1
113684,-66.6666666666667,4,1,0,70,0,1
114947,-58.8235294117647,4,1,0,70,0,1
115420,-83.3333333333333,4,1,0,70,0,1
115736,-62.5,4,1,0,70,0,1
116841,-90.9090909090909,4,1,0,70,0,1
117394,-90.9090909090909,4,1,0,70,0,0
117473,-58.8235294117647,4,1,0,70,0,1
117710,-58.8235294117647,4,1,0,5,0,1
117789,-55.5555555555556,4,1,0,70,0,1
118026,-55.5555555555556,4,1,0,5,0,1
118105,-55.5555555555556,4,1,0,70,0,1
118736,-83.3333333333333,4,1,0,70,0,1
119999,-100,4,1,0,70,0,1
120315,-58.8235294117647,4,1,0,70,0,1
120947,-71.4285714285714,4,1,0,70,0,1
121263,-58.8235294117647,4,1,0,70,0,1
122210,-76.9230769230769,4,1,0,70,0,1
122526,-66.6666666666667,4,1,0,70,0,1
123315,-68.9655172413793,4,1,0,70,0,1
123789,-62.5,4,1,0,70,0,1
124420,-83.3333333333333,4,1,0,70,0,1
125052,-62.5,4,1,0,70,0,1
125841,-68.9655172413793,4,1,0,70,0,1
127420,-68.9655172413793,4,1,0,70,0,0
127499,-68.9655172413793,4,1,0,30,0,0
128210,-68.9655172413793,4,1,0,35,0,0
128841,-68.9655172413793,4,1,0,40,0,0
129473,-68.9655172413793,4,1,0,45,0,0
130105,-68.9655172413793,4,1,0,50,0,0
130736,-68.9655172413793,4,1,0,55,0,0
131368,-68.9655172413793,4,1,0,60,0,0
131999,-68.9655172413793,4,1,0,65,0,0
132473,-68.9655172413793,4,1,0,20,0,0
132631,-285.714285714286,4,2,0,60,0,1
132710,-285.714285714286,4,2,0,5,0,0
132947,-285.714285714286,4,2,0,5,0,0

[Colours]
Combo1 : 255,255,87
Combo2 : 0,255,255
Combo3 : 128,128,128
Combo4 : 244,66,92

[HitObjects]
232,117,947,6,0,L|278:137,1,50,2|0,0:0|0:0,0:0:0:0:
348,97,1263,5,2,0:0:0:0:
167,156,1578,1,2,0:0:0:0:
348,97,1894,2,0,L|399:80,1,50,2|0,0:0|0:0,0:0:0:0:
472,95,2210,1,2,0:0:0:0:
511,163,2368,1,2,0:0:0:0:
484,243,2526,6,0,B|440:190|377:217,1,119.999996337891,2|2,0:0|0:0,0:0:0:0:
195,157,3157,1,2,0:0:0:0:
316,157,3473,1,2,0:0:0:0:
140,217,3789,2,0,L|97:217,1,42.5000008106232,2|0,0:0|0:0,0:0:0:0:
0,228,4105,6,0,B|59:249|59:249|52:322|121:335,1,179.999994506836,2|0,0:0|0:0,0:0:0:0:
41,344,4736,2,0,B|17:358|13:391,1,50,2|0,0:0|0:0,0:0:0:0:
211,263,5052,6,0,B|272:233|256:164,1,119.999996337891,2|0,0:0|0:0,0:0:0:0:
211,100,5526,1,2,0:0:0:0:
134,93,5684,1,2,0:0:0:0:
74,141,5841,1,0,0:0:0:0:
68,222,5999,2,0,L|112:213,1,44.999998626709,2|0,0:0|0:0,0:0:0:0:
309,307,6315,6,0,B|242:327|209:261,1,119.999996337891,2|2,0:0|0:0,0:0:0:0:
424,247,6789,1,2,0:0:0:0:
370,359,6947,1,0,0:0:0:0:
345,239,7105,1,2,0:0:0:0:
440,323,7420,5,2,0:0:0:0:
496,267,7578,2,0,B|521:242|514:206,1,64.9999970245363,2|0,0:0|0:0,0:0:0:0:
395,123,7894,6,0,B|414:146|407:175,1,55.0000016784668,2|0,0:0|0:0,0:0:0:0:
283,120,8210,6,0,B|276:97|257:84,1,44.999998626709,2|0,0:0|0:0,0:0:0:0:
233,10,8526,1,2,0:0:0:0:
180,130,8684,1,2,0:0:0:0:
69,19,8841,6,0,B|8:52|24:120,1,119.999996337891,2|2,0:0|0:0,0:0:0:0:
73,234,9315,1,2,0:0:0:0:
100,109,9473,1,0,0:0:0:0:
4,192,9631,1,2,0:0:0:0:
507,192,9947,1,2,0:0:0:0:
434,155,10105,6,0,L|428:132,3,20,2|0|0|0,3:2|3:0|3:0|3:0,0:0:0:0:
388,237,10420,6,0,L|383:265,3,25,2|0|0|0,3:2|3:0|3:0|3:0,0:0:0:0:
311,154,10736,6,0,L|301:126,3,29.9999990844727,2|0|2|0,3:2|3:0|3:2|3:0,0:0:0:0:
256,265,11052,5,2,1:2:0:0:
226,296,11131,1,0,1:0:0:0:
182,300,11210,1,0,1:2:0:0:
144,276,11289,1,0,1:0:0:0:
133,233,11368,5,6,1:2:0:0:
384,262,11684,1,2,1:2:0:0:
133,233,11999,2,0,L|84:226,1,50,2|0,3:2|0:0,0:0:0:0:
13,257,12315,1,2,3:2:0:0:
9,334,12473,1,2,0:0:0:0:
71,384,12631,6,0,B|98:322|173:337,1,119.999996337891,2|2,3:2|3:2,0:0:0:0:
324,220,13263,1,2,3:2:0:0:
256,384,13578,1,2,3:2:0:0:
204,253,13894,2,0,L|160:244,1,42.5000008106232,2|0,0:0|0:0,0:0:0:0:
370,345,14210,6,0,B|415:382|466:358|491:303|463:240|417:261|421:290|438:289,1,194.999991073609,2|0,0:0|0:0,0:0:0:0:
438,288,14841,2,0,L|450:237,1,50,2|0,0:0|0:0,0:0:0:0:
298,93,15157,6,0,B|284:165|344:194,1,119.999996337891,2|0,0:0|0:0,0:0:0:0:
449,239,15631,1,2,0:0:0:0:
374,222,15789,1,2,0:0:0:0:
299,239,15947,1,0,0:0:0:0:
256,307,16105,2,0,L|314:321,1,50,2|0,0:0|0:0,0:0:0:0:
139,370,16420,6,0,B|166:309|115:261,1,119.999996337891,2|2,0:0|0:0,0:0:0:0:
48,301,16894,1,2,0:0:0:0:
15,195,17052,1,0,0:0:0:0:
121,166,17210,1,2,0:0:0:0:
247,340,17526,5,2,0:0:0:0:
247,340,17684,2,0,B|216:298|173:283|118:303|118:303|144:294|152:270,1,194.999991073609,2|0,0:0|0:0,0:0:0:0:
202,209,18315,2,0,L|183:111,1,100,2|0,0:0|0:0,0:0:0:0:
182,110,18789,1,2,0:0:0:0:
293,59,18947,6,0,B|288:188|167:162,1,194.999991073609,2|0,0:0|0:0,0:0:0:0:
97,127,19578,1,2,0:0:0:0:
46,187,19736,1,2,0:0:0:0:
84,254,19894,1,2,0:0:0:0:
158,236,20052,1,0,0:0:0:0:
167,162,20210,1,2,0:0:0:0:
0,254,21157,6,0,L|48:239,1,50,2|0,0:0|0:0,0:0:0:0:
167,162,21473,6,0,B|55:200|74:315,1,194.999991073609,6|0,1:2|0:0,0:0:0:0:
164,262,22105,2,0,B|42:210|42:210|26:164,1,179.999994506836,2|2,0:0|0:0,0:0:0:0:
92,62,22736,6,0,B|140:37|129:-19|129:-19|140:37|199:41,1,194.999991073609,6|0,1:2|0:0,0:0:0:0:
256,93,23368,2,0,B|205:130|217:189,1,110.000003356934,2|0,0:0|0:0,0:0:0:0:
256,256,23841,1,2,0:0:0:0:
375,192,23999,5,6,1:2:0:0:
465,238,24315,5,2,0:0:0:0:
394,288,24631,5,0,0:0:0:0:
445,327,24947,5,2,0:0:0:0:
415,375,25263,5,2,0:0:0:0:
415,375,27789,6,0,L|408:338,3,34.9999989318848
373,117,29052,6,0,B|378:143|361:163|361:163|341:184|346:209,1,100,6|2,3:2|3:2,0:0:0:0:
427,197,29526,2,0,B|416:176|416:176|309:146|309:146|297:122,1,160,2|0,3:2|3:0,0:0:0:0:
256,49,29999,5,0,3:2:0:0:
256,43,30078,1,0,3:0:0:0:
256,38,30157,1,0,3:0:0:0:
256,33,30236,1,0,3:0:0:0:
256,27,30315,5,6,1:2:0:0:
156,93,30473,5,2,1:2:0:0:
195,213,30631,5,2,1:2:0:0:
317,213,30789,5,2,1:0:0:0:
356,93,30947,6,0,B|276:77|255:147,1,127.50000243187,2|0,1:0|1:0,0:0:0:0:
317,213,31263,6,0,B|326:220|299:236|302:249|317:255|333:249|335:235|308:220|317:213,1,77.5000005912781,8|0,1:0|1:0,0:0:0:0:
81,56,31578,6,0,B|59:47|51:23|51:23|75:103,1,127.50000243187,6|0,1:2|0:0,0:0:0:0:
13,149,31894,2,0,B|83:128|121:193,1,127.50000243187,10|0,1:0|0:0,0:0:0:0:
192,302,32210,5,2,1:0:0:0:
223,108,32368,1,2,0:0:0:0:
162,165,32526,5,8,1:0:0:0:
256,250,32684,1,2,0:0:0:0:
344,192,32841,6,0,B|410:177,1,59.9999981689454,2|0,1:0|0:0,0:0:0:0:
491,297,33157,2,0,L|431:284,1,59.9999981689454,10|0,1:0|0:0,0:0:0:0:
487,105,33473,5,2,1:0:0:0:
428,317,33631,1,0,0:0:0:0:
428,317,33710,1,0,1:0:0:0:
428,317,33789,1,10,1:0:0:0:
344,192,33947,1,0,1:0:0:0:
467,206,34105,6,0,B|454:231|423:234,1,55.0000016784668,2|0,1:0|0:0,0:0:0:0:
309,365,34420,6,0,B|177:378|157:238,1,225.000008583069,10|0,1:0|1:0,0:0:0:0:
236,132,35052,2,0,L|226:186,1,55.0000016784668,10|0,1:0|1:0,0:0:0:0:
120,355,35368,6,0,B|151:257|255:276,1,175.00000166893,2|8,1:0|1:0,0:0:0:0:
361,180,35841,1,2,0:0:0:0:
334,318,35999,1,2,1:0:0:0:
276,195,36157,1,0,1:0:0:0:
395,256,36315,2,0,B|455:266,1,59.9999981689454,10|2,1:0|1:2,0:0:0:0:
197,137,36631,6,0,B|114:94|150:3,1,160,6|8,0:0|1:0,0:0:0:0:
294,21,37105,2,0,B|237:38,1,59.9999981689454,2|0,0:0|0:0,0:0:0:0:
419,204,37420,5,2,1:1:0:0:
451,104,37578,1,8,0:0:0:0:
365,137,37736,1,2,0:0:0:0:
512,200,37894,6,0,B|494:174|494:174|307:142|307:142|291:112,1,255.000004863739,2|0,1:0|0:0,0:0:0:0:
294,21,38526,5,2,1:0:0:0:
157,59,38684,1,0,1:0:0:0:
157,59,38763,1,0,1:0:0:0:
157,59,38841,1,8,1:0:0:0:
190,198,38999,1,2,1:0:0:0:
292,165,39157,6,0,B|306:140|291:112,1,55.0000016784668,4|2,1:2|0:0,0:0:0:0:
190,198,39473,2,0,B|176:223|191:251,1,55.0000016784668,8|2,0:0|0:0,0:0:0:0:
316,346,39789,6,0,L|302:286,1,62.5,0|2,0:0|0:0,0:0:0:0:
174,27,40105,2,0,L|188:88,1,62.5,8|2,0:0|0:0,0:0:0:0:
115,374,40420,5,0,0:0:0:0:
12,324,40578,1,2,1:0:0:0:
19,211,40736,1,8,1:0:0:0:
130,185,40894,1,2,1:0:0:0:
203,310,41052,6,0,B|165:258|102:277,1,112.500004291535,4|0,1:0|1:0,0:0:0:0:
103,276,41368,1,8,1:0:0:0:
383,192,41526,1,2,1:2:0:0:
150,82,41684,5,4,1:2:0:0:
150,82,41842,2,0,L|210:70,1,59.9999981689454,2|8,0:0|1:0,0:0:0:0:
358,95,42157,2,0,L|310:106,1,50,2|0,0:0|1:0,0:0:0:0:
143,96,42473,6,0,L|202:84,1,59.9999981689454,2|8,0:0|1:0,0:0:0:0:
368,105,42789,2,0,L|319:116,1,50,2|0,0:0|1:0,0:0:0:0:
137,111,43105,6,0,L|196:99,1,59.9999981689454,2|8,0:0|1:0,0:0:0:0:
379,114,43421,2,0,L|330:125,1,50,2|0,3:2|1:0,0:0:0:0:
116,192,43736,5,2,0:0:0:0:
116,192,43815,1,2,0:0:0:0:
116,192,43894,1,8,1:0:0:0:
257,299,44052,1,2,0:0:0:0:
396,192,44210,1,0,1:0:0:0:
344,70,44368,6,0,B|321:91|330:124,1,59.9999981689454,2|8,3:2|1:0,0:0:0:0:
461,256,44684,2,0,B|465:225|440:206,1,57.5000010967255,2|0,0:0|1:0,0:0:0:0:
253,176,44999,2,0,B|267:202|297:206,1,55.0000016784668,2|8,0:0|1:0,0:0:0:0:
463,123,45315,2,0,B|438:113|415:125,1,50,2|0,0:0|1:0,0:0:0:0:
330,282,45631,2,0,B|354:278|366:258,1,44.999998626709,2|8,0:0|1:0,0:0:0:0:
336,86,45947,2,0,B|327:105|331:125,1,40,2|0,0:0|1:0,0:0:0:0:
444,201,46263,5,2,0:0:0:0:
444,201,46341,1,2,0:0:0:0:
444,201,46420,1,8,1:0:0:0:
264,266,46578,1,2,3:2:0:0:
484,354,46736,5,4,1:2:0:0:
416,337,46894,2,0,L|484:354,1,69.9999978637696,2|8,0:0|1:0,0:0:0:0:
376,181,47210,2,0,B|361:276|264:266,1,160,2|2,3:2|3:2,0:0:0:0:
195,316,47605,1,0,3:0:0:0:
195,316,47684,2,0,L|179:257,1,59.9999981689454,8|2,1:0|3:2,0:0:0:0:
301,21,47999,5,0,1:0:0:0:
258,146,48157,1,2,0:0:0:0:
203,49,48315,1,8,1:0:0:0:
354,135,48473,2,0,B|401:160|401:160|385:223|443:246,1,160,2|2,3:2|3:2,0:0:0:0:
506,307,48868,1,0,3:0:0:0:
506,307,48947,2,0,L|491:239,1,69.9999978637696,8|2,1:0|0:0,0:0:0:0:
412,69,49263,5,0,1:0:0:0:
355,179,49420,1,2,0:0:0:0:
336,56,49578,1,8,1:0:0:0:
424,145,49736,1,2,3:2:0:0:
299,122,49894,2,0,L|241:111,1,59.9999981689454,0|2,1:0|0:2,0:0:0:0:
173,158,50131,1,0,1:0:0:0:
173,158,50210,2,0,L|255:138,1,80,8|2,1:0|0:0,0:0:0:0:
303,24,50526,6,0,B|357:62|357:150|304:162|256:173|256:173|206:183|149:220|144:273|161:342|220:395|278:398|339:348|316:293|276:255|234:277|240:315|256:316,1,600,4|4,1:0|1:2,0:0:0:0:
256,316,51631,1,2,1:2:0:0:
42,256,51789,5,6,1:2:0:0:
117,358,51947,1,2,0:0:0:0:
147,228,52105,1,2,0:0:0:0:
13,333,52263,2,0,B|-22:360,1,44.999998626709,2|0,0:0|0:0,0:0:0:0:
0,251,52578,6,2,B|41:354|137:322,1,175.00000166893,4|0,1:2|1:2,0:1:0:0:
383,315,53052,6,0,L|311:299,1,64.9999970245363,2|4,1:2|1:2,0:0:0:0:
120,215,53368,2,0,L|185:229,1,64.9999970245363,2|2,0:0|0:0,0:0:0:0:
216,328,53841,6,2,B|254:287|319:300|319:300|297:295|284:274,1,155.000001182556,4|0,1:2|0:0,0:1:0:0:
191,143,54315,5,2,1:2:0:0:
343,183,54473,1,0,1:0:0:0:
183,228,54631,1,2,0:0:0:0:
288,115,54789,2,0,B|318:109|327:81,1,52.4999983978272,2|0,0:0|0:0,0:0:0:0:
284,12,55105,6,2,L|342:182,1,179.999994506836,4|0,1:2|1:2,0:1:0:0:
414,384,55578,2,0,L|399:342,1,34.9999989318848,6|0,1:2|1:2,0:0:0:0:
376,253,55894,5,2,0:0:0:0:
366,278,55973,5,2,0:0:0:0:
385,265,56052,5,0,1:2:0:0:
363,266,56131,5,2,0:0:0:0:
384,277,56210,6,0,B|309:275|282:345,2,127.50000243187,6|6|6,1:0|1:2|1:0,0:1:0:0:
102,192,56841,5,6,1:2:0:0:
251,149,56999,1,2,0:0:0:0:
136,111,57157,1,2,0:0:0:0:
181,280,57315,2,0,B|193:228,1,52.4999983978272,2|0,0:0|0:0,0:0:0:0:
256,47,57631,6,2,B|263:155|357:160,1,170.000003242493,4|0,1:2|1:2,0:1:0:0:
452,192,58105,6,0,B|468:157|468:157|448:123,1,77.5000005912781,2|6,1:2|1:2,0:0:0:0:
192,228,58420,2,0,B|178:260|178:260|195:290,1,69.9999978637696,2|2,0:0|0:0,0:0:0:0:
156,376,58894,6,2,B|195:300|281:322,1,150.000005722046,4|0,1:2|0:0,0:1:0:0:
475,360,59368,5,2,1:2:0:0:
356,380,59526,1,0,1:0:0:0:
328,226,59684,1,2,0:0:0:0:
456,208,59841,1,2,0:0:0:0:
401,308,59999,6,0,B|413:289|401:271,1,40,2|0,0:0|0:0,0:0:0:0:
327,192,60315,6,0,B|336:208|327:227,1,34.9999989318848,2|0,0:0|0:0,0:0:0:0:
255,296,60631,6,0,B|266:281|251:264,1,29.9999990844727,2|0,0:0|0:0,0:0:0:0:
217,217,60947,6,0,B|227:229|216:241,1,25,2|0,0:0|0:0,0:0:0:0:
138,262,61263,5,2,0:0:0:0:
440,262,61578,6,0,B|412:262|400:286|410:313|435:331|475:315|466:276|440:275,1,134.999995880127,6|0,0:0|0:0,0:0:0:0:
469,384,61894,6,0,B|426:334|361:354,1,119.999996337891,2|2,0:0|0:0,0:0:0:0:
208,334,62526,2,0,L|256:320,1,50,2|2,0:0|0:0,0:0:0:0:
319,268,62841,2,0,L|272:282,1,50,2|0,0:0|0:0,0:0:0:0:
88,148,63157,5,2,0:0:0:0:
153,218,63315,1,2,0:0:0:0:
137,117,63473,1,2,0:0:0:0:
63,243,63631,2,0,B|87:230|95:205,1,50,2|0,0:0|0:0,0:0:0:0:
174,42,63947,2,0,B|150:108|210:145,1,119.999996337891,2|0,0:0|0:0,0:0:0:0:
229,290,64420,6,0,B|261:280|261:280|286:287|286:287|301:266|301:266|334:255,1,119.999996337891,2|2,0:0|0:0,0:0:0:0:
493,210,65052,2,0,B|460:202|450:171,1,59.9999981689454,2|2,0:0|0:0,0:0:0:0:
419,194,65368,2,0,B|451:201|474:177,1,59.9999981689454,2|2,0:0|0:0,0:0:0:0:
474,89,65684,6,0,L|476:64,1,18.7500007152558,6|0,3:2|0:0,0:0:0:0:
454,329,65999,2,0,L|452:352,1,18.7500007152558,2|0,1:2|0:0,0:0:0:0:
276,67,66315,6,0,L|271:37,1,25,6|0,3:2|0:0,0:0:0:0:
323,356,66631,2,0,L|327:381,1,25,2|0,1:2|0:0,0:0:0:0:
55,192,66947,6,0,B|80:260|144:249,1,112.500004291535,4|0,1:2|0:0,0:0:0:0:
143,285,67263,2,0,L|187:239,1,59.9999981689454,2|0,1:2|0:0,0:0:0:0:
274,153,67578,1,2,1:2:0:0:
261,256,67736,1,2,1:2:0:0:
199,140,67894,2,0,B|186:116|197:92,1,50,2|0,1:2|3:2,0:0:0:0:
390,344,68210,5,2,1:2:0:0:
424,234,68368,1,2,1:2:0:0:
424,234,68447,1,0,1:2:0:0:
424,234,68526,1,2,1:2:0:0:
328,301,68684,1,2,1:2:0:0:
452,301,68841,2,0,L|513:324,1,55.0000016784668,2|2,1:2|1:2,0:0:0:0:
346,229,69157,2,0,B|322:290|256:276,1,112.500004291535,2|2,1:2|0:0,0:0:0:0:
179,348,69473,5,2,1:2:0:0:
127,107,69789,1,2,1:2:0:0:
50,275,70026,5,0,1:2:0:0:
50,275,70105,1,2,1:2:0:0:
110,222,70263,2,0,L|114:198,2,25,2|0|2,1:2|1:2|1:2,0:0:0:0:
155,309,70578,1,2,1:2:0:0:
233,149,70736,6,0,B|219:182|241:211,1,64.9999970245363,6|0,1:2|1:2,0:0:0:0:
155,309,71052,5,2,1:0:0:0:
211,368,71210,5,2,1:2:0:0:
290,366,71368,5,2,1:2:0:0:
354,317,71526,5,0,1:2:0:0:
364,240,71684,5,2,1:0:0:0:
330,168,71841,5,2,1:2:0:0:
256,139,71999,6,0,B|219:166|219:166|240:246,1,127.50000243187,4|0,1:2|0:0,0:0:0:0:
204,318,72315,2,0,B|244:256|316:283,1,127.50000243187,8|0,1:0|0:0,0:0:0:0:
386,334,72631,1,2,1:2:0:0:
439,192,72789,1,2,0:0:0:0:
439,192,72868,1,2,0:0:0:0:
439,192,72947,1,8,1:0:0:0:
342,256,73105,1,2,0:0:0:0:
512,256,73263,6,0,L|456:277,1,55.0000016784668,2|2,1:2|0:0,0:0:0:0:
254,129,73578,2,0,L|273:186,1,55.0000016784668,8|2,1:0|0:0,0:0:0:0:
430,28,73894,5,2,1:2:0:0:
400,127,74052,1,2,1:2:0:0:
371,227,74210,1,8,1:0:0:0:
54,105,74526,6,0,B|85:84|77:51|77:51|85:84|126:87,1,127.50000243187,2|0,1:2|0:0,0:0:0:0:
166,166,74841,2,0,B|207:115|161:63,1,112.500004291535,8|0,1:0|0:0,0:0:0:0:
116,228,75157,1,2,1:2:0:0:
244,210,75315,1,2,0:0:0:0:
244,210,75394,1,2,0:0:0:0:
244,210,75473,1,8,1:0:0:0:
266,323,75631,1,2,0:0:0:0:
131,372,75789,6,0,L|157:328,1,50,2|2,1:2|0:0,0:0:0:0:
415,325,76105,2,0,L|371:288,1,55.0000016784668,8|2,1:0|0:0,0:0:0:0:
178,87,76420,5,2,1:2:0:0:
244,210,76578,1,2,1:2:0:0:
261,71,76736,1,8,1:0:0:0:
165,173,76894,1,0,1:0:0:0:
306,142,77052,6,0,L|367:128,1,59.9999981689454,6|2,1:2|0:0,0:0:0:0:
364,128,77289,1,2,0:0:0:0:
364,128,77368,1,8,1:0:0:0:
436,179,77526,1,2,0:0:0:0:
501,101,77684,2,0,B|528:146|487:180|487:180|447:214|473:261,1,179.999994506836,2|8,1:2|1:0,0:0:0:0:
419,350,78157,1,2,0:0:0:0:
275,294,78315,6,0,L|321:256,1,59.9999981689454,2|2,1:2|0:0,0:0:0:0:
478,377,78631,2,0,B|456:350|419:350,1,67.5000002574921,8|2,1:0|0:0,0:0:0:0:
103,304,78947,5,0,1:0:0:0:
113,281,79026,1,2,3:2:0:0:
136,266,79105,1,2,3:2:0:0:
165,263,79184,1,2,3:2:0:0:
190,270,79263,1,8,1:0:0:0:
399,46,79578,5,2,1:2:0:0:
356,129,79736,1,2,0:0:0:0:
356,129,79815,1,2,3:2:0:0:
356,129,79894,1,8,1:0:0:0:
317,20,80052,1,2,0:0:0:0:
468,89,80210,6,0,L|420:76,1,50,2|2,1:2|0:0,0:0:0:0:
257,191,80526,6,0,L|315:173,1,59.9999981689454,8|2,1:0|0:0,0:0:0:0:
491,262,80841,6,0,B|467:256|467:234|467:234|467:255|444:262,1,80,6|2,1:2|0:0,0:0:0:0:
358,320,81157,5,6,0:0:0:0:
298,371,81315,5,2,0:0:0:0:
221,371,81473,5,6,0:0:0:0:
160,324,81631,5,2,1:0:0:0:
150,247,81789,5,6,1:2:0:0:
183,177,81947,5,2,1:0:0:0:
256,153,82105,6,0,B|287:209|287:209|212:258|255:333,1,209.999993591309,4|2,1:2|0:0,0:0:0:0:
373,293,83368,6,0,L|334:286,1,37.5000014305115,4|0,1:2|0:0,0:0:0:0:
119,249,83526,2,0,L|157:256,1,37.5000014305115,4|2,1:2|0:0,0:0:0:0:
430,64,84631,6,0,B|398:32|345:31|316:60|313:96|318:132|345:149|371:138|367:114|352:114,1,209.999993591309,4|0,1:2|0:0,0:0:0:0:
351,113,85736,6,0,L|342:158,1,44.999998626709,6|0,1:2|0:0,0:0:0:0:
418,229,85894,5,4,1:2:0:0:
95,229,86210,1,4,1:2:0:0:
418,229,86526,6,0,B|327:224|309:310,1,150.000005722046,6|6,1:2|1:2,0:0:0:0:
156,128,86999,1,2,0:0:0:0:
26,296,87157,5,0,1:0:0:0:
26,296,87315,2,0,L|84:285,1,59.9999981689454,2|8,0:0|1:0,0:0:0:0:
195,203,87631,2,0,L|146:212,1,50,2|0,0:0|1:0,0:0:0:0:
19,308,87947,6,0,L|77:297,1,59.9999981689454,2|8,0:0|1:0,0:0:0:0:
205,211,88263,2,0,L|156:220,1,50,2|0,0:0|1:0,0:0:0:0:
13,320,88578,6,0,L|71:309,1,59.9999981689454,2|8,0:0|1:0,0:0:0:0:
216,218,88894,2,0,L|167:228,1,50,2|0,0:0|1:0,0:0:0:0:
91,182,89210,5,2,0:0:0:0:
91,182,89289,1,2,0:0:0:0:
91,182,89368,1,8,1:0:0:0:
169,325,89526,1,2,0:0:0:0:
314,252,89684,1,0,1:0:0:0:
216,94,89841,6,0,B|218:136|256:152,1,75.0000028610231,2|8,3:2|1:0,0:0:0:0:
374,275,90157,2,0,B|349:249|314:251,1,67.5000002574921,2|0,0:0|1:0,0:0:0:0:
148,227,90473,2,0,B|180:233|205:212,1,59.9999981689454,2|8,0:0|1:0,0:0:0:0:
362,137,90789,2,0,B|337:148|329:176,1,52.4999983978272,2|0,0:0|1:0,0:0:0:0:
236,325,91105,2,0,B|250:303|244:278,1,47.4999987316132,2|8,0:0|1:0,0:0:0:0:
225,126,91420,2,0,B|233:147|255:152,1,40,2|0,0:0|1:0,0:0:0:0:
350,214,91736,5,2,0:0:0:0:
350,214,91815,1,2,0:0:0:0:
350,214,91894,1,8,1:0:0:0:
236,325,92052,1,2,3:2:0:0:
111,213,92210,5,4,1:2:0:0:
225,126,92368,2,0,L|172:144,1,55.0000016784668,2|8,0:0|1:0,0:0:0:0:
7,127,92684,2,0,B|11:237|112:230,1,170.000003242493,2|2,0:0|1:2,0:0:0:0:
177,148,93078,1,0,1:0:0:0:
177,148,93157,2,0,L|159:97,1,55.0000016784668,8|2,1:0|0:0,0:0:0:0:
256,374,93473,5,0,1:0:0:0:
289,245,93631,1,2,0:0:0:0:
188,320,93789,1,8,1:0:0:0:
331,320,93947,2,0,B|381:257|381:257|456:286,1,160,2|2,0:0|1:2,0:0:0:0:
508,216,94341,1,0,1:0:0:0:
508,216,94420,2,0,B|494:254|454:254,1,69.9999978637696,8|2,1:0|0:0,0:0:0:0:
339,95,94736,6,0,L|349:130,1,34.9999989318848,0|2,1:0|0:0,0:0:0:0:
402,44,95052,6,0,B|419:23|411:-2,1,50,8|2,1:0|3:2,0:0:0:0:
214,156,95368,6,0,B|255:189,1,52.4999983978272,0|2,1:0|1:2,0:0:0:0:
165,307,95605,5,0,1:0:0:0:
165,307,95684,2,0,B|235:295,1,69.9999978637696,8|2,1:0|0:0,0:0:0:0:
415,343,95999,6,0,B|429:343|432:360|422:373|394:373|367:350|375:317|423:265|458:286|489:270|502:226|464:135|373:104|296:197|330:275|388:275,1,400,4|0,1:0|0:0,0:0:0:0:
422,142,96947,5,0,1:0:0:0:
436,130,97026,1,0,1:0:0:0:
422,118,97105,1,0,1:0:0:0:
436,106,97184,1,0,1:0:0:0:
422,94,97263,6,0,L|361:78,1,59.9999981689454,6|2,1:0|1:2,0:0:0:0:
300,17,97578,1,0,1:0:0:0:
255,109,97736,2,0,B|183:114|172:39,2,119.999996337891,2|2|2,1:2|1:2|1:2,0:0:0:0:
22,251,98684,5,2,1:2:0:0:
22,251,98841,2,0,B|45:184|116:193,1,119.999996337891,2|2,1:2|1:2,0:0:0:0:
218,144,99315,1,2,1:2:0:0:
181,238,99473,1,0,1:0:0:0:
107,107,99631,1,0,1:0:0:0:
110,100,99710,1,0,1:0:0:0:
114,93,99789,6,0,B|98:13|98:13|103:39|81:63,1,134.999995880127,6|0,1:1|2:2,0:0:0:0:
215,192,100420,6,0,B|271:168|297:224|291:223|284:221|310:276|367:249,1,179.999994506836,6|0,1:1|2:2,0:0:0:0:
381,136,101052,6,0,L|351:160,1,34.9999989318848,6|0,1:1|3:0,0:0:0:0:
150,309,101368,2,0,L|192:279,1,50,6|0,1:0|3:0,0:0:0:0:
413,383,101684,2,0,B|379:336|318:355,1,104.999996795654,6|0,1:0|0:0,0:0:0:0:
320,354,101999,6,0,L|320:324,1,27.5000008392334,2|0,0:0|0:0,0:0:0:0:
388,38,102315,5,6,1:2:0:0:
440,134,102473,1,0,1:0:0:0:
477,0,102631,1,8,1:0:0:0:
366,86,102789,2,0,L|317:62,1,55.0000016784668,2|0,1:1|1:0,0:0:0:0:
440,134,103105,2,0,B|462:195|409:233,1,112.500004291535,2|0,1:0|0:0,0:0:0:0:
452,317,103420,6,0,B|405:246|321:275,1,150.000005722046,2|2,1:2|1:1,0:0:0:0:
129,263,103894,2,0,B|158:271|158:271|180:251,1,59.9999981689454,8|0,1:0|0:0,0:0:0:0:
305,192,104210,1,2,1:0:0:0:
251,314,104368,1,2,1:0:0:0:
251,314,104447,1,2,1:2:0:0:
251,314,104526,1,8,1:0:0:0:
223,180,104684,1,2,1:0:0:0:
362,287,104841,6,0,L|420:316,1,64.9999970245363,6|0,1:2|1:0,0:0:0:0:
428,229,105157,1,8,1:0:0:0:
428,229,105315,1,2,1:1:0:0:
256,361,105473,5,4,1:2:0:0:
175,329,105631,2,0,B|90:283|129:194,1,160,2|0,1:1|1:0,0:0:0:0:
332,35,106105,5,6,1:2:0:0:
424,122,106263,5,2,1:0:0:0:
373,230,106420,5,12,1:0:0:0:
255,215,106578,5,2,1:0:0:0:
229,102,106736,5,6,1:0:0:0:
299,145,107052,5,2,0:0:0:0:
207,231,107210,1,2,0:0:0:0:
82,79,107368,6,0,B|46:100|40:137|58:171|94:190|137:176|129:134|107:138|107:154,1,165.000005035401,6|0,0:0|0:0,0:0:0:0:
73,244,107684,2,0,B|105:179|181:204,1,127.50000243187,10|0,1:0|0:0,0:0:0:0:
299,145,107999,5,2,1:0:0:0:
230,298,108157,1,2,0:0:0:0:
188,110,108315,1,8,1:0:0:0:
315,229,108473,1,2,0:0:0:0:
129,242,108631,6,0,B|153:224|152:194,1,55.0000016784668,2|0,1:0|0:0,0:0:0:0:
206,45,108947,2,0,L|215:94,1,50,10|0,1:0|0:0,0:0:0:0:
366,357,109263,5,2,1:0:0:0:
415,224,109420,1,0,0:0:0:0:
415,224,109499,1,0,1:0:0:0:
415,224,109578,1,10,1:0:0:0:
287,266,109736,1,0,1:0:0:0:
425,329,109894,6,0,B|380:319,1,44.999998626709,2|0,1:0|3:0,0:0:0:0:
255,128,110210,6,0,B|251:120|246:113|242:108|234:103|228:99|220:98|211:97|204:95|197:97|190:99|184:103|176:108|169:113|166:119|164:126|160:133|159:141|159:148|160:157|160:165|160:172|159:181|155:188|153:195|148:201|142:206|137:212|130:213|122:216|114:216|107:216|98:216|92:213|84:211|79:206|73:200|67:195|65:188,1,277.499998941422,10|0,1:0|0:0,0:0:0:0:
37,101,110841,2,0,B|20:90|31:71|31:71|49:84|37:101,1,69.9999978637696,10|0,1:0|3:0,0:0:0:0:
23,322,111157,6,0,B|72:249|72:249|161:281,1,179.999994506836,2|8,1:0|1:0,0:0:0:0:
287,234,111631,1,2,0:0:0:0:
221,344,111789,1,2,1:0:0:0:
207,215,111947,1,0,1:0:0:0:
352,302,112105,2,0,L|299:314,1,55.0000016784668,10|0,1:0|0:2,0:0:0:0:
95,130,112420,6,0,B|115:231|208:214,1,160,6|10,1:0|1:0,0:0:0:0:
171,54,112894,2,0,B|183:78|183:78|170:106,1,55.0000016784668,2|0,0:0|0:0,0:0:0:0:
46,243,113210,2,0,L|102:219,1,59.9999981689454,2|8,0:0|1:0,0:0:0:0:
350,277,113526,5,2,0:0:0:0:
350,277,113684,2,0,B|312:291|280:263|280:263|252:237|211:251,2,150.000005722046,2|10|2,1:0|1:0|1:0,0:0:0:0:
122,277,114473,1,2,1:0:0:0:
101,293,114552,1,0,1:0:0:0:
80,277,114631,1,8,1:0:0:0:
0,212,114789,1,2,0:0:0:0:
42,99,114947,6,0,B|68:71|115:67|154:100|152:155|120:167|99:151|104:132|119:132,1,170.000003242493,6|8,1:0|1:0,0:0:0:0:
224,283,115420,2,0,L|232:224,1,59.9999981689454,2|0,0:0|0:0,0:0:0:0:
158,379,115736,2,0,B|194:297|292:329,1,160,2|2,0:0|0:0,0:0:0:0:
478,212,116210,5,6,1:0:0:0:
389,262,116368,1,2,1:2:0:0:
314,192,116526,1,14,1:0:0:0:
362,99,116684,1,2,1:2:0:0:
512,182,116841,6,0,L|457:170,1,55.0000016784668,6|2,1:2|1:2,0:0:0:0:
455,161,117078,1,0,1:0:0:0:
452,152,117157,1,4,1:2:0:0:
389,262,117315,1,2,0:0:0:0:
162,84,117473,6,0,B|138:157|203:193,1,127.50000243187,6|0,0:0|0:0,0:0:0:0:
173,277,117789,2,0,B|205:209|286:229,1,134.999995880127,10|0,1:0|0:0,0:0:0:0:
439,192,118105,5,2,1:0:0:0:
312,267,118263,1,2,0:0:0:0:
355,153,118420,1,8,1:0:0:0:
419,286,118578,1,2,0:0:0:0:
508,181,118736,6,0,B|493:209|459:210,1,59.9999981689454,2|0,1:0|0:0,0:0:0:0:
382,329,119052,2,0,B|386:297|419:285,1,59.9999981689454,10|0,1:0|0:0,0:0:0:0:
408,145,119368,5,2,1:0:0:0:
477,369,119526,1,0,0:0:0:0:
477,369,119605,1,0,1:0:0:0:
477,369,119684,1,10,1:0:0:0:
408,145,119841,1,0,0:0:0:0:
463,259,119999,6,0,L|414:254,1,50,6|0,0:0|1:0,0:0:0:0:
240,60,120315,6,0,B|255:120|255:120|143:154|175:271,1,255.000004863739,10|0,1:0|0:0,0:0:0:0:
173,359,120947,2,0,B|194:367|197:382|197:382|194:367|212:352,1,69.9999978637696,10|0,1:0|0:0,0:0:0:0:
256,234,121263,6,0,B|243:212|243:212|123:196|123:196|111:171,1,170.000003242493,2|8,1:0|1:0,0:0:0:0:
97,50,121736,1,2,0:0:0:0:
37,158,121894,1,2,1:0:0:0:
158,113,122052,1,0,1:0:0:0:
158,113,122131,1,2,1:2:0:0:
158,113,122210,1,10,1:0:0:0:
28,84,122368,1,2,1:2:0:0:
66,243,122526,6,0,L|207:193,1,150.000005722046,6|10,1:0|1:0,0:0:0:0:
310,156,122999,1,2,0:0:0:0:
190,117,123157,1,0,0:0:0:0:
345,264,123315,2,0,B|431:273|451:184,1,145.000004425049,2|2,0:0|0:0,0:0:0:0:
256,321,123789,6,0,B|111:346|95:193,1,240,6|0,1:0|0:0,0:0:0:0:
0,384,124420,5,2,1:0:0:0:
40,297,124578,5,2,1:2:0:0:
40,297,124657,1,0,1:0:0:0:
40,297,124736,1,8,1:0:0:0:
132,236,124894,5,8,1:0:0:0:
256,232,125052,6,0,B|234:132|234:132|240:161|272:171,1,160,6|10,0:0|1:0,0:0:0:0:
252,362,125526,1,2,0:0:0:0:
329,265,125684,1,0,0:0:0:0:
204,296,125841,2,0,B|118:300|104:382,1,145.000004425049,2|2,1:0|1:0,0:0:0:0:
405,214,126315,5,6,1:0:0:0:
433,104,126473,1,0,1:0:0:0:
244,64,126631,5,8,1:0:0:0:
290,256,126789,1,0,1:0:0:0:
321,127,126947,5,2,1:0:0:0:
313,141,127026,5,0,1:0:0:0:
321,156,127105,5,0,1:0:0:0:
337,153,127184,5,0,0:0:0:0:
338,133,127263,5,8,1:0:0:0:
98,192,127420,5,6,1:0:0:0:
256,192,127499,12,0,132473,2:0:0:0:
512,360,132631,6,0,L|538:384,1,34.9999989318848,0|0,1:0|0:0,0:0:0:0:
