osu file format v14

[General]
AudioFilename: audio.mp3
AudioLeadIn: 0
PreviewTime: 16971
Countdown: 0
SampleSet: Soft
StackLeniency: 0.7
Mode: 0
LetterboxInBreaks: 0
WidescreenStoryboard: 1

[Editor]
Bookmarks: 16967,33082,59970,76970,95635,111634,148968
DistanceSpacing: 1.1
BeatDivisor: 3
GridSize: 32
TimelineZoom: 1.1

[Metadata]
Title:La fuite des jours
TitleUnicode:La fuite des jours
Artist:Cranky
ArtistUnicode:Cranky
Creator:Milan-
Version:Easy
Source:
Tags:featured artist piano 1/3 toybot karen melange de mariage
BeatmapID:1582987
BeatmapSetID:751932

[Difficulty]
HPDrainRate:2
CircleSize:3
OverallDifficulty:2
ApproachRate:3
SliderMultiplier:0.8
SliderTickRate:1

[Events]
//Background and Video events
0,0,"La-fuite-des-jours.png",0,0
//Break Periods
2,60970,67530
//Storyboard Layer 0 (Background)
//Storyboard Layer 1 (Fail)
//Storyboard Layer 2 (Pass)
//Storyboard Layer 3 (Foreground)
//Storyboard Sound Samples

[TimingPoints]
1040,392.156862745098,4,2,1,40,1,0
1432,580.647034345272,4,2,1,40,1,0
1432,-100,4,2,1,40,0,0
1532,-100,4,2,1,30,0,0
3754,-100,4,2,1,30,0,0
3854,-100,4,2,1,30,0,0
6077,-100,4,2,1,30,0,0
6177,-100,4,2,1,30,0,0
15367,266.666666666667,6,2,1,30,1,0
16971,333.333333333333,3,2,1,40,1,0
16971,-100,3,2,1,40,0,0
18859,-100,3,2,1,40,0,0
20970,-100,3,2,1,40,0,0
24637,-100,3,2,1,40,0,0
24970,-100,3,2,1,40,0,0
25637,-100,3,2,1,40,0,0
28970,-100,3,2,1,40,0,0
29070,-100,3,2,1,40,0,0
30970,-100,3,2,1,45,0,0
31970,-100,3,2,1,45,0,0
32637,-100,3,2,1,45,0,0
32970,-100,3,2,1,50,0,0
40970,-100,3,2,1,50,0,0
41304,-100,3,2,1,50,0,0
42970,-100,3,2,1,50,0,0
50970,-100,3,2,1,50,0,0
51070,-100,3,2,1,50,0,0
56970,-100,3,2,1,55,0,0
59970,-100,3,2,1,55,0,0
60082,-100,3,2,1,40,0,0
60970,-100,3,2,1,35,0,0
68637,-100,3,2,1,40,0,0
68970,-100,3,2,1,40,0,0
70970,-100,3,2,1,40,0,0
72970,-100,3,2,1,35,0,0
76970,333.333333333333,13,2,1,30,1,0
76970,-100,13,2,1,30,0,0
85636,333.333333333333,7,2,1,30,1,0
87969,333.333333333333,4,2,1,30,1,0
89302,333.333333333333,7,2,1,30,1,0
91635,333.333333333333,3,2,1,30,1,0
95635,-100,3,2,1,40,0,0
111301,-100,3,2,1,45,0,0
111634,-100,3,2,1,50,0,0
111968,-100,3,2,1,50,0,0
123634,-100,3,2,1,50,0,0
123734,-100,3,2,1,50,0,0
126634,-100,3,2,1,50,0,0
127746,-100,3,2,1,50,0,0
131634,-100,3,2,1,50,0,0
131734,-100,3,2,1,50,0,0
135634,-100,3,2,1,50,0,0
135734,-100,3,2,1,50,0,0
137301,333.333333333333,3,2,1,50,1,0
137301,-100,3,2,1,50,0,0
137401,-100,3,2,1,50,0,0
140967,333.333333333333,3,2,1,50,1,0
140967,-100,3,2,1,50,0,0
141068,-100,3,2,1,50,0,0
144968,-100,3,2,1,50,0,0
145068,-100,3,2,1,50,0,0
146968,-100,3,2,1,55,0,0
147523,-100,3,2,1,45,0,0
147968,-100,3,2,1,55,0,0
148523,-100,3,2,1,45,0,0
148968,-100,3,2,1,55,0,0
149079,-100,3,2,1,20,0,0

[Colours]
Combo1 : 168,196,159
Combo2 : 187,198,208
Combo3 : 226,215,173
Combo4 : 208,187,198

[HitObjects]
74,131,1432,5,6,0:0:0:0:
123,206,2012,2,0,P|161:201|202:186,1,80,2|2,0:0|0:0,0:0:0:0:
334,73,3754,5,2,0:0:0:0:
403,126,4335,2,0,P|423:171|423:219,1,80,2|2,0:0|0:0,0:0:0:0:
324,345,6077,5,2,0:0:0:0:
260,284,6657,1,2,0:0:0:0:
177,315,7238,2,0,P|135:323|26:268,1,160,2|2,0:0|0:0,0:0:0:0:
256,192,8593,12,2,10722,0:0:0:0:
256,192,10915,12,2,13044,0:0:0:0:
256,192,13238,12,2,15367,0:0:0:0:
36,312,16971,6,0,P|75:310|113:296,1,80,6|2,0:0|0:3,0:0:0:0:
234,71,18970,6,0,P|244:96|246:123,1,53.3333333333333,4|2,0:3|0:0,0:0:0:0:
181,194,19637,2,0,L|92:205,1,80,2|2,0:0|0:0,0:0:0:0:
367,229,20970,6,0,L|457:236,1,80,6|0,0:0|0:0,0:0:0:0:
261,101,22970,6,0,L|271:202,2,80,2|2|2,0:0|0:3|0:0,0:0:0:0:
189,48,23970,1,4,0:3:0:0:
126,110,24304,1,2,0:3:0:0:
39,94,24637,1,2,0:0:0:0:
16,179,24970,1,6,0:0:0:0:
172,259,25637,6,0,P|221:250|267:238,1,80,2|2,0:0|0:0,0:0:0:0:
370,114,26637,2,0,P|320:105|275:93,2,80,2|6|2,0:0|0:3|0:0,0:0:0:0:
463,263,27970,2,0,P|462:314|448:351,1,80,2|2,0:0|0:0,0:0:0:0:
277,351,28970,6,0,L|174:344,1,80,6|2,0:0|0:3,0:0:0:0:
131,286,29637,2,0,L|92:192,2,80,2|2|2,0:0|0:0|0:3,0:0:0:0:
201,124,30970,5,4,0:0:0:0:
277,80,31304,1,2,0:0:0:0:
364,82,31637,1,2,0:0:0:0:
406,159,31970,1,2,0:0:0:0:
290,292,32637,1,8,0:3:0:0:
216,347,32970,6,0,P|176:349|125:334,1,80,6|2,0:0|0:0,0:0:0:0:
139,251,33637,2,0,P|177:241|217:243,1,80,6|6,0:0|0:0,0:0:0:0:
290,292,34304,1,8,0:0:0:0:
186,149,34970,6,0,P|174:120|167:47,1,80,6|2,0:0|0:0,0:0:0:0:
248,41,35637,2,0,P|264:67|282:138,1,80,6|6,0:0|0:0,0:0:0:0:
268,201,36304,1,8,0:0:0:0:
442,177,36970,6,0,P|489:195|509:226,1,80,6|2,0:0|0:0,0:0:0:0:
443,280,37637,2,0,P|403:311|367:313,1,80,2|2,0:0|0:0,0:0:0:0:
348,231,38304,2,0,P|340:181|356:148,1,80,10|6,0:0|0:0,0:0:0:0:
392,71,38970,6,0,B|324:50|269:85|245:154|245:154|223:222|147:243|83:227|48:146|79:85,1,480,6|4,0:0|0:0,0:0:0:0:
158,128,41304,5,8,0:0:0:0:
224,291,41970,1,8,0:3:0:0:
55,344,42637,1,2,0:3:0:0:
76,258,42970,6,0,P|138:313|129:392,1,160,6|2,0:0|0:0,0:0:0:0:
218,378,43970,2,0,L|297:369,2,80,6|10|2,0:0|0:0|0:0,0:0:0:0:
224,291,44970,6,0,B|322:237|387:319|387:319|446:323|504:286|510:212|471:151,1,400,6|4,0:0|0:3,0:0:0:0:
480,81,46970,2,0,P|405:114|347:178,1,160,6|2,0:0|0:0,0:0:0:0:
264,181,47970,6,0,B|251:90|186:31|107:24|107:24|57:41|37:122|89:169,1,400,6|2,0:0|0:0,0:0:0:0:
22,226,49970,2,0,B|70:260|120:237|120:237|121:278|96:313,1,160,6|10,0:0|0:0,0:0:0:0:
169,358,50970,6,0,P|225:316|317:307,1,160,6|4,0:0|0:3,0:0:0:0:
394,274,51970,2,0,L|419:363,2,80,2|8|2,0:0|0:0|0:0,0:0:0:0:
461,217,52970,6,0,B|419:174|364:177|321:219|321:219|264:248|181:224|151:154|192:74,1,400,6|4,0:0|0:3,0:0:0:0:
128,25,54970,6,0,P|77:56|6:134,1,160,4|2,0:3|0:0,0:0:0:0:
13,217,55970,2,0,P|94:259|161:308,1,160,6|2,0:0|0:3,0:0:0:0:
238,297,56970,6,0,L|300:278,1,53.3333333333333,6|0,0:0|0:0,0:0:0:0:
356,87,57970,2,0,L|305:71,1,53.3333333333333,2|8,0:0|0:0,0:0:0:0:
154,210,58970,5,6,0:0:0:0:
149,298,59304,1,6,0:0:0:0:
63,319,59637,1,6,0:0:0:0:
17,244,59970,1,6,0:0:0:0:
481,40,68970,5,4,0:3:0:0:
413,98,69304,2,0,P|361:101|245:117,1,160,2|2,0:0|0:0,0:0:0:0:
184,168,70304,2,0,P|104:156|25:150,2,160,2|2|0,0:0|0:0|0:0,0:0:0:0:
266,198,71970,2,0,P|299:272|328:362,1,160,0|0,0:0|0:0,0:0:0:0:
411,360,72970,5,2,0:0:0:0:
162,271,73970,1,2,0:0:0:0:
362,98,74970,1,2,0:0:0:0:
56,91,76970,5,2,0:0:0:0:
140,113,77303,2,0,L|237:99,2,80,2|2|2,0:0|0:0|0:0,0:0:0:0:
391,194,78970,1,2,0:0:0:0:
307,216,79303,2,0,L|210:202,2,80,2|0|0,0:0|0:0|0:0,0:0:0:0:
455,311,80636,1,2,0:0:0:0:
371,333,80970,1,2,0:0:0:0:
285,353,81303,5,2,0:0:0:0:
197,348,81636,2,0,L|178:269,2,80,2|2|2,0:0|0:0|0:0,0:0:0:0:
206,42,83303,1,2,0:0:0:0:
118,47,83636,2,0,L|99:126,2,80,2|0|0,0:0|0:0|0:0,0:0:0:0:
284,103,84969,1,2,0:0:0:0:
372,98,85303,1,2,0:0:0:0:
459,91,85636,5,6,0:0:0:0:
484,175,85969,2,0,L|459:260,2,80,2|2|2,0:0|0:0|0:0,0:0:0:0:
309,333,87636,1,2,0:0:0:0:
334,249,87969,2,0,L|309:164,2,80,2|2|2,0:0|0:0|0:0,0:0:0:0:
175,326,89302,6,0,P|84:297|240:105,1,480,2|2,0:0|0:0,0:0:0:0:
256,192,91635,12,0,93635,3:3:0:0:
201,55,95635,6,0,P|121:78|100:157,1,160,4|2,0:0|0:0,0:0:0:0:
98,232,96635,2,0,L|6:218,2,80,2|0|2,0:0|0:0|0:0,0:0:0:0:
168,284,97635,2,0,P|233:324|292:209,1,240,2|2,0:0|0:0,0:0:0:0:
467,12,99634,6,0,P|409:64|443:137,1,160,2|2,0:0|0:0,0:0:0:0:
492,198,100634,2,0,L|513:278,2,80,2|2|2,0:0|0:0|0:0,0:0:0:0:
405,213,101634,2,0,P|373:237|291:118,1,240,2|6,0:0|0:0,0:0:0:0:
39,37,103634,6,0,P|99:83|32:212,1,240,6|2,0:0|0:0,0:0:0:0:
28,297,104968,2,0,P|61:307|119:302,1,80,2|2,0:0|0:0,0:0:0:0:
188,336,105634,2,0,B|327:266|287:371|438:309,1,240,6|2,0:0|0:0,0:0:0:0:
493,62,107634,5,6,0:0:0:0:
229,80,108634,1,6,0:0:0:0:
473,179,109634,1,6,0:0:0:0:
209,197,110634,1,2,0:3:0:0:
451,300,111634,6,0,P|376:364|312:350,1,160,6|2,0:0|0:0,0:0:0:0:
236,333,112634,2,0,L|141:351,2,80,2|2|2,0:0|0:0|0:0,0:0:0:0:
299,272,113634,2,0,P|338:223|314:119,1,160,2|2,0:0|0:0,0:0:0:0:
247,88,114634,1,2,0:0:0:0:
11,206,115634,6,0,P|23:252|132:273,1,160,6|2,0:0|0:0,0:0:0:0:
208,291,116634,2,0,L|224:394,2,80,6|10|10,0:0|0:0|0:0,0:0:0:0:
271,229,117634,2,0,P|328:200|416:248,1,160,6|10,0:0|0:0,0:0:0:0:
467,304,118634,1,2,0:0:0:0:
477,40,119634,6,0,P|436:122|292:114,2,240,6|6|6,0:0|0:0|0:0,0:0:0:0:
390,24,121968,1,2,0:0:0:0:
302,24,122301,2,0,P|262:29|181:192,1,240,6|10,0:0|0:0,0:0:0:0:
240,251,123634,5,6,0:0:0:0:
402,318,124301,2,0,L|500:299,2,80,2|2|10,0:0|0:0|0:0,0:0:0:0:
321,354,125301,1,10,0:0:0:0:
234,337,125634,5,6,0:0:0:0:
125,96,126634,1,6,0:0:0:0:
372,5,127634,6,0,P|417:42|432:150,1,160,6|2,0:0|0:0,0:0:0:0:
430,226,128634,2,0,L|532:246,2,80,2|2|2,0:0|0:0|0:0,0:0:0:0:
343,245,129634,2,0,B|290:304|170:281|221:191|115:156|-2:208|27:311,1,400,2|2,0:0|0:0,0:0:0:0:
100,339,131634,5,6,0:0:0:0:
96,75,132634,2,0,L|-3:60,2,80,2|10|10,0:0|0:0|0:0,0:0:0:0:
175,36,133634,6,0,B|227:-14|326:-13|381:42|393:119|316:134|313:225|395:263,1,400,2|2,0:0|0:0,0:0:0:0:
452,209,135634,2,0,P|467:293|279:322,1,320,6|4,0:0|0:3,0:0:0:0:
209,283,137301,6,0,P|164:295|84:391,2,160,6|2|2,0:0|0:0|0:0,0:0:0:0:
288,244,138968,2,0,P|300:167|280:76,2,160,6|6|6,0:0|0:0|0:0,0:0:0:0:
212,198,140634,1,10,0:0:0:0:
124,210,140968,5,6,0:0:0:0:
335,52,141968,1,2,0:0:0:0:
419,77,142301,1,2,0:0:0:0:
502,102,142634,2,0,L|509:185,1,80,8|4,0:3|0:3,0:0:0:0:
305,350,143968,5,2,0:0:0:0:
303,262,144301,1,10,0:0:0:0:
226,218,144634,1,2,0:0:0:0:
144,250,144968,1,6,0:0:0:0:
8,23,145968,5,2,0:0:0:0:
95,26,146301,1,2,0:0:0:0:
182,33,146634,2,0,L|193:113,1,80,6|6,0:0|0:0,0:0:0:0:
425,237,147968,5,6,0:0:0:0:
180,336,148968,5,6,0:0:0:0:
