osu file format v14

[General]
AudioFilename: audio.mp3
AudioLeadIn: 0
PreviewTime: 55622
Countdown: 0
SampleSet: Soft
StackLeniency: 0.7
Mode: 0
LetterboxInBreaks: 0
WidescreenStoryboard: 0

[Editor]
Bookmarks: 15123,41523,73355,95855,103755,109900,120081,126481,143493,219268,226961,243142,267142,291162,317550
DistanceSpacing: 0.9
BeatDivisor: 8
GridSize: 16
TimelineZoom: 2.1

[Metadata]
Title:Flugel
TitleUnicode:Flugel
Artist:Cranky
ArtistUnicode:Cranky
Creator:Net0
Version:CMB Collab
Source:osu!
Tags:electronic piano instrumental obwc o!bwc 2020 finals featured artist fa trynna faito sakura airi kowari enerugi maot
BeatmapID:2659781
BeatmapSetID:1280436

[Difficulty]
HPDrainRate:6
CircleSize:5
OverallDifficulty:8
ApproachRate:9.2
SliderMultiplier:1.92
SliderTickRate:1

[Events]
//Background and Video events
0,0,"v2.jpg",0,0
//Break Periods
2,52913,55052
//Storyboard Layer 0 (Background)
//Storyboard Layer 1 (Fail)
//Storyboard Layer 2 (Pass)
//Storyboard Layer 3 (Foreground)
//Storyboard Layer 4 (Overlay)
//Storyboard Sound Samples

[TimingPoints]
6623,333.333333333333,4,2,1,60,1,0
12372,-66.6666666666667,4,2,1,60,0,0
13622,-100,4,2,1,60,0,0
15123,400,4,2,1,60,1,0
18323,-86.2068965517241,4,2,1,60,0,0
21523,-117.647058823529,4,2,1,60,0,0
25423,-117.647058823529,4,2,1,5,0,0
25523,-153.846153846154,4,2,1,60,0,0
26223,-117.647058823529,4,2,1,5,0,0
26323,-222.222222222222,4,2,1,60,0,0
27023,-117.647058823529,4,2,1,5,0,0
27123,-400,4,2,1,60,0,0
27823,-117.647058823529,4,2,1,5,0,0
27923,-400,4,2,1,60,0,0
28523,-100,4,2,1,60,0,0
28723,400,4,2,1,60,1,0
31923,-117.647058823529,4,2,1,60,0,0
35123,-108.695652173913,4,2,1,60,0,0
38343,400,4,2,1,60,1,0
38343,-117.647058823529,4,2,1,60,0,0
39143,-153.846153846154,4,2,1,60,0,0
39943,-222.222222222222,4,2,1,60,0,0
40743,-400,4,2,1,60,0,0
41523,400,4,2,1,60,1,0
46723,-250,4,2,1,60,0,0
47123,-166.666666666667,4,2,1,60,0,0
47523,-125,4,2,1,60,0,0
47923,-100,4,2,1,60,0,0
49285,400,4,2,1,60,1,0
49285,-166.666666666667,4,2,1,60,0,0
49551,-125,4,2,1,60,0,0
49827,444.444444444444,4,2,1,60,1,0
49827,-100,4,2,1,60,0,0
50102,444.444444444444,4,2,1,60,1,0
50102,-83.3333333333333,4,2,1,60,0,0
50388,452.830188679245,4,2,1,60,1,0
50614,352.941176470588,4,2,1,60,1,0
50790,324.324324324324,4,2,1,60,1,0
50952,266.666666666667,4,2,1,60,1,0
51085,408.163265306122,4,2,1,60,1,0
51289,348.837209302325,4,2,1,60,1,0
51463,428.571428571429,4,2,1,60,1,0
51605,500.000000000001,4,2,1,60,1,0
52271,-250,4,2,1,60,0,0
52427,571.428571428571,4,2,1,60,1,0
52427,-66.6666666666667,4,2,1,60,0,0
52713,363.636363636364,4,2,1,60,1,0
55622,-100,4,2,1,40,0,0
55985,-100,4,2,1,50,0,0
56349,-100,4,2,1,60,0,0
56713,-100,4,2,1,70,0,0
57076,-100,4,2,1,80,0,0
57440,-100,4,2,1,90,0,0
57803,-100,4,2,1,100,0,0
57985,-66.6666666666667,4,2,1,60,0,0
58531,-66.6666666666667,4,2,1,80,0,0
59622,-200,4,2,1,80,0,0
59985,-66.6666666666667,4,2,1,80,0,0
61076,-200,4,2,1,80,0,0
61439,-100,4,2,1,60,0,0
63622,-76.9230769230769,4,2,1,60,0,0
64349,-66.6666666666667,4,2,1,80,0,0
65440,-200,4,2,1,80,0,0
65803,-66.6666666666667,4,2,1,80,0,0
66894,-200,4,2,1,80,0,0
67257,-100,4,2,1,60,0,0
68713,-117.647058823529,4,2,1,60,0,0
69076,-172.413793103448,4,2,1,60,0,0
69440,-285.714285714284,4,2,1,60,0,0
69803,-666.666666666658,4,2,1,60,0,0
70167,400,4,2,1,60,1,0
70567,-200,4,2,1,60,0,0
70967,-133.333333333333,4,2,1,60,0,0
71167,375,4,2,1,60,1,0
71542,400,4,2,1,60,1,0
71942,375,4,2,1,60,1,0
72317,382.165605095541,4,2,1,60,1,0
73081,370.37037037037,4,2,1,60,1,0
73355,375,4,2,1,60,1,0
73355,-58.8235294117647,4,2,1,60,0,0
73730,-100,4,2,1,60,0,0
74855,-90.9090909090909,4,2,1,60,0,0
76355,-83.3333333333333,4,2,1,60,0,0
77105,-76.9230769230769,4,2,1,60,0,0
79355,-83.3333333333333,4,2,1,60,0,0
81230,-76.9230769230769,4,2,1,60,0,0
84605,-100,4,2,1,60,0,0
85542,-200,4,2,1,60,0,0
85917,-133.333333333333,4,2,1,60,0,0
86480,-83.3333333333333,4,2,1,60,0,0
86855,-111.111111111111,4,2,1,60,0,0
87042,-200,4,2,1,60,0,0
87980,-100,4,2,1,60,0,0
88355,-76.9230769230769,4,2,1,60,0,0
89855,-66.6666666666667,4,2,1,60,0,0
90230,-100,4,2,1,60,0,0
91355,-76.9230769230769,4,2,1,60,0,0
91730,-100,4,2,1,60,0,0
93230,-76.9230769230769,4,2,1,60,0,0
96042,-100,4,2,1,60,0,0
96417,-66.6666666666667,4,2,1,60,0,0
97355,400,4,2,1,60,1,0
97355,-66.6666666666667,4,2,1,60,0,0
97455,-66.6666666666667,4,2,1,5,0,0
97555,-66.6666666666667,4,2,1,60,0,0
97655,-66.6666666666667,4,2,1,5,0,0
97755,-200,4,2,1,60,0,0
98055,-200,4,2,1,5,0,0
98155,-60.6060606060606,4,2,1,60,0,0
98255,-60.6060606060606,4,2,1,5,0,0
98355,-60.6060606060606,4,2,1,60,0,0
98455,-60.6060606060606,4,2,1,5,0,0
98555,-153.846153846154,4,2,1,60,0,0
98855,-153.846153846154,4,2,1,5,0,0
98955,-55.5555555555556,4,2,1,60,0,0
99055,-55.5555555555556,4,2,1,5,0,0
99155,-55.5555555555556,4,2,1,60,0,0
99255,-55.5555555555556,4,2,1,5,0,0
99355,-125,4,2,1,60,0,0
99655,-125,4,2,1,5,0,0
99755,-51.2820512820513,4,2,1,60,0,0
99855,-51.2820512820513,4,2,1,5,0,0
99955,-51.2820512820513,4,2,1,60,0,0
100055,-51.2820512820513,4,2,1,5,0,0
100155,-105.263157894737,4,2,1,60,0,0
100455,-105.263157894737,4,2,1,5,0,0
100555,-47.6190476190476,4,2,1,60,0,0
100655,-47.6190476190476,4,2,1,5,0,0
100755,-47.6190476190476,4,2,1,60,0,0
100855,-47.6190476190476,4,2,1,5,0,0
100955,-90.9090909090909,4,2,1,60,0,0
101255,-90.9090909090909,4,2,1,5,0,0
101355,-45.4545454545455,4,2,1,60,0,0
101455,-45.4545454545455,4,2,1,5,0,0
101555,-45.4545454545455,4,2,1,60,0,0
101655,-45.4545454545455,4,2,1,5,0,0
101755,-83.3333333333333,4,2,1,60,0,0
102055,-117.647058823529,4,2,1,5,0,0
102155,-55.5555555555556,4,2,1,60,0,0
102255,-117.647058823529,4,2,1,5,0,0
102355,-55.5555555555556,4,2,1,60,0,0
102455,-117.647058823529,4,2,1,5,0,0
102555,-55.5555555555556,4,2,1,60,0,0
102655,-117.647058823529,4,2,1,5,0,0
102755,-55.5555555555556,4,2,1,60,0,0
102955,-66.6666666666667,4,2,1,60,0,0
103255,-117.647058823529,4,2,1,5,0,0
103355,-66.6666666666667,4,2,1,60,0,0
103455,-117.647058823529,4,2,1,5,0,0
103555,-66.6666666666667,4,2,1,60,0,0
103655,-117.647058823529,4,2,1,5,0,0
103755,387.096774193548,4,2,1,60,1,0
103755,-66.6666666666667,4,2,1,60,0,0
108400,375,4,2,1,60,1,0
109900,363.636363636364,4,2,1,60,1,0
109900,-66.6666666666667,4,2,1,80,0,0
110990,-200,4,2,1,80,0,0
111354,-66.6666666666667,4,2,1,80,0,0
112445,-200,4,2,1,80,0,0
112809,-66.6666666666667,4,2,1,60,0,0
115718,-66.6666666666667,4,2,1,90,0,0
116809,-200,4,2,1,90,0,0
117172,-66.6666666666667,4,2,1,90,0,0
118263,-200,4,2,1,90,0,0
118627,-66.6666666666667,4,2,1,90,0,0
120081,375,4,2,1,60,1,0
120081,-100,4,2,1,30,0,0
120831,-71.4285714285714,4,2,1,40,0,0
121581,-55.5555555555556,4,2,1,50,0,0
122331,-45.4545454545455,4,2,1,60,0,0
123081,-38.4615384615385,4,2,1,70,0,0
123831,-33.3333333333333,4,2,1,80,0,0
124581,-29.4117647058824,4,2,1,90,0,0
125331,-26.3157894736843,4,2,1,100,0,0
126082,400,4,2,1,60,1,0
126082,-83.3333333333333,7,2,1,60,0,0
126282,-100,7,2,1,60,0,0
126481,387.096774193548,5,2,1,60,1,0
126481,-71.4285714285714,7,2,1,60,0,0
127255,-125,7,2,1,60,0,0
128416,387.096774193548,7,2,1,60,1,0
128416,-83.3333333333333,7,2,1,60,0,0
128609,-100,7,2,1,60,0,0
128803,-66.6666666666667,7,2,1,60,0,0
129577,-121.951219512195,7,2,1,60,0,0
130738,-71.4285714285714,7,2,1,60,0,0
131126,380.952380952381,6,2,1,60,1,0
131126,-55.5555555555556,6,2,1,60,0,0
131506,387.096774193548,4,2,1,60,1,0
131893,-116.279069767442,4,2,1,60,0,0
133054,387.096774193548,6,2,1,60,1,0
137699,400,4,2,1,60,1,0
139299,406.779661016949,4,2,1,60,1,0
140112,413.793103448276,4,2,1,60,1,0
140938,421.052631578947,4,2,1,60,1,0
141779,428.571428571429,4,2,1,60,1,0
141993,-62.5,4,2,1,60,0,0
142636,-100,4,2,1,60,0,0
143493,631.578947368421,4,2,1,60,1,0
143493,-181.818181818182,4,2,1,40,0,0
148703,-100,4,2,1,5,0,0
148861,-100,4,2,1,60,0,0
148940,-100,4,2,1,5,0,0
149019,-100,4,2,1,60,0,0
149098,-100,4,2,1,5,0,0
149177,-100,4,2,1,40,0,0
149650,-100,4,2,1,5,0,0
149808,-100,4,2,1,40,0,0
150282,-100,4,2,1,5,0,0
150440,-100,4,2,1,40,0,0
150677,-100,4,2,1,5,0,0
150756,-100,4,2,1,40,0,0
150993,-100,4,2,1,5,0,0
151071,-100,4,2,1,40,0,0
151308,-100,4,2,1,5,0,0
151387,-100,4,2,1,40,0,0
152177,-100,4,2,1,5,0,0
152335,-100,4,2,1,40,0,0
152808,-100,4,2,1,5,0,0
152966,-100,4,2,1,40,0,0
153440,-100,4,2,1,5,0,0
153598,-100,4,2,1,40,0,0
154150,-100,4,2,1,5,0,0
154229,-100,4,2,1,40,0,0
154782,-100,4,2,1,5,0,0
154861,-117.647058823529,4,2,1,40,0,0
155414,-100,4,2,1,5,0,0
155493,-142.857142857143,4,2,1,40,0,0
156045,-100,4,2,1,5,0,0
156124,-181.818181818182,4,2,1,40,0,0
156677,-100,4,2,1,5,0,0
156756,-250,4,2,1,40,0,0
157545,-100,4,2,1,5,0,0
157703,-100,4,2,1,40,0,0
158098,-125,4,2,1,40,0,0
158571,-100,4,2,1,5,0,0
158650,-125,4,2,1,40,0,0
159124,-100,4,2,1,5,0,0
159282,-166.666666666667,4,2,1,40,0,0
159835,-100,4,2,1,5,0,0
159914,-166.666666666667,4,2,1,40,0,0
160387,-100,4,2,1,5,0,0
160545,-166.666666666667,4,2,1,40,0,0
160847,631.578947368421,4,2,1,40,1,0
161162,631.578947368421,4,2,1,40,1,0
161793,-166.666666666667,4,2,1,40,0,0
162346,-100,4,2,1,5,0,0
162425,-166.666666666667,4,2,1,40,0,0
162898,-100,4,2,1,5,0,0
163056,-100,4,2,1,40,0,0
163293,-100,4,2,1,5,0,0
163372,-100,4,2,1,40,0,0
163609,-100,4,2,1,5,0,0
163688,-100,4,2,1,40,0,0
163925,-100,4,2,1,5,0,0
164004,-100,4,2,1,40,0,0
164240,-100,4,2,1,5,0,0
164319,-117.647058823529,4,2,1,40,0,0
164872,-100,4,2,1,5,0,0
164951,-117.647058823529,4,2,1,40,0,0
165188,-100,4,2,1,5,0,0
165267,-117.647058823529,4,2,1,40,0,0
165819,-100,4,2,1,5,0,0
165898,-117.647058823529,4,2,1,40,0,0
166135,-100,4,2,1,5,0,0
166214,-117.647058823529,4,2,1,40,0,0
166451,-100,4,2,1,5,0,0
166530,-117.647058823529,4,2,1,40,0,0
166767,-100,4,2,1,5,0,0
166846,-117.647058823529,4,2,1,40,0,0
167477,-117.647058823529,4,2,1,40,0,0
168583,-117.647058823529,4,2,1,40,0,0
168977,-100,4,2,1,5,0,0
169056,-117.647058823529,4,2,1,40,0,0
169293,-100,4,2,1,5,0,0
169372,-117.647058823529,4,2,1,40,0,0
170556,-100,4,2,1,5,0,0
170635,-117.647058823529,4,2,1,40,0,0
172372,-117.647058823529,4,2,1,40,0,0
172530,-133.333333333333,4,2,1,40,0,0
173793,-222.222222222221,4,2,1,40,0,0
174740,-117.647058823529,4,2,1,40,0,0
175056,-133.333333333333,4,2,1,40,0,0
176319,-181.818181818181,4,2,1,40,0,0
176951,-105.263157894737,4,2,1,40,0,0
177583,-181.818181818181,4,2,1,40,0,0
177898,-133.333333333333,4,2,1,40,0,0
178056,-100,4,2,1,5,0,0
178214,-105.263157894737,4,2,1,40,0,0
178372,-100,4,2,1,5,0,0
178530,-95.2380952380952,4,2,1,40,0,0
178688,-100,4,2,1,5,0,0
178846,-153.846153846154,4,2,1,40,0,0
179319,-100,4,2,1,5,0,0
179477,-105.263157894737,4,2,1,40,0,0
179951,-100,4,2,1,5,0,0
180109,-86.9565217391306,4,2,1,40,0,0
180583,-100,4,2,1,5,0,0
180740,-86.9565217391306,4,2,1,40,0,0
181056,-117.647058823529,4,2,1,40,0,0
181293,-100,4,2,1,5,0,0
181372,-117.647058823529,4,2,1,40,0,0
182004,-105.263157894737,4,2,1,40,0,0
182477,-100,4,2,1,5,0,0
182635,-86.9565217391306,4,2,1,40,0,0
183109,-100,4,2,1,5,0,0
183267,-86.9565217391306,4,2,1,40,0,0
183425,-100,4,2,1,5,0,0
183583,-86.9565217391306,4,2,1,40,0,0
184372,-100,4,2,1,5,0,0
184530,-133.333333333333,4,2,1,40,0,0
185162,-133.333333333333,4,2,1,40,0,0
185714,-100,4,2,1,5,0,0
185793,-133.333333333333,4,2,1,40,0,0
186030,-100,4,2,1,5,0,0
186109,-133.333333333333,4,2,1,40,0,0
186346,-100,4,2,1,5,0,0
186425,-133.333333333333,4,2,1,40,0,0
187056,-105.263157894737,4,2,1,40,0,0
187293,-100,4,2,1,5,0,0
187372,-105.263157894737,4,2,1,40,0,0
187609,-100,4,2,1,5,0,0
187688,-105.263157894737,4,2,1,40,0,0
187925,-100,4,2,1,5,0,0
188004,-105.263157894737,4,2,1,40,0,0
188240,-100,4,2,1,5,0,0
188319,-105.263157894737,4,2,1,40,0,0
188951,-86.9565217391303,4,2,1,40,0,0
189504,-100,4,2,1,5,0,0
189583,-86.9565217391303,4,2,1,40,0,0
189819,-100,4,2,1,5,0,0
189898,-86.9565217391303,4,2,1,40,0,0
190135,-100,4,2,1,5,0,0
190214,-74.0740740740741,4,2,1,40,0,0
190767,-100,4,2,1,5,0,0
190846,-117.647058823529,4,2,1,40,0,0
191319,-100,4,2,1,5,0,0
191477,-117.647058823529,4,2,1,40,0,0
192030,-100,4,2,1,5,0,0
192109,-117.647058823529,4,2,1,40,0,0
192346,-100,4,2,1,5,0,0
192425,-86.9565217391302,4,2,1,40,0,0
192662,-100,4,2,1,5,0,0
192740,-64.5161290322581,4,2,1,40,0,0
194004,-105.263157894737,4,2,1,40,0,0
194556,-100,4,2,1,5,0,0
194635,-105.263157894737,4,2,1,40,0,0
194872,-100,4,2,1,5,0,0
194951,-105.263157894737,4,2,1,40,0,0
195188,-100,4,2,1,5,0,0
195267,-105.263157894737,4,2,1,40,0,0
195819,-100,4,2,1,5,0,0
195898,-105.263157894737,4,2,1,40,0,0
196135,-100,4,2,1,5,0,0
196214,-105.263157894737,4,2,1,40,0,0
196451,-100,4,2,1,5,0,0
196530,-117.64705882353,4,2,1,40,0,0
197083,-100,4,2,1,5,0,0
197162,-181.818181818182,4,2,1,40,0,0
198030,-100,4,2,1,5,0,0
198109,-181.818181818182,4,2,1,40,0,0
198898,-100,4,2,1,5,0,0
199056,-105.263157894737,4,2,1,40,0,0
199609,-100,4,2,1,5,0,0
199688,-105.263157894737,4,2,1,40,0,0
200319,-105.263157894737,4,2,1,40,0,0
200793,-100,4,2,1,5,0,0
200951,-105.263157894737,4,2,1,40,0,0
201267,-100,4,2,1,5,0,0
201583,-80.0000000000001,4,2,1,40,0,0
202214,-100,4,2,1,5,0,0
202846,-105.263157894737,4,2,1,40,0,0
203793,-105.263157894737,4,2,1,40,0,0
204740,-100,4,2,1,5,0,0
204898,-105.263157894737,4,2,1,40,0,0
205372,-66.6666666666667,4,2,1,40,0,0
206319,-100,4,2,1,5,0,0
206635,-105.263157894737,4,2,1,40,0,0
207267,-100,4,2,1,5,0,0
207583,-105.263157894737,4,2,1,40,0,0
208846,-100,4,2,1,5,0,0
209162,-105.263157894737,4,2,1,40,0,0
210740,-100,4,2,1,5,0,0
211056,-105.263157894737,4,2,1,40,0,0
211372,-100,4,2,1,5,0,0
211688,-105.263157894737,4,2,1,40,0,0
212635,-100,4,2,1,5,0,0
212951,-105.263157894737,4,2,1,40,0,0
213898,-100,4,2,1,5,0,0
214214,-250,4,2,1,40,0,0
218951,-100,4,2,1,5,0,0
219268,387.096774193548,4,2,1,60,1,0
220816,-86.9565217391304,4,2,1,60,0,0
225461,375,4,2,1,60,1,0
225461,-80,4,2,1,60,0,0
226211,-200,4,2,1,60,0,0
226961,363.636363636364,4,2,1,80,1,0
226961,-66.6666666666667,4,2,1,80,0,0
228051,-200,4,2,1,80,0,0
228415,-66.6666666666667,4,2,1,80,0,0
229506,-200,4,2,1,60,0,0
229870,-66.6666666666667,4,2,1,60,0,0
232779,-66.6666666666667,4,2,1,90,0,0
233870,-200,4,2,1,90,0,0
234233,-66.6666666666667,4,2,1,90,0,0
235324,-200,4,2,1,90,0,0
235688,-66.6666666666667,4,2,1,90,0,0
237142,375,4,2,1,60,1,0
237142,-100,4,2,1,70,0,0
237517,-200,4,2,1,35,0,0
237892,-66.6666666666667,4,2,1,80,0,0
238267,-133.333333333333,4,2,1,40,0,0
238642,-50,4,2,1,90,0,0
239017,-100,4,2,1,45,0,0
239392,-40,4,2,1,100,0,0
239767,-80,4,2,1,50,0,0
240142,-50,4,2,1,90,0,0
240517,-100,4,2,1,45,0,0
240892,-66.6666666666667,4,2,1,80,0,0
241267,-133.333333333333,4,2,1,40,0,0
241642,-100,4,2,1,70,0,0
242017,-200,4,2,1,60,0,0
242392,-100,4,2,1,60,0,0
243142,-58.8235294117647,4,2,1,60,0,0
243517,-100,4,2,1,60,0,0
244642,-90.9090909090909,4,2,1,60,0,0
246142,-83.3333333333333,4,2,1,60,0,0
246892,-76.9230769230769,4,2,1,60,0,0
249142,-58.8235294117647,4,2,1,60,0,0
249517,-100,4,2,1,60,0,0
250642,-90.9090909090909,4,2,1,60,0,0
251392,-83.3333333333333,4,2,1,60,0,0
252517,-76.9230769230769,4,2,1,60,0,0
255142,-58.8235294117647,4,2,1,60,0,0
255517,-90.9090909090909,4,2,1,60,0,0
256642,-83.3333333333333,4,2,1,60,0,0
258142,-76.9230769230769,4,2,1,60,0,0
261142,-58.8235294117647,4,2,1,60,0,0
261517,-90.9090909090909,4,2,1,60,0,0
266017,-76.9230769230769,4,2,1,60,0,0
267142,-60.6060606060606,4,2,69,100,0,1
291162,400,4,2,1,60,1,0
291162,-93.4579439252336,4,2,1,60,0,0
294362,-136.986301369863,4,2,1,60,0,0
294762,-136.986301369863,4,2,1,60,0,0
295062,-136.986301369863,4,2,1,5,0,0
295162,-136.986301369863,4,2,1,60,0,0
295462,-136.986301369863,4,2,1,5,0,0
295562,-136.986301369863,4,2,1,60,0,0
295862,-136.986301369863,4,2,1,5,0,0
295962,-136.986301369863,4,2,1,60,0,0
297962,-136.986301369863,4,2,1,60,0,0
298262,-136.986301369863,4,2,1,5,0,0
298362,-136.986301369863,4,2,1,60,0,0
298662,-136.986301369863,4,2,1,5,0,0
298762,-136.986301369863,4,2,1,60,0,0
299062,-136.986301369863,4,2,1,5,0,0
299162,-136.986301369863,4,2,1,60,0,0
299462,-136.986301369863,4,2,1,5,0,0
299562,-136.986301369863,4,2,1,60,0,0
300362,-136.986301369863,4,2,1,5,0,0
300762,-117.647058823529,4,2,1,60,0,0
301462,-136.986301369863,4,2,1,5,0,0
301562,-153.846153846154,4,2,1,60,0,0
302262,-136.986301369863,4,2,1,5,0,0
302362,-222.222222222222,4,2,1,60,0,0
303062,-136.986301369863,4,2,1,5,0,0
303162,-400,4,2,1,60,0,0
303862,-136.986301369863,4,2,1,5,0,0
303962,-1000,4,2,1,60,0,0
304562,-136.986301369863,4,2,1,5,0,0
304762,400,4,2,1,60,1,0
304762,-119.047619047619,4,2,1,60,0,0
307362,-136.986301369863,4,2,1,5,0,0
307562,-119.047619047619,4,2,1,60,0,0
308262,-136.986301369863,4,2,1,5,0,0
308362,-136.986301369863,4,2,1,60,0,0
308662,-136.986301369863,4,2,1,5,0,0
308762,-136.986301369863,4,2,1,60,0,0
309062,-136.986301369863,4,2,1,5,0,0
309162,-136.986301369863,4,2,1,60,0,0
309462,-136.986301369863,4,2,1,5,0,0
309562,-136.986301369863,4,2,1,60,0,0
310362,-136.986301369863,4,2,1,5,0,0
310762,-136.986301369863,4,2,1,60,0,0
311462,-136.986301369863,4,2,1,5,0,0
311562,-136.986301369863,4,2,1,60,0,0
311862,-136.986301369863,4,2,1,5,0,0
311962,-136.986301369863,4,2,1,60,0,0
312262,-136.986301369863,4,2,1,5,0,0
312362,-136.986301369863,4,2,1,60,0,0
312662,-136.986301369863,4,2,1,5,0,0
312762,-136.986301369863,4,2,1,60,0,0
313062,-136.986301369863,4,2,1,5,0,0
313162,-136.986301369863,4,2,1,60,0,0
314362,-117.647058823529,4,2,1,60,0,0
315062,-136.986301369863,4,2,1,5,0,0
315162,-153.846153846154,4,2,1,60,0,0
315862,-136.986301369863,4,2,1,5,0,0
315962,-222.222222222222,4,2,1,60,0,0
316562,-136.986301369863,4,2,1,5,0,0
316762,-400,4,2,1,60,0,0
317462,-136.986301369863,4,2,1,5,0,0
317550,400,4,2,1,60,1,0
317550,-100,4,2,1,60,0,0
322750,-71.4285714285714,4,2,1,60,0,0
323950,410.958904109589,4,2,1,60,1,0
324771,400,4,2,1,60,1,0
325571,-100,4,2,69,60,0,0

[Colours]
Combo1 : 238,204,140
Combo2 : 219,170,140
Combo3 : 179,152,194
Combo4 : 230,142,142

[HitObjects]
426,363,6622,5,0,0:0:0:0:
447,295,6789,1,0,0:0:0:0:
371,323,6956,1,0,0:0:0:0:
355,305,7039,1,0,0:0:0:0:
377,301,7122,1,2,0:0:0:0:
283,349,8039,5,0,0:0:0:0:
275,355,8081,1,0,0:0:0:0:
268,361,8122,2,0,L|186:352,1,48,0|0,1:0|0:0,0:0:0:0:
207,108,8872,6,0,L|289:117,1,48,0|0,1:0|0:0,0:0:0:0:
426,363,10622,5,0,0:0:0:0:
447,295,10789,1,0,0:0:0:0:
371,323,10956,1,0,0:0:0:0:
355,305,11039,1,0,0:0:0:0:
377,301,11122,1,2,0:0:0:0:
132,304,12122,6,0,L|137:268,1,24,0|0,3:0|0:0,0:0:0:0:
132,304,12247,2,0,L|127:340,1,24,0|0,3:0|0:0,0:0:0:0:
132,304,12372,6,0,B|165:302|165:302|169:305|169:305|202:303,1,72.0000027465821,0|0,1:0|0:0,0:0:0:0:
348,182,12539,2,0,B|315:184|315:184|311:181|311:181|277:182,1,72.0000027465821,0|0,1:0|0:0,0:0:0:0:
217,16,13622,5,2,0:0:0:0:
291,361,14122,1,2,0:3:0:0:
187,267,14622,5,0,0:0:0:0:
173,259,14706,1,0,0:0:0:0:
154,255,14789,1,0,0:0:0:0:
131,262,14872,1,0,0:0:0:0:
109,278,14956,1,0,0:0:0:0:
94,308,15039,1,0,0:0:0:0:
104,337,15123,6,0,B|106:286|92:265|92:265|117:218|116:177|116:177|70:156|44:181|44:181|24:135|-12:117|-12:117|30:106|66:84|66:84|91:110|132:109|132:109|146:92|135:49|135:49|178:39|195:12|195:12|198:43|232:71|232:71|204:106|209:127|209:127|245:146|279:133|279:133|301:169|335:197|335:197|294:198|257:230|257:230|244:196|193:195|193:195|175:231|180:285|180:285|149:299|130:348,1,1248,4|0,0:0|0:0,0:0:0:0:
290,363,17923,5,8,0:3:0:0:
353,357,18056,1,4,0:3:0:0:
416,350,18189,1,8,0:3:0:0:
385,289,18323,6,0,B|390:253|374:211|374:211|352:193|425:185|455:216|455:216|450:169|450:169|472:187|525:175|525:175|509:150|487:132|487:132|511:109|541:72|541:72|494:77|449:95|425:118|425:118|402:100|393:74|393:74|368:90|365:124|365:124|344:126|333:141|333:141|318:129|298:131|298:131|288:99|260:88|260:88|256:116|238:138|238:138|209:120|161:112|114:117|114:117|151:147|180:164|180:164|162:186|151:214|151:214|205:215|223:193|223:193|228:240|228:240|251:204|325:196|307:218|307:218|298:266|321:300,1,1447.68004417969,4|0,0:0|0:0,0:0:0:0:
209,368,21123,5,8,0:3:0:0:
164,316,21256,1,4,0:3:0:0:
92,344,21389,1,8,0:3:0:0:
72,266,21523,6,0,B|75:284|91:292|91:292|148:284|148:284|156:220|156:220|140:196|140:196|152:171|152:171|148:125|148:125|206:101|206:48|206:48|225:33|264:20|264:20|340:77|353:157|353:157|283:192|268:207|268:207|249:192|225:182|225:182|249:178|268:158|268:158|283:178|341:184|362:208|362:208|353:242|370:284|370:284|423:292|423:292|443:280|444:264,1,1060.80002023315,4|0,0:0|0:0,0:0:0:0:
359,358,24323,6,0,P|314:332|288:330,1,54.4000010375977,2|0,0:0|0:0,0:0:0:0:
245,343,24589,1,2,0:0:0:0:
142,381,24723,6,0,P|52:283|31:118,1,285.600005447388,2|0,0:3|0:0,0:0:0:0:
94,136,25523,6,0,P|109:242|178:325,1,218.399990002442,2|0,0:3|0:0,0:0:0:0:
214,270,26323,6,0,P|169:210|162:135,1,151.199995385742,2|0,0:3|0:0,0:0:0:0:
225,146,27123,6,0,P|230:187|255:220,1,84,2|0,0:3|0:0,0:0:0:0:
292,162,27923,5,4,0:0:0:0:
438,54,28523,6,0,L|483:68,2,32,2|0|0,0:0|0:0|0:0,0:0:0:0:
400,112,28723,2,0,B|419:83|413:38|413:38|338:43|301:9|301:9|300:68|300:68|279:67|256:75|256:75|273:124|273:124|295:163|328:148|328:148|335:171|363:191|363:191|361:234|361:234|316:249|305:316|305:316|255:270|210:286|210:286|182:253|182:253|192:220|184:197|184:197|219:189|212:145|212:145|196:96|196:96|173:104|157:118|157:118|119:72|119:72|111:121|49:163|49:163|71:202|108:211,1,1248,4|0,0:0|0:0,0:0:0:0:
240,352,31523,5,8,0:3:0:0:
320,344,31656,1,4,0:3:0:0:
384,304,31789,1,8,0:3:0:0:
272,220,31923,6,0,B|256:193|202:206|202:206|210:208|210:208|155:225|99:174|99:174|72:99|72:99|92:46|141:36|141:36|176:72|164:127|164:127|99:174|99:174|41:173|-58:143|-113:297|51:373|259:416|310:305|243:280,1,1060.80002023315,4|0,0:0|0:0,0:0:0:0:
362,152,34723,5,8,0:3:0:0:
419,192,34856,1,4,0:3:0:0:
447,256,34989,1,8,0:3:0:0:
360,280,35123,6,0,B|284:86|35:140|21:318|21:318|189:361|326:135|155:8|155:8|42:138|162:303|278:296,1,1324.79995552735,4|0,0:0|0:0,0:0:0:0:
487,292,38343,6,0,P|489:150|419:24,1,285.600005447388,2|0,0:3|0:0,0:0:0:0:
380,74,39143,6,0,P|425:171|421:280,1,218.399990002442,2|0,0:3|0:0,0:0:0:0:
358,257,39943,6,0,P|360:182|329:114,1,151.199995385742,2|0,0:3|0:0,0:0:0:0:
278,153,40743,6,0,P|297:194|295:240,1,84,2|0,0:3|0:0,0:0:0:0:
229,206,41523,37,4,0:0:0:0:
385,228,41723,5,2,0:0:0:0:
388,218,41823,1,2,0:0:0:0:
445,187,41923,1,2,0:0:0:0:
448,177,42023,1,2,0:0:0:0:
395,154,42123,37,2,0:3:0:0:
422,212,42223,1,2,0:3:0:0:
441,269,42323,1,4,0:0:0:0:
479,79,42523,5,2,0:0:0:0:
461,84,42623,1,2,0:0:0:0:
438,83,42723,1,2,0:0:0:0:
409,73,42823,1,2,0:0:0:0:
387,50,42923,1,2,0:0:0:0:
378,19,43023,1,2,0:0:0:0:
450,14,43123,37,4,0:0:0:0:
255,48,43323,38,0,L|242:13,2,32
295,48,43523,21,2,0:0:0:0:
285,81,43623,1,2,0:0:0:0:
277,112,43723,1,2,0:0:0:0:
267,145,43823,1,2,0:0:0:0:
290,176,43923,37,4,0:0:0:0:
246,154,44023,1,2,0:3:0:0:
198,158,44123,1,2,0:3:0:0:
158,188,44223,1,2,0:3:0:0:
142,236,44323,6,0,L|149:310,1,64,2|0,0:0|0:0,0:0:0:0:
211,333,44523,2,0,L|204:368,2,32,2|0|0,0:3|0:0|0:0,0:0:0:0:
96,355,44723,37,4,0:0:0:0:
70,145,44923,37,2,0:3:0:0:
72,132,44989,1,2,0:3:0:0:
74,119,45056,1,2,0:3:0:0:
76,106,45123,21,2,0:3:0:0:
94,93,45223,1,2,0:0:0:0:
162,97,45323,1,2,0:0:0:0:
180,84,45423,1,2,0:0:0:0:
251,93,45523,22,0,L|279:69,2,32,4|0|0,0:0|0:0|0:0,0:0:0:0:
241,130,45723,21,2,0:0:0:0:
256,165,45823,1,2,0:0:0:0:
292,178,45923,1,2,0:0:0:0:
326,161,46023,1,2,0:0:0:0:
378,146,46123,1,2,0:0:0:0:
432,156,46223,1,2,0:0:0:0:
462,226,46323,37,4,0:0:0:0:
383,64,46723,38,0,L|383:49,5,12.8
308,75,47123,22,0,L|307:102,5,19.1999994140625
229,82,47523,22,0,L|230:55,5,25.6
151,93,47923,22,0,L|150:128,1,32
65,102,48056,22,0,L|65:70,17,32
102,200,49285,21,2,0:0:0:0:
108,198,49351,1,2,0:0:0:0:
99,203,49418,21,2,0:0:0:0:
110,202,49485,1,2,0:0:0:0:
98,208,49551,21,2,0:0:0:0:
113,207,49618,1,2,0:0:0:0:
97,212,49685,21,2,0:0:0:0:
116,212,49751,1,2,0:0:0:0:
96,215,49827,21,2,0:0:0:0:
119,217,49901,1,2,0:0:0:0:
96,218,49975,21,2,0:0:0:0:
120,223,50049,1,2,0:0:0:0:
96,223,50102,21,2,0:0:0:0:
121,230,50176,1,2,0:0:0:0:
96,226,50250,21,2,0:0:0:0:
123,237,50324,1,2,0:0:0:0:
95,257,50388,21,2,0:0:0:0:
35,167,50614,1,2,0:0:0:0:
98,81,50790,1,2,0:0:0:0:
160,63,50952,1,2,0:0:0:0:
195,78,51085,1,0,0:0:0:0:
222,100,51187,1,0,0:0:0:0:
251,109,51289,1,0,0:0:0:0:
273,104,51376,1,0,0:0:0:0:
287,97,51463,1,0,0:0:0:0:
292,91,51534,1,0,0:0:0:0:
296,85,51605,6,0,L|312:42,3,32,2|0|0|0,0:0|0:0|0:0|0:0,0:0:0:0:
348,167,51938,2,0,L|364:210,3,32,2|0|0|0,0:0|0:0|0:0|0:0,0:0:0:0:
423,109,52271,6,0,L|445:104,1,12.8,8|0,0:3|0:0,0:0:0:0:
475,54,52427,2,0,L|462:128,1,72.0000027465821,4|0,0:3|0:0,0:0:0:0:
438,261,52713,1,2,0:3:0:0:
134,325,55622,21,2,0:0:0:0:
127,295,55803,1,0,0:0:0:0:
214,264,55985,5,2,0:0:0:0:
227,315,56166,1,0,0:0:0:0:
321,310,56349,37,2,0:0:0:0:
303,220,56531,1,0,0:0:0:0:
386,169,56713,5,2,0:0:0:0:
419,320,56894,1,0,0:0:0:0:
492,232,57076,37,2,0:0:0:0:
304,126,57258,1,0,0:0:0:0:
236,52,57440,5,2,0:0:0:0:
75,95,57622,1,0,0:0:0:0:
204,144,57803,37,2,0:0:0:0:
205,362,57985,2,0,B|118:329|192:219|269:277|269:277|346:338|395:269|346:238,1,360.000013732911
383,146,58531,6,0,P|364:176|355:211,1,72.0000027465821,4|0,0:0|0:0,0:0:0:0:
296,157,58713,2,0,P|287:122|288:87,2,72.0000027465821,0|0|2,3:0|3:0|3:0,0:0:0:0:
218,139,59076,1,0,1:0:0:0:
176,83,59167,1,0,1:0:0:0:
193,114,59257,1,2,1:2:0:0:
142,162,59440,2,0,P|107:153|76:135,1,72.0000027465821,2|0,0:1|0:0,0:0:0:0:
17,229,59622,6,0,P|52:229|87:220,1,72.0000027465821,4|0,0:0|0:0,0:0:0:0:
87,220,59985,6,0,P|51:220|16:211,1,72.0000027465821,4|0,0:0|0:0,0:0:0:0:
85,119,60167,2,0,P|110:144|141:161,2,72.0000027465821,0|0|2,3:0|3:0|3:0,0:0:0:0:
190,74,60530,1,0,1:0:0:0:
218,139,60621,1,0,1:0:0:0:
199,108,60713,1,2,1:2:0:0:
305,86,60894,2,0,P|296:120|296:156,1,72.0000027465821,2|0,0:1|0:0,0:0:0:0:
355,211,61076,6,0,P|372:179|397:154,1,72.0000027465821,4|0,0:0|0:0,0:0:0:0:
422,164,61440,1,4,0:0:0:0:
21,360,61622,21,0,0:0:0:0:
49,365,61713,1,0,0:0:0:0:
77,361,61803,1,0,0:0:0:0:
102,347,61894,1,0,0:0:0:0:
120,325,61985,1,0,0:0:0:0:
131,298,62076,1,0,0:0:0:0:
134,269,62167,5,0,0:0:0:0:
157,232,62258,1,0,0:0:0:0:
197,217,62349,1,0,0:0:0:0:
240,218,62440,1,0,0:0:0:0:
270,200,62531,1,0,0:0:0:0:
306,222,62622,1,0,0:0:0:0:
321,262,62713,1,0,0:0:0:0:
321,305,62804,1,0,0:0:0:0:
343,333,62894,37,0,0:0:0:0:
352,281,62985,1,0,0:0:0:0:
361,228,63076,1,0,0:0:0:0:
370,176,63167,1,0,0:0:0:0:
381,124,63258,1,0,0:0:0:0:
396,112,63349,1,0,0:0:0:0:
412,102,63440,1,0,0:0:0:0:
430,96,63531,1,0,0:0:0:0:
452,93,63622,6,0,P|457:123|449:153,1,62.3999971435548,2|0,0:3|0:0,0:0:0:0:
379,26,63803,2,0,P|355:46|325:53,1,62.3999971435548,2|0,0:3|0:0,0:0:0:0:
244,31,63985,1,8,0:0:0:0:
477,10,64167,1,0,3:0:0:0:
509,253,64349,6,0,P|512:217|506:181,1,72.0000027465821,4|0,0:0|0:0,0:0:0:0:
431,216,64531,2,0,P|418:249|398:279,2,72.0000027465821,0|0|2,3:0|3:0|3:0,0:0:0:0:
347,210,64895,1,0,1:0:0:0:
287,248,64986,1,0,1:0:0:0:
319,232,65076,1,2,1:2:0:0:
278,163,65258,2,0,P|242:169|207:166,1,72.0000027465821,2|0,0:1|0:0,0:0:0:0:
178,54,65440,6,0,P|207:74|240:87,1,72.0000027465821,4|0,0:0|0:0,0:0:0:0:
178,54,65803,6,0,P|213:48|249:51,1,72.0000027465821,4|0,0:0|0:0,0:0:0:0:
277,161,65985,2,0,P|247:140|214:127,2,72.0000027465821,0|0|2,3:0|3:0|3:0,0:0:0:0:
245,273,66349,1,0,1:0:0:0:
208,212,66440,1,0,1:0:0:0:
230,240,66530,1,2,1:2:0:0:
163,352,66712,2,0,P|166:316|160:280,1,72.0000027465821,2|0,0:1|0:0,0:0:0:0:
84,319,66894,6,0,P|71:352|50:381,1,72.0000027465821,4|0,0:0|0:0,0:0:0:0:
84,348,67258,5,4,0:0:0:0:
115,318,67349,1,0,0:0:0:0:
120,275,67440,1,0,0:0:0:0:
100,236,67531,1,0,0:0:0:0:
65,209,67622,5,0,0:0:0:0:
42,183,67713,1,0,0:0:0:0:
34,150,67803,1,0,0:0:0:0:
44,118,67894,1,0,0:0:0:0:
67,100,67985,37,0,0:0:0:0:
81,125,68076,1,0,0:0:0:0:
85,153,68167,1,0,0:0:0:0:
83,181,68258,1,0,0:0:0:0:
65,209,68349,5,0,0:0:0:0:
60,222,68440,1,0,0:0:0:0:
57,236,68531,1,0,0:0:0:0:
55,250,68622,1,0,0:0:0:0:
55,264,68713,6,0,L|64:345,1,81.6000015563965,2|0,0:0|0:0,0:0:0:0:
147,321,69076,6,0,L|138:265,1,55.6800016992188,2|0,0:0|0:0,0:0:0:0:
224,264,69440,38,0,L|229:312,1,33.5999989746094,2|0,0:0|0:0,0:0:0:0:
307,276,69803,6,0,L|305:259,1,14.3999995605469,2|0,0:0|0:0,0:0:0:0:
383,258,70167,5,2,0:0:0:0:
506,336,70367,5,0,0:0:0:0:
510,337,70467,1,0,0:0:0:0:
510,340,70567,1,0,0:0:0:0:
506,342,70667,1,0,0:0:0:0:
500,338,70767,1,0,0:0:0:0:
500,327,70867,1,0,0:0:0:0:
512,310,70967,1,0,0:0:0:0:
510,281,71067,1,0,0:0:0:0:
490,253,71167,5,0,0:0:0:0:
453,248,71260,1,0,0:0:0:0:
418,265,71354,1,0,0:0:0:0:
406,300,71448,1,0,0:0:0:0:
414,337,71542,1,0,0:0:0:0:
390,375,71642,1,0,0:0:0:0:
343,380,71742,1,0,0:0:0:0:
307,347,71842,1,0,0:0:0:0:
314,306,71942,6,0,L|308:247,1,48,2|0,0:0|0:0,0:0:0:0:
295,164,72129,1,0,0:0:0:0:
250,180,72223,1,0,0:0:0:0:
228,216,72317,5,0,0:0:0:0:
206,205,72412,1,0,0:0:0:0:
184,211,72508,1,0,0:0:0:0:
171,229,72603,1,0,0:0:0:0:
169,247,72699,5,0,0:0:0:0:
181,264,72794,1,0,0:0:0:0:
181,275,72890,1,0,0:0:0:0:
175,279,72985,1,0,0:0:0:0:
171,277,73081,1,0,0:0:0:0:
171,274,73173,1,0,0:0:0:0:
175,273,73266,1,0,0:0:0:0:
215,339,73355,86,0,B|210:306|210:306|119:277|119:277|96:303,1,163.200003112793,4|0,1:2|0:0,0:0:0:0:
31,273,73636,5,0,0:0:0:0:
31,273,73730,2,0,L|25:207,1,48,12|0,1:2|0:0,0:0:0:0:
26,122,73917,1,0,0:0:0:0:
26,122,74011,1,0,0:0:0:0:
26,122,74105,5,4,1:3:0:0:
42,91,74198,1,0,0:0:0:0:
75,81,74292,5,0,0:0:0:0:
104,86,74386,1,0,0:0:0:0:
130,120,74480,1,8,1:2:0:0:
137,177,74573,1,0,0:0:0:0:
184,211,74667,1,0,0:0:0:0:
243,202,74761,1,0,0:0:0:0:
267,168,74855,6,0,P|265:141|273:116,1,52.8000016113282,4|0,1:3|0:0,0:0:0:0:
397,115,75042,1,0,0:0:0:0:
397,115,75136,1,0,0:0:0:0:
397,115,75230,2,0,P|378:96|343:80,1,52.8000016113282,8|0,1:2|0:0,0:0:0:0:
332,223,75417,2,0,P|357:216|388:193,1,54
466,255,75605,5,4,1:3:0:0:
418,304,75698,1,0,0:0:0:0:
365,299,75792,1,0,0:0:0:0:
337,264,75886,1,0,0:0:0:0:
332,223,75980,5,8,1:2:0:0:
337,264,76073,1,0,0:0:0:0:
324,309,76167,1,2,3:3:0:0:
289,338,76261,1,2,3:3:0:0:
236,384,76355,86,0,B|227:366|227:366|244:272,1,115.199996484375,4|0,1:2|0:0,0:0:0:0:
247,178,76636,1,0,0:0:0:0:
258,187,76730,2,0,L|184:173,1,57.5999982421876,8|0,1:2|0:0,0:0:0:0:
145,331,76917,2,0,L|71:317,1,57.5999982421876
27,237,77105,5,4,1:3:0:0:
31,205,77198,1,0,0:0:0:0:
64,184,77292,1,0,0:0:0:0:
43,161,77386,1,0,0:0:0:0:
93,160,77480,5,8,1:2:0:0:
108,114,77573,1,0,0:0:0:0:
92,60,77667,1,0,0:0:0:0:
45,20,77761,1,0,0:0:0:0:
104,55,77855,6,0,B|136:50|136:50|159:78,1,62.3999971435548,4|0,1:3|0:0,0:0:0:0:
129,240,78042,2,0,B|161:234|161:234|175:203,1,62.3999971435548
228,134,78230,6,0,L|289:124,1,62.3999971435548,8|0,1:2|0:0,0:0:0:0:
334,57,78417,2,0,L|396:48,1,62.3999971435548
472,16,78605,5,4,1:3:0:0:
477,60,78698,1,0,0:0:0:0:
460,101,78792,1,0,0:0:0:0:
462,142,78886,1,0,0:0:0:0:
486,216,78980,5,8,1:2:0:0:
454,223,79073,1,2,3:3:0:0:
487,230,79167,1,2,3:3:0:0:
454,231,79261,1,2,3:3:0:0:
428,257,79355,6,0,L|355:240,1,57.5999982421876,4|0,1:2|0:0,0:0:0:0:
277,365,79542,1,0,0:0:0:0:
254,361,79636,1,0,0:0:0:0:
229,327,79730,5,8,1:2:0:0:
184,337,79823,1,0,0:0:0:0:
145,311,79917,1,0,0:0:0:0:
139,265,80011,1,0,0:0:0:0:
164,226,80105,1,4,1:3:0:0:
182,217,80198,1,0,0:0:0:0:
195,210,80292,1,0,0:0:0:0:
209,203,80386,1,0,0:0:0:0:
253,214,80480,5,8,1:2:0:0:
290,197,80573,1,0,0:0:0:0:
312,163,80667,1,0,0:0:0:0:
316,122,80761,1,0,0:0:0:0:
348,100,80855,5,4,1:3:0:0:
340,144,80948,1,0,0:0:0:0:
360,179,81042,1,0,0:0:0:0:
396,194,81136,1,0,0:0:0:0:
420,181,81230,2,0,L|435:111,1,62.3999971435548,8|0,1:2|0:0,0:0:0:0:
511,252,81417,5,0,0:0:0:0:
481,258,81511,1,0,0:0:0:0:
451,266,81605,2,0,L|436:196,1,62.3999971435548,4|0,1:3|0:0,0:0:0:0:
410,99,81792,2,0,L|395:29,1,62.3999971435548
308,0,81980,6,0,P|247:8|253:89,1,124.79999428711,8|2,1:2|3:3,0:0:0:0:
305,119,82261,5,2,3:3:0:0:
317,111,82355,1,4,1:2:0:0:
288,87,82448,1,0,0:0:0:0:
244,80,82542,1,0,0:0:0:0:
213,92,82636,1,0,0:0:0:0:
158,140,82730,5,8,1:2:0:0:
144,110,82823,1,0,0:0:0:0:
116,100,82917,1,0,0:0:0:0:
82,107,83011,1,0,0:0:0:0:
53,84,83105,5,4,1:3:0:0:
47,127,83198,1,0,0:0:0:0:
18,153,83292,1,0,0:0:0:0:
30,192,83386,1,0,0:0:0:0:
10,256,83480,6,0,L|83:239,1,62.3999971435548,8|0,1:2|0:0,0:0:0:0:
156,222,83667,2,0,L|229:205,1,62.3999971435548
349,167,83855,5,4,1:3:0:0:
363,201,83948,1,0,0:0:0:0:
393,223,84042,1,0,0:0:0:0:
430,226,84136,1,0,0:0:0:0:
459,246,84230,2,0,P|461:278|454:308,1,62.3999971435548,8|0,1:2|0:0,0:0:0:0:
377,314,84417,2,0,P|356:337|329:353,1,62.3999971435548
254,351,84605,5,4,1:3:0:0:
231,344,84698,1,2,3:0:0:0:
219,331,84792,1,2,3:0:0:0:
198,325,84885,1,2,3:0:0:0:
130,352,84980,1,10,3:3:0:0:
91,196,85167,6,0,L|67:201,2,24,6|0|0,3:3|0:0|0:0,0:0:0:0:
138,130,85355,5,4,1:2:0:0:
178,121,85448,1,0,0:0:0:0:
217,114,85542,2,0,L|221:145,1,24
432,98,85730,5,8,1:2:0:0:
368,85,85823,1,0,0:0:0:0:
305,74,85917,2,0,L|299:109,1,36.0000013732911
335,238,86105,5,4,1:3:0:0:
343,186,86198,1,0,0:0:0:0:
313,209,86292,101,0,0:0:0:0:
366,214,86386,1,0,0:0:0:0:
338,214,86480,86,0,B|363:201|363:201|423:217|423:217|435:238,1,115.199996484375,8|0,1:2|0:0,0:0:0:0:
438,330,86761,1,0,0:0:0:0:
438,361,86855,5,4,1:3:0:0:
427,350,86948,1,0,0:0:0:0:
405,342,87042,1,0,0:0:0:0:
374,345,87136,1,0,0:0:0:0:
331,361,87230,1,8,1:2:0:0:
291,353,87323,1,0,0:0:0:0:
281,314,87417,1,0,0:0:0:0:
245,330,87511,1,0,0:0:0:0:
261,281,87605,5,4,1:3:0:0:
226,248,87698,1,0,0:0:0:0:
168,256,87792,1,0,0:0:0:0:
139,313,87886,1,0,0:0:0:0:
171,374,87980,5,8,1:2:0:0:
178,317,88073,1,0,0:0:0:0:
140,273,88167,1,2,3:3:0:0:
83,272,88261,1,2,3:3:0:0:
27,298,88355,6,0,L|42:228,1,62.3999971435548,4|0,1:2|0:0,0:0:0:0:
58,383,88542,2,0,L|43:313,1,62.3999971435548
17,216,88730,6,0,L|2:146,1,62.3999971435548,8|0,1:2|0:0,0:0:0:0:
73,10,88917,2,0,L|58:80,1,62.3999971435548
134,148,89105,5,4,1:3:0:0:
110,153,89198,1,0,0:0:0:0:
138,142,89292,1,0,0:0:0:0:
108,135,89386,1,0,0:0:0:0:
204,95,89480,5,8,1:2:0:0:
192,87,89573,1,0,0:0:0:0:
232,61,89667,1,2,0:2:0:0:
279,60,89761,1,0,0:0:0:0:
313,96,89855,6,0,L|322:25,1,72.0000027465821,4|0,1:3|0:0,0:0:0:0:
495,61,90042,2,0,L|486:133,1,72.0000027465821
344,234,90230,6,0,L|336:184,1,48,8|0,1:2|0:0,0:0:0:0:
419,179,90417,2,0,L|426:228,1,48
474,317,90605,5,4,1:3:0:0:
428,316,90698,1,0,0:0:0:0:
390,339,90792,1,0,0:0:0:0:
349,341,90886,1,0,0:0:0:0:
272,368,90980,5,8,1:2:0:0:
266,335,91073,1,2,3:3:0:0:
258,351,91167,1,2,3:3:0:0:
253,319,91261,1,2,3:3:0:0:
171,357,91355,6,0,P|110:349|116:268,1,124.79999428711,4|0,1:2|0:0,0:0:0:0:
172,243,91636,5,0,0:0:0:0:
184,251,91730,1,8,1:2:0:0:
144,277,91823,1,0,0:0:0:0:
97,278,91917,1,0,0:0:0:0:
58,241,92011,1,0,0:0:0:0:
19,203,92105,5,4,1:3:0:0:
56,186,92198,1,0,0:0:0:0:
78,152,92292,1,0,0:0:0:0:
82,111,92386,1,0,0:0:0:0:
66,73,92480,5,8,1:2:0:0:
58,117,92573,1,0,0:0:0:0:
78,152,92667,1,0,0:0:0:0:
114,167,92761,1,0,0:0:0:0:
156,161,92855,5,4,1:3:0:0:
173,132,92948,1,0,0:0:0:0:
180,102,93042,1,0,0:0:0:0:
205,77,93136,1,0,0:0:0:0:
242,71,93230,6,0,P|269:85|281:113,1,62.3999971435548,8|0,1:2|0:0,0:0:0:0:
456,131,93417,1,0,0:0:0:0:
450,101,93511,1,0,0:0:0:0:
446,71,93605,2,0,L|384:57,1,62.3999971435548,4|0,1:3|0:0,0:0:0:0:
301,6,93792,2,0,L|239:19,1,62.3999971435548
380,0,93980,6,0,B|396:59|396:59|358:108,1,124.79999428711,8|2,1:2|3:3,0:0:0:0:
350,119,94261,5,2,3:3:0:0:
338,127,94354,1,4,1:2:0:0:
378,153,94448,1,0,0:0:0:0:
425,154,94542,1,0,0:0:0:0:
455,145,94636,1,0,0:0:0:0:
512,200,94729,5,8,1:2:0:0:
487,220,94823,1,0,0:0:0:0:
479,253,94917,1,0,0:0:0:0:
486,287,95011,1,0,0:0:0:0:
422,347,95105,5,4,1:3:0:0:
397,326,95198,1,0,0:0:0:0:
351,316,95292,1,0,0:0:0:0:
300,340,95385,1,0,0:0:0:0:
272,376,95480,5,8,1:2:0:0:
264,314,95573,1,0,0:0:0:0:
259,251,95667,1,0,0:0:0:0:
250,189,95761,1,0,0:0:0:0:
259,169,95855,5,4,1:3:0:0:
141,294,96042,1,0,0:0:0:0:
293,384,96230,1,8,1:2:0:0:
268,90,96417,6,0,P|229:96|193:124,1,72.0000027465821,6|0,3:3|0:0,0:0:0:0:
14,0,96605,2,0,P|39:27|50:73,1,72.0000027465821,8|2,1:2|1:3,0:0:0:0:
92,189,96792,2,0,L|120:104,1,72.0000027465821,2|2,1:3|1:3,0:0:0:0:
145,36,96980,2,0,L|159:-8,6,36.0000013732911,10|0|0|0|6|0|0,1:3|0:0|0:0|0:0|1:3|0:0|0:0,0:0:0:0:
231,46,97355,6,0,P|262:81|286:134,1,72.0000027465821,4|0,1:3|0:0,0:0:0:0:
196,274,97555,2,0,P|182:236|185:173,1,72.0000027465821,4|0,1:3|0:0,0:0:0:0:
373,94,97755,6,0,P|361:133|334:172,1,72,12|0,1:2|0:0,0:0:0:0:
96,178,98155,38,0,P|139:137|168:122,1,79.2000007553101,4|0,1:3|0:0,0:0:0:0:
388,244,98355,2,0,P|336:250|299:240,1,79.2000007553101,4|0,1:3|0:0,0:0:0:0:
131,43,98555,6,0,P|182:46|231:72,1,93.5999957153322,12|0,1:2|0:0,0:0:0:0:
249,336,98955,38,0,P|215:281|207:244,1,86.3999973632813,8|0,1:3|0:0,0:0:0:0:
308,12,99155,2,0,P|316:66|301:119,1,86.3999973632813,8|0,1:3|0:0,0:0:0:0:
85,291,99355,6,0,P|105:224|147:172,1,115.2,14|0,1:2|0:0,0:0:0:0:
421,133,99755,38,0,P|377:170|318:185,1,93.6000003570557,12|0,1:3|0:0,0:0:0:0:
87,91,99955,2,0,P|141:76|195:80,1,93.6000003570557,8|0,1:3|0:0,0:0:0:0:
385,323,100155,6,0,P|318:291|263:206,1,136.799996347046,14|0,1:2|0:0,0:0:0:0:
233,0,100555,38,0,P|266:42|288:90,1,100.799996923828,12|0,1:3|0:0,0:0:0:0:
177,336,100755,2,0,P|172:272|186:217,1,100.799996923828,12|0,1:3|0:0,0:0:0:0:
444,50,100955,6,0,P|406:125|336:177,1,158.400004833985,14|0,1:2|0:0,0:0:0:0:
46,201,101355,38,0,P|101:159|153:140,1,105.600003222656,12|0,1:3|0:0,0:0:0:0:
422,287,101555,2,0,P|362:286|291:260,1,105.600003222656,12|0,1:3|0:0,0:0:0:0:
96,0,101755,6,0,P|194:34|255:124,1,172.799994726563,14|0,1:2|0:0,0:0:0:0:
241,384,102155,38,0,P|215:320|212:288,1,86.3999973632813,4|0,1:3|0:0,0:0:0:0:
398,95,102355,2,0,P|356:148|329:168,1,86.3999973632813,4|0,1:3|0:0,0:0:0:0:
51,115,102555,2,0,P|118:124|148:137,1,86.3999973632813,4|0,1:3|0:0,0:0:0:0:
253,223,102755,5,4,0:3:0:0:
253,223,102855,1,4,0:3:0:0:
253,223,102955,2,0,P|226:230|269:199,1,216.000008239746,12|0,1:2|0:0,0:0:0:0:
122,285,103355,6,0,P|102:231|94:195,1,72.0000027465821,8|0,1:3|0:0,0:0:0:0:
328,87,103555,2,0,P|348:141|356:177,1,72.0000027465821,4|0,1:3|0:0,0:0:0:0:
488,360,103755,6,0,B|428:360|428:295|364:295,1,144.000005493164,4|0,0:0|0:0,0:0:0:0:
364,368,104045,1,0,0:0:0:0:
364,368,104142,2,0,P|329:368|308:329,1,72.0000027465821,8|0,1:0|0:0,0:0:0:0:
364,222,104335,2,0,P|329:222|308:261,1,72.0000027465821
24,360,104529,6,0,B|83:360|83:295|147:295,1,144.000005493164,4|0,0:0|0:0,0:0:0:0:
148,368,104819,1,0,0:0:0:0:
148,368,104916,2,0,P|183:368|204:329,1,72.0000027465821,8|0,1:0|0:0,0:0:0:0:
148,222,105109,2,0,P|183:222|204:261,1,72.0000027465821
488,84,105303,6,0,B|428:83|428:148|364:148,1,144.000005493164,4|0,0:0|0:0,0:0:0:0:
364,76,105593,1,0,0:0:0:0:
364,76,105690,2,0,P|329:76|308:115,1,72.0000027465821,8|0,1:0|0:0,0:0:0:0:
364,222,105883,2,0,P|329:222|308:183,1,72.0000027465821
24,84,106077,6,0,B|83:83|83:148|147:148,1,144.000005493164,4|0,0:0|0:0,0:0:0:0:
148,76,106367,1,0,0:0:0:0:
148,76,106464,2,0,P|183:76|204:115,1,72.0000027465821,8|0,1:0|0:0,0:0:0:0:
148,222,106658,2,0,P|183:222|204:183,1,72.0000027465821
256,50,106851,5,4,0:0:0:0:
279,33,106948,1,0,1:0:0:0:
270,5,107044,1,0,1:0:0:0:
241,5,107141,1,0,1:0:0:0:
232,33,107238,1,0,1:0:0:0:
256,144,107432,1,0,1:0:0:0:
256,147,107529,1,0,1:0:0:0:
256,150,107625,1,0,1:0:0:0:
256,153,107722,1,0,1:0:0:0:
256,156,107819,1,0,1:0:0:0:
279,351,108013,5,0,3:0:0:0:
270,323,108109,1,0,3:0:0:0:
241,323,108206,1,0,3:0:0:0:
232,351,108303,1,0,3:0:0:0:
256,368,108400,2,0,L|256:384,28,12
178,384,109150,6,0,L|157:372,1,24,2|0,0:0|0:0,0:0:0:0:
164,360,109243,2,0,L|147:343,1,24
156,332,109337,2,0,L|144:311,1,24,2|0,0:0|0:0,0:0:0:0:
156,303,109431,2,0,L|149:279,1,24
164,274,109525,2,0,L|184:262,1,24,2|0,0:0|0:0,0:0:0:0:
179,250,109618,2,0,L|195:233,1,24
187,222,109712,2,0,L|198:201,1,24,2|0,0:0|0:0,0:0:0:0:
187,193,109806,2,0,L|193:169,1,24
178,82,109900,6,0,P|179:117|169:152,1,72.0000027465821,4|0,0:0|0:0,0:0:0:0:
247,135,110082,2,0,P|272:109|288:78,2,72.0000027465821,0|0|2,3:0|3:0|3:0,0:0:0:0:
325,158,110445,1,0,1:0:0:0:
389,130,110536,1,0,1:0:0:0:
359,149,110626,1,2,1:2:0:0:
379,216,110809,2,0,P|413:225|449:225,1,72.0000027465821,2|0,0:1|0:0,0:0:0:0:
454,336,110991,6,0,P|423:318|397:293,1,72.0000027465821,4|0,0:0|0:0,0:0:0:0:
397,294,111354,6,0,P|428:312|462:321,1,72.0000027465821,4|0,0:0|0:0,0:0:0:0:
450,207,111536,2,0,P|415:216|380:215,2,72.0000027465821,0|0|2,3:0|3:0|3:0,0:0:0:0:
381,116,111899,1,0,1:0:0:0:
325,158,111990,1,0,1:0:0:0:
356,141,112080,1,2,1:2:0:0:
275,69,112263,2,0,P|265:102|247:134,1,72.0000027465821,2|0,0:1|0:0,0:0:0:0:
170,152,112445,6,0,P|171:115|162:81,1,72.0000027465821,4|0,0:0|0:0,0:0:0:0:
135,78,112809,5,4,0:0:0:0:
125,82,112900,1,0,0:0:0:0:
115,78,112991,1,0,0:0:0:0:
110,68,113081,1,0,0:0:0:0:
115,58,113173,1,0,0:0:0:0:
125,53,113263,1,0,0:0:0:0:
135,58,113355,1,0,0:0:0:0:
139,68,113445,1,0,0:0:0:0:
147,109,113536,5,2,0:0:0:0:
114,128,113627,1,2,0:0:0:0:
149,141,113718,1,2,0:0:0:0:
125,170,113809,1,2,0:0:0:0:
158,172,113900,1,2,0:0:0:0:
139,209,113990,1,2,0:0:0:0:
171,198,114081,1,2,0:0:0:0:
164,243,114172,1,2,0:0:0:0:
197,223,114263,5,2,0:0:0:0:
201,264,114354,1,2,0:0:0:0:
229,240,114445,1,2,0:0:0:0:
242,272,114536,1,2,0:0:0:0:
264,249,114627,1,2,0:0:0:0:
285,276,114718,1,2,0:0:0:0:
307,247,114809,1,2,0:0:0:0:
327,273,114900,1,2,0:0:0:0:
343,245,114991,5,0,0:0:0:0:
354,246,115081,1,0,0:0:0:0:
361,255,115173,1,0,0:0:0:0:
359,266,115263,1,0,0:0:0:0:
350,273,115355,1,0,0:0:0:0:
340,271,115445,1,0,0:0:0:0:
332,262,115536,1,0,0:0:0:0:
335,253,115627,1,0,0:0:0:0:
343,245,115718,6,0,P|313:221|268:202,1,72.0000027465821,4|0,0:0|0:0,0:0:0:0:
156,124,115899,5,0,3:0:0:0:
188,187,115990,1,0,3:0:0:0:
175,153,116080,1,2,3:0:0:0:
287,44,116263,5,0,1:0:0:0:
242,121,116353,1,0,1:0:0:0:
259,79,116444,1,2,1:2:0:0:
136,5,116627,1,2,0:1:0:0:
17,116,116809,6,0,P|52:102|91:73,1,72.0000027465821,4|0,0:0|0:0,0:0:0:0:
17,116,117172,6,0,P|46:139|91:159,1,72.0000027465821,4|0,0:0|0:0,0:0:0:0:
204,237,117353,5,0,3:0:0:0:
172,174,117444,1,0,3:0:0:0:
185,208,117536,1,2,3:0:0:0:
73,317,117717,5,0,1:0:0:0:
118,240,117809,1,0,1:0:0:0:
101,282,117900,1,2,1:2:0:0:
224,356,118081,1,2,0:1:0:0:
343,245,118263,6,0,P|307:258|268:288,1,72.0000027465821,4|0,0:0|0:0,0:0:0:0:
288,307,118627,1,4,0:0:0:0:
248,207,118809,5,0,3:0:0:0:
312,175,118899,1,0,3:0:0:0:
278,187,118990,1,2,3:0:0:0:
269,68,119172,1,2,0:1:0:0:
288,307,119354,1,4,0:0:0:0:
313,175,119536,5,0,1:0:0:0:
229,149,119626,1,0,1:0:0:0:
272,157,119717,1,2,1:3:0:0:
256,7,119900,1,2,0:1:0:0:
27,27,120081,6,0,B|59:31|59:31|82:50|82:50|116:56,1,96,2|0,0:3|0:0,0:0:0:0:
181,17,120456,1,0,3:0:0:0:
415,93,120643,1,0,0:0:0:0:
432,19,120831,6,0,B|384:24|384:24|349:53|349:53|299:62,1,134.399995898438,2|0,0:3|0:0,0:0:0:0:
233,75,121206,1,0,3:0:0:0:
45,197,121393,1,0,0:0:0:0:
23,101,121581,6,0,B|84:108|84:108|128:145|128:145|193:156,1,172.799994726563,2|0,0:3|0:0,0:0:0:0:
346,72,121956,1,0,3:0:0:0:
486,218,122143,1,0,0:0:0:0:
512,103,122331,6,0,B|438:112|438:112|386:155|386:155|308:169,1,211.200006445313,2|0,0:3|0:0,0:0:0:0:
161,230,122706,1,0,3:0:0:0:
77,337,122893,1,0,0:0:0:0:
45,197,123081,6,0,B|133:208|133:208|197:260|197:260|291:277,1,249.599988574219,2|0,0:3|0:0,0:0:0:0:
494,316,123456,1,0,3:0:0:0:
480,384,123643,1,2,0:3:0:0:
512,244,123831,6,0,B|381:244|380:304|381:362|247:361,1,288.000010986329,4|0,0:0|0:0,0:0:0:0:
35,221,124206,1,0,3:0:0:0:
50,293,124393,1,2,0:3:0:0:
15,143,124581,6,0,B|155:143|155:207|155:269|299:268,1,326.400006225586,4|0,0:0|0:0,0:0:0:0:
452,153,124956,1,0,3:0:0:0:
443,193,125049,1,2,0:3:0:0:
434,234,125143,1,2,0:3:0:0:
474,64,125331,6,0,B|314:64|314:137|314:207|151:206,1,364.799990258789,4|0,0:0|0:0,0:0:0:0:
474,36,125706,2,0,B|314:36|314:109|314:179|151:178,1,364.799990258789,4|0,0:1|0:0,0:0:0:0:
55,63,126082,6,0,P|89:78|96:115,1,57.5999982421876,2|0,0:3|0:0,0:0:0:0:
229,105,126282,6,0,P|195:94|190:57,1,72.0000027465821,2|0,0:3|0:0,0:0:0:0:
188,47,126481,6,0,B|165:54|154:51|154:51|94:123|94:123|54:170|98:200|23:255,1,268.799991796875,4|0,0:0|0:0,0:0:0:0:
20,353,127060,1,0,0:0:0:0:
138,345,127255,6,0,P|109:319|67:305,1,76.8
163,273,127642,2,0,P|141:256|113:245,2,38.4
211,332,128028,1,0,0:0:0:0:
230,332,128125,1,0,0:0:0:0:
250,341,128221,1,0,0:0:0:0:
396,343,128416,6,0,P|408:303|422:286,1,57.5999982421876,2|0,0:3|0:0,0:0:0:0:
486,167,128609,2,0,P|505:197|512:232,1,72,2|0,0:3|0:0,0:0:0:0:
489,244,128803,6,0,B|446:250|405:210|430:192|423:214|404:154|349:171|349:171|346:168|346:168|349:172|349:172|294:227|253:206,1,288.000010986329,4|0,0:0|0:0,0:0:0:0:
182,171,129382,1,0,0:0:0:0:
96,232,129577,6,0,L|115:179,2,39.3600006005859
14,233,129963,2,0,L|45:151,1,78.7200012011719
95,112,130253,1,0,0:0:0:0:
87,96,130350,1,0,0:0:0:0:
78,25,130544,6,0,L|41:12,1,39.3600006005859
154,53,130738,6,0,P|185:47|223:34,1,67.1999979492188,2|0,0:3|0:0,0:0:0:0:
349,119,130932,2,0,P|380:129|413:137,1,67.1999979492188,2|0,0:3|0:0,0:0:0:0:
277,97,131126,6,0,B|287:72|307:56|307:56|254:81|245:144|272:135|254:125|273:193|193:213|193:213|189:218|189:218|191:211|191:211|157:168|184:117,1,345.599989453125,4|0,0:0|0:0,0:0:0:0:
87,72,131698,5,0,0:0:0:0:
100,77,131795,1,0,0:0:0:0:
109,89,131892,1,0,0:0:0:0:
50,140,132085,5,0,0:0:0:0:
11,75,132279,1,0,0:0:0:0:
83,206,132472,5,0,0:0:0:0:
66,220,132569,1,0,0:0:0:0:
50,224,132666,1,0,0:0:0:0:
150,164,132859,5,0,0:0:0:0:
179,169,132956,1,0,0:0:0:0:
199,189,133054,1,0,0:0:0:0:
150,299,133246,1,0,0:0:0:0:
279,377,133440,5,2,0:0:0:0:
319,311,133633,1,0,0:0:0:0:
278,384,133827,1,0,0:0:0:0:
325,298,134020,1,0,0:0:0:0:
288,224,134214,5,0,0:0:0:0:
405,292,134407,1,0,0:0:0:0:
387,181,134601,5,0,0:0:0:0:
394,170,134698,1,0,0:0:0:0:
409,167,134794,1,0,0:0:0:0:
455,226,134988,1,0,0:0:0:0:
321,307,135182,1,0,0:0:0:0:
166,169,135375,5,2,0:0:0:0:
307,223,135569,1,0,0:0:0:0:
305,148,135762,5,0,0:0:0:0:
116,225,135956,1,0,0:0:0:0:
83,210,136053,1,0,0:0:0:0:
76,190,136149,1,0,0:0:0:0:
79,176,136246,1,0,0:0:0:0:
89,169,136343,1,0,0:0:0:0:
203,252,136536,5,0,0:0:0:0:
97,356,136730,1,0,0:0:0:0:
56,279,136923,5,0,0:0:0:0:
80,261,137020,1,0,0:0:0:0:
112,271,137117,1,0,0:0:0:0:
122,286,137214,1,0,0:0:0:0:
136,296,137311,1,0,0:0:0:0:
144,300,137407,1,0,0:0:0:0:
150,302,137504,1,0,0:0:0:0:
375,220,137698,5,2,0:0:0:0:
409,203,137798,1,0,0:0:0:0:
424,167,137898,1,0,0:0:0:0:
406,132,137998,1,0,0:0:0:0:
367,111,138098,1,0,0:0:0:0:
343,81,138198,1,0,0:0:0:0:
335,58,138298,1,0,0:0:0:0:
342,47,138398,1,0,0:0:0:0:
353,47,138498,5,2,0:0:0:0:
349,60,138598,1,0,0:0:0:0:
334,65,138698,1,0,0:0:0:0:
313,62,138798,1,0,0:0:0:0:
279,42,138898,1,0,0:0:0:0:
248,27,138998,1,0,0:0:0:0:
212,36,139098,1,0,0:0:0:0:
192,73,139198,1,0,0:0:0:0:
255,113,139298,5,2,0:0:0:0:
250,131,139399,1,0,0:0:0:0:
245,149,139501,1,0,0:0:0:0:
300,204,139604,5,2,0:0:0:0:
310,225,139705,1,0,0:0:0:0:
242,256,139807,5,2,0:0:0:0:
232,277,139909,1,0,0:0:0:0:
296,320,140010,5,2,0:0:0:0:
300,328,140112,1,0,0:0:0:0:
227,354,140215,5,2,0:0:0:0:
212,348,140318,1,0,0:0:0:0:
232,277,140422,5,2,0:0:0:0:
250,258,140525,1,0,0:0:0:0:
156,292,140629,5,2,0:0:0:0:
131,285,140732,1,0,0:0:0:0:
70,232,140836,5,2,0:0:0:0:
33,239,140938,1,0,0:0:0:0:
142,205,141043,5,2,0:0:0:0:
160,164,141148,1,0,0:0:0:0:
241,132,141253,5,2,0:0:0:0:
252,124,141359,1,2,0:1:0:0:
186,81,141464,1,2,0:0:0:0:
120,38,141569,1,2,0:1:0:0:
79,158,141780,1,8,0:3:0:0:
419,39,141993,6,0,B|438:30|462:37|462:37|441:47|427:70,1,76.8,2|0,0:3|0:0,0:0:0:0:
350,165,142206,2,0,B|348:185|330:203|330:203|332:180|319:156,1,76.8,2|0,0:3|0:0,0:0:0:0:
275,42,142421,2,0,B|257:30|251:5|251:5|270:18|297:19,1,76.8,2|0,0:3|0:0,0:0:0:0:
348,87,142636,6,0,B|386:108|386:108|402:108|402:108|442:133|442:133|429:145|429:145|412:237|487:215|464:306,1,288,4|0,0:0|0:0,0:0:0:0:
465,319,143493,6,0,B|498:236|498:236|356:232|275:249|275:249|288:204|325:152|325:152|384:144|444:149|444:149|408:208|372:308|372:308|272:316|218:333,1,871.200026586915,2|0,0:0|0:0,0:0:0:0:
42,365,148861,6,0,L|37:331,1,24
103,334,149019,2,0,L|100:311,1,24
200,256,149177,6,0,B|150:267|132:240|140:240|120:212|67:219,1,144,2|0,0:0|0:0,0:0:0:0:
18,128,149808,2,0,B|31:84|31:84|95:83|106:132,1,144
168,178,150440,2,0,P|181:142|213:117,1,72
299,178,150756,2,0,P|288:211|262:235,1,72
277,109,151071,2,0,L|369:103,1,72
470,53,151387,6,0,B|410:35|410:35|335:116|412:196,1,240,2|0,0:0|0:0,0:0:0:0:
491,251,152335,6,0,P|434:264|382:334,1,144
322,359,152966,2,0,B|217:362|274:327|183:331,1,144
90,383,153598,6,0,P|139:363|102:267,1,168,2|0,0:0|0:0,0:0:0:0:
114,270,154229,2,0,B|111:208|73:188|73:188|61:150|86:105,1,168
79,118,154861,2,0,B|84:148|112:166|112:166|148:158|183:197,1,142.800002723694
184,197,155493,2,0,B|181:154|155:140|155:140|147:113|159:91,1,117.599996411133
160,91,156124,2,0,B|163:110|181:122|181:122|204:117|228:142,1,92.4000028198243
228,141,156756,2,0,B|258:122|257:97|257:97|272:80|293:81,1,96
364,43,157703,1,0,0:0:0:0:
467,151,158098,6,0,L|430:148,6,19.2
490,167,158650,2,0,L|369:158,1,115.2,2|0,0:3|0:0,0:0:0:0:
144,318,159282,6,0,P|130:253|116:220,1,100.799996923828,2|0,0:0|0:0,0:0:0:0:
58,245,159914,2,0,P|38:261|44:321,1,86.3999973632813
191,243,160545,5,0,0:0:0:0:
254,236,160703,1,0,0:0:0:0:
300,281,160847,2,0,P|288:303|289:334,1,48
428,356,161162,2,0,P|440:334|439:303,1,48
376,283,161477,1,0,0:0:0:0:
422,86,161793,6,0,B|407:52|407:52|369:60|349:86,1,100.799996923828,2|0,0:0|0:0,0:0:0:0:
322,145,162425,2,0,L|224:129,1,86.3999973632813,2|0,0:0|0:0,0:0:0:0:
150,59,163056,6,0,P|132:90|123:129,1,72,2|0,0:0|0:0,0:0:0:0:
86,40,163372,2,0,P|68:71|59:110,1,72,2|0,0:0|0:0,0:0:0:0:
71,175,163688,6,0,L|93:253,1,72,2|0,0:0|0:0,0:0:0:0:
149,199,164004,2,0,L|171:277,1,72,2|0,0:0|0:0,0:0:0:0:
121,341,164319,6,0,P|153:297|248:303,1,142.800002723694,2|0,0:0|0:0,0:0:0:0:
299,339,164951,2,0,L|308:259,1,61.2000011672974,2|0,0:0|0:0,0:0:0:0:
357,241,165267,1,0,0:0:0:0:
306,187,165425,1,0,0:0:0:0:
360,137,165583,6,0,L|366:65,1,61.2000011672974,2|0,0:0|0:0,0:0:0:0:
421,28,165898,2,0,P|431:62|454:83,1,61.2000011672974,2|0,0:0|0:0,0:0:0:0:
317,23,166214,2,0,P|300:54|273:69,1,61.2000011672974,2|0,0:0|0:0,0:0:0:0:
365,76,166530,6,0,L|360:137,1,61.2000011672974,2|0,0:0|0:0,0:0:0:0:
357,241,166846,5,0,0:0:0:0:
357,241,167477,6,0,B|283:207|253:266|232:269|246:252|229:326|156:321|131:292,1,244.80000466919,2|0,0:0|0:0,0:0:0:0:
99,235,168583,1,0,0:0:0:0:
23,240,168740,2,0,L|37:319,1,61.2000011672974,2|0,0:0|0:0,0:0:0:0:
110,175,169056,2,0,L|99:235,1,61.2000011672974,2|0,0:0|0:0,0:0:0:0:
37,159,169372,1,0,0:0:0:0:
235,92,170004,6,0,P|145:66|81:52,1,142.800002723694,2|0,0:0|0:0,0:0:0:0:
47,5,170635,1,0,0:0:0:0:
260,13,170872,5,0,0:0:0:0:
235,92,171030,5,0,0:0:0:0:
208,170,171188,6,0,L|194:222,1,40.8000007781983,2|0,0:0|0:0,0:0:0:0:
224,304,171583,6,0,P|289:285|350:359,1,163.200003112793,2|0,0:0|0:0,0:0:0:0:
423,353,172372,1,0,0:0:0:0:
485,304,172530,2,0,B|517:239|470:187|470:187|473:177|473:177|406:204|406:263,1,252.000009613037,2|0,0:0|0:0,0:0:0:0:
349,347,173793,6,0,P|309:322|309:249,1,118.799996374512,2|0,0:0|0:0,0:0:0:0:
355,199,174740,2,0,L|342:153,1,40.8000007781983,2|0,0:0|0:0,0:0:0:0:
274,127,175056,2,0,B|242:62|289:10|289:10|286:0|286:0|353:27|353:85,1,252.000009613037,2|0,0:0|0:0,0:0:0:0:
106,147,176319,6,0,P|89:111|63:82,1,79.2000024169923,2|0,0:0|0:0,0:0:0:0:
168,115,176951,2,0,P|148:74|119:40,1,91.1999975646973,2|0,0:0|0:0,0:0:0:0:
82,254,177583,5,0,0:0:0:0:
168,332,177898,2,0,L|131:343,1,36.0000013732911,2|0,0:0|0:0,0:0:0:0:
220,268,178214,2,0,L|231:219,1,45.5999987823487,2|0,0:0|0:0,0:0:0:0:
249,345,178530,2,0,L|286:380,1,50.3999984619141,2|0,0:0|0:0,0:0:0:0:
147,264,178846,6,0,P|125:235|60:220,1,93.5999957153322,2|0,0:0|0:0,0:0:0:0:
95,143,179477,6,0,P|164:168|210:223,1,136.799996347046,2|0,0:0|0:0,0:0:0:0:
111,70,180109,2,0,P|192:96|255:151,1,165.600003158569,2|0,0:0|0:0,0:0:0:0:
332,158,180740,5,0,0:0:0:0:
381,96,180898,1,0,0:0:0:0:
332,29,181056,2,0,P|312:50|302:88,1,61.2000011672974
408,170,181372,5,0,0:0:0:0:
408,170,182004,6,0,P|416:207|409:314,1,136.799996347046,2|0,0:0|0:0,0:0:0:0:
481,156,182635,2,0,P|489:197|478:339,1,165.600003158569,2|0,0:0|0:0,0:0:0:0:
363,363,183267,6,0,P|339:349|314:337,1,55.2000010528565,2|0,0:0|0:0,0:0:0:0:
240,357,183583,1,0,0:0:0:0:
177,312,183740,1,0,0:0:0:0:
192,240,183898,6,0,B|206:183|168:153|113:192|113:110|125:91,1,165.600003158569,2|0,0:0|0:0,0:0:0:0:
215,100,184530,2,0,P|198:162|157:171,1,108.000004119873,2|0,0:0|0:0,0:0:0:0:
154,36,185162,2,0,P|217:23|287:12,1,126.000004806519,2|0,0:0|0:0,0:0:0:0:
332,61,185793,2,0,P|359:66|401:70,1,54.0000020599366,2|0,0:0|0:0,0:0:0:0:
320,130,186109,2,0,P|347:135|374:138,1,54.0000020599366,2|0,0:0|0:0,0:0:0:0:
337,204,186425,1,0,0:0:0:0:
337,204,187056,6,0,P|306:199|259:187,1,68.399998173523,2|0,0:0|0:0,0:0:0:0:
320,272,187372,2,0,P|289:267|242:255,1,68.399998173523,2|0,0:0|0:0,0:0:0:0:
393,255,187688,6,0,P|424:250|471:238,1,68.399998173523,2|0,0:0|0:0,0:0:0:0:
410,323,188004,2,0,P|441:318|488:306,1,68.399998173523,2|0,0:0|0:0,0:0:0:0:
459,384,188319,1,0,0:0:0:0:
459,384,188951,6,0,B|406:380|384:339|384:317|398:331|376:332|389:264|314:270,1,193.200003684998,2|0,0:0|0:0,0:0:0:0:
244,285,189583,2,0,P|188:261|149:256,1,82.8000015792847,2|0,0:0|0:0,0:0:0:0:
266,215,189898,2,0,P|210:191|171:186,1,82.8000015792847,2|0,0:0|0:0,0:0:0:0:
123,199,190214,6,0,B|249:129|124:89|254:31,1,226.800000865173,2|0,0:0|0:0,0:0:0:0:
320,72,190846,2,0,P|372:60|392:50,2,61.2000011672974,2|0|0,0:0|0:0|0:0,0:0:0:0:
473,40,191477,6,0,P|453:107|446:188,1,142.800002723694,2|0,0:0|0:0,0:0:0:0:
389,230,192109,2,0,P|398:259|408:299,1,61.2000011672974,2|0,0:0|0:0,0:0:0:0:
318,239,192425,2,0,P|327:268|338:325,1,82.8000015792847,2|0,0:0|0:0,0:0:0:0:
261,294,192740,6,0,B|197:324|166:275|183:285|171:295|145:250|80:271|80:271|69:199|112:146|146:170|105:161|206:118|159:36,1,446.400003405762,2|0,0:0|0:0,0:0:0:0:
453,332,194004,6,0,P|437:211|433:166,1,159.59999573822,2|0,0:0|0:0,0:0:0:0:
382,121,194635,2,0,P|395:91|406:48,1,68.399998173523,2|0,0:0|0:0,0:0:0:0:
312,99,194951,2,0,P|325:69|336:26,1,68.399998173523,2|0,0:0|0:0,0:0:0:0:
256,43,195267,6,0,B|179:86|234:106|150:158,1,159.59999573822,2|0,0:0|0:0,0:0:0:0:
33,141,195898,2,0,P|95:119|108:124,1,68.399998173523,2|0,0:0|0:0,0:0:0:0:
86,187,196214,2,0,L|66:266,1,68.399998173523,2|0,0:0|0:0,0:0:0:0:
122,311,196530,6,0,P|207:286|274:277,1,142.800002723694,2|0,0:0|0:0,0:0:0:0:
136,381,197162,6,0,P|221:356|288:347,1,145.200004431152,2|0,0:0|0:0,0:0:0:0:
333,297,198109,1,2,0:0:0:0:
408,309,198267,1,2,0:0:0:0:
470,262,198425,2,0,P|493:211|486:184,1,79.2000024169923,2|0,0:3|0:0,0:0:0:0:
289,125,199056,6,0,B|391:150|333:190|434:211,1,159.59999573822,2|0,0:0|0:0,0:0:0:0:
439,138,199688,1,0,0:0:0:0:
32,91,200319,22,0,B|23:78|23:78|69:91|69:91|112:125|112:125|101:104,1,136.799996347046,2|0,0:2|0:0,0:0:0:0:
175,90,200951,2,0,P|197:91|170:77,1,91.1999975646973,2|0,0:0|0:0,0:0:0:0:
45,206,201583,6,0,B|5:151|32:74|103:58|103:58|91:92|109:122,1,240,2|0,0:0|0:0,0:0:0:0:
277,256,202846,2,0,P|172:270|92:310,1,182.399995129395,2|0,0:0|0:0,0:0:0:0:
33,337,203793,1,0,0:0:0:0:
103,302,204109,6,0,B|107:347|107:347|158:336|178:280|149:240,1,182.399995129395,2|0,0:0|0:0,0:0:0:0:
177,165,204898,1,2,0:0:0:0:
159,109,205056,1,2,0:0:0:0:
140,164,205214,1,2,0:0:0:0:
188,131,205372,6,0,B|266:160|311:241|283:301|283:301|232:252|226:180|288:108,1,432.000016479493,2|0,0:3|0:0,0:0:0:0:
455,17,206635,6,0,P|390:101|362:185,1,182.399995129395,2|0,0:0|0:0,0:0:0:0:
421,227,207583,1,0,0:0:0:0:
429,148,207898,2,0,P|360:104|351:241,1,273.599992694092,2|0,0:0|0:0,0:0:0:0:
247,384,209162,6,0,B|223:360|209:331|252:295|309:290|277:317|288:353|318:364|372:349|399:304|401:276|390:240|374:215|329:189|275:204|254:227|263:263|304:272|252:295|200:285|194:254|205:222,1,455.999987823487,2|0,0:0|0:0,0:0:0:0:
228,145,211056,2,0,P|234:124|230:148,1,91.1999975646973,2|0,0:0|0:0,0:0:0:0:
56,279,211688,6,0,B|65:343|65:343|70:367|106:386|135:357|132:333|132:333|109:189,1,273.599992694092,2|0,0:0|0:0,0:0:0:0:
0,127,212951,2,0,B|9:62|9:62|14:38|50:19|79:48|76:72|76:72|53:216,1,273.599992694092,2|0,0:0|0:0,0:0:0:0:
334,29,214214,6,0,B|293:64|219:57|269:26|233:-47|159:-69|-5:40|63:172|200:225|302:150|245:81|207:110|238:26|415:76|369:196|269:225|238:153,1,576.000021972657,2|0,0:0|0:0,0:0:0:0:
261,52,219268,5,0,3:0:0:0:
249,60,219364,1,0,3:0:0:0:
239,73,219461,1,0,3:0:0:0:
236,90,219558,1,0,3:0:0:0:
242,108,219655,5,0,3:0:0:0:
258,120,219751,1,0,3:0:0:0:
279,125,219848,1,0,3:0:0:0:
295,141,219945,1,0,3:0:0:0:
305,162,220042,5,0,3:0:0:0:
304,186,220138,1,0,3:0:0:0:
288,207,220235,1,0,3:0:0:0:
261,217,220332,1,0,3:0:0:0:
232,227,220429,5,0,3:0:0:0:
209,249,220526,1,0,3:0:0:0:
205,281,220622,1,0,3:0:0:0:
220,311,220719,1,0,3:0:0:0:
247,328,220816,6,0,P|279:330|310:305,1,55.2000010528565,4|0,0:0|0:0,0:0:0:0:
381,194,221009,1,0,0:0:0:0:
362,213,221106,1,0,0:0:0:0:
362,213,221203,2,0,P|344:239|350:279,1,55.2000010528565,8|0,1:0|0:0,0:0:0:0:
425,384,221397,1,0,0:0:0:0:
403,372,221494,1,0,0:0:0:0:
403,372,221591,6,0,P|385:345|391:305,1,55.2000010528565,8|0,1:0|0:0,0:0:0:0:
512,273,221783,1,0,0:0:0:0:
491,285,221880,1,0,0:0:0:0:
491,285,221977,2,0,P|459:287|428:262,1,55.2000010528565,8|0,1:0|0:0,0:0:0:0:
436,95,222171,1,0,0:0:0:0:
455,124,222268,1,0,0:0:0:0:
470,155,222364,6,0,L|459:210,1,55.2000010528565,8|0,1:0|0:0,0:0:0:0:
303,90,222558,1,0,0:0:0:0:
306,124,222655,1,0,0:0:0:0:
306,124,222751,2,0,L|354:151,1,55.2000010528565,8|0,1:0|0:0,0:0:0:0:
197,255,222945,1,0,0:0:0:0:
230,262,223042,1,0,0:0:0:0:
230,262,223138,6,0,L|271:223,1,55.2000010528565,8|0,1:0|0:0,0:0:0:0:
134,123,223332,1,0,0:0:0:0:
111,148,223429,1,0,0:0:0:0:
111,148,223525,2,0,L|123:202,1,55.2000010528565,8|0,1:0|0:0,0:0:0:0:
239,104,223719,1,0,0:0:0:0:
236,60,223816,1,0,0:0:0:0:
232,16,223913,5,4,0:0:0:0:
199,0,224009,1,0,0:0:0:0:
160,0,224106,1,0,0:0:0:0:
128,22,224203,1,0,0:0:0:0:
100,85,224300,5,2,0:0:0:0:
95,101,224397,1,2,0:0:0:0:
111,106,224493,1,2,0:0:0:0:
116,90,224590,1,2,0:0:0:0:
30,81,224687,5,0,0:0:0:0:
7,112,224784,1,0,0:0:0:0:
0,149,224880,1,0,0:0:0:0:
6,187,224977,1,0,0:0:0:0:
26,219,225074,5,2,0:0:0:0:
68,230,225171,1,2,0:0:0:0:
117,276,225268,5,2,0:0:0:0:
154,254,225365,1,2,0:0:0:0:
220,237,225461,6,0,B|218:208|218:208|222:205|222:205|220:180,1,60,2|0,0:3|0:0,0:0:0:0:
333,118,225648,2,0,B|304:120|304:120|301:116|301:116|276:118,1,60,2|0,0:3|0:0,0:0:0:0:
214,5,225836,2,0,B|216:34|216:34|212:37|212:37|214:62,1,60,2|0,0:3|0:0,0:0:0:0:
101,124,226023,2,0,B|130:122|130:122|133:126|133:126|158:124,1,60,2|0,0:3|0:0,0:0:0:0:
316,19,226211,6,0,P|310:29|319:27,1,24,2|0,1:3|0:0,0:0:0:0:
319,220,226398,2,0,P|309:214|311:223,1,24,2|0,1:3|0:0,0:0:0:0:
109,225,226586,2,0,P|115:215|106:217,1,24,2|0,1:3|0:0,0:0:0:0:
108,32,226773,2,0,P|118:38|116:29,1,24,2|0,1:3|0:0,0:0:0:0:
34,69,226961,6,0,P|24:103|24:140,1,72.0000027465821,4|0,0:0|0:0,0:0:0:0:
103,118,227143,2,0,P|121:87|146:61,2,72.0000027465821,0|0|2,3:0|3:0|3:0,0:0:0:0:
185,139,227507,1,0,1:0:0:0:
251,112,227598,1,0,1:0:0:0:
217,122,227688,1,2,1:2:0:0:
244,197,227870,2,0,P|280:197|314:206,1,72.0000027465821,2|0,0:0|0:0,0:0:0:0:
325,321,228052,6,0,P|299:296|269:277,1,72.0000027465821,4|0,0:0|0:0,0:0:0:0:
325,321,228415,6,0,P|289:320|254:311,1,72.0000027465821,4|0,0:0|0:0,0:0:0:0:
246,199,228597,2,0,P|271:224|302:243,2,72.0000027465821,0|0|2,3:0|3:0|3:0,0:0:0:0:
297,95,228961,1,0,1:0:0:0:
323,161,229052,1,0,1:0:0:0:
306,129,229142,1,2,1:2:0:0:
391,30,229324,2,0,P|381:64|381:101,1,72.0000027465821,2|0,0:0|0:0,0:0:0:0:
463,77,229506,6,0,P|481:46|507:21,1,72.0000027465821,4|0,0:0|0:0,0:0:0:0:
486,4,229870,1,4,0:0:0:0:
351,219,230052,5,0,0:0:0:0:
339,221,230142,1,0,0:0:0:0:
329,214,230233,1,0,0:0:0:0:
329,202,230324,1,0,0:0:0:0:
339,194,230415,1,0,0:0:0:0:
351,197,230506,1,0,0:0:0:0:
363,208,230597,5,2,0:0:0:0:
351,219,230688,1,2,0:0:0:0:
348,235,230779,5,2,0:0:0:0:
334,219,230870,1,2,0:0:0:0:
330,200,230961,5,2,0:0:0:0:
314,219,231052,1,2,0:0:0:0:
308,243,231142,5,2,0:0:0:0:
289,219,231233,1,2,0:0:0:0:
281,189,231325,5,2,0:0:0:0:
257,219,231416,1,2,0:0:0:0:
247,256,231507,5,2,0:0:0:0:
218,222,231598,1,2,0:0:0:0:
206,177,231689,5,2,0:0:0:0:
173,218,231779,1,2,0:0:0:0:
159,270,231870,5,2,0:0:0:0:
125,228,231961,1,2,0:0:0:0:
111,176,232051,5,0,0:0:0:0:
128,178,232142,1,0,0:0:0:0:
145,172,232233,1,0,0:0:0:0:
156,159,232324,1,0,0:0:0:0:
160,141,232415,1,0,0:0:0:0:
154,124,232506,1,0,0:0:0:0:
141,113,232597,1,0,0:0:0:0:
123,109,232688,1,0,0:0:0:0:
107,114,232779,6,0,P|137:138|182:157,1,72.0000027465821,4|0,0:0|0:0,0:0:0:0:
294,235,232960,5,0,3:0:0:0:
262,172,233051,1,0,3:0:0:0:
275,206,233141,1,2,3:0:0:0:
163,315,233324,5,0,1:0:0:0:
208,238,233414,1,0,1:0:0:0:
191,280,233505,1,2,1:2:0:0:
314,354,233688,1,2,0:0:0:0:
433,243,233870,6,0,P|398:257|359:286,1,72.0000027465821,4|0,0:0|0:0,0:0:0:0:
433,243,234233,6,0,P|404:220|359:200,1,72.0000027465821,4|0,0:0|0:0,0:0:0:0:
246,122,234415,5,0,3:0:0:0:
278,185,234506,1,0,3:0:0:0:
265,151,234597,1,2,3:0:0:0:
377,42,234779,5,0,1:0:0:0:
332,119,234870,1,0,1:0:0:0:
349,77,234961,1,2,1:2:0:0:
226,3,235142,1,2,0:0:0:0:
107,114,235324,6,0,P|143:101|182:71,1,72.0000027465821,4|0,0:0|0:0,0:0:0:0:
162,52,235688,1,4,0:0:0:0:
202,152,235870,5,0,3:0:0:0:
138,184,235960,1,0,3:0:0:0:
172,172,236051,1,2,3:0:0:0:
181,291,236233,1,2,0:0:0:0:
227,20,236415,1,4,0:0:0:0:
202,152,236597,5,0,1:0:0:0:
286,178,236687,1,0,1:0:0:0:
243,170,236778,1,2,1:3:0:0:
259,320,236961,1,2,0:0:0:0:
364,244,237142,6,0,P|381:196|340:110,1,144,4|0,0:0|0:0,0:0:0:0:
286,178,237517,2,0,P|270:198|302:198,1,72,8|0,0:0|0:0,0:0:0:0:
347,313,237892,6,0,P|241:317|164:246,1,216.000008239746,4|0,0:0|0:0,0:0:0:0:
310,199,238267,2,0,P|268:210|286:170,1,108.000004119873,8|0,0:1|0:0,0:0:0:0:
301,11,238642,6,0,P|167:52|103:177,1,288,4|0,0:0|0:0,0:0:0:0:
286,163,239017,2,0,P|254:201|317:201,1,144,4|0,0:3|0:0,0:0:0:0:
470,318,239392,6,0,P|508:147|413:0,1,360,4|0,0:0|0:0,0:0:0:0:
325,202,239767,2,0,P|254:219|285:154,1,180,8|0,0:3|0:0,0:0:0:0:
104,178,240142,6,0,P|168:53|301:11,1,288,4|0,0:0|0:0,0:0:0:0:
317,201,240517,2,0,P|260:215|285:162,1,144,8|0,0:3|0:0,0:0:0:0:
291,51,240892,6,0,P|190:82|142:175,1,216.000008239746,4|0,0:0|0:0,0:0:0:0:
286,171,241267,2,0,P|267:210|309:199,1,108.000004119873,8|0,0:1|0:0,0:0:0:0:
180,173,241642,6,0,P|212:111|278:90,1,144,4|0,0:0|0:0,0:0:0:0:
302,198,242017,5,10,0:0:0:0:
293,209,242110,1,2,0:0:0:0:
279,208,242204,1,2,0:0:0:0:
271,197,242298,1,2,0:0:0:0:
274,184,242392,1,2,0:0:0:0:
286,177,242485,1,2,0:0:0:0:
394,213,242579,5,2,0:3:0:0:
387,241,242672,1,2,0:3:0:0:
372,266,242766,1,2,0:3:0:0:
350,284,242860,1,2,0:3:0:0:
323,295,242954,1,2,0:3:0:0:
295,296,243047,1,2,0:3:0:0:
232,250,243142,6,0,B|140:227|171:296|56:265,1,163.200003112793,4|0,1:2|0:0,0:0:0:0:
20,201,243423,5,0,0:0:0:0:
26,195,243517,2,0,P|65:186|89:191,1,48,12|0,1:2|0:0,0:0:0:0:
158,343,243704,2,0,P|119:352|95:347,1,48
75,269,243892,5,4,1:3:0:0:
115,272,243986,1,0,0:0:0:0:
153,259,244080,1,0,0:0:0:0:
191,245,244174,1,0,0:0:0:0:
232,250,244267,1,8,1:2:0:0:
262,287,244360,1,0,0:0:0:0:
262,342,244454,1,0,0:0:0:0:
313,371,244548,1,0,0:0:0:0:
352,347,244642,6,0,L|409:334,1,52.8000016113282,4|0,1:3|0:0,0:0:0:0:
379,218,244829,1,0,0:0:0:0:
379,218,244923,1,0,0:0:0:0:
379,218,245017,2,0,L|361:273,1,52.8000016113282,8|0,1:2|0:0,0:0:0:0:
477,311,245204,2,0,L|437:268,1,52.8000016113282
324,164,245392,5,4,1:3:0:0:
329,112,245485,1,0,0:0:0:0:
368,78,245579,1,0,0:0:0:0:
419,80,245673,1,0,0:0:0:0:
459,111,245767,5,8,1:2:0:0:
407,112,245861,1,0,0:0:0:0:
368,78,245955,1,2,3:3:0:0:
363,27,246048,1,2,3:3:0:0:
322,0,246142,6,0,P|273:7|261:87,1,115.199996484375,4|0,1:2|0:0,0:0:0:0:
203,154,246423,1,0,0:0:0:0:
202,144,246517,2,0,P|181:117|149:113,1,57.5999982421876,8|0,1:2|0:0,0:0:0:0:
116,32,246704,2,0,P|151:29|176:3,1,57.5999982421876
66,109,246892,5,4,1:3:0:0:
31,138,246985,1,0,0:0:0:0:
50,176,247079,1,0,0:0:0:0:
21,207,247174,1,0,0:0:0:0:
38,249,247267,5,8,1:2:0:0:
75,275,247360,1,0,0:0:0:0:
127,256,247454,1,0,0:0:0:0:
158,200,247548,1,0,0:0:0:0:
134,263,247642,6,0,L|126:345,1,62.3999971435548,4|0,1:3|0:0,0:0:0:0:
230,223,247830,2,0,L|238:141,1,62.3999971435548
174,83,248017,6,0,B|154:96|154:96|153:143,1,62.3999971435548,8|0,1:2|0:0,0:0:0:0:
302,273,248204,2,0,B|322:260|322:260|323:213,1,62.3999971435548
225,310,248392,5,4,1:3:0:0:
253,350,248485,1,0,0:0:0:0:
301,364,248579,1,0,0:0:0:0:
347,346,248673,1,0,0:0:0:0:
396,284,248767,5,8,1:2:0:0:
414,237,248861,1,2,3:3:0:0:
458,261,248955,1,2,3:3:0:0:
438,308,249049,1,2,3:3:0:0:
426,270,249142,6,0,B|411:221|411:221|428:172|428:172|401:81,1,163.200003112793,4|0,1:2|0:0,0:0:0:0:
471,57,249423,1,0,0:0:0:0:
474,68,249517,2,0,L|492:133,1,48,8|0,1:2|0:0,0:0:0:0:
348,166,249705,2,0,L|330:101,1,48
305,33,249892,5,4,1:3:0:0:
273,18,249985,1,0,0:0:0:0:
230,22,250079,1,0,0:0:0:0:
198,52,250173,1,0,0:0:0:0:
188,94,250267,1,8,1:2:0:0:
170,137,250360,1,0,0:0:0:0:
124,159,250454,1,0,0:0:0:0:
65,143,250548,1,0,0:0:0:0:
38,110,250642,6,0,P|15:124|0:144,1,52.8000016113282,4|0,1:3|0:0,0:0:0:0:
119,74,250829,1,0,0:0:0:0:
127,70,250923,1,0,0:0:0:0:
131,63,251017,2,0,P|129:36|120:12,1,52.8000016113282,8|0,1:2|0:0,0:0:0:0:
124,159,251204,2,0,P|147:170|173:175,1,52.8000016113282
266,87,251392,5,4,1:3:0:0:
297,62,251485,1,0,0:0:0:0:
344,59,251579,1,0,0:0:0:0:
387,95,251673,1,0,0:0:0:0:
410,154,251767,2,0,L|398:232,1,57.5999982421876,8|0,1:2|0:0,0:0:0:0:
386,364,251954,1,2,3:3:0:0:
385,356,252048,1,2,3:3:0:0:
368,285,252142,6,0,P|398:281|432:300,1,57.5999982421876,4|0,1:2|0:0,0:0:0:0:
298,337,252329,2,0,P|268:341|234:322,1,57.5999982421876
215,234,252517,5,8,1:2:0:0:
235,203,252610,1,0,0:0:0:0:
228,153,252704,1,0,0:0:0:0:
183,128,252798,1,0,0:0:0:0:
135,138,252892,1,4,1:3:0:0:
105,173,252985,1,0,0:0:0:0:
69,200,253079,1,0,0:0:0:0:
34,194,253174,1,0,0:0:0:0:
10,163,253267,6,0,L|20:100,1,62.3999971435548,8|0,1:2|0:0,0:0:0:0:
107,71,253454,2,0,L|117:8,1,62.3999971435548
217,12,253642,5,4,1:3:0:0:
232,6,253735,1,0,0:0:0:0:
247,16,253829,1,0,0:0:0:0:
250,35,253923,1,0,0:0:0:0:
277,68,254017,5,8,1:2:0:0:
263,101,254110,1,0,0:0:0:0:
228,119,254204,1,0,0:0:0:0:
186,105,254298,1,0,0:0:0:0:
124,66,254392,5,4,1:3:0:0:
58,75,254485,1,2,3:0:0:0:
38,140,254579,1,2,3:0:0:0:
81,189,254673,1,2,3:0:0:0:
154,192,254767,6,0,L|225:178,1,62.3999971435548,10|0,3:3|0:0,0:0:0:0:
276,257,254955,2,0,L|347:243,1,62.3999971435548,6|0,3:3|0:0,0:0:0:0:
424,319,255142,6,0,B|459:285|459:285|422:163,1,163.200003112793,4|0,1:2|0:0,0:0:0:0:
473,104,255423,1,0,0:0:0:0:
483,108,255517,2,0,P|504:135|510:165,1,52.8000016113282,8|0,1:2|0:0,0:0:0:0:
348,156,255704,5,0,0:0:0:0:
347,164,255798,1,0,0:0:0:0:
347,172,255892,1,4,1:3:0:0:
299,190,255985,1,0,0:0:0:0:
255,165,256079,1,0,0:0:0:0:
248,114,256173,1,0,0:0:0:0:
232,70,256267,1,8,1:2:0:0:
186,39,256360,1,0,0:0:0:0:
124,37,256454,1,0,0:0:0:0:
80,86,256548,1,0,0:0:0:0:
80,126,256642,6,0,L|95:201,1,57.5999982421876,4|0,1:3|0:0,0:0:0:0:
157,283,256829,1,0,0:0:0:0:
157,283,256923,1,0,0:0:0:0:
157,283,257017,2,0,L|167:226,1,57.5999982421876,8|0,1:2|0:0,0:0:0:0:
235,124,257204,2,0,L|247:181,1,57.5999982421876
274,307,257392,5,4,1:3:0:0:
303,339,257485,1,0,0:0:0:0:
350,343,257579,1,0,0:0:0:0:
392,310,257673,1,0,0:0:0:0:
407,259,257767,1,8,1:2:0:0:
384,204,257860,1,0,0:0:0:0:
348,143,257954,1,2,3:3:0:0:
378,76,258048,1,2,3:3:0:0:
457,71,258142,6,0,B|474:92|474:92|451:198,1,124.79999428711,4|0,1:2|0:0,0:0:0:0:
478,275,258423,1,0,0:0:0:0:
465,282,258517,2,0,L|396:266,1,62.3999971435548,8|0,1:2|0:0,0:0:0:0:
331,328,258704,2,0,L|262:312,1,62.3999971435548
156,372,258892,5,4,1:3:0:0:
185,331,258985,1,0,0:0:0:0:
157,289,259079,1,0,0:0:0:0:
186,248,259173,1,0,0:0:0:0:
165,202,259267,6,0,P|138:186|78:191,1,62.3999971435548,8|0,1:2|0:0,0:0:0:0:
96,104,259454,2,0,P|65:111|26:157,1,62.3999971435548,2|0,0:2|0:0,0:0:0:0:
9,228,259642,5,4,1:3:0:0:
10,239,259735,1,0,0:0:0:0:
15,247,259829,1,0,0:0:0:0:
25,248,259923,1,0,0:0:0:0:
49,275,260017,5,8,1:2:0:0:
78,257,260110,1,0,0:0:0:0:
110,267,260204,1,0,0:0:0:0:
126,301,260298,1,0,0:0:0:0:
152,362,260392,5,4,1:3:0:0:
203,377,260485,1,0,0:0:0:0:
245,347,260579,1,0,0:0:0:0:
244,296,260673,1,0,0:0:0:0:
183,231,260767,6,0,P|181:201|203:155,1,62.3999971435548,8|2,1:2|3:3,0:0:0:0:
333,201,260954,2,0,P|335:231|313:277,1,62.3999971435548,2|2,3:3|3:3,0:0:0:0:
288,117,261142,6,0,B|381:86|355:149|475:111,1,163.200003112793,4|0,1:2|0:0,0:0:0:0:
485,41,261423,1,0,0:0:0:0:
468,32,261517,2,0,L|402:44,1,52.8000016113282,8|0,1:2|0:0,0:0:0:0:
344,122,261704,2,0,L|278:134,1,52.8000016113282
221,205,261892,5,4,1:3:0:0:
186,168,261985,1,0,0:0:0:0:
189,119,262079,1,0,0:0:0:0:
220,84,262173,1,0,0:0:0:0:
235,48,262267,1,8,1:2:0:0:
224,15,262360,1,0,0:0:0:0:
194,2,262454,1,0,0:0:0:0:
173,11,262548,1,0,0:0:0:0:
154,39,262642,5,4,1:3:0:0:
158,86,262735,1,0,0:0:0:0:
199,112,262829,1,0,0:0:0:0:
240,97,262923,1,0,0:0:0:0:
272,58,263017,1,8,1:2:0:0:
326,27,263110,1,0,0:0:0:0:
393,45,263204,1,0,0:0:0:0:
422,107,263298,1,0,0:0:0:0:
397,173,263392,1,4,1:3:0:0:
330,192,263485,1,0,0:0:0:0:
269,157,263579,1,0,0:0:0:0:
200,162,263673,1,0,0:0:0:0:
157,213,263767,1,8,1:2:0:0:
159,265,263860,1,2,3:3:0:0:
191,295,263954,1,2,3:3:0:0:
225,286,264048,1,2,3:3:0:0:
230,277,264142,5,4,1:2:0:0:
228,270,264235,1,0,0:0:0:0:
220,267,264329,1,0,0:0:0:0:
210,271,264423,1,0,0:0:0:0:
205,281,264517,1,8,1:2:0:0:
206,295,264610,1,0,0:0:0:0:
222,312,264704,1,0,0:0:0:0:
243,308,264799,1,0,0:0:0:0:
270,283,264892,1,4,1:3:0:0:
297,261,264985,1,0,0:0:0:0:
328,262,265079,1,0,0:0:0:0:
352,283,265173,1,0,0:0:0:0:
370,323,265267,1,8,1:2:0:0:
407,352,265360,1,0,0:0:0:0:
453,344,265454,1,0,0:0:0:0:
484,306,265548,1,0,0:0:0:0:
487,254,265642,5,4,1:3:0:0:
463,207,265735,1,0,0:0:0:0:
412,191,265829,1,0,0:0:0:0:
365,217,265923,1,0,0:0:0:0:
341,261,266017,6,0,L|269:246,1,62.3999971435548,8|0,1:2|0:0,0:0:0:0:
186,335,266204,2,0,L|114:320,1,62.3999971435548,6|0,3:3|0:0,0:0:0:0:
0,130,266392,5,8,1:2:0:0:
31,72,266485,1,2,1:3:0:0:
95,60,266579,5,2,1:3:0:0:
140,110,266673,1,2,1:3:0:0:
153,175,266767,6,0,L|225:160,1,62.3999971435548,10|0,1:3|0:0,0:0:0:0:
284,293,266954,2,0,L|356:278,1,62.3999971435548,6|0,1:3|0:0,0:0:0:0:
435,309,267142,6,0,P|313:243|365:182,1,237.60000226593,4|0,0:1|0:0,0:0:0:0:
347,181,267517,2,0,P|253:216|231:171,1,158.40000151062,8|0,3:2|0:0,0:0:0:0:
241,117,267798,1,0,0:0:0:0:
222,179,267892,2,0,P|212:238|182:235,1,79.2000007553101,0|0,3:0|0:0,0:0:0:0:
121,220,268079,2,0,P|110:184|138:158,1,79.2000007553101,2|0,0:3|0:0,0:0:0:0:
201,308,268267,2,0,P|237:322|274:336,1,79.2000007553101,8|0,3:2|0:0,0:0:0:0:
362,305,268454,2,0,P|399:318|435:333,1,79.2000007553101,2|0,0:0|0:0,0:0:0:0:
370,233,268642,6,0,P|304:208|164:160,1,158.40000151062,4|0,3:2|0:0,0:0:0:0:
118,47,269017,1,8,3:2:0:0:
131,51,269110,1,0,0:0:0:0:
146,57,269204,2,0,L|231:89,1,79.2000007553101,2|0,0:0|0:0,0:0:0:0:
369,124,269392,6,0,P|294:150|220:178,1,158.40000151062,0|0,3:0|0:0,0:0:0:0:
120,143,269673,1,0,0:0:0:0:
105,148,269767,2,0,P|59:163|14:180,1,79.2000007553101,8|0,3:2|0:0,0:0:0:0:
80,344,269954,5,2,0:3:0:0:
149,361,270048,1,2,0:3:0:0:
204,315,270142,2,0,P|98:268|36:270,1,158.40000151062,4|0,3:2|0:0,0:0:0:0:
126,251,270423,1,0,0:0:0:0:
196,239,270517,2,0,L|326:210,1,79.2000007553101,8|0,3:2|0:0,0:0:0:0:
370,195,270704,5,2,0:3:0:0:
378,132,270798,1,2,0:3:0:0:
345,77,270892,2,0,P|302:86|225:104,1,79.2000007553101,0|0,3:0|0:0,0:0:0:0:
367,201,271079,5,2,0:3:0:0:
361,241,271173,1,2,0:3:0:0:
383,276,271267,2,0,P|426:267|503:249,1,79.2000007553101,0|0,3:0|0:0,0:0:0:0:
392,302,271454,5,2,0:3:0:0:
396,333,271548,1,2,0:3:0:0:
379,361,271642,2,0,P|344:353|282:339,1,79.2000007553101,4|0,3:2|0:0,0:0:0:0:
237,254,271829,2,0,P|198:245|159:236,1,79.2000007553101,2|0,0:3|0:0,0:0:0:0:
8,107,272017,2,0,P|85:124|162:142,1,158.40000151062,8|0,3:2|0:0,0:0:0:0:
388,46,272392,5,0,3:0:0:0:
328,83,272485,1,0,0:0:0:0:
328,154,272579,1,2,0:3:0:0:
379,203,272673,1,0,0:0:0:0:
385,194,272767,2,0,L|410:106,1,79.2000007553101,8|0,3:2|0:0,0:0:0:0:
371,220,272954,5,2,0:3:0:0:
422,267,273047,1,2,0:3:0:0:
408,336,273142,2,0,L|394:172,1,158.40000151062,4|0,3:2|0:0,0:0:0:0:
329,340,273517,2,0,L|322:261,1,79.2000007553101,8|0,3:2|0:0,0:0:0:0:
238,199,273704,1,2,0:3:0:0:
238,199,273798,1,2,0:3:0:0:
238,199,273892,2,0,L|251:362,1,158.40000151062,0|0,3:0|0:0,0:0:0:0:
157,120,274267,6,0,L|163:198,1,79.2000007553101,8|0,3:2|0:0,0:0:0:0:
103,297,274454,2,0,L|96:218,1,79.2000007553101
71,19,274642,6,0,P|0:101|75:180,1,237.60000226593,4|0,3:2|0:0,0:0:0:0:
93,183,275017,2,0,P|54:176|18:191,1,79.2000007553101,8|0,3:2|0:0,0:0:0:0:
25,323,275204,2,0,P|63:329|99:314,1,79.2000007553101
175,144,275392,1,2,3:0:0:0:
244,156,275485,1,2,0:3:0:0:
314,169,275579,2,0,L|320:273,1,79.2000007553101,2|0,0:3|0:0,0:0:0:0:
347,329,275767,1,8,3:2:0:0:
399,319,275860,1,2,0:3:0:0:
452,310,275954,2,0,L|456:230,1,79.2000007553101,2|0,0:3|0:0,0:0:0:0:
420,113,276142,6,0,P|279:88|148:67,1,237.60000226593,4|0,3:2|0:0,0:0:0:0:
178,65,276517,2,0,P|223:72|276:83,1,79.2000007553101,8|0,3:2|0:0,0:0:0:0:
321,50,276704,1,2,0:3:0:0:
321,50,276798,1,2,0:3:0:0:
341,116,276892,2,0,P|334:161|323:214,1,79.2000007553101,0|0,3:0|0:0,0:0:0:0:
250,322,277079,2,0,P|257:277|268:224,1,79.2000007553101
405,207,277267,2,0,P|366:199|327:194,1,79.2000007553101,8|0,3:2|0:0,0:0:0:0:
266,246,277454,1,2,0:3:0:0:
266,246,277548,1,2,0:3:0:0:
222,179,277642,6,0,P|182:173|143:165,1,79.2000007553101,4|0,3:2|0:0,0:0:0:0:
92,64,277829,1,0,0:0:0:0:
222,179,278017,6,0,P|261:184|300:192,2,79.2000007553101,8|0|0,3:2|0:0|0:0,0:0:0:0:
92,64,278392,6,0,P|170:76|247:91,1,158.40000151062,0|0,3:0|0:0,0:0:0:0:
307,56,278673,1,0,0:0:0:0:
353,112,278767,6,0,P|392:118|431:124,1,79.2000007553101,2|2,3:0|3:0,0:0:0:0:
402,253,278954,1,2,3:3:0:0:
418,190,279048,1,2,3:3:0:0:
384,315,279142,6,0,P|312:301|220:285,1,158.40000151062,4|0,0:1|0:0,0:0:0:0:
41,120,279517,6,0,P|87:129|147:139,1,79.2000007553101,8|0,3:2|0:0,0:0:0:0:
159,194,279704,2,0,P|197:201|236:208,1,79.2000007553101
345,150,279892,1,2,3:0:0:0:
41,120,280173,1,2,0:3:0:0:
82,59,280267,2,0,P|163:73|244:89,1,158.40000151062,8|0,3:2|0:0,0:0:0:0:
220,157,280548,1,2,0:3:0:0:
202,226,280642,6,0,P|141:215|81:203,1,79.2000007553101,4|0,3:2|0:0,0:0:0:0:
98,336,280829,2,0,P|158:346|218:358,1,79.2000007553101
267,298,281017,5,8,3:2:0:0:
267,298,281110,1,0,0:0:0:0:
267,298,281204,1,2,0:3:0:0:
352,317,281298,1,2,0:3:0:0:
352,317,281392,2,0,L|350:220,1,79.2000007553101,2|0,3:0|0:0,0:0:0:0:
281,138,281579,2,0,L|283:235,1,79.2000007553101,2|0,0:3|0:0,0:0:0:0:
375,330,281767,1,8,3:2:0:0:
353,147,281954,5,2,0:3:0:0:
420,156,282048,1,2,0:3:0:0:
281,138,282142,6,0,L|89:115,1,158.40000151062,4|0,3:2|0:0,0:0:0:0:
27,212,282423,1,2,0:3:0:0:
97,275,282517,2,0,L|106:177,1,79.2000007553101,8|0,3:2|0:0,0:0:0:0:
41,67,282704,1,2,0:3:0:0:
104,196,282892,2,0,L|95:294,1,79.2000007553101,2|0,3:0|0:0,0:0:0:0:
173,334,283079,1,2,0:3:0:0:
173,334,283173,1,2,0:3:0:0:
226,294,283267,2,0,L|235:196,1,79.2000007553101,8|0,3:2|0:0,0:0:0:0:
386,79,283454,2,0,L|377:177,1,79.2000007553101,2|0,0:3|0:0,0:0:0:0:
322,318,283642,5,4,3:2:0:0:
322,318,283923,2,0,L|331:220,1,79.2000007553101,2|8,0:3|3:2,0:0:0:0:
305,127,284204,1,2,0:3:0:0:
322,318,284392,2,0,L|331:220,1,79.2000007553101,2|0,3:0|0:0,0:0:0:0:
256,271,284579,1,2,0:3:0:0:
322,318,284673,2,0,L|329:239,1,79.2000007553101,2|8,0:3|3:2,0:0:0:0:
178,183,284954,5,2,3:3:0:0:
247,194,285048,1,2,3:3:0:0:
108,178,285142,6,0,P|124:78|136:4,1,158.40000151062,4|0,3:2|0:0,0:0:0:0:
214,37,285423,1,2,0:3:0:0:
214,37,285517,2,0,P|204:98|196:144,1,79.2000007553101,8|0,3:2|0:0,0:0:0:0:
301,49,285704,2,0,P|294:88|288:127,1,79.2000007553101,2|0,0:3|0:0,0:0:0:0:
410,284,285892,2,0,P|403:244|397:205,1,79.2000007553101,2|0,3:0|0:0,0:0:0:0:
331,308,286079,1,2,0:3:0:0:
331,308,286173,1,2,0:3:0:0:
331,308,286267,2,0,P|324:268|318:229,1,79.2000007553101,8|0,3:2|0:0,0:0:0:0:
181,190,286454,1,2,0:3:0:0:
250,207,286548,1,2,0:3:0:0:
109,177,286642,6,0,P|123:84|138:1,1,158.40000151062,4|0,3:2|0:0,0:0:0:0:
329,50,287017,1,8,3:2:0:0:
439,39,287110,1,2,3:0:0:0:
385,78,287204,2,0,P|396:158|399:181,1,79.2000007553101,2|0,0:3|0:0,0:0:0:0:
215,123,287392,2,0,P|204:43|201:20,1,79.2000007553101,0|0,3:0|0:0,0:0:0:0:
326,176,287579,1,2,0:3:0:0:
252,187,287673,1,2,0:3:0:0:
404,162,287767,2,0,P|409:201|414:240,1,79.2000007553101,8|0,3:2|0:0,0:0:0:0:
144,325,287954,2,0,P|138:285|133:246,1,79.2000007553101,2|0,0:3|0:0,0:0:0:0:
126,183,288142,5,0,3:0:0:0:
191,172,288235,1,0,3:0:0:0:
258,162,288329,1,0,3:0:0:0:
324,151,288423,1,0,3:0:0:0:
391,142,288517,1,0,3:0:0:0:
325,131,288610,1,0,3:0:0:0:
259,121,288704,1,0,3:0:0:0:
192,110,288798,1,0,3:0:0:0:
126,101,288892,1,0,3:0:0:0:
191,90,288985,1,0,3:0:0:0:
258,80,289079,1,0,3:0:0:0:
324,69,289173,1,0,3:0:0:0:
391,60,289267,1,0,3:0:0:0:
325,50,289360,1,0,3:0:0:0:
259,39,289454,1,0,3:0:0:0:
192,29,289548,1,0,3:0:0:0:
126,19,289642,5,8,3:2:0:0:
118,55,289735,1,0,3:0:0:0:
165,140,289829,5,8,3:2:0:0:
173,104,289922,1,0,3:0:0:0:
59,100,290017,5,8,3:2:0:0:
76,132,290110,1,0,3:0:0:0:
166,167,290204,5,8,3:2:0:0:
149,134,290298,1,0,3:0:0:0:
59,204,290392,5,8,3:2:0:0:
92,217,290485,1,0,3:0:0:0:
184,186,290579,5,8,3:2:0:0:
149,172,290673,1,0,3:0:0:0:
125,283,290767,5,8,3:2:0:0:
158,272,290860,1,8,3:2:0:0:
209,189,290954,5,8,3:2:0:0:
173,201,291048,1,8,3:2:0:0:
228,270,291162,6,0,B|237:325|275:355|353:322|437:294|310:204|448:95|501:74|501:74|445:79|341:46|253:66|253:66|265:121|253:66|253:66|158:92|86:162|33:182|33:182|90:178|289:227|373:138,1,1335.35995924805,4|0,3:1|0:0,3:0:0:0:
368,154,293962,5,8,0:3:0:0:
368,230,294095,1,4,0:3:0:0:
302,192,294228,1,8,0:3:0:0:
342,190,294362,2,0,P|340:154|316:122,1,70,4|0,0:0|0:0,0:0:0:0:
151,0,294762,6,0,P|156:53|215:81,1,105
205,84,295162,2,0,P|255:65|268:0,1,105
267,9,295562,2,0,P|314:-12|360:10,1,105
408,60,295962,6,0,B|420:69|439:67|426:59|436:39|456:33|500:62|481:98|445:112|417:92|432:73|443:81|434:59|387:72|399:104|426:112|434:93,2,140.160003849609
225,166,297162,5,8,0:3:0:0:
291,137,297295,1,4,0:3:0:0:
342,190,297428,1,8,0:3:0:0:
276,301,297562,1,4,0:0:0:0:
365,357,297962,70,0,L|272:299,1,105.120002887207
220,338,298362,2,0,L|245:230,1,105.120002887207
190,191,298762,2,0,L|298:182,1,105.120002887207
316,116,299162,2,0,L|345:219,1,105.120002887207
422,215,299562,2,0,L|308:309,2,140.160003849609
38,211,300762,70,0,P|163:148|235:23,1,285.600005447388,2|0,0:3|0:0,0:0:0:0:
185,173,301562,2,0,P|191:285|148:390,1,218.399990002442,2|0,0:3|0:0,0:0:0:0:
227,274,302362,2,0,P|299:237|341:164,1,151.199995385742,2|0,0:3|0:0,0:0:0:0:
337,237,303162,2,0,P|345:279|371:315,1,84,2|0,0:3|0:0,0:0:0:0:
399,275,303962,2,0,P|400:268|409:249,1,28.8,4|0,0:0|0:0,0:0:0:0:
485,333,304762,6,0,B|498:304|481:368|412:380|412:380|484:336|489:220|453:216|330:171|352:54|438:-6|438:-6|520:65|509:153|373:294|247:206|247:206|289:227|337:205,1,1048.31996800781,4|0,0:0|0:0,0:0:0:0:
283,64,307562,5,8,0:3:0:0:
283,140,307695,1,4,0:3:0:0:
217,102,307828,1,8,0:3:0:0:
258,100,307962,2,0,L|113:84,1,120.959996308594,4|0,0:0|0:0,0:0:0:0:
80,138,308362,6,0,P|57:92|75:45,1,105.120002887207
82,37,308762,2,0,P|132:25|174:55,1,105.120002887207
178,60,309162,2,0,P|178:111|139:145,1,105.120002887207
94,208,309562,2,0,B|71:197|59:214|66:211|61:207|52:223|29:216|29:216|25:242|40:261|52:252|38:255|74:271|57:300,2,140.160003849609
179,243,310762,5,8,0:3:0:0:
185,306,310895,1,4,0:3:0:0:
192,369,311028,1,8,0:3:0:0:
134,317,311162,2,0,L|265:292,1,105.120002887207,4|0,0:0|0:0,0:0:0:0:
342,343,311562,6,0,P|368:295|368:243,1,105.120002887207
415,250,311962,2,0,P|380:209|328:192,1,105.120002887207
350,151,312362,2,0,P|302:172|271:214,1,105.120002887207
241,178,312762,2,0,P|248:229|279:273,1,105.120002887207
237,297,313162,2,0,P|306:305|374:280,2,140.160003849609
389,347,314362,70,0,L|439:65,1,285.600005447388,2|0,0:3|0:0,0:0:0:0:
441,52,315162,2,0,L|226:90,1,218.399990002442,2|0,0:3|0:0,0:0:0:0:
215,95,315962,2,0,L|282:205,1,129.599996044922,2|0,0:3|0:0,0:0:0:0:
287,214,316762,2,0,L|338:142,1,84,2|0,0:3|0:0,0:0:0:0:
287,214,317550,37,4,0:0:0:0:
127,228,317750,5,2,0:0:0:0:
124,218,317850,1,2,0:0:0:0:
67,187,317950,1,2,0:0:0:0:
64,177,318050,1,2,0:0:0:0:
117,154,318150,37,2,0:3:0:0:
90,212,318250,1,2,0:3:0:0:
71,269,318350,1,4,0:0:0:0:
33,79,318550,5,2,0:0:0:0:
51,84,318650,1,2,0:0:0:0:
74,83,318750,1,2,0:0:0:0:
103,73,318850,1,2,0:0:0:0:
125,50,318950,1,2,0:0:0:0:
134,19,319050,1,2,0:0:0:0:
62,14,319150,37,4,0:0:0:0:
257,48,319350,38,0,L|270:13,2,32
217,48,319550,21,2,0:0:0:0:
227,81,319650,1,2,0:0:0:0:
235,112,319750,1,2,0:0:0:0:
245,145,319850,1,2,0:0:0:0:
222,176,319950,37,4,0:0:0:0:
266,154,320050,1,2,0:3:0:0:
314,158,320150,1,2,0:3:0:0:
354,188,320250,1,2,0:3:0:0:
370,236,320350,6,0,L|363:310,1,64,2|0,0:0|0:0,0:0:0:0:
301,333,320550,2,0,L|308:368,2,32,2|0|0,0:3|0:0|0:0,0:0:0:0:
416,355,320750,37,4,0:0:0:0:
442,145,320950,37,2,0:3:0:0:
440,132,321016,1,2,0:3:0:0:
438,119,321083,1,2,0:3:0:0:
436,106,321150,21,2,0:3:0:0:
418,93,321250,1,2,0:0:0:0:
350,97,321350,1,2,0:0:0:0:
332,84,321450,1,2,0:0:0:0:
261,93,321550,22,0,L|233:69,2,32,4|0|0,0:0|0:0|0:0,0:0:0:0:
271,130,321750,21,2,0:0:0:0:
256,165,321850,1,2,0:0:0:0:
220,178,321950,1,2,0:0:0:0:
186,161,322050,1,2,0:0:0:0:
134,146,322150,1,2,0:0:0:0:
80,156,322250,5,2,0:0:0:0:
50,226,322350,37,4,0:0:0:0:
50,226,322750,6,0,B|63:238|66:258|66:258|97:249|130:258|130:258|130:210|130:210|100:176|88:123|122:66|193:38|266:66|300:123|288:176|258:210|258:210|258:258|258:258|289:249|322:258|322:258|323:238|338:226,1,671.999979492188
351,345,323950,5,2,0:0:0:0:
429,288,324155,1,2,0:0:0:0:
338,225,324360,1,2,0:0:0:0:
442,151,324566,1,2,0:0:0:0:
327,44,324771,1,2,0:1:0:0:
442,151,324971,1,2,0:0:0:0:
338,225,325171,1,2,0:0:0:0:
429,288,325371,1,2,0:0:0:0:
351,345,325571,5,4,0:1:0:0:
