osu file format v14

[General]
AudioFilename: audio.mp3
AudioLeadIn: 0
PreviewTime: 81647
Countdown: 0
SampleSet: Normal
StackLeniency: 0.5
Mode: 0
LetterboxInBreaks: 0
WidescreenStoryboard: 1

[Editor]
Bookmarks: 2942,25530,70706,82000,104589,115883,138471,161059
DistanceSpacing: 0.2
BeatDivisor: 8
GridSize: 4
TimelineZoom: 8

[Metadata]
Title:Feline, the White...
TitleUnicode:Feline, the White...
Artist:Cranky
ArtistUnicode:Cranky
Creator:Nidasimno
Version:White Cat
Source:
Tags:breakcore feline the white fun breakcore cat stream anime girl groove iv featured artist
BeatmapID:1972410
BeatmapSetID:944449

[Difficulty]
HPDrainRate:7
CircleSize:4
OverallDifficulty:8
ApproachRate:9.6
SliderMultiplier:2.5
SliderTickRate:1

[Events]
//Background and Video events
0,0,"backG.jpg",0,0
//Break Periods
2,78671,81491
//Storyboard Layer 0 (Background)
//Storyboard Layer 1 (Fail)
//Storyboard Layer 2 (Pass)
//Storyboard Layer 3 (Foreground)
//Storyboard Sound Samples

[TimingPoints]
2942,352.941176470588,4,2,1,20,1,0
2942,-200,4,2,1,20,0,0
4265,-200,4,2,1,5,0,0
4353,-200,4,2,1,20,0,0
5147,-200,4,2,1,5,0,0
5589,-200,4,2,1,10,0,0
5765,-200,4,2,1,20,0,0
6824,-400,4,2,1,20,0,0
7089,-400,4,2,1,5,0,0
7177,-200,4,2,1,20,0,0
9912,-200,4,2,1,5,0,0
10000,-200,4,2,1,20,0,0
10883,-200,4,2,1,5,0,0
11236,-200,4,2,1,10,0,0
11412,-200,4,2,1,20,0,0
14147,-200,4,2,1,5,0,0
14236,-1000,4,2,2,20,0,0
14941,-1000,4,2,1,20,0,0
15030,-1000,4,2,2,20,0,0
15647,-1000,4,2,1,20,0,0
15736,-1000,4,2,2,20,0,0
16353,-1000,4,2,1,5,0,0
16530,-1000,4,2,1,5,0,0
16706,-1000,4,2,1,10,0,0
16883,-1000,4,2,1,20,0,0
17147,-1000,4,2,2,20,0,0
17500,-1000,4,2,1,5,0,0
17589,-1000,4,2,1,20,0,0
17677,-1000,4,2,2,20,0,0
18030,-1000,4,2,1,5,0,0
18118,-1000,4,2,1,20,0,0
18206,-1000,4,2,2,20,0,0
18383,-1000,4,2,1,5,0,0
18471,-1000,4,2,1,20,0,0
18559,-1000,4,2,2,20,0,0
19177,-1000,4,2,1,5,0,0
19353,-1000,4,2,1,20,0,0
19441,-1000,4,2,2,20,0,0
19794,-1000,4,2,1,20,0,0
19883,-1000,4,2,1,20,0,0
19971,-1000,4,2,2,20,0,0
20324,-1000,4,2,1,5,0,0
20412,-1000,4,2,1,20,0,0
20500,-1000,4,2,2,20,0,0
20853,-1000,4,2,1,5,0,0
20941,-1000,4,2,1,20,0,0
21030,-1000,4,2,2,20,0,0
21383,-1000,4,2,1,5,0,0
21471,-1000,4,2,1,20,0,0
21559,-1000,4,2,2,20,0,0
21912,-1000,4,2,1,5,0,0
22000,-1000,4,2,1,20,0,0
22089,-1000,4,2,2,20,0,0
22265,-1000,4,2,1,5,0,0
22353,-1000,4,2,1,20,0,0
22971,-1000,4,2,2,20,0,0
23765,-1000,4,2,1,20,0,0
24118,-400,4,1,1,20,0,0
24383,-400,4,1,1,5,0,0
24471,-200,4,1,1,40,0,0
24736,-200,4,1,1,5,0,0
24824,-133.333333333333,4,1,1,60,0,0
25089,-133.333333333333,4,1,1,5,0,0
25177,-100,4,1,1,80,0,0
25441,-100,4,1,1,5,0,0
25530,-400,4,1,2,20,0,0
26941,-200,4,1,1,50,0,0
28353,-400,4,1,1,20,0,0
28441,-400,4,1,2,20,0,0
28883,-400,4,1,1,20,0,0
28971,-400,4,1,2,20,0,0
29412,-400,4,1,1,20,0,0
29765,-200,4,1,1,50,0,0
31177,-400,4,1,1,20,0,0
31265,-400,4,1,2,20,0,0
31706,-400,4,1,1,20,0,0
31794,-400,4,1,2,20,0,0
32236,-400,4,1,1,20,0,0
32589,-200,4,1,1,50,0,0
34000,-400,4,1,1,20,0,0
34089,-400,4,1,2,20,0,0
34530,-400,4,1,1,20,0,0
34618,-400,4,1,2,20,0,0
35059,-400,4,1,1,20,0,0
35677,-400,4,1,1,20,0,0
35765,-200,4,1,1,40,0,0
36030,-200,4,1,1,5,0,0
36118,-133.333333333333,4,1,1,60,0,0
36383,-133.333333333333,4,1,1,5,0,0
36471,-100,4,1,1,80,0,0
36736,-100,4,1,1,5,0,0
36824,-400,4,1,1,20,0,0
36912,-400,4,1,2,20,0,0
37353,-400,4,1,1,20,0,0
37441,-400,4,1,2,20,0,0
37883,-400,4,1,1,20,0,0
38236,-200,4,1,1,50,0,0
39647,-400,4,1,1,20,0,0
39736,-400,4,1,2,20,0,0
40177,-400,4,1,1,20,0,0
40265,-400,4,1,2,20,0,0
40706,-400,4,1,1,20,0,0
41059,-200,4,1,1,50,0,0
42471,-400,4,1,1,20,0,0
42559,-400,4,1,2,20,0,0
43000,-400,4,1,1,20,0,0
43089,-400,4,1,2,20,0,0
43530,-400,4,1,1,20,0,0
43883,-200,4,1,1,50,0,0
45294,-400,4,1,1,20,0,0
45383,-400,4,1,2,20,0,0
45824,-400,4,1,1,20,0,0
45912,-400,4,1,2,20,0,0
46353,-400,4,1,1,20,0,0
46971,-400,4,1,1,5,0,0
47059,-200,4,1,1,40,0,0
47324,-200,4,1,1,5,0,0
47412,-133.333333333333,4,1,1,60,0,0
47677,-133.333333333333,4,1,1,5,0,0
47765,-100,4,1,1,80,0,0
48030,-100,4,1,1,5,0,0
48118,-400,4,1,1,20,0,0
48206,-400,4,1,2,20,0,0
48647,-400,4,1,1,20,0,0
48736,-400,4,1,2,20,0,0
49177,-400,4,1,1,20,0,0
49530,-200,4,1,1,50,0,0
50941,-200,4,1,1,20,0,0
51118,-200,4,1,1,20,0,0
51162,-200,4,1,1,25,0,0
51206,-200,4,1,1,30,0,0
51250,-200,4,1,1,35,0,0
51294,-200,4,1,1,50,0,0
51471,-200,4,1,1,20,0,0
51500,-200,4,1,1,25,0,0
51530,-200,4,1,1,30,0,0
51559,-200,4,1,1,35,0,0
51589,-200,4,1,1,40,0,0
51618,-200,4,1,1,45,0,0
51647,-200,4,1,1,50,0,0
51824,-200,4,1,1,20,0,0
51846,-200,4,1,1,25,0,0
51868,-200,4,1,1,30,0,0
51890,-200,4,1,1,35,0,0
51912,-200,4,1,1,40,0,0
51934,-200,4,1,1,45,0,0
52000,-200,4,1,1,50,0,0
53765,-400,4,1,1,20,0,0
53853,-400,4,1,2,20,0,0
54294,-400,4,1,1,20,0,0
54383,-400,4,1,2,20,0,0
54824,-400,4,1,1,20,0,0
54912,-400,4,1,1,30,0,0
55000,-400,4,1,1,40,0,0
55089,-400,4,1,1,45,0,0
55177,-200,4,1,1,50,0,0
56236,-1000,4,1,2,20,0,0
56324,-1000,4,1,1,5,0,0
56589,-400,4,1,1,20,0,0
56677,-400,4,1,2,20,0,0
57118,-400,4,1,1,20,0,0
58000,-400,4,1,1,50,0,0
59412,-400,4,1,1,20,0,0
59500,-400,4,1,2,20,0,0
59941,-400,4,1,1,20,0,0
60030,-400,4,1,2,20,0,0
60471,-400,4,1,1,20,0,0
60824,-200,4,1,1,50,0,0
62324,-200,4,1,1,45,0,0
62412,-200,4,1,1,40,0,0
62500,-200,4,1,1,35,0,0
62589,-200,4,1,1,30,0,0
62677,-200,4,1,1,25,0,0
62765,-200,4,1,1,20,0,0
62941,-400,4,1,1,20,0,0
63647,-200,4,1,1,50,0,0
65059,-200,4,1,1,20,0,0
65589,-400,4,1,1,20,0,0
65677,-400,4,1,2,20,0,0
66471,-200,4,1,1,50,0,0
67883,-400,4,1,1,20,0,0
67971,-400,4,1,2,20,0,0
68412,-400,4,1,1,20,0,0
69294,-200,4,1,1,50,0,0
70706,-400,4,1,1,50,0,0
70794,-400,4,1,1,5,0,0
82000,-100,4,1,1,80,0,1
82177,-100,4,1,1,50,0,1
82353,-100,4,1,1,80,0,1
82530,-100,4,1,1,80,0,1
82618,-100,4,1,1,50,0,1
82706,-100,4,1,1,80,0,1
82794,-100,4,1,1,50,0,1
82883,-100,4,1,1,80,0,1
83236,-100,4,1,1,50,0,1
83412,-100,4,1,1,80,0,1
83589,-100,4,1,1,50,0,1
83765,-100,4,1,1,80,0,1
84030,-200,4,1,1,80,0,1
84118,-100,4,1,1,80,0,1
84647,-100,4,1,1,50,0,1
84736,-100,4,1,1,80,0,1
84912,-100,4,1,1,50,0,1
85177,-100,4,1,1,80,0,1
85353,-100,4,1,1,50,0,1
85441,-100,4,1,1,80,0,1
85706,-100,4,1,1,50,0,1
85883,-100,4,1,1,80,0,1
85971,-200,4,1,1,50,0,1
86015,-200,4,1,1,60,0,1
86059,-200,4,1,1,70,0,1
86103,-200,4,1,1,70,0,1
86147,-100,4,1,1,80,0,1
86236,-100,4,1,1,80,0,1
86765,-100,4,1,1,80,0,1
86853,-100,4,1,1,50,0,1
86941,-100,4,1,1,80,0,1
87030,-100,4,1,1,50,0,1
87206,-100,4,1,1,80,0,1
87383,-100,4,1,1,50,0,1
87471,-100,4,1,1,60,0,1
87559,-100,4,1,1,70,0,1
87647,-100,4,1,1,80,0,1
87824,-100,4,1,1,50,0,1
88000,-100,4,1,1,80,0,1
88441,-100,4,1,1,50,0,1
88530,-100,4,1,2,80,0,1
88618,-100,4,1,1,50,0,1
88706,-100,4,1,1,80,0,1
88794,-100,4,1,1,50,0,1
88883,-100,4,1,1,80,0,1
88971,-100,4,1,1,50,0,1
89059,-100,4,1,1,80,0,1
89236,-100,4,1,1,50,0,1
89412,-200,4,1,1,50,0,1
89500,-100,4,1,1,80,0,1
89589,-100,4,1,1,50,0,1
89677,-100,4,1,1,80,0,1
89765,-100,4,1,1,50,0,1
89941,-100,4,1,1,80,0,1
90030,-100,4,1,1,50,0,1
90118,-100,4,1,1,80,0,1
90912,-100,4,1,1,50,0,1
91089,-100,4,1,1,80,0,1
91441,-100,4,1,1,50,0,1
91618,-200,4,1,1,80,0,1
91706,-100,4,1,1,80,0,1
92589,-100,4,1,1,50,0,1
92853,-100,4,1,1,80,0,1
93206,-100,4,1,1,50,0,1
93294,-100,4,1,1,80,0,1
93471,-100,4,1,1,50,0,1
93647,-100,4,1,1,80,0,1
93824,-100,4,1,1,50,0,1
94177,-200,4,1,1,50,0,1
94221,-200,4,1,1,60,0,1
94265,-200,4,1,1,70,0,1
94309,-200,4,1,1,80,0,1
94353,-100,4,1,1,80,0,1
94530,-100,4,1,1,50,0,1
94706,-100,4,1,1,80,0,1
94883,-100,4,1,1,50,0,1
95059,-100,4,1,1,80,0,1
95236,-100,4,1,1,50,0,1
95324,-100,4,1,1,80,0,1
95412,-100,4,1,1,50,0,1
95765,-100,4,1,1,80,0,1
95853,-100,4,1,1,50,0,1
96118,-100,4,1,1,80,0,1
96206,-100,4,1,1,80,0,1
96294,-80,4,1,1,80,0,1
96383,-100,4,1,1,80,0,1
96559,-100,4,1,2,80,0,1
96647,-100,4,1,1,50,0,1
96736,-100,4,1,1,80,0,1
96912,-100,4,1,2,80,0,1
97000,-80,4,1,1,50,0,1
97089,-100,4,1,2,80,0,1
97177,-100,4,1,1,80,0,1
97265,-200,4,1,1,80,0,1
97353,-100,4,1,1,80,0,1
98236,-100,4,1,1,80,0,1
98324,-100,4,1,1,50,0,1
98589,-100,4,1,1,80,0,1
99030,-100,4,1,1,50,0,1
99294,-100,4,1,1,80,0,1
99383,-100,4,1,1,50,0,1
99647,-100,4,1,1,80,0,1
99736,-100,4,1,1,50,0,1
99824,-200,4,1,1,50,0,1
99868,-200,4,1,1,60,0,1
99912,-200,4,1,1,70,0,1
99956,-200,4,1,1,70,0,1
100000,-100,4,1,1,80,0,1
100089,-100,4,1,1,50,0,1
100177,-200,4,1,1,50,0,1
100221,-200,4,1,1,60,0,1
100265,-200,4,1,1,70,0,1
100309,-200,4,1,1,80,0,1
100353,-100,4,1,1,80,0,1
100530,-100,4,1,1,50,0,1
100706,-200,4,1,1,50,0,1
100750,-200,4,1,1,60,0,1
100794,-200,4,1,1,70,0,1
100839,-200,4,1,1,80,0,1
100883,-100,4,1,1,80,0,1
100971,-100,4,1,1,50,0,1
101059,-100,4,1,1,80,0,1
101147,-100,4,1,1,50,0,1
101236,-200,4,1,2,80,0,1
101412,-100,4,1,1,80,0,1
101853,-100,4,1,1,50,0,1
102118,-100,4,1,1,80,0,1
102206,-100,4,1,1,50,0,1
102383,-100,4,1,1,80,0,1
102912,-100,4,1,2,80,0,1
103177,-100,4,1,1,80,0,1
103706,-100,4,1,1,10,0,1
103794,-100,4,1,1,20,0,1
103883,-100,4,1,1,30,0,1
103971,-100,4,1,1,40,0,1
104059,-66.6666666666667,4,1,1,50,0,1
104147,-66.6666666666667,4,1,1,60,0,1
104236,-33.3333333333333,4,1,1,70,0,1
104412,-33.3333333333333,4,1,1,80,0,1
104589,-100,4,1,1,80,0,1
104853,-100,4,1,1,50,0,1
104941,-100,4,1,1,80,0,1
105030,-100,4,1,1,50,0,1
105118,-200,4,1,1,50,0,1
105206,-200,4,1,1,80,0,1
105294,-100,4,1,1,80,0,1
105471,-100,4,1,1,50,0,1
105647,-100,4,1,1,80,0,1
105736,-100,4,1,1,50,0,1
105912,-100,4,1,1,80,0,1
106353,-66.6666666666667,4,1,1,80,0,1
106441,-66.6666666666667,4,1,1,50,0,1
106618,-66.6666666666667,4,1,1,80,0,1
106706,-66.6666666666667,4,1,1,50,0,1
106794,-66.6666666666667,4,1,1,80,0,1
106971,-66.6666666666667,4,1,1,50,0,1
107059,-66.6666666666667,4,1,1,80,0,1
107147,-66.6666666666667,4,1,1,50,0,1
107236,-66.6666666666667,4,1,1,80,0,1
107324,-66.6666666666667,4,1,1,50,0,1
107412,-100,4,1,1,80,0,1
107589,-100,4,1,1,50,0,1
107765,-100,4,1,1,80,0,1
108030,-100,4,1,1,80,0,1
108118,-100,4,1,1,50,0,1
108206,-100,4,1,1,80,0,1
108294,-100,4,1,1,50,0,1
108471,-100,4,1,1,80,0,1
108559,-100,4,1,1,50,0,1
108736,-100,4,1,1,80,0,1
108824,-100,4,1,1,50,0,1
108912,-100,4,1,1,80,0,1
109000,-100,4,1,1,50,0,1
109177,-100,4,1,1,80,0,1
109353,-100,4,1,1,50,0,1
109441,-100,4,1,1,80,0,1
109618,-100,4,1,1,50,0,1
109883,-100,4,1,1,80,0,1
109971,-100,4,1,1,50,0,1
110236,-100,4,1,1,80,0,1
110412,-100,4,1,1,50,0,1
110589,-100,4,1,1,80,0,1
110765,-100,4,1,1,50,0,1
110853,-100,4,1,1,80,0,1
111118,-100,4,1,1,50,0,1
111294,-100,4,1,1,80,0,1
111471,-100,4,1,1,50,0,1
111559,-100,4,1,1,80,0,1
111824,-100,4,1,1,50,0,1
112000,-100,4,1,1,80,0,1
112618,-100,4,1,1,50,0,1
112706,-100,4,1,1,80,0,1
112794,-100,4,1,1,50,0,1
112883,-100,4,1,1,80,0,1
112971,-100,4,1,1,50,0,1
113059,-100,4,1,1,80,0,1
113236,-100,4,1,1,50,0,1
113412,-100,4,1,1,80,0,1
113589,-100,4,1,1,50,0,1
113677,-100,4,1,1,80,0,1
113941,-100,4,1,1,50,0,1
114118,-100,4,1,1,80,0,1
114559,-100,4,1,1,5,0,1
114647,-100,4,1,1,10,0,1
114736,-100,4,1,1,15,0,1
114824,-100,4,1,1,20,0,1
114912,-100,4,1,1,25,0,1
115000,-100,4,1,1,30,0,1
115089,-100,4,1,1,35,0,1
115177,-100,4,1,1,40,0,1
115265,-100,4,1,1,45,0,1
115353,-100,4,1,1,50,0,1
115441,-100,4,1,1,55,0,1
115530,-100,4,1,1,60,0,1
115618,-100,4,1,1,65,0,1
115706,-100,4,1,1,70,0,1
115794,-100,4,1,1,75,0,1
115883,-100,4,1,1,80,0,1
116059,-100,4,1,1,50,0,1
116236,-100,4,1,1,80,0,1
116413,-100,4,1,1,80,0,1
116501,-100,4,1,1,50,0,1
116589,-100,4,1,1,80,0,1
116677,-100,4,1,1,50,0,1
116766,-100,4,1,1,80,0,1
117119,-100,4,1,1,50,0,1
117295,-100,4,1,1,80,0,1
117472,-100,4,1,1,50,0,1
117648,-100,4,1,1,80,0,1
117913,-200,4,1,1,80,0,1
118000,-100,4,1,1,80,0,1
118530,-100,4,1,1,50,0,1
118619,-100,4,1,1,80,0,1
118795,-100,4,1,1,50,0,1
119060,-100,4,1,1,80,0,1
119236,-100,4,1,1,50,0,1
119324,-100,4,1,1,80,0,1
119589,-100,4,1,1,50,0,1
119766,-100,4,1,1,80,0,1
119854,-200,4,1,1,50,0,1
119898,-200,4,1,1,60,0,1
119942,-200,4,1,1,70,0,1
119986,-200,4,1,1,70,0,1
120030,-100,4,1,1,80,0,1
120119,-100,4,1,1,80,0,1
120648,-100,4,1,1,80,0,1
120736,-100,4,1,1,50,0,1
120824,-100,4,1,1,80,0,1
120913,-100,4,1,1,50,0,1
121089,-100,4,1,1,80,0,1
121266,-100,4,1,1,50,0,1
121354,-100,4,1,1,60,0,1
121442,-100,4,1,1,70,0,1
121530,-100,4,1,1,80,0,1
121707,-100,4,1,1,50,0,1
121883,-100,4,1,1,80,0,1
122324,-100,4,1,1,50,0,1
122413,-100,4,1,2,80,0,1
122501,-100,4,1,1,50,0,1
122589,-100,4,1,1,80,0,1
122677,-100,4,1,1,50,0,1
122766,-100,4,1,1,80,0,1
122854,-100,4,1,1,50,0,1
122942,-100,4,1,1,80,0,1
123119,-100,4,1,1,50,0,1
123295,-200,4,1,1,50,0,1
123383,-100,4,1,1,80,0,1
123472,-100,4,1,1,50,0,1
123560,-100,4,1,1,80,0,1
123648,-100,4,1,1,50,0,1
123824,-100,4,1,1,80,0,1
123913,-100,4,1,1,50,0,1
124001,-100,4,1,1,80,0,1
124795,-100,4,1,1,50,0,1
124972,-100,4,1,1,80,0,1
125324,-100,4,1,1,50,0,1
125501,-200,4,1,1,80,0,1
125589,-100,4,1,1,80,0,1
126472,-100,4,1,1,50,0,1
126736,-100,4,1,1,80,0,1
127089,-100,4,1,1,50,0,1
127177,-100,4,1,1,80,0,1
127354,-100,4,1,1,50,0,1
127530,-100,4,1,1,80,0,1
127707,-100,4,1,1,50,0,1
128060,-200,4,1,1,50,0,1
128104,-200,4,1,1,60,0,1
128148,-200,4,1,1,70,0,1
128192,-200,4,1,1,80,0,1
128236,-100,4,1,1,80,0,1
128413,-100,4,1,1,50,0,1
128589,-100,4,1,1,80,0,1
128766,-100,4,1,1,50,0,1
128942,-100,4,1,1,80,0,1
129119,-100,4,1,1,50,0,1
129207,-100,4,1,1,80,0,1
129295,-100,4,1,1,50,0,1
129648,-100,4,1,1,80,0,1
129736,-100,4,1,1,50,0,1
130001,-100,4,1,1,80,0,1
130089,-100,4,1,1,80,0,1
130177,-80,4,1,1,80,0,1
130266,-100,4,1,1,80,0,1
130442,-100,4,1,2,80,0,1
130530,-100,4,1,1,50,0,1
130619,-100,4,1,1,80,0,1
130795,-100,4,1,2,80,0,1
130883,-80,4,1,1,50,0,1
130972,-100,4,1,2,80,0,1
131060,-100,4,1,1,80,0,1
131148,-200,4,1,1,80,0,1
131236,-100,4,1,1,80,0,1
132119,-100,4,1,1,80,0,1
132207,-100,4,1,1,50,0,1
132472,-100,4,1,1,80,0,1
132913,-100,4,1,1,50,0,1
133177,-100,4,1,1,80,0,1
133266,-100,4,1,1,50,0,1
133530,-100,4,1,1,80,0,1
133619,-100,4,1,1,50,0,1
133707,-200,4,1,1,50,0,1
133751,-200,4,1,1,60,0,1
133795,-200,4,1,1,70,0,1
133839,-200,4,1,1,70,0,1
133883,-100,4,1,1,80,0,1
133972,-100,4,1,1,50,0,1
134060,-200,4,1,1,50,0,1
134104,-200,4,1,1,60,0,1
134148,-200,4,1,1,70,0,1
134192,-200,4,1,1,80,0,1
134236,-100,4,1,1,80,0,1
134413,-100,4,1,1,50,0,1
134589,-200,4,1,1,50,0,1
134633,-200,4,1,1,60,0,1
134677,-200,4,1,1,70,0,1
134722,-200,4,1,1,80,0,1
134766,-100,4,1,1,80,0,1
134854,-100,4,1,1,50,0,1
134942,-100,4,1,1,80,0,1
135030,-100,4,1,1,50,0,1
135119,-200,4,1,2,80,0,1
135295,-100,4,1,1,80,0,1
135736,-100,4,1,1,50,0,1
136001,-100,4,1,1,80,0,1
136089,-100,4,1,1,50,0,1
136266,-100,4,1,1,80,0,1
136795,-100,4,1,2,80,0,1
137060,-100,4,1,1,80,0,1
137589,-100,4,1,1,10,0,1
137677,-100,4,1,1,20,0,1
137766,-100,4,1,1,30,0,1
137854,-100,4,1,1,40,0,1
137942,-66.6666666666667,4,1,1,50,0,1
138030,-66.6666666666667,4,1,1,60,0,1
138119,-33.3333333333333,4,1,1,70,0,1
138295,-33.3333333333333,4,1,1,80,0,1
161059,-66.6666666666667,4,1,1,80,0,0
206236,-66.6666666666667,4,1,1,80,0,1
250000,-66.6666666666667,4,1,1,80,0,0
279647,-66.6666666666667,4,1,1,80,0,1
323412,-66.6666666666667,4,1,1,80,0,0

[Colours]
Combo1 : 255,255,0
Combo2 : 192,192,192
Combo3 : 116,116,116
Combo4 : 242,24,57
Combo5 : 0,255,255
Combo6 : 128,255,255
Combo7 : 255,255,128

[HitObjects]
25,228,2942,6,0,B|94:170|125:125|90:55|79:49|79:49|61:56|39:94|16:150|82:263|116:286,1,468.75,2|0,0:0|0:0,0:0:0:0:
227,336,4353,2,0,B|195:344|173:358|173:358|218:313|206:253|206:253|235:309|320:328,1,312.5,2|2,0:0|0:0,0:0:0:0:
399,333,5412,1,2,0:0:0:0:
481,276,5589,1,2,0:0:0:0:
454,160,5765,2,0,B|443:91|479:43|479:43|487:173|487:173|472:213|472:213|480:275,1,359.375,2|0,0:0|0:0,0:0:0:0:
331,206,6824,2,0,L|284:197,1,46.875,2|0,0:0|0:0,0:0:0:0:
234,107,7177,2,0,B|191:137|169:185|183:225|200:257|200:257|199:267|199:267|207:272|207:272|203:277|203:277|215:292|255:370|163:397|107:365|104:335|108:293|124:253|180:267,1,468.75,2|2,0:0|0:0,0:0:0:0:
423,306,8589,6,0,B|465:321|510:300|510:300|457:216|353:267|300:343|229:362|166:312,1,468.75,2|0,0:0|0:0,0:0:0:0:
105,96,10000,2,0,B|171:162|106:237|106:237|42:305|103:384,1,312.5,2|2,0:0|0:0,0:0:0:0:
159,323,11059,1,2,0:0:0:0:
149,223,11236,1,2,0:0:0:0:
60,169,11412,2,0,P|23:74|175:144,1,375,2|2,0:0|0:0,0:0:0:0:
344,231,12824,2,0,B|311:192|305:140|305:140|297:268|288:329|262:348|230:347|230:347|209:345|191:336|171:303|191:266|216:250|250:273,1,484.375,2|0,0:0|0:0,0:0:0:0:
365,318,14236,86,0,L|416:327,3,50,6|0|0|0,0:0|0:0|0:0|0:0,0:0:0:0:
414,326,16530,1,2,0:0:0:0:
459,258,16706,1,2,0:0:0:0:
450,158,16883,1,2,0:0:0:0:
356,90,17059,6,0,L|323:95,1,34.375,2|0,0:0|0:0,0:0:0:0:
337,172,17589,86,0,L|325:203,1,31.25,2|0,0:0|0:0,0:0:0:0:
397,238,18118,6,0,L|400:258,1,18.75,2|0,0:0|0:0,0:0:0:0:
450,158,18471,86,0,L|499:166,1,50,2|0,0:0|0:0,0:0:0:0:
500,182,19353,2,0,L|493:212,1,31.25,2|0,0:0|0:0,0:0:0:0:
456,317,19883,6,0,L|426:326,1,31.25,2|0,0:0|0:0,0:0:0:0:
326,336,20412,86,0,L|355:326,1,31.25,2|0,0:0|0:0,0:0:0:0:
427,248,20941,6,0,L|397:257,1,31.25,2|0,0:0|0:0,0:0:0:0:
297,267,21471,86,0,L|326:257,1,31.25,2|0,0:0|0:0,0:0:0:0:
397,178,22000,6,0,L|392:159,1,18.75,2|0,0:0|0:0,0:0:0:0:
306,132,22353,86,0,L|309:120,1,12.5,2|2,0:0|0:0,0:0:0:0:
360,43,22706,1,0,0:0:0:0:
360,43,22883,6,0,L|424:37,1,62.5,2|2,0:0|0:0,0:0:0:0:
255,290,24118,86,0,P|253:263|248:239,1,46.875
256,296,24471,54,0,P|251:248|239:203,1,93.75
257,304,24824,6,0,P|245:223|214:154,1,140.625005364418
258,311,25177,54,0,P|239:209|193:132,1,187.5
258,318,25530,6,0,L|334:333,1,78.125,6|0,0:2|0:0,0:0:0:0:
394,299,26059,2,0,L|411:303,2,15.625
167,332,26412,1,0,0:0:0:0:
167,332,26941,6,0,B|133:328|133:328|95:333,1,62.5
9,358,27294,1,0,0:0:0:0:
10,350,27382,1,0,0:0:0:0:
11,342,27470,1,0,0:0:0:0:
13,334,27558,1,0,0:0:0:0:
14,327,27646,1,0,0:0:0:0:
31,145,27824,2,0,B|35:179|35:179|30:217,1,62.5
14,327,28177,1,0,0:0:0:0:
220,285,28353,6,0,L|316:304,2,93.75,4|4|0,0:0|0:0|0:0,0:0:0:0:
235,129,29765,85,0,0:0:0:0:
222,50,29941,1,0,0:0:0:0:
207,206,30118,2,0,P|173:210|135:205,1,62.5
222,50,30471,1,0,0:0:0:0:
237,47,30559,1,0,0:0:0:0:
252,46,30647,1,0,0:0:0:0:
268,46,30735,1,0,0:0:0:0:
284,48,30823,1,0,0:0:0:0:
400,98,31000,1,0,0:0:0:0:
207,206,31177,6,0,L|188:302,2,93.75,4|4|0,0:0|0:0|0:0,0:0:0:0:
51,269,32589,2,0,B|82:271|82:271|113:267,1,62.5
207,206,32941,1,0,0:0:0:0:
73,162,33118,1,0,0:0:0:0:
74,169,33206,1,0,0:0:0:0:
76,177,33294,1,0,0:0:0:0:
77,185,33382,1,0,0:0:0:0:
78,193,33470,1,0,0:0:0:0:
212,317,33647,2,0,L|274:327,1,62.5
262,342,33912,1,0,0:0:0:0:
250,357,34000,86,0,L|341:375,2,93.75,4|4|4,0:0|0:0|0:0,0:0:0:0:
456,324,35412,22,0,P|468:299|469:278,1,46.875
386,279,35765,54,0,P|381:224|362:188,1,93.75
304,257,36118,38,0,P|257:189|205:156,1,140.625005364418
220,273,36471,38,0,P|124:227|44:223,1,187.5
60,246,36824,38,0,L|78:337,2,93.75,4|4|0,0:0|0:0|0:0,0:0:0:0:
0,76,38236,2,0,L|13:150,1,62.5
207,110,38589,1,0,0:0:0:0:
145,34,38765,1,0,0:0:0:0:
129,33,38853,1,0,0:0:0:0:
113,32,38941,1,0,0:0:0:0:
98,33,39029,1,0,0:0:0:0:
84,36,39117,1,0,0:0:0:0:
138,211,39294,1,0,0:0:0:0:
119,115,39471,1,0,0:0:0:0:
157,307,39647,86,0,L|248:325,2,93.75,4|4|0,0:0|0:0|0:0,0:0:0:0:
350,251,41059,1,0,0:0:0:0:
434,309,41236,1,0,0:0:0:0:
364,160,41412,1,0,0:0:0:0:
336,335,41589,1,0,0:0:0:0:
335,343,41677,1,0,0:0:0:0:
334,351,41765,1,0,0:0:0:0:
332,359,41853,1,0,0:0:0:0:
331,366,41941,1,0,0:0:0:0:
434,309,42118,1,0,0:0:0:0:
279,194,42294,1,0,0:0:0:0:
107,280,42471,6,0,L|89:371,2,93.75,4|4|0,0:0|0:0|0:0,0:0:0:0:
2,116,43883,2,0,B|36:112|36:112|74:117,1,62.5
249,150,44236,1,0,0:0:0:0:
233,151,44324,1,0,0:0:0:0:
217,152,44412,1,0,0:0:0:0:
202,151,44500,1,0,0:0:0:0:
188,148,44589,2,0,P|170:142|154:134,3,31.25
189,176,44941,1,0,0:0:0:0:
254,47,45118,1,0,0:0:0:0:
297,257,45294,86,4,L|388:275,2,93.75,4|4|0,0:0|0:0|0:0,0:0:0:0:
13,131,46706,22,0,B|37:134|37:134|58:144,1,46.875
152,14,47059,54,0,B|148:60|148:60|127:102,1,93.75
301,210,47412,38,0,B|236:204|236:204|169:171,1,140.625005364418
48,389,47765,38,0,B|56:300|56:300|100:213,1,187.5
245,300,48118,38,0,L|153:281,2,93.75,4|4|0,0:0|0:0|0:0,0:0:0:0:
416,309,49530,1,0,0:0:0:0:
245,300,49706,1,0,0:0:0:0:
259,293,49794,1,0,0:0:0:0:
278,287,49883,2,0,P|312:283|350:288,1,62.5,0|4,0:0|0:0,0:0:0:0:
428,187,50236,1,0,0:0:0:0:
435,201,50324,1,0,0:0:0:0:
439,210,50412,1,0,0:0:0:0:
345,362,50589,1,0,0:0:0:0:
337,363,50677,1,0,0:0:0:0:
329,364,50765,1,0,0:0:0:0:
321,365,50853,1,0,0:0:0:0:
313,367,50941,85,4,0:0:0:0:
248,196,51118,6,0,L|221:194,4,15.625
256,183,51471,86,0,L|264:171,6,10.4166666666667
263,196,51824,6,0,L|269:209,8,7.8125
26,218,52353,85,4,0:0:0:0:
21,211,52442,1,0,0:0:0:0:
16,205,52530,1,0,0:0:0:0:
10,199,52618,1,0,0:0:0:0:
6,193,52706,1,4,0:0:0:0:
14,109,52884,5,0,0:0:0:0:
22,108,52972,1,0,0:0:0:0:
30,106,53060,1,0,0:0:0:0:
38,104,53148,1,0,0:0:0:0:
45,104,53236,1,4,0:0:0:0:
121,156,53413,1,4,0:0:0:0:
117,163,53501,1,0,0:0:0:0:
114,171,53589,1,0,0:0:0:0:
112,179,53677,1,0,0:0:0:0:
109,185,53765,86,0,L|81:278,2,93.75,4|4|0,0:0|0:0|0:0,0:0:0:0:
112,185,54913,1,0,0:0:0:0:
118,188,55001,1,0,0:0:0:0:
126,190,55089,1,0,0:0:0:0:
133,193,55177,5,0,0:0:0:0:
313,162,55353,1,0,0:0:0:0:
299,155,55441,1,4,0:0:0:0:
280,149,55530,2,0,B|249:145|249:145|218:147,1,62.5,0|4,0:0|0:0,0:0:0:0:
250,240,55884,5,0,0:0:0:0:
252,246,55972,1,0,0:0:0:0:
254,252,56059,1,0,0:0:0:0:
256,258,56147,1,0,0:0:0:0:
258,264,56236,54,0,B|262:283,1,18.75,4|0,0:2|0:0,0:0:0:0:
132,348,56589,38,0,L|36:329,1,93.75,4|4,0:0|0:0,0:0:0:0:
14,325,57294,1,0,0:0:0:0:
78,154,57647,1,4,0:0:0:0:
78,154,58000,85,4,0:0:0:0:
80,160,58088,1,0,0:0:0:0:
80,169,58176,1,0,0:0:0:0:
82,176,58264,1,0,0:0:0:0:
82,185,58353,1,4,0:0:0:0:
160,253,58530,5,0,0:0:0:0:
154,251,58618,1,0,0:0:0:0:
146,247,58706,1,0,0:0:0:0:
139,245,58794,2,0,L|143:234,1,7.8125
132,241,58883,1,0,0:0:0:0:
34,275,59059,85,4,0:0:0:0:
38,270,59147,1,0,0:0:0:0:
45,265,59235,1,4,0:0:0:0:
51,260,59323,1,0,0:0:0:0:
58,256,59412,6,0,L|76:347,2,93.75,4|4|0,0:0|0:0|0:0,0:0:0:0:
21,74,60824,1,4,0:0:0:0:
203,11,61000,1,0,0:0:0:0:
187,7,61088,1,4,0:0:0:0:
166,7,61177,2,0,P|135:11|105:21,1,62.5,0|4,0:0|0:0,0:0:0:0:
162,131,61530,1,0,0:0:0:0:
163,115,61618,1,0,0:0:0:0:
164,99,61706,1,0,0:0:0:0:
112,246,61883,85,0,0:0:0:0:
141,256,61971,1,0,0:0:0:0:
135,225,62059,1,0,0:0:0:0:
123,259,62147,85,0,0:0:0:0:
147,239,62235,1,0,0:0:0:0:
117,228,62323,1,0,0:0:0:0:
123,246,62412,5,0,0:0:0:0:
128,250,62500,1,0,0:0:0:0:
133,248,62588,1,0,0:0:0:0:
134,242,62676,1,0,0:0:0:0:
129,237,62765,1,0,0:0:0:0:
125,239,62853,1,0,0:0:0:0:
123,246,62941,70,0,L|126:215,1,31.25,8|0,0:0|0:0,0:0:0:0:
211,120,63294,2,0,L|208:150,1,23.4375
211,373,63647,5,4,0:0:0:0:
212,365,63736,1,0,0:0:0:0:
214,357,63824,1,0,0:0:0:0:
215,350,63912,1,0,0:0:0:0:
217,342,64000,1,4,0:0:0:0:
290,269,64177,5,4,0:0:0:0:
289,261,64266,1,0,0:0:0:0:
287,253,64354,1,0,0:0:0:0:
286,246,64442,1,0,0:0:0:0:
284,238,64530,1,4,0:0:0:0:
254,127,64706,2,0,B|249:97|249:97|262:26,2,93.75
290,269,65589,86,0,L|381:287,1,93.75,4|0,0:0|0:0,0:0:0:0:
462,378,66471,1,4,0:0:0:0:
498,184,66647,1,0,0:0:0:0:
505,198,66735,1,4,0:0:0:0:
511,217,66824,2,0,B|515:248|515:248|513:279,1,62.5,4|4,0:0|0:0,0:0:0:0:
363,367,67177,1,0,0:0:0:0:
347,368,67265,1,0,0:0:0:0:
331,369,67353,2,0,L|336:344,1,15.625,0|0,2:0|2:0,2:0:0:0:
314,368,67441,2,0,L|318:344,1,15.625
302,365,67530,2,0,P|278:360|262:351,2,31.25
372,196,67883,6,0,L|353:100,1,93.75,4|4,0:0|0:0,0:0:0:0:
349,78,68588,1,0,0:0:0:0:
511,162,68941,1,0,0:0:0:0:
330,270,69294,85,0,0:0:0:0:
321,270,69382,1,0,0:0:0:0:
314,272,69470,1,0,0:0:0:0:
305,272,69558,1,0,0:0:0:0:
299,274,69646,1,4,0:0:0:0:
152,182,69824,5,0,0:0:0:0:
161,182,69912,1,0,0:0:0:0:
168,184,70000,1,0,0:0:0:0:
176,184,70089,2,0,L|180:158,1,15.625
183,186,70177,2,0,L|187:160,1,15.625
189,188,70265,2,0,L|193:162,1,15.625
195,190,70353,85,0,0:0:0:0:
211,189,70441,1,0,0:0:0:0:
227,188,70529,1,0,0:0:0:0:
242,189,70617,1,0,0:0:0:0:
256,192,70706,69,2,0:0:0:0:
256,192,70794,12,0,78471,0:0:0:0:
0,206,82000,102,0,P|61:209|142:244,1,125,6|0,0:1|0:1,2:1:0:0:
291,334,82353,5,8,0:1:0:0:
37,325,82530,1,8,0:1:0:0:
48,295,82618,1,8,0:1:0:0:
55,265,82706,1,4,0:1:0:0:
57,234,82794,1,8,0:1:0:0:
55,202,82883,1,8,0:0:0:0:
12,40,83059,2,0,L|21:170,1,125,4|0,0:1|0:1,0:1:0:0:
185,51,83412,5,4,0:0:0:0:
154,43,83500,1,8,0:1:0:0:
123,43,83588,1,0,0:1:0:0:
196,343,83766,5,4,0:1:0:0:
185,313,83854,1,8,0:1:0:0:
178,283,83942,1,4,0:1:0:0:
176,252,84030,2,0,L|161:260,1,15.625,8|8,0:1|0:1,0:1:0:0:
178,220,84118,6,0,B|210:215|210:215|250:196,1,62.5,12|0,0:1|0:1,0:1:0:0:
412,88,84294,2,0,B|380:93|380:93|339:111,1,62.5,0|0,0:1|0:1,0:1:0:0:
379,254,84471,2,0,L|401:337,2,62.5,4|0|0,0:1|0:1|0:1,0:1:0:0:
318,179,84736,69,8,0:1:0:0:
302,133,84824,2,0,L|294:218,1,62.5,4|8,0:1|0:1,0:1:0:0:
247,371,85000,5,0,0:1:0:0:
214,374,85089,1,0,0:1:0:0:
182,367,85177,2,0,P|146:359|114:340,1,62.5,12|0,0:0|0:0,0:0:0:0:
194,102,85353,5,8,0:1:0:0:
205,132,85441,1,8,0:1:0:0:
212,162,85529,1,4,0:1:0:0:
214,193,85617,1,8,0:1:0:0:
212,225,85706,2,0,P|204:260|185:292,1,62.5,12|0,0:0|0:0,0:0:0:0:
0,99,85883,53,8,0:1:0:0:
30,104,85971,2,0,L|36:78,1,15.625,8|8,0:0|0:0,0:0:0:0:
59,113,86059,2,0,L|69:88,1,15.625,8|8,0:0|0:0,0:0:0:0:
87,127,86147,1,8,0:1:0:0:
114,145,86236,6,0,P|154:190|187:273,1,125,12|8,0:1|0:1,0:1:0:0:
123,347,86589,1,4,0:0:0:0:
3,233,86765,1,8,0:0:0:0:
3,233,86853,1,0,0:0:0:0:
3,233,86941,5,4,0:0:0:0:
17,205,87030,1,0,0:0:0:0:
25,174,87118,1,0,0:0:0:0:
29,143,87206,1,8,0:0:0:0:
27,104,87294,1,12,0:0:0:0:
19,59,87383,5,8,0:0:0:0:
51,35,87471,1,8,0:0:0:0:
82,25,87559,1,4,0:0:0:0:
116,26,87647,38,0,P|173:45|244:100,1,125,6|0,0:1|0:1,0:1:0:0:
280,238,88000,5,8,0:0:0:0:
93,117,88177,1,4,0:0:0:0:
342,31,88353,5,8,0:1:0:0:
344,62,88441,1,8,0:1:0:0:
343,93,88529,1,8,0:3:0:0:
337,124,88617,1,8,0:1:0:0:
327,154,88706,2,0,P|310:185|283:211,1,62.5,12|0,0:0|0:0,0:0:0:0:
256,369,88883,2,0,P|236:338|227:302,1,62.5,8|0,0:0|0:0,0:0:0:0:
245,133,89059,5,4,0:0:0:0:
245,133,89147,1,8,0:0:0:0:
245,133,89236,1,0,0:0:0:0:
275,141,89324,1,0,0:0:0:0:
306,145,89412,2,0,L|306:128,1,15.625,8|8,0:1|0:1,0:1:0:0:
337,144,89500,1,8,0:0:0:0:
368,140,89589,5,0,0:0:0:0:
398,132,89677,1,8,0:0:0:0:
429,136,89765,1,0,0:0:0:0:
456,150,89853,1,0,0:0:0:0:
477,173,89941,1,4,0:0:0:0:
488,202,90030,1,0,0:0:0:0:
489,234,90118,54,0,P|477:294|489:382,1,125,12|8,0:1|0:1,0:1:0:0:
386,384,90471,1,4,0:0:0:0:
406,218,90647,1,0,0:0:0:0:
375,16,90824,5,12,0:0:0:0:
366,46,90912,1,0,0:0:0:0:
362,77,91000,1,8,0:0:0:0:
363,108,91088,1,8,0:0:0:0:
367,139,91177,2,0,L|429:133,1,62.5,4|8,0:0|0:0,0:0:0:0:
292,204,91353,2,0,L|229:198,1,62.5,8|0,0:0|0:0,0:0:0:0:
367,269,91530,5,0,0:0:0:0:
397,276,91618,2,0,L|398:291,1,15.625,8|8,0:1|0:1,0:1:0:0:
428,275,91706,1,8,0:0:0:0:
460,272,91794,1,0,0:0:0:0:
490,265,91883,6,0,P|442:305|407:357,1,125,4|8,0:1|0:1,0:1:0:0:
285,384,92236,1,4,0:0:0:0:
292,204,92412,1,8,0:0:0:0:
407,356,92589,53,0,0:0:0:0:
376,347,92677,1,0,0:0:0:0:
345,343,92765,1,8,0:0:0:0:
314,344,92853,1,8,0:0:0:0:
283,348,92941,5,4,0:0:0:0:
245,356,93030,1,8,0:0:0:0:
200,362,93118,1,8,0:0:0:0:
162,360,93206,1,0,0:0:0:0:
120,354,93294,70,0,P|58:342|2:315,1,125,6|0,0:1|0:1,0:1:0:0:
95,100,93647,5,8,0:0:0:0:
75,319,93824,1,0,0:0:0:0:
75,319,93912,1,0,0:0:0:0:
75,319,94000,5,0,0:0:0:0:
66,288,94088,1,0,0:0:0:0:
62,257,94177,2,0,L|47:258,1,15.625,8|8,0:1|0:1,0:1:0:0:
63,226,94265,2,0,L|48:224,1,15.625,8|8,0:1|0:1,0:1:0:0:
67,195,94353,6,0,P|81:135|129:60,1,125,12|0,0:1|0:1,0:1:0:0:
224,9,94706,1,12,0:0:0:0:
224,9,94794,1,8,0:0:0:0:
224,9,94884,5,0,0:0:0:0:
254,17,94972,1,0,0:0:0:0:
285,21,95059,1,4,0:0:0:0:
316,20,95147,1,8,0:0:0:0:
347,16,95236,1,0,0:0:0:0:
377,7,95324,1,8,0:0:0:0:
408,3,95412,1,0,0:0:0:0:
439,4,95500,1,0,0:0:0:0:
470,8,95589,53,0,0:0:0:0:
459,37,95677,1,0,0:0:0:0:
452,67,95765,1,4,0:0:0:0:
450,98,95853,1,0,0:0:0:0:
452,130,95941,1,0,0:0:0:0:
459,159,96030,1,0,0:0:0:0:
471,186,96118,6,0,P|488:218|514:244,1,62.5,12|8,0:0|0:0,0:0:0:0:
369,321,96294,2,0,B|396:296|396:296|417:259,1,78.125,0|8,0:0|0:0,0:0:0:0:
319,228,96471,5,4,0:0:0:0:
286,221,96559,1,8,3:3:0:0:
255,219,96647,1,0,0:0:0:0:
225,223,96736,1,8,0:0:0:0:
195,234,96824,2,0,P|162:251|136:277,1,62.5,4|8,0:0|3:3,0:0:0:0:
16,355,97000,2,0,B|59:345|59:345|97:322,1,78.125,0|8,0:0|3:3,0:0:0:0:
15,139,97177,5,4,0:0:0:0:
9,169,97265,2,0,L|24:168,1,15.625,8|8,0:1|0:1,0:1:0:0:
8,201,97353,1,8,0:0:0:0:
12,232,97441,1,0,0:0:0:0:
20,261,97530,38,0,P|82:256|144:269,1,125,6|8,0:1|0:1,0:1:0:0:
262,319,97883,5,4,0:0:0:0:
441,241,98059,1,8,0:0:0:0:
143,268,98236,1,4,0:0:0:0:
161,280,98324,1,0,0:0:0:0:
161,280,98412,2,0,L|143:360,1,62.5,0|8,0:0|0:0,0:0:0:0:
351,280,98589,1,4,0:0:0:0:
351,280,98677,1,8,0:0:0:0:
351,280,98765,2,0,L|369:360,1,62.5,8|8,0:0|0:0,0:0:0:0:
408,146,98941,5,4,0:0:0:0:
408,146,99030,1,0,0:0:0:0:
408,146,99118,1,0,0:0:0:0:
438,145,99206,1,0,0:0:0:0:
465,129,99294,1,8,0:0:0:0:
482,103,99382,1,0,0:0:0:0:
485,73,99470,1,0,0:0:0:0:
472,44,99559,1,0,0:0:0:0:
448,25,99647,1,4,0:0:0:0:
418,19,99735,1,0,0:0:0:0:
389,28,99824,2,0,L|407:48,1,15.625
368,50,99912,2,0,L|388:68,1,15.625
350,76,100000,6,0,P|326:96|298:109,1,62.5,8|8,0:0|0:0,0:0:0:0:
167,35,100177,2,0,L|190:30,1,15.625,8|8,0:1|0:1,0:1:0:0:
173,73,100265,2,0,L|196:68,1,15.625,8|8,0:1|0:1,0:1:0:0:
179,114,100353,1,4,0:0:0:0:
186,154,100441,1,8,0:0:0:0:
192,194,100530,2,0,L|200:264,1,62.5
316,359,100706,6,0,L|333:343,1,15.625,8|8,0:1|0:1,0:1:0:0:
310,367,100794,2,0,L|315:390,1,15.625,8|8,0:1|0:1,0:1:0:0:
306,363,100883,1,8,0:0:0:0:
279,356,100971,1,0,0:0:0:0:
241,350,101059,1,4,0:0:0:0:
192,348,101147,1,0,0:0:0:0:
144,353,101236,2,0,L|145:340,2,7.8125,8|8|8,3:0|0:3|0:3,0:0:0:0:
97,363,101324,2,0,L|98:350,2,7.8125,8|8|8,3:0|0:3|0:3,0:0:0:0:
49,379,101412,54,0,P|44:317|57:255,1,125,4|8,0:1|0:1,0:1:0:0:
131,61,101765,1,4,0:0:0:0:
164,96,101853,1,8,0:0:0:0:
163,145,101941,1,0,0:0:0:0:
129,180,102029,1,0,0:0:0:0:
80,181,102117,1,8,0:0:0:0:
126,169,102207,1,0,0:0:0:0:
159,189,102294,1,0,0:0:0:0:
168,222,102383,1,0,0:0:0:0:
170,253,102471,6,0,P|128:268|77:301,2,93.75,8|8|8,0:0|0:0|0:0,0:0:0:0:
342,253,102824,1,4,0:0:0:0:
342,253,102912,2,0,L|375:256,4,31.25,8|8|8|0|0,0:3|0:3|0:3|0:3|0:3,0:3:0:0:
344,237,103177,5,4,0:0:0:0:
254,68,103353,1,8,0:0:0:0:
239,364,103706,6,0,L|197:371,1,31.25,8|8,0:0|0:0,0:0:0:0:
242,359,103794,2,0,L|202:344,1,31.25,8|8,0:0|0:0,0:0:0:0:
247,358,103883,2,0,L|220:325,1,31.25,8|8,0:0|0:0,0:0:0:0:
251,360,103971,2,0,L|243:318,1,31.25,8|8,0:0|0:0,0:0:0:0:
255,362,104059,2,0,L|258:319,2,23.4375008940697,8|0|8,0:0|0:0|0:0,2:0:0:0:
258,364,104147,2,0,L|272:323,2,23.4375008940697,8|0|8,0:0|0:0|0:0,2:0:0:0:
269,377,104236,54,0,L|352:391,14,46.8750017881394,4|0|0|0|0|0|0|0|0|0|0|0|0|0|0,0:0|0:0|0:0|0:0|0:0|0:0|0:0|0:0|0:0|0:0|0:0|0:0|0:0|0:0|0:0,0:0:0:0:
286,367,104589,86,0,P|298:306|293:243,1,125,6|8,0:1|0:1,0:1:0:0:
300,103,104853,21,0,0:0:0:0:
289,114,104941,1,8,0:0:0:0:
300,125,105030,1,0,0:0:0:0:
311,114,105118,2,0,L|291:77,1,31.25,4|8,0:0|0:0,0:0:0:0:
8,92,105294,85,4,1:0:0:0:
8,92,105383,1,8,1:0:0:0:
31,130,105470,1,0,1:0:0:0:
81,130,105559,1,0,1:0:0:0:
115,74,105647,1,8,0:0:0:0:
169,40,105735,1,0,0:0:0:0:
232,52,105823,1,0,0:0:0:0:
270,104,105912,1,8,0:0:0:0:
262,167,106000,5,4,0:0:0:0:
213,208,106089,1,8,0:0:0:0:
148,235,106177,1,0,0:0:0:0:
119,300,106264,1,0,0:0:0:0:
119,320,106353,86,0,P|108:282|117:320,1,93.7500035762788,12|0,0:1|0:1,0:1:0:0:
201,146,106530,1,0,0:0:0:0:
201,132,106617,1,8,0:0:0:0:
195,116,106706,6,0,P|195:148|196:116,1,93.7500035762788,0|8,0:1|0:1,0:1:0:0:
292,176,106883,2,0,P|308:148|291:175,1,93.7500035762788,4|0,0:1|0:1,0:1:0:0:
297,265,107059,2,0,P|324:281|297:264,1,93.7500035762788,8|0,0:1|0:1,0:1:0:0:
209,384,107236,1,0,0:0:0:0:
165,367,107324,1,0,0:0:0:0:
132,334,107412,86,0,B|91:336|91:336|-6:376,1,125,12|0,2:1|0:1,0:1:0:0:
211,299,107765,1,8,0:0:0:0:
144,71,107941,1,4,0:0:0:0:
129,76,108031,1,8,0:0:0:0:
114,80,108119,1,4,0:0:0:0:
99,82,108207,1,8,0:0:0:0:
83,82,108295,1,4,0:0:0:0:
68,80,108383,1,0,0:0:0:0:
52,77,108471,5,12,0:0:0:0:
75,57,108559,1,0,0:0:0:0:
105,58,108647,1,0,0:0:0:0:
126,81,108736,1,8,0:0:0:0:
124,111,108824,1,4,0:0:0:0:
102,132,108912,1,8,0:0:0:0:
71,136,109001,1,12,0:0:0:0:
32,148,109089,1,0,0:0:0:0:
0,170,109177,6,0,B|18:206|18:206|32:310,1,125,12|0,2:1|0:1,0:1:0:0:
35,325,109441,1,8,0:0:0:0:
35,325,109530,2,0,L|-3:380,1,62.5,4|0,0:0|0:0,0:0:0:0:
169,270,109706,86,0,L|235:275,1,62.5
184,294,109883,2,0,L|250:299,1,62.5,8|8,0:0|0:0,0:0:0:0:
63,177,110059,6,0,L|34:116,1,62.5,12|8,0:0|0:0,0:0:0:0:
239,1,110236,6,0,B|198:3|198:3|100:43,1,125,12|0,2:1|0:1,0:1:0:0:
337,21,110589,1,8,0:0:0:0:
120,35,110765,85,0,0:0:0:0:
88,35,110853,1,8,0:0:0:0:
57,31,110941,1,4,0:0:0:0:
27,23,111029,1,8,0:0:0:0:
0,10,111117,1,0,0:0:0:0:
239,1,111294,1,8,0:0:0:0:
240,176,111471,5,0,0:0:0:0:
248,206,111559,1,8,0:0:0:0:
252,237,111647,1,4,0:0:0:0:
252,268,111735,1,8,0:0:0:0:
246,298,111823,1,0,0:0:0:0:
183,84,112000,1,0,0:0:0:0:
339,296,112177,85,4,0:0:0:0:
363,317,112265,1,8,0:0:0:0:
387,335,112353,1,4,0:0:0:0:
414,348,112441,1,8,0:0:0:0:
444,356,112529,1,4,0:0:0:0:
475,360,112617,1,0,0:0:0:0:
506,360,112706,5,8,0:0:0:0:
461,351,112794,1,8,0:0:0:0:
413,351,112882,1,4,0:0:0:0:
367,357,112970,1,8,0:0:0:0:
323,369,113059,86,0,B|282:377|282:377|177:364,1,125,4|0,2:1|0:1,0:1:0:0:
413,351,113412,1,8,0:0:0:0:
199,367,113589,5,0,0:0:0:0:
167,360,113677,1,8,0:0:0:0:
136,359,113765,1,4,0:0:0:0:
105,362,113853,1,8,0:0:0:0:
75,370,113941,1,0,0:0:0:0:
325,369,114118,1,8,0:0:0:0:
261,110,114294,85,4,0:0:0:0:
260,131,114383,1,8,0:0:0:0:
263,154,114471,21,0,0:0:0:0:
269,155,114559,1,0,0:0:0:0:
274,158,114647,1,0,0:0:0:0:
279,161,114735,1,0,0:0:0:0:
284,165,114823,1,0,0:0:0:0:
288,170,114912,1,0,0:0:0:0:
291,176,115000,5,0,0:0:0:0:
294,188,115089,1,0,0:0:0:0:
291,206,115177,1,0,0:0:0:0:
275,225,115265,1,0,0:0:0:0:
245,228,115353,1,0,0:0:0:0:
219,204,115442,1,0,0:0:0:0:
224,200,115530,85,0,0:0:0:0:
229,197,115618,1,0,0:0:0:0:
235,194,115706,1,0,0:0:0:0:
241,192,115795,1,0,0:0:0:0:
246,189,115883,22,0,P|292:231|348:257,1,125,6|0,0:1|0:1,2:1:0:0:
512,321,116236,5,8,0:0:0:0:
425,61,116412,1,8,0:0:0:0:
416,90,116500,1,0,0:0:0:0:
412,121,116588,1,4,0:0:0:0:
412,153,116676,1,0,0:0:0:0:
417,183,116765,1,8,0:0:0:0:
467,384,116941,2,0,L|333:360,1,125
499,203,117294,5,4,0:0:0:0:
487,231,117382,1,8,0:0:0:0:
466,253,117471,1,0,0:0:0:0:
235,241,117647,5,4,0:1:0:0:
266,238,117735,1,8,0:1:0:0:
297,239,117823,1,4,0:1:0:0:
328,245,117912,2,0,L|333:212,1,31.25,8|8,0:0|0:0,0:0:0:0:
358,255,118000,6,0,B|346:285|346:285|342:329,1,62.5,12|0,0:1|0:1,0:1:0:0:
402,122,118177,86,0,B|413:152|413:152|417:196,1,62.5,12|0,0:1|0:1,0:1:0:0:
235,241,118353,2,0,L|174:224,2,62.5,4|0|0,2:1|0:1|2:1,0:1:0:0:
428,327,118618,85,8,0:1:0:0:
389,331,118706,2,0,L|304:339,1,62.5,4|8,0:1|0:1,0:1:0:0:
90,293,118883,5,0,0:1:0:0:
87,260,118972,1,0,0:1:0:0:
94,228,119060,2,0,P|102:192|121:159,1,62.5,12|0,0:0|0:0,0:0:0:0:
2,14,119236,5,8,0:1:0:0:
13,44,119324,1,8,0:1:0:0:
20,74,119412,1,4,0:1:0:0:
22,105,119500,1,8,0:1:0:0:
20,137,119589,2,0,P|12:172|-7:204,1,62.5,12|0,0:0|0:0,0:0:0:0:
113,50,119765,53,8,0:1:0:0:
140,38,119853,2,0,L|132:12,1,15.625,8|8,0:0|0:0,0:0:0:0:
170,31,119941,2,0,L|166:4,1,15.625,8|8,0:0|0:0,0:0:0:0:
201,30,120029,1,8,0:1:0:0:
234,31,120118,6,0,P|291:49|361:105,1,125,12|8,0:1|0:1,0:1:0:0:
394,192,120471,1,0,0:0:0:0:
190,146,120647,1,8,0:0:0:0:
190,146,120735,1,0,0:0:0:0:
190,146,120824,5,4,0:0:0:0:
209,168,120913,1,0,0:0:0:0:
226,197,121001,1,0,0:0:0:0:
237,224,121089,1,8,0:0:0:0:
245,263,121177,1,12,0:0:0:0:
237,308,121266,5,8,0:0:0:0:
264,337,121354,1,8,0:0:0:0:
293,352,121442,1,4,0:0:0:0:
326,357,121530,38,0,P|385:353|468:318,1,125,6|0,0:1|0:1,0:1:0:0:
512,218,121883,5,8,0:1:0:0:
326,271,122059,1,0,0:0:0:0:
415,65,122236,5,8,0:1:0:0:
404,93,122324,1,8,0:1:0:0:
398,123,122412,1,8,0:3:0:0:
395,154,122500,1,8,0:1:0:0:
396,186,122589,2,0,P|404:220|423:252,1,62.5,12|0,0:0|0:0,0:0:0:0:
512,384,122765,2,0,P|502:354|486:327,1,62.5,12|0,0:0|0:0,0:0:0:0:
326,271,122941,5,4,0:0:0:0:
326,271,123029,1,8,0:0:0:0:
326,271,123118,1,0,0:0:0:0:
296,263,123206,1,0,0:0:0:0:
265,259,123294,2,0,L|265:276,1,15.625,8|8,0:1|0:1,0:1:0:0:
234,260,123382,1,8,0:0:0:0:
203,264,123471,1,0,0:0:0:0:
173,272,123559,5,0,0:0:0:0:
142,279,123647,1,8,0:0:0:0:
111,276,123735,1,0,0:0:0:0:
83,263,123823,1,0,0:0:0:0:
62,240,123911,1,4,0:0:0:0:
49,212,124000,54,0,P|62:151|56:89,1,125,12|8,0:1|0:1,2:1:0:0:
177,3,124353,1,4,0:0:0:0:
356,77,124530,1,0,0:0:0:0:
137,188,124707,5,12,0:0:0:0:
166,197,124795,1,0,0:0:0:0:
197,201,124883,1,8,0:0:0:0:
228,200,124971,1,8,0:0:0:0:
259,196,125060,2,0,L|253:133,1,62.5,4|8,0:0|0:0,0:0:0:0:
174,0,125236,2,0,L|168:63,1,62.5,8|0,0:0|0:0,0:0:0:0:
209,280,125413,5,0,0:0:0:0:
217,309,125501,2,0,L|204:317,1,15.625,8|8,0:1|0:1,0:1:0:0:
234,335,125589,1,8,0:0:0:0:
252,362,125677,1,0,0:0:0:0:
273,384,125766,6,0,P|294:325|298:262,1,125,4|8,0:1|0:1,0:1:0:0:
252,133,126119,1,4,0:0:0:0:
112,336,126295,1,8,0:0:0:0:
298,263,126471,53,0,0:0:0:0:
330,262,126559,1,0,0:0:0:0:
361,266,126647,1,8,0:0:0:0:
390,275,126735,1,8,0:0:0:0:
419,287,126823,5,4,0:0:0:0:
427,249,126912,1,8,0:0:0:0:
433,204,127000,1,8,0:0:0:0:
431,166,127088,1,0,0:0:0:0:
425,124,127176,70,0,P|413:62|386:6,1,125,6|0,0:1|0:1,0:1:0:0:
348,183,127530,5,8,0:0:0:0:
154,31,127707,1,0,0:0:0:0:
154,31,127795,1,0,0:0:0:0:
154,31,127883,5,0,0:0:0:0:
185,21,127971,1,0,0:0:0:0:
216,18,128060,2,0,L|215:3,1,15.625,8|8,0:1|0:1,0:1:0:0:
247,19,128148,2,0,L|249:4,1,15.625,8|8,0:1|0:1,0:1:0:0:
278,23,128236,6,0,P|338:37|413:85,1,125,12|0,0:1|0:1,0:1:0:0:
493,308,128589,1,12,0:0:0:0:
493,308,128677,1,8,0:0:0:0:
493,308,128767,5,0,0:0:0:0:
462,305,128855,1,0,0:0:0:0:
430,306,128942,1,4,0:0:0:0:
400,313,129030,1,8,0:0:0:0:
370,322,129119,1,0,0:0:0:0:
342,336,129207,1,8,0:0:0:0:
312,345,129295,1,0,0:0:0:0:
282,350,129383,1,0,0:0:0:0:
250,351,129471,53,0,0:0:0:0:
239,322,129560,1,0,0:0:0:0:
232,292,129648,1,4,0:0:0:0:
230,261,129736,1,0,0:0:0:0:
232,229,129824,1,0,0:0:0:0:
239,200,129913,1,0,0:0:0:0:
251,173,130001,6,0,P|268:141|294:115,1,62.5,12|8,0:0|0:0,0:0:0:0:
148,224,130177,2,0,B|123:251|123:251|86:272,1,78.125,0|8,0:0|0:0,0:0:0:0:
47,95,130353,5,4,0:0:0:0:
40,128,130441,1,8,3:3:0:0:
38,159,130529,1,0,0:0:0:0:
42,189,130618,1,8,0:0:0:0:
53,219,130706,2,0,P|70:252|96:278,1,62.5,4|8,0:0|3:3,0:0:0:0:
250,351,130883,2,0,B|219:318|219:318|180:297,1,78.125,0|8,0:0|3:3,0:0:0:0:
30,379,131059,5,4,0:0:0:0:
50,356,131147,2,0,L|36:349,1,15.625,8|8,0:1|0:1,0:1:0:0:
67,328,131235,1,8,0:0:0:0:
79,299,131323,1,0,0:0:0:0:
86,270,131412,38,0,P|112:213|154:166,1,125,6|8,0:1|0:1,0:1:0:0:
