osu file format v14

[General]
AudioFilename: audio.mp3
AudioLeadIn: 0
PreviewTime: 47633
Countdown: 0
SampleSet: Normal
StackLeniency: 0.7
Mode: 0
LetterboxInBreaks: 0
WidescreenStoryboard: 1

[Editor]
DistanceSpacing: 1
BeatDivisor: 2
GridSize: 4
TimelineZoom: 1

[Metadata]
Title:Crocus
TitleUnicode:Crocus
Artist:Cranky
ArtistUnicode:Cranky
Creator:PandaHero
Version:Normal
Source:
Tags:Niva Nivalis Mirash mappers' guild featured artist osu! record4 mood hiroshi watanabe feline groove
BeatmapID:1772899
BeatmapSetID:847764

[Difficulty]
HPDrainRate:4
CircleSize:3.5
OverallDifficulty:4
ApproachRate:5
SliderMultiplier:1
SliderTickRate:1

[Events]
//Background and Video events
0,0,"bg.jpg",0,0
//Break Periods
2,18468,19277
2,38881,42466
2,121333,130070
2,165336,169458
//Storyboard Layer 0 (Background)
//Storyboard Layer 1 (Fail)
//Storyboard Layer 2 (Pass)
//Storyboard Layer 3 (Foreground)
//Storyboard Sound Samples

[TimingPoints]
1704,368.098159509202,3,2,1,45,1,0
20477,-100,3,2,1,50,0,0
36305,368.098159509202,3,2,1,50,1,0
38881,368.098159509202,3,2,2,45,1,0
46611,-100,3,3,0,55,0,0
47715,-100,3,1,2,55,0,0
50107,-100,3,1,1,55,0,0
50292,-100,3,1,2,55,0,0
51948,-100,3,1,1,55,0,0
52132,-100,3,1,2,55,0,0
64279,-100,3,2,1,55,0,0
65015,-100,3,2,2,40,0,0
65384,-100,3,2,2,55,0,0
81948,-100,3,3,0,55,0,0
82684,-100,3,2,2,55,0,0
83052,368.098159509202,4,1,2,60,1,0
103665,368.098159509202,3,1,1,60,1,0
103757,-100,3,2,1,45,0,0
112499,-100,3,2,1,60,0,0
121333,-100,3,1,1,60,0,0
123542,368.098159509202,4,1,1,60,1,0
126486,368.098159509202,3,1,1,60,1,0
128694,368.098159509202,7,1,1,60,1,0
131270,368.098159509202,4,2,1,40,1,0
137159,-100,4,2,1,45,0,0
140104,-100,4,2,1,50,0,0
141944,-100,4,3,0,35,0,0
142681,-100,4,3,0,60,0,0
143051,368.098159509202,4,1,2,70,1,1
165136,-100,4,1,1,60,0,0
170658,-100,4,2,1,40,0,0
171026,-100,4,2,1,50,0,0
171210,-100,4,2,1,30,0,0
172498,-100,4,2,1,40,0,0
173235,-100,4,2,1,45,0,0
174339,-100,4,3,0,50,0,0
174707,-100,4,3,0,60,0,0
175075,-100,4,3,0,70,0,0
175812,-100,4,3,0,70,0,0
176180,-100,4,3,0,70,0,0
176548,-100,4,3,0,70,0,0
176916,-100,4,1,2,60,0,0
187222,-100,4,3,0,60,0,0
188327,-100,4,2,1,60,0,0
188695,368.098159509202,3,1,2,70,1,1
203602,-100,3,1,1,60,0,0
204523,368.098159509202,3,1,2,70,1,1
206179,-100,3,1,1,70,0,0
207467,368.098159509202,3,1,2,80,1,1
211884,-100,3,1,1,60,0,0
211976,-100,3,2,1,50,0,0
215197,-100,3,2,2,50,0,0
229552,-100,3,2,1,30,0,0
238387,-100,3,2,1,23,0,0

[Colours]
Combo1 : 130,103,222
Combo2 : 159,220,105
Combo3 : 113,213,160
Combo4 : 215,111,197

[HitObjects]
35,115,1704,6,0,P|71:67|113:41,1,100,4|4,1:0|1:3,0:0:0:0:
203,36,2440,1,6,1:3:0:0:
263,114,2808,2,0,L|247:255,1,100,4|4,1:3|1:3,0:0:0:0:
311,293,3544,1,6,1:3:0:0:
409,310,3912,6,0,P|423:266|457:206,2,100,4|4|6,1:3|1:3|1:3,0:0:0:0:
331,373,5016,1,4,1:3:0:0:
239,332,5384,1,4,1:3:0:0:
145,368,5753,1,6,1:3:0:0:
70,301,6121,6,0,P|74:248|87:203,1,100,4|4,1:3|1:3,0:0:0:0:
161,136,6857,1,6,1:3:0:0:
254,171,7225,2,0,L|387:176,1,100,4|4,1:3|1:3,0:0:0:0:
451,157,7961,1,6,1:3:0:0:
425,60,8329,6,0,P|366:42|319:42,1,100,4|4,1:3|1:3,0:0:0:0:
231,68,9065,1,6,1:3:0:0:
213,167,9434,1,4,1:3:0:0:
296,221,9802,2,0,L|378:213,1,50,4|2,1:3|0:3,0:0:0:0:
389,240,10170,2,0,L|442:238,1,50,4|2,1:3|1:3,0:0:0:0:
469,277,10538,5,4,1:0:0:0:
408,356,10906,2,0,P|347:336|279:328,1,100,4|6,1:2|1:3,0:0:0:0:
218,366,11642,1,4,1:3:0:0:
139,304,12010,1,6,1:3:0:0:
139,304,12194,2,0,L|156:191,1,100,4|4,1:2|3:0,0:0:0:0:
166,156,12746,6,0,L|270:179,2,100,4|4|6,1:3|1:2|1:3,0:0:0:0:
92,87,13851,1,4,1:3:0:0:
174,29,14219,1,6,1:3:0:0:
174,29,14403,2,0,L|286:29,1,100,4|4,1:2|3:0,0:0:0:0:
322,39,14955,5,4,1:0:0:0:
414,77,15323,2,0,P|437:127|448:179,1,100,4|6,1:2|1:3,0:0:0:0:
382,246,16059,1,4,1:3:0:0:
282,237,16427,1,6,1:3:0:0:
282,237,16611,2,0,L|166:212,1,100,4|4,1:2|3:0,0:0:0:0:
135,228,17164,5,4,1:3:0:0:
97,320,17532,1,4,1:2:0:0:
20,255,17900,1,6,1:3:0:0:
53,160,18268,1,4,1:3:0:0:
154,50,20477,6,0,P|101:44|34:57,2,100,4|4|2,1:0|1:3|1:2,0:0:0:0:
246,86,21581,1,4,1:3:0:0:
199,174,21949,2,0,B|182:229|182:229|197:343,1,150,4|2,1:3|3:2,0:0:0:0:
242,309,22685,6,0,L|367:318,1,100,4|2,1:2|1:2,0:0:0:0:
379,349,23237,2,0,L|386:233,1,100,2|2,1:3|1:2,0:0:0:0:
422,216,23789,2,0,P|472:172|444:28,1,200,4|2,1:3|1:3,0:0:0:0:
367,22,24894,5,4,1:0:0:0:
279,70,25262,1,4,1:3:0:0:
348,142,25630,1,2,1:2:0:0:
416,215,25998,1,4,1:3:0:0:
325,258,26366,2,0,B|269:254|269:254|166:301,1,150,4|4,1:3|1:2,0:0:0:0:
135,277,27102,6,0,L|150:72,1,200,4|4,1:0|1:3,0:0:0:0:
56,113,28207,1,4,1:3:0:0:
31,209,28575,2,0,L|34:327,1,100,2|2,1:3|1:3,0:0:0:0:
124,352,29311,6,0,P|177:343|241:348,2,100,4|4|4,1:0|1:3|1:3,0:0:0:0:
127,252,30415,1,4,1:3:0:0:
181,168,30783,2,0,B|256:149|244:204|334:191,1,150,4|4,1:3|1:2,0:0:0:0:
365,163,31519,5,4,1:0:0:0:
465,168,31888,1,4,1:3:0:0:
497,262,32256,1,4,1:3:0:0:
424,330,32624,1,4,1:2:0:0:
328,299,32992,2,0,B|253:280|265:335|175:322,1,150,4|4,1:3|1:2,0:0:0:0:
140,347,33728,6,0,L|70:341,1,50,4|2,1:0|0:0,0:0:0:0:
43,359,34096,2,0,P|34:235|16:128,1,200,4|4,1:3|1:3,0:0:0:0:
68,71,35200,1,4,1:3:0:0:
68,71,35384,2,0,B|114:89|114:89|240:78,1,150,4|4,1:3|0:0,0:0:0:0:
313,96,36305,6,0,L|383:93,1,50,4|2,1:0|0:3,0:0:0:0:
409,111,36673,2,0,P|394:234|391:342,1,200,4|4,1:3|1:3,0:0:0:0:
293,334,37777,2,0,L|216:316,1,50,4|4,1:3|0:3,0:0:0:0:
256,192,43666,12,2,46611,3:0:0:0:
38,54,47715,6,0,P|79:42|145:34,1,100,4|8,0:0|0:2,0:0:0:0:
235,29,48451,1,2,0:3:0:0:
285,115,48819,1,2,0:2:0:0:
230,198,49187,2,0,L|210:376,1,150,8|2,0:2|0:2,0:0:0:0:
261,361,49923,5,6,0:2:0:0:
351,316,50292,1,8,0:2:0:0:
440,359,50660,1,2,0:3:0:0:
466,262,51028,2,0,P|457:213|435:129,1,100,2|8,0:2|0:2,0:0:0:0:
381,87,51764,1,2,0:3:0:0:
282,101,52132,6,0,B|168:73|189:156|69:130,1,200,6|2,0:2|0:3,0:0:0:0:
28,212,53236,1,2,0:2:0:0:
83,295,53604,2,0,P|132:286|194:286,1,100,8|2,0:2|0:3,0:0:0:0:
281,270,54341,6,0,P|276:215|258:157,2,100,2|8|0,0:2|0:2|0:0,0:0:0:0:
348,343,55445,1,2,0:2:0:0:
428,284,55813,2,0,P|438:204|466:96,1,150,8|0,0:2|0:0,0:0:0:0:
475,91,56549,5,6,0:2:0:0:
382,53,56917,1,8,0:2:0:0:
303,114,57285,2,0,L|302:179,1,50,0|2,0:0|0:2,0:0:0:0:
257,186,57654,2,0,L|271:309,1,100,2|8,0:2|0:2,0:0:0:0:
240,327,58206,2,0,P|183:314|124:319,1,100,2|2,0:3|0:2,0:0:0:0:
91,313,58758,5,6,0:2:0:0:
39,227,59126,1,8,0:2:0:0:
108,155,59494,2,0,L|162:164,1,50,0|2,0:2|0:2,0:0:0:0:
201,139,59862,2,0,L|325:155,1,100,2|8,0:2|0:2,0:0:0:0:
382,208,60598,2,0,L|447:207,1,50,2|2,0:3|0:2,0:0:0:0:
481,210,60966,6,0,P|491:151|398:15,1,200,4|0,0:2|0:0,0:0:0:0:
382,53,61887,1,2,0:2:0:0:
382,53,62071,2,0,P|282:69|173:57,1,200,6|2,0:2|0:2,0:0:0:0:
123,138,63175,5,6,0:2:0:0:
221,157,63543,1,8,0:2:0:0:
293,225,63911,1,0,0:0:0:0:
267,321,64279,2,0,P|198:310|52:316,1,200,2|2,1:2|0:3,0:0:0:0:
64,213,65384,6,0,P|103:206|194:174,2,100,4|2|2,1:2|1:2|1:2,0:0:0:0:
25,120,66488,1,8,1:2:0:0:
86,40,66856,1,4,1:3:0:0:
180,73,67224,1,2,1:2:0:0:
268,25,67592,5,6,1:2:0:0:
331,103,67960,2,0,L|325:256,1,150,4|2,1:2|0:3,0:0:0:0:
361,286,68696,2,0,P|433:273|503:270,2,100,0|0|2,1:0|1:3|1:3,0:0:0:0:
279,344,69801,6,0,P|208:320|143:309,1,100,4|2,1:0|1:2,0:0:0:0:
87,341,70537,1,2,1:2:0:0:
40,252,70905,1,8,1:2:0:0:
133,216,71273,1,4,1:3:0:0:
143,115,71641,1,2,1:2:0:0:
237,147,72009,5,6,1:2:0:0:
275,54,72377,2,0,P|195:22|130:13,1,150,4|6,1:2|0:3,0:0:0:0:
83,25,73114,1,0,1:3:0:0:
34,112,73482,1,0,1:0:0:0:
102,184,73850,2,0,L|184:176,1,50,2|2,1:2|0:2,0:0:0:0:
193,206,74218,6,0,L|327:192,1,100,4|8,1:2|1:2,0:0:0:0:
377,248,74954,1,2,1:2:0:0:
323,332,75322,2,0,L|246:328,1,50,4|2,1:2|0:2,0:0:0:0:
225,312,75690,2,0,P|139:323|79:362,1,150,2|2,1:2|1:3,0:0:0:0:
57,313,76427,6,0,L|61:235,1,50,4|2,1:2|0:0,0:0:0:0:
28,223,76795,2,0,L|38:106,1,100,8|2,1:2|1:2,0:0:0:0:
67,28,77531,2,0,L|128:28,1,50,4|2,1:2|0:2,0:0:0:0:
159,55,77899,2,0,P|204:101|306:102,1,150,2|2,1:2|0:3,0:0:0:0:
327,81,78635,5,4,1:2:0:0:
424,101,79003,1,8,1:2:0:0:
443,198,79371,2,0,L|427:268,1,50,2|8,1:2|0:2,0:0:0:0:
390,274,79739,2,0,P|336:262|272:258,1,100,4|4,1:2|1:2,0:0:0:0:
191,265,80476,2,0,L|111:242,1,50,2|8,1:2|1:2,0:0:0:0:
94,262,80844,6,0,P|86:307|78:375,2,100,4|8|2,1:0|1:2|1:2,0:0:0:0:
109,163,81948,1,2,1:3:0:0:
192,108,82316,1,2,1:3:0:0:
279,157,82684,1,2,1:3:0:0:
293,255,83052,6,0,P|396:268|492:211,1,200,6|2,0:0|0:0,0:0:0:0:
496,126,84156,1,10,0:0:0:0:
403,88,84524,2,0,P|345:93|286:108,2,100,2|8|2,0:0|0:0|0:3,0:0:0:0:
421,186,85628,1,10,0:0:0:0:
347,254,85996,6,0,P|328:291|307:371,1,100,6|10,0:0|0:0,0:0:0:0:
213,368,86732,1,2,0:3:0:0:
120,328,87101,2,0,L|68:328,1,50,10|0,0:0|0:2,0:0:0:0:
28,355,87469,2,0,P|25:251|12:140,1,200,6|2,0:0|0:3,0:0:0:0:
73,75,88573,1,10,0:0:0:0:
166,110,88941,6,0,P|237:109|293:93,2,100,6|8|2,0:0|0:0|0:0,0:0:0:0:
127,202,90045,1,10,0:0:0:0:
209,257,90413,2,0,L|283:253,1,50,2|0,0:0|0:0,0:0:0:0:
296,287,90782,2,0,P|383:258|497:266,1,200,10|10,0:0|0:0,0:0:0:0:
489,164,91886,5,6,0:0:0:0:
415,96,92254,1,8,0:0:0:0:
332,152,92622,1,2,0:3:0:0:
246,99,92990,1,8,0:0:0:0:
161,152,93358,2,0,P|80:115|74:32,1,150,2|2,0:0|0:0,0:0:0:0:
106,31,94094,2,0,P|145:29|236:26,1,100,2|10,0:0|0:0,0:0:0:0:
263,108,94831,5,6,0:0:0:0:
206,190,95199,1,10,0:0:0:0:
106,194,95567,2,0,P|91:262|92:324,1,100,0|10,0:0|0:0,0:0:0:0:
163,359,96303,1,2,0:0:0:0:
248,306,96671,1,10,0:0:0:0:
334,356,97039,2,0,P|414:359|514:338,1,150,0|2,0:0|0:0,0:0:0:0:
493,298,97775,6,0,P|477:240|443:176,1,100,6|10,0:0|0:0,0:0:0:0:
392,130,98512,1,0,0:0:0:0:
318,197,98880,1,10,0:0:0:0:
233,142,99248,2,0,P|240:64|255:22,2,100,2|10|2,0:0|0:0|0:3,0:0:0:0:
156,206,100352,2,0,L|86:204,1,50,10|0,0:0|0:2,0:0:0:0:
63,231,100720,6,0,P|57:273|50:351,1,100,6|8,0:0|0:0,0:0:0:0:
148,354,101456,1,0,0:0:0:0:
228,294,101825,2,0,L|316:291,1,50,10|0,0:0|0:0,0:0:0:0:
325,306,102193,2,0,P|330:263|338:186,1,100,6|8,0:0|0:0,0:0:0:0:
419,151,102929,1,2,0:3:0:0:
390,55,103297,1,10,0:0:0:0:
290,56,103665,1,6,0:0:0:0:
256,192,103849,12,0,106977,0:0:0:0:
264,87,108082,6,0,P|241:144|234:204,1,100,4|4,1:3|1:3,0:0:0:0:
210,278,108818,1,2,1:3:0:0:
141,350,109186,2,0,P|70:334|14:332,2,100,4|4|2,1:3|1:3|1:3,0:0:0:0:
238,371,110290,5,4,1:3:0:0:
310,302,110658,1,4,1:3:0:0:
261,214,111026,1,2,1:3:0:0:
360,221,111395,2,0,P|409:227|483:213,2,100,4|4|2,1:3|1:3|1:3,0:0:0:0:
305,136,112499,5,4,1:0:0:0:
360,52,112867,2,0,P|410:42|488:41,1,100,4|2,1:2|1:3,0:0:0:0:
473,138,113603,1,4,1:3:0:0:
385,186,113971,1,2,1:3:0:0:
385,186,114155,2,0,P|369:259|371:322,1,100,4|4,1:2|3:0,0:0:0:0:
368,334,114707,5,4,1:0:0:0:
270,312,115076,2,0,P|198:302|142:307,1,100,4|2,1:2|1:3,0:0:0:0:
76,336,115812,1,4,1:3:0:0:
36,244,116180,2,0,L|39:182,1,50,4|2,1:3|0:3,0:0:0:0:
84,175,116548,2,0,L|87:107,1,50,4|4,1:3|0:3,0:0:0:0:
106,79,116916,5,4,1:0:0:0:
202,103,117284,2,0,P|263:128|296:160,1,100,4|4,1:2|1:3,0:0:0:0:
374,199,118020,1,4,1:3:0:0:
464,156,118388,1,2,1:3:0:0:
464,156,118572,2,0,L|469:26,1,100,4|4,1:2|3:0,0:0:0:0:
427,26,119125,5,4,1:0:0:0:
343,80,119493,1,4,1:2:0:0:
246,54,119861,2,0,L|180:31,2,50,2|4|4,1:3|1:3|1:3,0:0:0:0:
41,208,131270,6,0,P|123:173|251:155,1,200,0|4,1:0|0:0,0:0:0:0:
396,269,132742,2,0,P|314:304|186:322,2,200,0|4|0,1:0|0:0|1:0,0:0:0:0:
441,179,134582,5,2,0:0:0:0:
381,99,134950,2,0,P|303:71|179:75,1,200,4|0,0:0|1:0,0:0:0:0:
226,165,136055,1,2,0:0:0:0:
155,236,136423,2,0,P|85:220|14:227,1,100,4|0,0:0|0:0,0:0:0:0:
26,324,137159,5,0,1:0:0:0:
119,359,137527,1,2,0:0:0:0:
203,306,137895,2,0,P|295:293|437:326,1,200,4|0,0:0|1:0,0:0:0:0:
478,248,139000,1,0,0:0:0:0:
439,155,139368,2,0,P|401:107|350:64,1,100,4|2,0:0|0:0,0:0:0:0:
275,104,140104,6,0,P|270:178|273:232,1,100,0|2,1:0|0:0,0:0:0:0:
176,237,140840,2,0,P|132:142|64:47,1,200,4|4,0:0|3:0,0:0:0:0:
35,154,141944,1,2,0:0:0:0:
37,253,142312,1,2,0:0:0:0:
39,353,142681,1,0,1:0:0:0:
128,306,143051,6,0,P|217:320|286:373,2,150,6|2|10,0:0|0:0|0:0,0:0:0:0:
110,207,144523,1,2,0:0:0:0:
186,142,144891,1,10,0:0:0:0:
269,196,145259,1,0,0:0:0:0:
252,294,145627,1,10,0:0:0:0:
350,277,145995,6,0,L|426:272,1,50,6|2,0:0|0:0,0:0:0:0:
448,284,146363,2,0,P|461:228|479:160,1,100,10|0,0:0|0:0,0:0:0:0:
433,93,147100,2,0,L|365:91,1,50,10|2,0:0|0:0,0:0:0:0:
335,105,147468,2,0,B|225:72|250:142|123:101,1,200,2|0,0:0|0:0,0:0:0:0:
49,60,148572,1,10,0:0:0:0:
28,157,148940,6,0,P|24:222|39:316,2,150,6|2|10,0:0|0:0|0:0,0:0:0:0:
49,60,150412,1,2,0:0:0:0:
144,29,150781,1,10,0:0:0:0:
212,102,151149,1,0,0:0:0:0:
159,186,151517,1,10,0:0:0:0:
258,188,151885,6,0,P|352:186|396:193,1,100,6|8,0:0|0:0,0:0:0:0:
419,265,152621,1,0,0:0:0:0:
368,351,152989,1,8,0:0:0:0:
268,344,153357,2,0,P|223:329|146:311,1,100,2|8,0:0|0:0,0:0:0:0:
128,339,153909,2,0,L|138:169,1,150,2|10,0:0|0:0,0:0:0:0:
54,132,154830,5,6,0:0:0:0:
124,60,155198,1,10,0:0:0:0:
217,94,155566,1,0,0:0:0:0:
222,193,155934,2,0,L|289:175,1,50,10|2,0:0|0:0,0:0:0:0:
317,195,156302,2,0,P|322:137|326:79,1,100,2|10,0:0|0:0,0:0:0:0:
396,25,157038,2,0,L|503:36,1,100,0|8,0:0|0:0,0:0:0:0:
493,85,157590,1,2,0:0:0:0:
476,132,157774,6,0,P|456:173|449:237,1,100,6|10,0:0|0:0,0:0:0:0:
400,314,158511,1,0,0:0:0:0:
306,278,158879,2,0,L|237:276,1,50,10|0,0:0|0:0,0:0:0:0:
208,260,159247,2,0,P|165:292|133:336,2,100,6|10|0,0:0|0:0|0:0,0:0:0:0:
247,168,160351,2,0,L|234:105,1,50,10|2,0:0|0:0,0:0:0:0:
215,73,160719,6,0,P|137:69|82:49,1,100,6|8,0:0|0:0,0:0:0:0:
18,84,161455,1,0,0:0:0:0:
32,183,161824,2,0,L|105:174,1,50,10|2,0:0|0:0,0:0:0:0:
129,189,162192,1,6,0:0:0:0:
211,244,162560,1,8,0:0:0:0:
255,154,162928,1,2,0:2:0:0:
182,84,163296,1,8,0:0:0:0:
279,60,163664,6,0,L|346:65,1,50,4|4,0:0|0:3,0:0:0:0:
370,91,164032,2,0,L|461:97,1,50,8|4,0:0|0:3,0:0:0:0:
455,129,164400,2,0,P|450:170|441:246,2,100,4|8|4,0:0|0:0|0:0,0:0:0:0:
308,181,170658,5,2,0:0:0:0:
212,209,171026,1,4,1:0:0:0:
256,192,171210,12,2,173971,0:0:0:0:
353,226,175443,6,0,L|236:236,1,100,2|0,0:0|0:0,0:0:0:0:
166,184,176179,1,2,0:0:0:0:
66,189,176547,1,0,0:0:0:0:
49,90,176916,6,0,P|100:42|181:29,1,150,4|2,0:0|0:2,0:0:0:0:
218,55,177652,1,4,0:3:0:0:
316,35,178020,1,8,0:2:0:0:
363,123,178388,2,0,P|356:176|365:288,2,150,4|4|8,0:0|0:2|0:2,0:0:0:0:
264,137,179860,5,4,0:2:0:0:
195,209,180228,1,8,0:2:0:0:
195,209,180412,2,0,P|136:200|59:192,1,100,2|2,0:2|0:2,0:0:0:0:
46,206,180965,1,8,0:2:0:0:
29,107,181333,2,0,P|61:40|90:20,2,100,4|8|4,0:0|0:2|0:3,0:0:0:0:
46,206,182437,1,8,0:2:0:0:
132,256,182805,6,0,P|209:226|306:228,2,150,4|4|8,0:0|0:2|0:2,0:0:0:0:
178,344,184277,1,4,0:0:0:0:
276,362,184646,1,8,0:2:0:0:
356,302,185014,2,0,P|364:220|384:157,1,100,4|8,0:3|0:2,0:0:0:0:
315,117,185750,6,0,P|265:128|202:120,2,100,4|8|4,0:0|0:2|0:3,0:0:0:0:
405,74,186854,1,8,0:2:0:0:
478,141,187222,1,4,0:0:0:0:
423,224,187590,1,8,0:0:0:0:
326,199,187958,1,4,0:0:0:0:
236,244,188327,1,4,1:2:0:0:
142,209,188695,6,0,P|126:307|135:388,1,150,6|2,0:0|2:0,0:0:0:0:
179,353,189431,2,0,L|251:355,1,50,2|2,0:0|0:3,0:0:0:0:
278,362,189799,2,0,L|286:289,1,50,2|2,0:0|0:0,0:0:0:0:
311,270,190167,2,0,P|384:261|484:260,1,150,10|2,0:0|0:0,0:0:0:0:
474,211,190903,5,6,0:0:0:0:
410,133,191271,1,8,0:0:0:0:
310,134,191639,1,4,0:3:0:0:
318,34,192007,2,0,P|409:28|491:63,1,150,2|2,0:0|2:0,0:0:0:0:
480,93,192744,1,2,0:0:0:0:
401,155,193112,6,0,P|339:235|335:313,1,150,6|2,0:0|2:0,0:0:0:0:
282,274,193848,1,2,0:0:0:0:
189,236,194216,1,2,0:0:0:0:
95,272,194584,2,0,P|86:349|93:396,1,100,8|4,0:0|0:3,0:0:0:0:
135,356,195136,1,2,0:3:0:0:
183,342,195320,6,0,P|259:324|394:357,1,200,6|4,0:0|0:3,0:0:0:0:
471,380,196425,1,2,0:0:0:0:
462,280,196793,2,0,L|445:116,1,150,10|2,0:0|0:2,0:0:0:0:
409,96,197529,5,6,0:0:0:0:
316,134,197897,1,10,0:0:0:0:
232,78,198265,2,0,L|171:76,1,50,2|2,0:0|0:2,0:0:0:0:
144,43,198633,2,0,L|83:41,1,50,2|2,0:0|0:0,0:0:0:0:
46,56,199001,2,0,L|59:238,1,150,10|2,0:0|0:0,0:0:0:0:
72,253,199737,5,6,0:0:0:0:
161,296,200105,1,10,0:0:0:0:
236,230,200473,2,0,L|297:228,1,50,2|2,0:0|0:2,0:0:0:0:
324,195,200841,2,0,L|385:193,1,50,2|2,0:0|0:0,0:0:0:0:
422,208,201209,2,0,L|407:368,1,150,10|2,0:0|0:0,0:0:0:0:
360,372,201946,6,0,P|288:348|227:347,2,100,6|10|4,0:0|0:0|0:3,0:0:0:0:
451,332,203050,2,0,L|460:228,1,100,4|4,0:3|0:3,0:0:0:0:
417,205,203602,2,0,B|408:158|408:158|436:42,1,150,4|2,0:3|0:0,3:3:0:0:
332,72,204523,6,0,P|283:96|224:116,2,100,6|10|0,0:0|0:0|0:0,0:0:0:0:
326,171,205627,2,0,L|310:315,1,100,0|4,0:0|0:3,0:0:0:0:
291,314,206179,2,0,B|206:283|206:283|39:332,1,250,4|2,0:3|0:0,0:0:0:0:
34,229,207467,6,0,P|40:178|56:118,1,100,6|10,0:0|0:0,0:0:0:0:
123,59,208203,1,4,0:3:0:0:
187,135,208571,2,0,L|175:214,2,50,0|2|10,0:0|0:2|0:0,0:0:0:0:
268,77,209307,2,0,L|348:82,1,50,4|8,0:3|0:3,0:0:0:0:
359,107,209675,6,0,L|488:100,1,100,4|10,0:0|0:0,0:0:0:0:
489,196,210411,1,4,0:3:0:0:
396,232,210779,1,4,0:0:0:0:
421,328,211147,1,10,0:0:0:0:
321,339,211516,2,0,L|263:305,2,50,4|8|4,0:0|0:3|0:3,0:0:0:0:
256,192,212252,12,4,215197,1:3:0:0:
127,196,216301,6,0,P|56:188|4:195,2,100,4|4|4,1:3|1:2|1:3,0:0:0:0:
212,248,217405,1,4,1:3:0:0:
263,162,217773,2,0,L|269:80,1,50,4|2,1:3|1:3,0:0:0:0:
224,85,218141,2,0,L|235:10,1,50,0|0,1:0|0:0,0:0:0:0:
280,24,218509,6,0,P|361:45|415:42,1,100,2|4,1:0|1:2,0:0:0:0:
475,61,219246,1,4,1:3:0:0:
471,160,219614,1,4,1:3:0:0:
374,185,219982,2,0,L|317:185,1,50,2|2,1:3|1:3,0:0:0:0:
286,218,220350,2,0,L|210:218,1,50,4|4,1:3|1:3,0:0:0:0:
191,241,220718,5,4,1:3:0:0:
123,167,221086,2,0,P|127:77|138:35,1,100,4|4,1:2|1:3,0:0:0:0:
82,48,221638,1,2,0:2:0:0:
40,76,221822,2,0,P|21:156|25:202,1,100,4|4,1:3|1:3,0:0:0:0:
47,216,222374,2,0,P|66:296|62:342,1,100,4|2,1:2|1:3,0:0:0:0:
106,342,222927,5,4,1:3:0:0:
202,317,223295,1,4,1:2:0:0:
217,218,223663,1,4,1:3:0:0:
130,167,224031,2,0,P|61:170|23:189,2,100,4|2|4,1:3|1:2|1:3,0:0:0:0:
211,108,225135,5,4,1:0:0:0:
309,125,225503,2,0,P|378:122|416:103,1,100,4|4,1:2|1:3,0:0:0:0:
474,182,226240,1,4,1:3:0:0:
421,267,226608,1,4,1:3:0:0:
322,251,226976,2,0,L|259:257,1,50,2|2,1:3|1:2,0:0:0:0:
233,287,227344,1,4,1:3:0:0:
133,273,227712,2,0,P|65:304|26:347,2,100,4|4|4,1:2|1:3|1:3,0:0:0:0:
412,165,229552,6,0,P|445:243|430:373,1,200,4|0,1:3|1:0,0:0:0:0:
343,319,230657,2,0,B|242:286|238:351|103:317,1,200,4|4,1:3|0:3,0:0:0:0:
77,252,231761,6,0,P|78:177|102:46,1,200,4|0,1:3|1:0,0:0:0:0:
198,71,232865,2,0,P|210:135|209:190,1,100,4|2,1:3|3:2,0:0:0:0:
249,200,233417,2,0,L|357:176,1,100,4|4,0:0|0:3,0:0:0:0:
390,203,233970,6,0,P|433:217|510:218,2,100,4|4|0,1:3|0:0|1:0,0:0:0:0:
301,249,235074,2,0,P|233:326|322:352,1,200,4|4,1:3|1:3,0:0:0:0:
391,360,236178,6,0,L|425:135,1,200,4|0,1:3|1:0,0:0:0:0:
362,80,237282,2,0,P|293:91|226:87,1,100,4|2,1:3|3:2,0:0:0:0:
165,66,238019,1,4,0:3:0:0:
83,124,238387,6,0,P|87:186|81:258,1,100,4|4,3:0|0:0,0:0:0:0:
73,323,239123,1,0,1:0:0:0:
172,309,239491,2,0,B|284:276|257:345|389:316,1,200,4|4,1:3|3:0,0:0:0:0:
461,285,240595,6,0,P|467:230|496:174,2,100,4|4|0,3:0|0:0|1:0,0:0:0:0:
380,225,241700,2,0,P|364:103|379:16,1,200,4|4,1:3|3:0,0:0:0:0:
277,43,242804,6,0,P|212:44|146:15,2,100,4|4|0,3:0|0:0|1:0,0:0:0:0:
237,134,243908,2,0,P|164:164|80:266,1,200,4|0,1:3|3:0,0:0:0:0:
177,293,245013,6,0,P|255:260|294:254,1,100,4|4,3:0|0:0,0:0:0:0:
369,266,245749,1,0,1:0:0:0:
319,352,246117,1,4,1:3:0:0:
