osu file format v14

[General]
AudioFilename: audio.mp3
AudioLeadIn: 0
PreviewTime: 47633
Countdown: 0
SampleSet: Soft
StackLeniency: 0.7
Mode: 0
LetterboxInBreaks: 0
WidescreenStoryboard: 0

[Editor]
DistanceSpacing: 1
BeatDivisor: 4
GridSize: 4
TimelineZoom: 1.7

[Metadata]
Title:Crocus
TitleUnicode:Crocus
Artist:Cranky
ArtistUnicode:Cranky
Creator:PandaHero
Version:Mirash's Hard
Source:
Tags:Niva Nivalis Mirash mappers' guild featured artist osu! record4 mood hiroshi watanabe feline groove
BeatmapID:1772898
BeatmapSetID:847764

[Difficulty]
HPDrainRate:5
CircleSize:4
OverallDifficulty:7
ApproachRate:8
SliderMultiplier:1.4
SliderTickRate:1

[Events]
//Background and Video events
0,0,"bg.jpg",0,0
//Break Periods
2,18468,19727
2,38881,45861
2,121333,130520
2,165336,170276
//Storyboard Layer 0 (Background)
//Storyboard Layer 1 (Fail)
//Storyboard Layer 2 (Pass)
//Storyboard Layer 3 (Foreground)
//Storyboard Sound Samples

[TimingPoints]
1704,368.098159509202,3,2,1,45,1,0
20477,-100,3,2,1,50,0,0
36305,368.098159509202,3,2,1,50,1,0
38881,368.098159509202,3,2,2,45,1,0
46611,-100,3,3,0,55,0,0
47715,-100,3,1,2,55,0,0
50107,-100,3,1,1,55,0,0
50292,-100,3,1,2,55,0,0
51948,-100,3,1,1,55,0,0
52132,-100,3,1,2,55,0,0
64279,-100,3,2,1,55,0,0
65384,-100,3,2,2,55,0,0
81948,-100,3,3,0,55,0,0
82684,-100,3,2,2,55,0,0
83052,368.098159509202,4,1,2,60,1,0
83052,-90.9090909090909,4,1,2,60,0,0
103665,368.098159509202,3,2,1,45,1,0
112499,-100,3,2,1,60,0,0
121333,-100,3,1,1,60,0,0
123542,368.098159509202,4,1,1,60,1,0
126486,368.098159509202,3,1,1,60,1,0
128694,368.098159509202,7,1,1,60,1,0
131270,368.098159509202,4,2,1,40,1,0
131270,-200,4,2,1,40,0,0
135687,-133.333333333333,4,2,1,40,0,0
137159,-133.333333333333,4,2,1,45,0,0
140104,-133.333333333333,4,2,1,50,0,0
141576,-83.3333333333333,4,2,1,50,0,0
141944,-83.3333333333333,4,3,0,35,0,0
142681,-83.3333333333333,4,3,0,60,0,0
143051,368.098159509202,4,1,2,60,1,1
143051,-83.3333333333333,4,1,2,60,0,1
165136,-83.3333333333333,4,1,1,60,0,0
170658,-83.3333333333333,4,2,1,50,0,0
174339,-83.3333333333333,4,3,0,50,0,0
174707,-83.3333333333333,4,3,0,60,0,0
175075,-83.3333333333333,4,3,0,70,0,0
175443,-83.3333333333333,4,3,0,45,0,0
176916,-83.3333333333333,4,1,2,60,0,0
187222,-83.3333333333333,4,3,0,60,0,0
188327,-83.3333333333333,4,2,1,60,0,0
188695,368.098159509202,3,1,2,70,1,1
188695,-83.3333333333333,3,1,2,70,0,1
203602,-83.3333333333333,3,1,1,60,0,0
204523,368.098159509202,3,1,2,70,1,1
204523,-83.3333333333333,3,1,2,70,0,1
206179,-83.3333333333333,3,1,1,70,0,0
207467,368.098159509202,3,1,2,80,1,1
207467,-83.3333333333333,3,1,2,80,0,1
211884,-100,3,2,2,60,0,0
215197,-100,3,2,2,50,0,0
229552,-100,3,2,1,30,0,0

[Colours]
Combo1 : 130,103,222
Combo2 : 159,220,105
Combo3 : 113,213,160
Combo4 : 215,111,197

[HitObjects]
12,200,1704,5,4,1:0:0:0:
81,166,1888,1,2,3:0:0:0:
152,195,2072,1,4,1:3:0:0:
256,308,2440,1,4,1:3:0:0:
360,195,2808,1,4,1:3:0:0:
431,166,2992,1,0,1:0:0:0:
500,200,3176,1,4,1:3:0:0:
456,347,3544,5,4,1:3:0:0:
385,316,3728,1,4,0:3:0:0:
385,316,3820,1,0,1:0:0:0:
385,316,3912,2,0,L|296:325,1,70,4|2,1:3|3:0,0:0:0:0:
246,357,4280,2,0,L|82:339,1,140,4|4,1:3|1:3,0:0:0:0:
30,332,4832,1,2,1:3:0:0:
58,260,5016,2,0,L|50:177,1,70,4|0,1:3|1:0,0:0:0:0:
7,126,5384,1,4,1:3:0:0:
108,69,5661,1,0,1:0:0:0:
108,69,5753,2,0,L|178:76,1,70,4|4,1:3|1:3,0:0:0:0:
228,132,6121,6,0,P|293:129|325:50,1,140,4|4,1:3|1:3,0:0:0:0:
404,66,6673,1,0,1:0:0:0:
404,66,6765,1,0,1:0:0:0:
404,66,6857,2,0,P|405:105|408:158,1,70,4|2,1:3|0:3,0:0:0:0:
457,193,7225,2,0,P|407:219|366:298,1,140,4|4,1:3|1:3,0:0:0:0:
325,354,7777,1,2,3:0:0:0:
260,311,7961,1,4,1:3:0:0:
188,339,8145,5,4,1:3:0:0:
188,339,8237,1,0,3:0:0:0:
188,339,8329,2,0,P|121:330|80:265,1,140,4|4,1:3|1:3,0:0:0:0:
69,198,8881,1,0,1:0:0:0:
144,230,9065,2,0,P|143:168|128:64,2,140,4|4|4,1:3|1:3|1:3,0:0:0:0:
219,244,9986,1,2,0:3:0:0:
277,194,10170,2,0,P|316:188|368:188,1,70,4|2,1:3|1:3,0:0:0:0:
463,166,10538,6,0,P|446:203|422:227,1,70,4|0,1:0|0:0,0:0:0:0:
444,298,10906,2,0,P|409:310|376:312,1,70,4|0,1:2|0:0,0:0:0:0:
335,377,11274,2,0,P|289:367|246:347,1,70,4|4,1:3|1:3,0:0:0:0:
208,309,11642,5,4,1:3:0:0:
132,296,11826,1,0,1:0:0:0:
59,321,12010,1,4,1:3:0:0:
3,374,12194,2,0,P|-13:329|6:221,1,140,4|4,1:2|3:0,0:0:0:0:
67,208,12746,5,4,1:3:0:0:
98,137,12930,1,0,0:0:0:0:
66,66,13115,2,0,P|113:52|211:60,1,140,4|4,1:2|1:3,0:0:0:0:
254,114,13667,5,4,1:3:0:0:
328,93,13851,1,4,1:3:0:0:
403,107,14035,1,0,1:0:0:0:
439,174,14219,1,6,1:3:0:0:
432,255,14403,1,4,1:2:0:0:
432,255,14495,1,0,1:0:0:0:
432,255,14587,2,0,P|389:267|342:271,1,70,4|4,1:3|3:0,0:0:0:0:
302,227,14955,6,0,P|261:232|220:239,1,70,4|0,1:0|0:0,0:0:0:0:
185,297,15323,2,0,P|101:282|80:222,1,140,4|4,1:2|1:3,0:0:0:0:
126,177,15875,5,4,1:3:0:0:
128,100,16059,1,4,1:3:0:0:
191,55,16243,1,0,1:0:0:0:
191,55,16335,1,0,1:0:0:0:
191,55,16427,1,6,1:3:0:0:
250,104,16611,2,0,L|409:93,1,140,4|4,1:2|3:0,0:0:0:0:
454,137,17164,6,0,P|449:188|451:227,1,70,4|0,1:3|0:0,0:0:0:0:
484,275,17532,2,0,P|451:314|355:308,1,140,4|4,1:2|1:3,0:0:0:0:
300,277,18084,1,4,1:3:0:0:
275,350,18268,1,4,1:3:0:0:
275,350,20477,6,0,P|279:270|286:209,2,140,4|4|2,1:0|1:3|1:2,0:0:0:0:
198,359,21397,1,0,0:0:0:0:
150,298,21581,2,0,P|109:297|65:298,1,70,4|2,1:3|0:0,0:0:0:0:
21,247,21949,2,0,P|27:185|162:141,1,210,4|2,1:3|3:2,0:0:0:0:
217,97,22685,6,0,P|266:97|302:95,2,70,4|0|2,1:2|0:0|1:2,0:0:0:0:
214,173,23237,2,0,P|210:231|209:335,1,140,2|2,1:3|1:2,0:0:0:0:
282,334,23789,2,0,P|282:264|287:194,1,140,4|4,1:3|3:0,0:0:0:0:
346,143,24342,1,0,0:0:0:0:
346,143,24434,1,0,0:0:0:0:
346,143,24526,2,0,P|393:146|421:146,1,70,2|0,1:3|0:0,0:0:0:0:
442,73,24894,6,0,P|378:72|288:70,2,140,4|4|2,1:0|1:3|1:2,0:0:0:0:
509,36,25814,1,0,0:0:0:0:
508,112,25998,2,0,P|502:174|502:193,1,70,4|2,1:3|0:0,0:0:0:0:
462,247,26366,2,0,P|411:252|327:375,1,210,4|4,1:3|1:2,0:0:0:0:
249,372,27102,6,0,P|250:317|256:211,1,140,4|4,1:0|1:3,0:0:0:0:
195,183,27654,1,2,0:3:0:0:
195,183,27746,1,0,0:0:0:0:
195,183,27838,1,4,1:3:0:0:
132,228,28023,1,2,3:2:0:0:
59,201,28207,2,0,P|61:143|58:45,1,140,4|2,1:3|1:3,0:0:0:0:
135,68,28759,2,0,L|210:62,1,70,4|2,0:0|1:3,0:0:0:0:
271,97,29127,1,2,1:2:0:0:
334,49,29311,6,0,P|349:116|356:213,1,140,4|4,1:0|1:3,0:0:0:0:
414,236,29863,1,2,0:3:0:0:
363,294,30047,2,0,P|368:346|369:377,2,70,4|2|4,1:3|0:0|1:3,0:0:0:0:
291,264,30599,1,2,0:0:0:0:
220,295,30783,2,0,P|216:247|208:143,1,140,4|4,1:3|1:3,0:0:0:0:
138,124,31335,5,4,1:2:0:0:
138,124,31427,1,0,0:0:0:0:
138,124,31519,2,0,P|82:130|54:135,2,70,4|2|4,1:0|0:0|1:3,0:0:0:0:
184,62,32072,1,2,0:3:0:0:
260,69,32256,1,4,1:3:0:0:
333,45,32440,1,2,0:0:0:0:
409,46,32624,2,0,P|410:114|412:137,1,70,4|2,1:2|0:0,0:0:0:0:
368,180,32992,2,0,P|427:209|453:293,1,140,4|2,1:3|1:3,0:0:0:0:
411,338,33544,5,4,1:2:0:0:
339,309,33728,2,0,P|291:306|257:305,1,70,4|2,1:0|0:0,0:0:0:0:
209,353,34096,2,0,P|164:348|120:341,1,70,4|2,1:3|0:3,0:0:0:0:
139,344,34372,1,0,1:0:0:0:
139,344,34464,1,4,1:3:0:0:
64,361,34648,1,0,1:0:0:0:
8,308,34832,1,4,1:3:0:0:
47,241,35016,2,0,L|42:195,2,35,2|0|4,3:2|3:0|1:3,0:0:0:0:
122,253,35384,1,4,1:3:0:0:
390,253,35937,5,4,0:0:0:0:
390,253,36305,2,0,P|386:193|386:159,1,70,4|2,1:0|0:3,0:0:0:0:
338,122,36673,2,0,P|281:122|244:122,1,70,4|0,1:3|1:0,0:0:0:0:
199,86,37041,1,4,1:3:0:0:
166,157,37225,1,2,0:0:0:0:
205,222,37409,1,4,1:3:0:0:
158,283,37593,2,0,L|117:278,2,35,2|0|4,3:0|3:0|1:3,0:0:0:0:
214,335,37961,1,4,1:3:0:0:
5,192,46611,5,2,3:0:0:0:
85,213,46795,2,0,P|83:234|83:255,2,35,0|2|2,0:0|0:0|0:0,0:0:0:0:
163,187,47163,1,0,0:0:0:0:
163,187,47255,1,2,0:0:0:0:
163,187,47347,2,0,P|209:185|238:186,1,70,2|0,0:0|0:0,0:0:0:0:
284,242,47715,6,0,P|326:236|369:144,1,140,4|8,0:0|0:2,0:0:0:0:
416,95,48267,1,0,0:0:0:0:
476,142,48451,2,0,P|479:188|484:220,1,70,2|2,0:3|0:2,0:0:0:0:
424,262,48819,2,0,P|421:308|416:340,1,70,2|2,0:2|0:3,0:0:0:0:
348,365,49187,2,0,P|314:351|206:343,1,140,8|0,0:2|0:0,0:0:0:0:
138,364,49739,5,2,0:2:0:0:
73,322,49923,1,6,0:2:0:0:
96,248,50107,2,0,L|88:170,1,70,2|8,0:3|0:2,0:0:0:0:
132,112,50476,2,0,P|151:57|226:24,1,140,2|2,0:2|0:2,0:0:0:0:
297,10,51028,2,0,P|293:75|292:162,1,140,2|8,0:2|0:2,0:0:0:0:
350,212,51580,1,0,0:0:0:0:
350,212,51672,1,0,0:0:0:0:
350,212,51764,2,0,P|394:209|420:209,1,70,2|2,0:3|0:3,0:0:0:0:
336,289,52132,6,0,P|286:290|236:203,1,140,6|8,0:2|0:2,0:0:0:0:
178,170,52684,1,0,0:0:0:0:
111,209,52868,2,0,P|119:259|119:285,1,70,2|2,0:3|0:2,0:0:0:0:
21,283,53236,2,0,P|16:238|17:208,1,70,2|2,0:2|0:3,0:0:0:0:
58,148,53604,2,0,P|58:89|49:8,1,140,8|2,0:2|0:3,0:0:0:0:
127,29,54157,5,2,0:2:0:0:
199,13,54341,2,0,L|341:22,1,140,2|8,0:2|0:2,0:0:0:0:
421,13,54893,1,2,0:3:0:0:
421,13,54985,1,0,0:0:0:0:
421,13,55077,2,0,P|413:71|417:108,1,70,0|0,0:0|0:0,0:0:0:0:
464,140,55445,1,2,0:2:0:0:
414,199,55629,1,0,0:0:0:0:
414,199,55721,1,0,0:0:0:0:
414,199,55813,2,0,P|357:196|332:197,1,70,8|0,0:2|0:0,0:0:0:0:
278,285,56181,2,0,P|335:282|360:283,1,70,2|0,0:3|0:0,0:0:0:0:
256,202,56549,5,6,0:2:0:0:
179,210,56733,1,0,0:0:0:0:
126,266,56917,1,8,0:2:0:0:
117,342,57101,1,2,0:2:0:0:
191,360,57285,1,0,0:0:0:0:
206,284,57469,1,2,0:2:0:0:
126,266,57654,2,0,P|130:226|127:109,1,140,2|8,0:2|0:2,0:0:0:0:
113,50,58206,2,0,P|169:43|261:47,1,140,2|2,0:3|0:2,0:0:0:0:
311,95,58758,5,6,0:2:0:0:
387,84,58942,1,0,0:0:0:0:
444,134,59126,1,8,0:2:0:0:
423,208,59310,1,2,0:2:0:0:
347,220,59494,1,0,0:2:0:0:
274,195,59678,1,2,0:2:0:0:
204,229,59862,2,0,P|211:293|212:370,1,140,2|8,0:2|0:2,0:0:0:0:
212,368,60598,6,0,P|260:360|296:357,1,70,2|2,0:3|0:2,0:0:0:0:
344,314,60966,1,4,0:2:0:0:
418,356,61150,1,0,0:0:0:0:
418,356,61242,1,0,0:0:0:0:
418,356,61334,2,0,P|419:305|419:269,1,70,8|2,0:2|0:3,0:0:0:0:
470,228,61703,1,0,0:0:0:0:
458,151,61887,1,2,0:2:0:0:
406,94,62071,2,0,P|355:98|319:177,1,140,6|8,0:2|0:2,0:0:0:0:
241,178,62623,1,0,0:0:0:0:
241,178,62715,1,0,0:0:0:0:
241,178,62807,2,0,P|196:177|155:175,1,70,2|2,0:2|0:3,0:0:0:0:
115,122,63175,6,0,P|65:132|26:212,1,140,6|8,0:2|0:2,0:0:0:0:
87,264,63727,1,2,3:3:0:0:
87,264,63819,1,0,0:0:0:0:
87,264,63911,1,0,0:0:0:0:
163,270,64095,1,0,0:0:0:0:
238,280,64279,1,2,1:2:0:0:
238,280,65384,6,0,P|236:227|232:190,1,70,4|0,1:2|0:0,0:0:0:0:
324,184,65752,2,0,P|321:218|320:253,1,70,2|8,1:2|0:2,0:0:0:0:
407,204,66120,2,0,P|405:151|401:114,1,70,2|2,1:2|0:3,0:0:0:0:
493,108,66488,2,0,P|490:142|489:177,1,70,8|2,1:2|0:3,0:0:0:0:
420,58,66856,2,0,P|376:54|338:50,1,70,4|8,1:3|0:2,0:0:0:0:
288,97,67224,1,2,1:2:0:0:
143,42,67592,6,0,P|76:59|42:131,1,140,6|4,1:2|1:2,0:0:0:0:
89,178,68144,1,2,0:0:0:0:
71,253,68328,2,0,P|126:252|167:243,1,70,4|2,1:3|0:3,0:0:0:0:
196,196,68696,2,0,P|237:203|274:217,2,70,0|6|0,1:0|0:3|1:3,0:0:0:0:
301,285,69249,1,8,1:2:0:0:
301,285,69341,1,0,1:0:0:0:
301,285,69433,2,0,P|346:279|383:268,1,70,2|4,1:3|1:3,0:0:0:0:
444,290,69801,5,4,1:0:0:0:
467,216,69985,1,0,0:0:0:0:
425,150,70169,2,0,P|428:99|437:64,1,70,2|8,1:2|0:2,0:0:0:0:
383,20,70537,2,0,P|329:23|293:37,1,70,2|2,1:2|0:3,0:0:0:0:
239,6,70905,5,8,1:2:0:0:
243,82,71089,1,2,0:3:0:0:
166,88,71273,1,4,1:3:0:0:
161,11,71457,1,8,0:2:0:0:
97,54,71641,2,0,P|59:68|39:177,2,140,2|6|4,1:2|1:2|1:2,0:0:0:0:
166,88,72561,5,0,0:0:0:0:
228,134,72746,2,0,P|218:185|217:220,1,70,4|6,1:3|0:3,0:0:0:0:
281,244,73114,2,0,P|292:201|294:168,1,70,0|6,1:3|0:3,0:0:0:0:
362,139,73482,2,0,P|369:200|366:282,1,140,0|2,1:0|1:2,0:0:0:0:
292,344,74034,1,2,0:2:0:0:
203,302,74218,6,0,P|159:308|115:323,1,70,4|2,1:2|0:2,0:0:0:0:
70,272,74586,2,0,P|16:279|-20:276,2,70,8|2|2,1:2|0:3|1:2,0:0:0:0:
127,221,75138,1,2,0:3:0:0:
158,150,75322,2,0,P|142:110|136:71,1,70,4|2,1:2|0:2,0:0:0:0:
194,32,75690,2,0,P|260:37|309:112,1,140,2|4,1:2|1:3,0:0:0:0:
407,68,76242,1,2,1:3:0:0:
490,132,76427,6,0,P|473:180|448:200,1,70,4|2,1:2|0:0,0:0:0:0:
412,253,76795,2,0,P|361:245|333:225,2,70,8|2|2,1:2|0:3|1:2,0:0:0:0:
487,268,77347,1,2,1:3:0:0:
459,192,77531,1,4,1:2:0:0:
388,162,77715,1,2,0:2:0:0:
383,85,77899,2,0,P|319:83|271:104,1,105,2|0,1:2|2:0,0:0:0:0:
261,130,78267,2,0,P|211:136|160:135,1,70,4|2,1:3|0:3,0:0:0:0:
131,87,78635,5,4,1:2:0:0:
55,70,78819,1,2,0:0:0:0:
38,145,79003,1,8,1:2:0:0:
112,163,79187,1,2,0:3:0:0:
171,212,79371,2,0,P|172:265|181:301,1,70,2|8,1:2|0:2,0:0:0:0:
226,338,79739,2,0,P|272:307|315:229,2,140,4|4|2,1:2|1:2|1:2,0:0:0:0:
149,349,80660,1,8,1:2:0:0:
78,380,80844,6,0,P|68:331|68:270,1,105,4|0,1:0|0:0,0:0:0:0:
89,244,81212,2,0,P|94:202|83:135,1,105,8|0,1:2|0:0,0:0:0:0:
54,116,81580,1,2,1:2:0:0:
102,55,81764,1,2,1:3:0:0:
160,104,81948,1,2,1:3:0:0:
160,104,83052,6,0,P|221:99|324:106,2,154.000004699707,6|8|2,0:0|0:0|0:0,0:0:0:0:
35,218,84156,1,10,0:0:0:0:
188,291,84524,2,0,P|236:288|280:263,1,77.0000023498536,2|2,0:0|0:3,0:0:0:0:
306,204,84892,2,0,P|357:202|429:291,2,154.000004699707,8|2|10,0:0|0:3|0:0,0:0:0:0:
230,165,85812,1,0,2:0:0:0:
268,89,85996,6,0,P|266:39|268:7,2,77.0000023498536,6|0|10,0:0|2:0|0:0,0:0:0:0:
230,165,86548,1,0,0:0:0:0:
154,126,86732,2,0,P|97:133|47:240,1,154.000004699707,2|10,0:3|0:0,0:0:0:0:
96,275,87285,1,0,0:2:0:0:
126,354,87469,6,0,P|212:346|296:343,1,154.000004699707,6|8,0:0|0:0,0:0:0:0:
417,244,88205,2,0,P|331:236|247:233,1,154.000004699707,2|10,0:3|0:0,0:0:0:0:
197,180,88757,5,0,0:0:0:0:
197,180,88849,1,0,0:0:0:0:
197,180,88941,2,0,P|203:127|200:94,1,77.0000023498536,6|0,0:0|0:0,0:0:0:0:
249,34,89309,2,0,P|299:38|357:147,1,154.000004699707,8|2,0:0|0:0,0:0:0:0:
390,281,90045,1,10,0:0:0:0:
225,317,90413,6,0,P|193:318|143:301,2,77.0000023498536,2|0|8,0:0|0:0|0:0,0:0:0:0:
301,354,90966,1,2,0:3:0:0:
289,270,91150,2,0,P|284:208|283:94,1,154.000004699707,0|10,0:0|0:0,0:0:0:0:
218,60,91702,1,0,0:0:0:0:
158,119,91886,6,0,P|111:116|35:209,1,154.000004699707,6|8,0:0|0:0,0:0:0:0:
64,265,92438,1,0,0:2:0:0:
141,230,92622,2,0,P|204:227|244:228,1,77.0000023498536,2|0,0:3|0:0,0:0:0:0:
285,278,92990,2,0,P|342:276|378:272,1,77.0000023498536,8|0,0:0|0:0,0:0:0:0:
439,308,93358,5,2,0:0:0:0:
487,242,93542,1,0,0:0:0:0:
487,242,93634,1,2,1:3:0:0:
487,242,93726,1,8,0:0:0:0:
404,203,93910,1,2,0:0:0:0:
471,151,94094,1,2,0:0:0:0:
389,127,94278,2,0,P|391:99|391:76,2,38.5000011749268,0|2|10,0:0|0:3|0:0,0:0:0:0:
323,181,94647,1,0,2:0:0:0:
257,127,94831,6,0,P|211:125|168:129,1,77.0000023498536,6|0,0:0|0:0,0:0:0:0:
116,182,95199,2,0,P|51:173|34:83,1,154.000004699707,10|0,0:0|0:0,0:0:0:0:
88,37,95751,1,0,0:2:0:0:
171,50,95935,2,0,P|217:48|260:52,1,77.0000023498536,10|0,0:0|0:0,0:0:0:0:
322,90,96303,6,0,P|377:89|487:69,2,154.000004699707,2|10|0,0:0|0:0|0:0,0:0:0:0:
251,136,97223,1,2,2:3:0:0:
251,136,97315,1,2,0:3:0:0:
251,136,97407,1,8,0:0:0:0:
249,220,97591,5,2,0:0:0:0:
250,304,97775,2,0,P|258:353|257:392,2,77.0000023498536,6|0|10,0:0|0:0|0:0,0:0:0:0:
326,265,98328,1,2,0:3:0:0:
397,310,98512,2,0,P|436:300|474:267,1,77.0000023498536,0|0,0:0|0:0,0:0:0:0:
478,194,98880,2,0,P|441:164|394:151,1,77.0000023498536,10|0,0:0|0:0,0:0:0:0:
336,189,99248,6,0,P|287:192|162:179,1,154.000004699707,2|10,0:0|0:0,0:0:0:0:
114,132,99800,1,0,0:0:0:0:
192,101,99984,2,0,P|268:109|345:106,1,154.000004699707,2|10,0:3|0:0,0:0:0:0:
413,153,100536,1,0,0:2:0:0:
491,122,100720,6,0,P|499:74|497:37,2,77.0000023498536,6|0|8,0:0|0:0|0:0,0:0:0:0:
480,205,101272,1,2,0:3:0:0:
403,240,101456,2,0,P|400:308|495:368,1,154.000004699707,0|10,0:0|0:0,0:0:0:0:
501,290,102009,1,0,0:0:0:0:
480,205,102193,6,0,P|472:146|476:99,1,77.0000023498536,6|2,0:0|0:3,0:0:0:0:
392,100,102561,2,0,P|335:102|226:141,1,154.000004699707,8|2,0:0|0:3,0:0:0:0:
195,201,103113,1,0,2:0:0:0:
111,186,103297,1,10,0:0:0:0:
100,101,103481,1,4,0:3:0:0:
181,65,103665,5,4,1:0:0:0:
224,1,103849,1,2,3:0:0:0:
224,1,103941,1,0,1:0:0:0:
224,1,104033,2,0,P|271:2|303:6,1,70,4|0,1:3|1:0,0:0:0:0:
350,56,104401,2,0,P|397:55|429:51,1,70,4|2,1:3|0:3,0:0:0:0:
488,18,104769,6,0,P|500:69|495:162,1,140,4|4,1:3|1:3,0:0:0:0:
444,212,105321,1,2,3:0:0:0:
484,277,105505,2,0,P|491:322|497:349,1,70,4|4,1:3|0:3,0:0:0:0:
422,366,105873,5,4,1:3:0:0:
363,315,106057,1,2,3:0:0:0:
363,315,106149,1,0,1:0:0:0:
363,315,106241,2,0,P|312:313|279:307,1,70,4|0,1:3|1:0,0:0:0:0:
236,257,106609,2,0,P|199:263|160:276,1,70,4|2,1:3|1:3,0:0:0:0:
109,322,106977,6,0,P|68:312|45:222,1,140,4|4,1:3|1:3,0:0:0:0:
97,172,107530,1,2,1:3:0:0:
97,172,107622,1,0,1:0:0:0:
97,172,107714,1,4,1:3:0:0:
172,188,107898,1,4,1:3:0:0:
241,155,108082,6,0,P|240:113|250:12,1,140,4|4,1:3|1:3,0:0:0:0:
326,8,108634,1,0,0:0:0:0:
377,65,108818,2,0,P|439:61|467:52,1,70,4|2,1:3|0:3,0:0:0:0:
503,110,109186,6,0,P|492:154|491:260,1,140,4|4,1:3|1:3,0:0:0:0:
430,297,109738,1,0,0:0:0:0:
361,262,109922,2,0,P|312:264|267:255,1,70,4|4,1:3|1:3,0:0:0:0:
235,314,110290,5,4,1:3:0:0:
161,290,110474,1,2,1:3:0:0:
161,290,110566,1,0,1:0:0:0:
161,290,110658,2,0,P|165:222|161:118,1,140,4|4,1:3|1:3,0:0:0:0:
112,92,111211,1,2,3:0:0:0:
176,49,111395,6,0,P|219:50|267:60,2,70,4|2|4,1:3|0:3|1:3,0:0:0:0:
112,92,111947,1,2,1:3:0:0:
112,92,112039,1,0,1:0:0:0:
112,92,112131,2,0,P|57:87|25:80,1,70,4|4,1:3|1:3,0:0:0:0:
3,150,112499,6,0,P|8:198|8:307,1,140,4|4,1:0|1:2,0:0:0:0:
76,327,113051,1,0,0:0:0:0:
141,286,113235,2,0,P|186:281|227:278,1,70,4|4,1:3|1:3,0:0:0:0:
269,328,113603,6,0,P|318:322|361:237,1,140,4|4,1:3|1:3,0:0:0:0:
339,175,114155,2,0,P|352:123|431:73,1,140,4|4,1:2|3:0,0:0:0:0:
487,111,114707,1,4,1:0:0:0:
469,190,114891,5,2,3:0:0:0:
469,190,114984,1,0,1:0:0:0:
469,190,115076,2,0,P|462:242|460:279,1,70,4|2,1:2|1:3,0:0:0:0:
453,336,115444,2,0,P|401:329|364:327,1,70,4|4,1:3|1:3,0:0:0:0:
319,290,115812,2,0,P|279:304|235:323,2,70,4|2|4,1:3|1:3|1:3,0:0:0:0:
350,219,116364,5,2,1:3:0:0:
350,219,116456,1,0,1:0:0:0:
350,219,116548,2,0,P|343:173|344:58,1,140,4|4,1:3|1:0,0:0:0:0:
278,36,117100,1,0,1:0:0:0:
223,90,117284,2,0,P|177:97|62:96,1,140,4|4,1:2|1:3,0:0:0:0:
11,71,117836,1,4,1:3:0:0:
2,147,118020,2,0,P|8:200|8:240,1,70,4|2,1:3|1:3,0:0:0:0:
60,273,118388,1,4,1:3:0:0:
122,228,118572,5,2,1:3:0:0:
122,228,118664,1,0,1:0:0:0:
122,228,118757,2,0,P|169:232|201:322,1,140,4|4,1:3|1:0,0:0:0:0:
273,343,119309,1,0,1:0:0:0:
346,320,119493,2,0,P|341:276|350:165,1,140,4|4,1:2|1:3,0:0:0:0:
410,138,120045,1,4,1:3:0:0:
471,183,120229,1,4,1:3:0:0:
49,90,131270,5,0,1:0:0:0:
49,90,131638,2,0,P|84:92|127:96,1,70,2|4,0:0|0:0,0:0:0:0:
174,159,132742,5,0,1:0:0:0:
174,159,133110,2,0,P|172:194|168:237,1,70,2|4,0:0|0:0,0:0:0:0:
105,284,134214,5,0,1:0:0:0:
105,284,134582,2,0,P|70:282|27:278,1,70,2|4,0:0|0:0,0:0:0:0:
7,191,135687,5,0,1:0:0:0:
7,191,136055,2,0,P|52:185|96:187,1,78.7500030040742,2|0,0:0|0:0,0:0:0:0:
102,201,136423,2,0,P|149:203|183:203,1,78.7500030040742,4|0,0:0|0:0,0:0:0:0:
198,189,136791,2,0,P|195:154|190:125,1,52.5000020027161,2|2,0:0|0:0,0:0:0:0:
163,106,137159,5,0,1:0:0:0:
266,87,137527,2,0,P|318:103|348:116,1,78.7500030040742,2|2,0:0|0:0,0:0:0:0:
351,130,137895,1,4,0:0:0:0:
312,234,138263,1,2,0:0:0:0:
305,275,138447,1,0,0:0:0:0:
272,301,138631,6,0,P|224:299|157:301,1,105.000004005432,0|2,1:0|0:0,0:0:0:0:
45,332,139368,2,0,P|46:291|41:244,1,78.7500030040742,4|0,0:0|3:0,0:0:0:0:
42,253,139736,1,2,0:0:0:0:
25,208,139920,1,0,3:0:0:0:
47,166,140104,6,0,P|56:121|57:51,1,105.000004005432,0|2,1:0|0:0,0:0:0:0:
180,8,140840,2,0,P|231:14|273:23,1,78.7500030040742,4|0,0:0|0:0,0:0:0:0:
257,19,141208,1,2,0:0:0:0:
291,52,141392,1,0,3:0:0:0:
337,45,141576,1,4,3:0:0:0:
501,189,141944,5,2,0:0:0:0:
430,160,142128,1,0,0:0:0:0:
430,160,142220,1,0,3:0:0:0:
430,160,142312,1,2,0:0:0:0:
361,191,142496,1,0,0:0:0:0:
285,183,142681,2,0,P|230:178|180:180,1,83.9999974365235,0|0,1:0|2:0,0:0:0:0:
120,152,143051,6,0,P|90:213|94:324,1,167.999994873047,6|8,0:0|0:0,0:0:0:0:
163,351,143603,2,0,P|234:333|343:333,1,167.999994873047,2|2,0:0|0:2,0:0:0:0:
409,353,144155,2,0,P|437:312|446:263,1,83.9999974365235,10|0,0:0|2:0,0:0:0:0:
384,221,144523,1,2,0:0:0:0:
368,138,144707,1,2,0:0:0:0:
449,158,144891,2,0,P|446:98|338:42,1,167.999994873047,10|0,0:0|0:0,0:0:0:0:
279,38,145443,1,2,0:2:0:0:
221,99,145627,6,0,P|178:93|126:68,1,83.9999974365235,10|0,0:0|0:0,0:0:0:0:
63,43,145995,2,0,P|22:99|16:126,1,83.9999974365235,6|2,0:0|0:0,0:0:0:0:
59,185,146363,2,0,P|89:259|94:360,2,167.999994873047,10|0|10,0:0|0:0|0:0,0:0:0:0:
118,124,147284,1,2,0:0:0:0:
177,183,147468,2,0,P|258:185|363:184,1,167.999994873047,2|8,0:0|0:0,0:0:0:0:
404,124,148020,1,0,0:0:0:0:
404,124,148112,1,0,0:0:0:0:
404,124,148204,2,0,P|448:125|500:121,1,83.9999974365235,0|2,0:0|0:2,0:0:0:0:
318,107,148572,6,0,P|274:108|222:104,1,83.9999974365235,10|0,0:0|0:0,0:0:0:0:
167,54,148940,2,0,P|110:63|50:157,1,167.999994873047,6|8,0:0|0:0,0:0:0:0:
8,221,149492,1,2,0:0:0:0:
8,221,149584,1,0,0:0:0:0:
8,221,149676,2,0,P|10:283|15:328,1,83.9999974365235,0|2,0:0|0:2,0:0:0:0:
82,351,150044,2,0,P|123:342|170:327,1,83.9999974365235,10|0,0:0|2:0,0:0:0:0:
209,259,150412,6,0,P|243:260|297:275,1,83.9999974365235,2|2,0:0|0:0,0:0:0:0:
354,328,150781,2,0,P|408:324|444:206,1,167.999994873047,10|0,0:0|0:0,0:0:0:0:
384,184,151333,1,2,0:2:0:0:
411,104,151517,2,0,P|462:104|511:98,1,83.9999974365235,10|0,0:0|0:0,0:0:0:0:
334,112,151885,6,0,P|290:126|262:234,1,167.999994873047,6|8,0:0|0:0,0:0:0:0:
181,257,152437,1,0,0:0:0:0:
181,257,152529,1,0,0:0:0:0:
181,257,152621,2,0,P|174:200|172:158,1,83.9999974365235,0|2,0:0|0:2,0:0:0:0:
163,89,152989,1,8,0:0:0:0:
94,137,153173,1,0,0:0:0:0:
86,53,153357,6,0,P|146:46|282:60,1,167.999994873047,2|8,0:0|0:0,0:0:0:0:
313,111,153909,2,0,P|377:109|504:91,1,167.999994873047,2|2,0:0|0:2,0:0:0:0:
500,177,154462,2,0,P|491:227|486:268,1,83.9999974365235,10|8,0:0|0:0,0:0:0:0:
434,325,154830,5,6,0:0:0:0:
357,290,155014,1,2,0:0:0:0:
295,347,155198,2,0,P|242:336|213:217,1,167.999994873047,10|0,0:0|0:0,0:0:0:0:
264,181,155750,1,2,0:0:0:0:
264,181,155934,2,0,P|314:187|356:188,1,83.9999974365235,10|2,0:0|0:0,0:0:0:0:
209,117,156302,6,0,P|158:125|98:237,1,167.999994873047,2|10,0:0|0:0,0:0:0:0:
17,243,156854,1,0,0:0:0:0:
17,243,156946,1,0,0:0:0:0:
17,243,157038,2,0,P|21:296|17:374,1,125.999996154785,0|0,0:0|0:0,0:0:0:0:
17,368,157406,2,0,P|73:364|135:352,1,83.9999974365235,8|2,0:0|0:0,0:0:0:0:
172,315,157774,5,6,0:0:0:0:
244,356,157958,1,2,0:0:0:0:
327,344,158143,2,0,P|396:326|408:226,1,167.999994873047,10|0,0:0|0:0,0:0:0:0:
473,179,158695,1,2,0:0:0:0:
392,156,158879,2,0,P|333:154|297:155,1,83.9999974365235,10|0,0:0|0:0,0:0:0:0:
230,187,159247,6,0,P|233:107|230:9,2,167.999994873047,6|10|0,0:0|0:0|0:0,0:0:0:0:
150,213,160167,1,0,0:0:0:0:
150,213,160259,1,0,0:0:0:0:
150,213,160351,2,0,P|145:271|148:314,1,83.9999974365235,10|2,0:0|0:0,0:0:0:0:
218,339,160719,6,0,P|267:341|309:223,1,167.999994873047,6|8,0:0|0:0,0:0:0:0:
388,198,161271,1,0,0:0:0:0:
460,240,161455,2,0,P|458:305|460:343,1,83.9999974365235,0|0,0:0|0:0,0:0:0:0:
457,159,161824,2,0,P|457:117|455:75,1,83.9999974365235,10|2,0:0|0:0,0:0:0:0:
385,28,162192,6,0,P|336:28|276:140,1,167.999994873047,6|8,0:0|0:0,0:0:0:0:
208,171,162744,1,2,0:2:0:0:
208,171,162836,1,0,0:0:0:0:
208,171,162928,2,0,P|161:167|117:173,1,83.9999974365235,2|0,0:2|0:0,0:0:0:0:
83,244,163296,2,0,P|130:248|174:242,1,83.9999974365235,8|0,0:0|0:0,0:0:0:0:
231,297,163664,5,4,0:0:0:0:
303,255,163848,2,0,P|298:228|298:198,2,41.9999987182618,4|4|8,0:3|0:3|0:0,0:0:0:0:
370,305,164216,2,0,P|368:325|364:346,2,41.9999987182618,4|4|4,0:3|0:3|0:0,0:0:0:0:
439,257,164584,2,0,P|444:230|444:200,2,41.9999987182618,4|4|8,0:3|0:3|0:0,0:0:0:0:
490,336,164952,1,8,0:0:0:0:
490,336,165044,1,8,0:0:0:0:
490,336,165136,1,4,0:0:0:0:
509,193,171026,5,4,1:0:0:0:
256,192,172498,12,2,175443,0:0:0:0:
263,102,176547,6,0,L|255:200,1,83.9999974365235,4|0,0:0|0:1,1:0:0:0:
218,261,176916,6,0,P|165:258|126:153,1,167.999994873047,4|8,0:0|0:2,0:0:0:0:
170,95,177468,1,2,0:2:0:0:
119,28,177652,2,0,P|61:39|23:63,1,83.9999974365235,4|2,0:3|0:2,0:0:0:0:
1,125,178020,1,8,0:2:0:0:
16,207,178204,1,2,0:2:0:0:
36,288,178388,6,0,P|31:322|11:372,2,83.9999974365235,4|2|8,0:0|0:2|0:2,0:0:0:0:
115,259,178940,2,0,P|180:276|208:374,1,167.999994873047,4|2,0:2|0:2,0:0:0:0:
294,357,179492,2,0,P|348:354|392:359,1,83.9999974365235,8|2,0:2|0:2,0:0:0:0:
434,295,179860,2,0,P|437:230|440:192,2,83.9999974365235,4|2|8,0:0|0:2|0:2,0:0:0:0:
351,281,180412,6,0,P|306:270|275:141,1,167.999994873047,2|2,0:2|0:2,0:0:0:0:
345,146,180965,2,0,P|337:107|342:52,1,83.9999974365235,8|2,0:2|0:2,0:0:0:0:
279,4,181333,1,4,0:0:0:0:
196,17,181517,1,2,0:2:0:0:
113,30,181701,2,0,P|120:89|121:231,2,167.999994873047,8|4|8,0:2|0:3|0:2,0:0:0:0:
29,19,182621,5,2,0:2:0:0:
21,102,182805,2,0,P|30:171|23:276,1,167.999994873047,4|8,0:0|0:2,0:0:0:0:
80,331,183357,2,0,P|138:328|198:220,1,167.999994873047,4|2,0:2|0:2,0:0:0:0:
255,182,183909,2,0,P|309:197|350:210,1,83.9999974365235,8|2,0:2|0:2,0:0:0:0:
412,238,184277,6,0,P|464:217|461:90,2,167.999994873047,4|8|4,0:0|0:2|0:3,0:0:0:0:
346,290,185198,1,0,0:0:0:0:
270,253,185382,2,0,P|224:251|181:231,1,83.9999974365235,8|8,0:2|0:2,0:0:0:0:
130,176,185750,6,0,P|180:152|301:170,1,167.999994873047,4|8,0:0|0:2,0:0:0:0:
373,166,186302,1,2,0:2:0:0:
373,166,186394,1,0,0:0:0:0:
373,166,186486,2,0,P|365:107|366:66,1,83.9999974365235,4|0,0:3|0:0,0:0:0:0:
288,47,186854,2,0,P|234:45|183:31,1,83.9999974365235,8|8,0:2|0:2,0:0:0:0:
126,7,187222,5,4,0:0:0:0:
60,59,187406,2,0,P|23:62|6:66,2,41.9999987182618,2|2|8,0:0|0:0|0:0,0:0:0:0:
104,130,187774,2,0,P|141:133|158:137,2,41.9999987182618,0|0|4,0:0|0:0|0:0,0:0:0:0:
54,198,188143,2,0,P|17:201|0:205,2,41.9999987182618,4|0|4,0:0|0:0|1:2,0:0:0:0:
103,265,188511,1,2,0:0:0:0:
153,331,188695,6,0,P|219:331|260:223,1,167.999994873047,6|8,0:0|0:0,0:0:0:0:
228,175,189247,1,0,2:0:0:0:
311,182,189431,5,2,0:0:0:0:
376,234,189615,1,2,0:3:0:0:
388,150,189799,1,2,0:0:0:0:
452,203,189983,1,2,0:0:0:0:
388,150,190167,2,0,P|383:105|261:57,1,167.999994873047,10|4,0:0|0:3,0:0:0:0:
218,101,190719,1,2,0:0:0:0:
143,62,190903,6,0,P|89:70|42:171,1,167.999994873047,6|8,0:0|0:0,0:0:0:0:
98,224,191455,2,0,P|173:269|173:362,1,167.999994873047,2|2,0:0|0:0,0:0:0:0:
263,362,192007,2,0,P|318:355|365:349,1,83.9999974365235,2|2,0:0|0:3,0:0:0:0:
393,281,192375,2,0,P|338:274|291:268,1,83.9999974365235,8|2,0:0|2:0,0:0:0:0:
254,206,192744,1,2,0:0:0:0:
337,197,192928,5,2,0:3:0:0:
337,197,193020,1,0,0:0:0:0:
337,197,193112,2,0,P|331:118|331:22,1,167.999994873047,6|8,0:0|0:0,0:0:0:0:
409,0,193664,1,0,2:0:0:0:
462,64,193848,2,0,P|463:131|458:163,1,83.9999974365235,2|2,0:0|0:0,0:0:0:0:
438,228,194216,2,0,P|437:295|442:327,1,83.9999974365235,2|2,0:0|0:0,0:0:0:0:
378,370,194584,1,10,0:0:0:0:
305,328,194768,2,0,P|240:327|181:228,1,167.999994873047,2|2,0:3|0:3,0:0:0:0:
97,252,195320,6,0,P|101:192|84:70,1,167.999994873047,6|8,0:0|0:0,0:0:0:0:
158,39,195872,1,2,2:0:0:0:
158,39,195964,1,0,0:0:0:0:
158,39,196056,1,4,0:3:0:0:
222,93,196241,1,2,2:2:0:0:
296,53,196425,6,0,P|339:54|396:55,1,83.9999974365235,2|0,0:0|0:0,0:0:0:0:
461,36,196793,2,0,P|468:96|361:149,1,167.999994873047,10|4,0:0|0:3,0:0:0:0:
304,153,197345,1,2,0:2:0:0:
320,235,197529,2,0,P|331:298|334:337,2,83.9999974365235,6|2|10,0:0|0:0|0:0,0:0:0:0:
240,207,198081,1,2,0:3:0:0:
156,197,198265,1,2,0:0:0:0:
188,274,198449,1,2,0:2:0:0:
104,262,198633,6,0,P|72:219|69:163,1,83.9999974365235,2|2,0:0|0:0,0:0:0:0:
10,127,199001,2,0,P|48:72|162:65,1,167.999994873047,10|4,0:0|0:3,0:0:0:0:
191,125,199553,1,2,0:0:0:0:
259,76,199737,5,6,0:0:0:0:
272,158,199921,1,2,0:2:0:0:
340,108,200106,1,10,0:0:0:0:
348,191,200290,1,2,0:3:0:0:
340,108,200474,2,0,P|384:105|430:99,1,83.9999974365235,2|2,0:0|0:2,0:0:0:0:
499,64,200842,2,0,P|511:114|511:166,1,83.9999974365235,2|2,0:0|0:0,0:0:0:0:
466,216,201210,2,0,P|451:271|465:383,1,167.999994873047,10|4,0:0|0:3,0:0:0:0:
380,372,201762,5,2,0:0:0:0:
296,372,201946,2,0,P|295:321|291:279,1,83.9999974365235,6|2,0:0|0:0,0:0:0:0:
239,222,202314,2,0,P|189:229|149:358,2,167.999994873047,10|4|4,0:0|0:3|0:3,0:0:0:0:
322,216,203234,1,4,0:3:0:0:
272,147,203418,2,0,P|267:90|264:41,1,83.9999974365235,4|4,0:3|0:3,0:0:0:0:
272,71,204155,5,2,0:0:0:0:
272,71,204523,2,0,P|216:72|174:80,1,83.9999974365235,6|2,0:0|0:2,0:0:0:0:
116,33,204891,2,0,P|45:48|10:138,1,167.999994873047,10|0,0:0|0:0,0:0:0:0:
54,200,205443,1,2,0:3:0:0:
109,263,205627,2,0,P|106:327|99:360,2,83.9999974365235,0|4|4,0:0|0:3|0:3,0:0:0:0:
174,210,206179,1,4,0:3:0:0:
174,210,207099,5,2,0:0:0:0:
174,210,207467,2,0,P|220:211|278:217,1,83.9999974365235,6|2,0:0|0:2,0:0:0:0:
313,277,207835,2,0,P|371:265|416:160,1,167.999994873047,10|4,0:0|0:3,0:0:0:0:
359,115,208387,1,0,0:0:0:0:
441,101,208571,2,0,P|441:55|436:12,1,83.9999974365235,0|2,0:0|0:2,0:0:0:0:
353,26,208939,2,0,P|298:31|252:144,1,167.999994873047,10|4,0:0|0:3,0:0:0:0:
171,159,209491,1,8,0:3:0:0:
87,156,209675,6,0,P|94:92|91:34,1,83.9999974365235,4|2,0:0|0:2,0:0:0:0:
5,156,210043,2,0,P|11:220|120:263,1,167.999994873047,10|4,0:0|0:3,0:0:0:0:
162,218,210595,1,0,0:0:0:0:
162,218,210687,1,0,0:0:0:0:
162,218,210779,2,0,P|170:281|167:387,1,167.999994873047,4|10,0:0|0:0,0:0:0:0:
249,366,211332,1,2,0:2:0:0:
252,282,211516,1,4,0:0:0:0:
246,198,211700,1,8,0:3:0:0:
249,114,211884,1,4,1:3:0:0:
254,31,212068,5,0,1:0:0:0:
254,31,212160,1,2,1:3:0:0:
254,31,212252,2,0,P|301:37|344:125,1,140,4|4,1:2|1:3,0:0:0:0:
403,162,212804,1,2,1:3:0:0:
478,148,212988,2,0,P|481:197|493:245,1,70,4|0,1:3|0:0,0:0:0:0:
451,286,213356,2,0,P|406:281|306:286,1,140,4|4,1:2|1:3,0:0:0:0:
247,328,213908,1,2,1:2:0:0:
170,327,214092,6,0,P|171:283|166:239,1,70,4|0,1:3|0:0,0:0:0:0:
97,229,214460,2,0,P|96:183|192:122,1,140,4|4,1:2|1:3,0:0:0:0:
230,156,215013,1,2,1:1:0:0:
292,111,215197,2,0,P|290:53|285:20,1,70,4|0,1:3|0:0,0:0:0:0:
218,10,215565,2,0,P|152:10|70:47,1,140,4|4,1:2|1:3,0:0:0:0:
21,82,216117,5,2,1:2:0:0:
21,82,216209,1,2,1:3:0:0:
21,82,216301,2,0,P|26:160|22:229,1,140,4|4,1:3|1:2,0:0:0:0:
62,287,216853,1,0,0:0:0:0:
125,243,217037,2,0,P|170:250|202:250,1,70,4|2,1:3|1:3,0:0:0:0:
249,303,217405,6,0,P|294:284|343:194,1,140,4|4,1:3|1:3,0:0:0:0:
400,160,217957,1,2,1:3:0:0:
409,83,218141,2,0,P|374:78|341:67,1,70,0|2,1:0|0:0,0:0:0:0:
270,35,218509,6,0,P|272:111|269:198,1,140,2|4,1:0|1:2,0:0:0:0:
194,190,219062,1,0,0:0:0:0:
194,190,219154,1,0,0:0:0:0:
194,190,219246,2,0,P|140:185|110:183,1,70,4|2,1:3|1:3,0:0:0:0:
63,136,219614,6,0,P|30:181|26:277,2,140,4|2|4,1:3|1:3|1:3,0:0:0:0:
50,59,220534,1,4,1:3:0:0:
126,57,220718,2,0,P|201:58|286:71,1,140,4|4,1:3|1:2,0:0:0:0:
331,125,221270,1,2,1:3:0:0:
331,125,221362,1,0,1:0:0:0:
331,125,221454,2,0,P|368:115|403:100,1,70,4|2,1:3|0:2,0:0:0:0:
444,43,221822,6,0,P|485:73|491:173,1,140,4|4,1:3|1:3,0:0:0:0:
432,196,222374,1,4,1:2:0:0:
398,265,222559,2,0,P|359:260|286:337,1,140,2|4,1:3|1:3,0:0:0:0:
211,312,223111,5,0,0:0:0:0:
211,312,223203,1,2,1:3:0:0:
211,312,223295,2,0,P|151:310|129:303,1,70,4|2,1:2|1:3,0:0:0:0:
72,340,223663,2,0,P|58:300|73:192,1,140,4|4,1:3|1:3,0:0:0:0:
136,171,224215,1,2,1:3:0:0:
200,129,224399,2,0,P|194:71|196:28,1,70,2|4,1:2|1:2,0:0:0:0:
250,6,224767,2,0,P|287:9|332:13,1,70,4|4,1:3|1:3,0:0:0:0:
360,77,225135,6,0,P|343:148|261:155,1,140,4|4,1:0|1:2,0:0:0:0:
222,209,225687,1,2,1:3:0:0:
222,209,225779,1,0,1:0:0:0:
222,209,225871,2,0,P|226:260|237:299,1,70,4|2,1:3|1:2,0:0:0:0:
299,312,226240,1,4,1:3:0:0:
360,265,226424,2,0,P|397:272|422:282,2,35,2|0|4,1:3|1:0|1:3,0:0:0:0:
331,193,226792,2,0,P|313:195|296:199,2,35,4|0|2,1:2|1:3|1:3,0:0:0:0:
394,149,227160,1,2,1:2:0:0:
469,161,227344,6,0,P|477:222|474:305,1,140,4|4,1:3|1:2,0:0:0:0:
414,348,227896,1,2,1:3:0:0:
414,348,227988,1,0,1:0:0:0:
414,348,228080,2,0,P|366:341|259:345,1,140,4|4,1:3|1:3,0:0:0:0:
274,342,229552,6,0,P|277:287|276:242,1,70,0|2,1:0|0:3,0:0:0:0:
225,214,229920,1,4,0:0:0:0:
147,214,230105,2,0,P|153:253|153:270,2,35,0|2|0,0:0|0:3|1:0,0:0:0:0:
70,208,230473,1,0,1:0:0:0:
11,157,230657,2,0,P|24:94|35:66,1,70,4|2,1:3|0:3,0:0:0:0:
94,53,231025,1,2,1:2:0:0:
155,99,231209,2,0,P|157:122|154:142,2,35,4|0|4,0:0|0:0|0:3,0:0:0:0:
214,50,231577,1,4,0:3:0:0:
279,91,231761,6,0,P|333:95|420:77,1,140,0|4,1:0|0:0,0:0:0:0:
493,74,232313,2,0,P|493:35|496:21,2,35,0|0|0,0:0|0:0|1:0,0:0:0:0:
460,143,232681,1,0,0:0:0:0:
506,204,232865,2,0,P|501:247|496:352,1,140,4|2,1:3|3:2,0:0:0:0:
420,358,233417,2,0,P|397:360|376:365,2,35,4|0|0,0:0|0:0|0:0,0:0:0:0:
414,280,233786,1,4,0:3:0:0:
340,301,233970,6,0,P|295:298|257:195,1,140,0|4,1:0|0:0,0:0:0:0:
291,158,234522,2,0,P|296:118|297:80,2,70,0|0|0,0:0|1:0|1:0,0:0:0:0:
214,153,235074,1,4,1:3:0:0:
154,104,235258,2,0,P|126:107|106:108,2,35,2|0|0,1:3|0:0|0:0,0:0:0:0:
44,80,235626,1,4,0:0:0:0:
44,80,235810,2,0,P|48:138|47:234,1,140,4|2,1:3|0:3,0:0:0:0:
98,277,236362,5,2,0:0:0:0:
114,352,236546,2,0,P|152:344|179:247,1,140,4|0,0:0|1:0,0:0:0:0:
252,221,237098,1,0,1:0:0:0:
300,280,237282,2,0,P|336:280|375:283,1,70,2|0,0:3|0:0,0:0:0:0:
438,246,237651,1,2,1:2:0:0:
438,246,237835,1,4,0:3:0:0:
438,246,238019,2,0,P|437:208|441:171,1,70,4|4,0:0|0:3,0:0:0:0:
