osu file format v14

[General]
AudioFilename: audio.mp3
AudioLeadIn: 0
PreviewTime: 47633
Countdown: 0
SampleSet: Normal
StackLeniency: 0.4
Mode: 0
LetterboxInBreaks: 0
WidescreenStoryboard: 0

[Editor]
Bookmarks: 131280
DistanceSpacing: 1.1
BeatDivisor: 4
GridSize: 4
TimelineZoom: 1.9

[Metadata]
Title:Crocus
TitleUnicode:Crocus
Artist:Cranky
ArtistUnicode:Cranky
Creator:PandaHero
Version:Collab Insane
Source:
Tags:Niva Nivalis Mirash mappers' guild featured artist osu! record4 mood hiroshi watanabe feline groove
BeatmapID:1772895
BeatmapSetID:847764

[Difficulty]
HPDrainRate:6
CircleSize:4
OverallDifficulty:8
ApproachRate:9
SliderMultiplier:1.8
SliderTickRate:1

[Events]
//Background and Video events
0,0,"bg.jpg",0,0
//Break Periods
2,18468,19877
2,39081,43066
2,121333,130670
2,165336,170058
//Storyboard Layer 0 (Background)
//Storyboard Layer 1 (Fail)
//Storyboard Layer 2 (Pass)
//Storyboard Layer 3 (Foreground)
//Storyboard Sound Samples

[TimingPoints]
1704,368.098159509202,3,2,1,45,1,0
1704,-90.9090909090909,3,2,1,45,0,0
20477,-125,3,2,1,50,0,0
35384,-166.666666666667,3,2,1,45,0,0
36305,368.098159509202,3,2,1,50,1,0
36305,-125,3,2,1,50,0,0
37961,-200,3,2,1,50,0,0
38881,368.098159509202,3,2,2,45,1,0
46611,-125,3,3,0,55,0,0
47715,-100,3,1,2,55,0,0
50107,-100,3,1,1,55,0,0
50292,-100,3,1,2,55,0,0
51948,-100,3,1,1,55,0,0
52132,-100,3,1,2,55,0,0
64279,-100,3,2,1,55,0,0
64310,-100,3,2,1,20,0,0
64647,-100,3,2,1,40,0,0
64678,-100,3,2,1,25,0,0
65015,-100,3,2,2,40,0,0
65384,-125,3,2,2,55,0,0
81948,-125,3,3,0,55,0,0
82684,-125,3,2,2,55,0,0
83052,368.098159509202,4,1,2,60,1,0
83052,-90.9090909090909,4,1,2,60,0,0
103665,368.098159509202,3,1,1,60,1,0
103757,-100,3,2,1,45,0,0
112499,-100,3,2,1,60,0,0
121333,-100,3,1,1,60,0,0
123542,368.098159509202,4,1,1,60,1,0
126486,368.098159509202,3,1,1,60,1,0
128694,368.098159509202,7,1,1,60,1,0
131270,368.098159509202,4,2,1,40,1,0
131270,-142.857142857143,4,2,1,40,0,0
137159,-142.857142857143,4,2,1,45,0,0
140104,-142.857142857143,4,2,1,50,0,0
141944,-111.111111111111,4,3,0,35,0,0
142681,-166.666666666667,4,3,0,60,0,0
143051,368.098159509202,4,1,2,60,1,1
143051,-86.9565217391304,4,1,2,60,0,1
164032,-95.2380952380952,4,1,2,60,0,1
164400,-105.263157894737,4,1,2,60,0,1
164768,-117.647058823529,4,1,2,60,0,1
165136,-100,4,1,1,60,0,0
170658,-100,4,2,1,40,0,0
170842,-100,4,2,1,30,0,0
170903,-100,4,2,1,35,0,0
170965,-100,4,2,1,40,0,0
171026,-100,4,2,1,50,0,0
171118,-100,4,2,1,30,0,0
172498,-100,4,2,1,40,0,0
173235,-100,4,2,1,45,0,0
174339,-166.666666666667,4,3,0,50,0,0
174707,-142.857142857143,4,3,0,60,0,0
175075,-125,4,3,0,70,0,0
175443,-111.111111111111,4,2,0,60,0,0
175812,-111.111111111111,4,2,0,70,0,0
176180,-111.111111111111,4,2,0,70,0,0
176547,-166.666666666667,4,2,0,60,0,0
176548,-100,4,3,0,70,0,0
176916,-100,4,1,2,60,0,0
187222,-100,4,3,0,60,0,0
188327,-125,4,2,1,60,0,0
188695,368.098159509202,3,1,2,70,1,1
188695,-86.9565217391304,3,1,2,70,0,1
203602,-133.333333333333,3,1,1,60,0,0
204155,-166.666666666667,3,1,1,60,0,0
204523,368.098159509202,3,1,2,70,1,1
204523,-86.9565217391304,3,1,2,70,0,1
206179,-133.333333333333,3,1,1,70,0,0
206731,-166.666666666667,3,2,0,100,0,0
207467,368.098159509202,3,1,2,80,1,1
207467,-86.9565217391304,3,1,2,80,0,1
211147,-95.2380952380952,3,1,2,60,0,1
211884,-100,3,1,1,60,0,0
211976,-100,3,2,1,50,0,0
215197,-111.111111111111,3,2,2,50,0,0
218509,-83.3333333333333,3,2,2,50,0,0
218878,-95.2380952380952,3,2,2,50,0,0
219246,-111.111111111111,3,2,2,50,0,0
229552,-142.857142857143,3,2,1,30,0,0
238387,-142.857142857143,3,2,1,23,0,0

[Colours]
Combo1 : 130,103,222
Combo2 : 159,220,105
Combo3 : 113,213,160
Combo4 : 215,111,197

[HitObjects]
40,255,1704,6,0,P|88:224|141:206,1,100,4|2,1:0|3:0,0:0:0:0:
240,258,2072,2,0,P|327:259|403:169,1,198.000006042481,4|4,1:3|1:3,0:0:0:0:
348,96,2624,1,2,0:3:0:0:
251,120,2808,1,4,1:3:0:0:
189,39,2992,1,0,1:0:0:0:
189,39,3084,1,0,1:0:0:0:
189,39,3176,2,0,L|81:62,1,100,4|2,1:3|3:0,0:0:0:0:
6,82,3544,2,0,L|31:182,1,100,4|4,1:3|0:3,0:0:0:0:
123,275,3912,6,0,L|112:381,1,100,4|2,1:3|3:0,0:0:0:0:
235,376,4280,2,0,P|240:311|284:234,1,148.50000453186,4|0,1:3|1:0,0:0:0:0:
307,243,4648,1,4,1:3:0:0:
405,288,4832,1,2,1:3:0:0:
475,223,5016,1,4,1:3:0:0:
428,137,5200,1,0,1:0:0:0:
428,137,5292,1,0,1:0:0:0:
428,137,5384,2,0,P|394:84|362:51,1,100,4|0,1:3|0:0,0:0:0:0:
348,71,5661,1,0,1:0:0:0:
326,83,5753,2,0,P|280:76|221:83,1,100,4|4,1:3|1:3,0:0:0:0:
112,179,6121,6,0,P|79:147|21:103,1,100,4|2,1:3|3:0,0:0:0:0:
13,229,6489,2,0,L|18:391,1,148.50000453186,4|0,1:3|1:0,0:0:0:0:
40,378,6857,1,4,1:3:0:0:
134,339,7041,1,2,0:3:0:0:
122,239,7225,1,4,1:3:0:0:
245,200,7409,1,0,1:0:0:0:
245,200,7501,1,0,1:0:0:0:
245,200,7593,2,0,L|226:321,1,100,4|2,1:3|3:0,0:0:0:0:
169,136,7961,2,0,L|176:31,1,100,4|4,1:3|1:3,0:0:0:0:
323,29,8329,5,4,1:3:0:0:
369,118,8513,1,2,3:0:0:0:
303,183,8697,2,0,P|274:245|282:331,1,148.50000453186,4|0,1:3|0:0,0:0:0:0:
301,334,9065,1,4,1:3:0:0:
399,356,9250,1,2,3:0:0:0:
484,264,9434,1,4,1:3:0:0:
484,239,9526,1,0,3:0:0:0:
486,214,9618,1,0,3:0:0:0:
487,189,9710,1,0,3:0:0:0:
486,164,9802,2,0,L|466:48,1,100,4|2,1:3|0:3,0:0:0:0:
361,142,10170,1,4,1:3:0:0:
344,18,10354,1,2,1:3:0:0:
210,88,10538,6,0,P|224:165|215:262,1,148.50000453186,4|0,1:0|0:0,0:0:0:0:
204,253,10906,1,4,1:2:0:0:
76,237,11090,1,0,0:0:0:0:
76,237,11182,1,0,0:0:0:0:
76,237,11274,2,0,P|73:178|84:119,1,100,4|4,1:3|1:3,0:0:0:0:
121,42,11642,1,4,1:3:0:0:
246,71,11826,1,0,1:0:0:0:
246,71,11918,1,0,1:0:0:0:
246,71,12010,2,0,L|366:84,1,99.0000030212403,4|4,1:3|1:2,0:0:0:0:
442,108,12378,1,4,1:3:0:0:
356,158,12562,1,4,3:0:0:0:
407,270,12746,6,0,P|467:293|413:373,1,148.50000453186,4|0,1:3|0:0,0:0:0:0:
427,362,13115,1,4,1:2:0:0:
306,329,13299,1,0,0:0:0:0:
306,329,13391,1,0,0:0:0:0:
306,329,13483,2,0,L|195:317,1,100,4|4,1:3|1:3,0:0:0:0:
66,356,13851,1,4,1:3:0:0:
74,332,13943,1,0,0:0:0:0:
81,308,14035,1,0,1:0:0:0:
90,285,14127,1,0,1:0:0:0:
99,261,14219,2,0,L|-14:257,1,100,6|4,1:3|1:2,0:0:0:0:
85,162,14587,2,0,L|212:165,1,100,4|4,1:3|3:0,0:0:0:0:
320,228,14955,6,0,P|437:224|480:178,1,148.50000453186,4|0,1:0|0:0,0:0:0:0:
468,185,15323,1,4,1:2:0:0:
409,62,15507,1,0,0:0:0:0:
409,62,15599,1,0,0:0:0:0:
409,62,15691,1,4,1:3:0:0:
327,120,15875,1,4,1:3:0:0:
259,48,16059,1,4,1:3:0:0:
189,155,16243,2,0,L|154:213,2,49.5000015106202,0|0|6,1:0|1:0|1:3,0:0:0:0:
259,48,16611,1,4,1:2:0:0:
155,26,16796,1,4,1:3:0:0:
51,111,16980,1,4,3:0:0:0:
51,111,17072,1,0,0:0:0:0:
51,111,17164,6,0,P|63:194|50:294,1,148.50000453186,4|0,1:3|0:0,0:0:0:0:
57,282,17532,1,4,1:2:0:0:
168,350,17716,1,0,0:0:0:0:
168,350,17808,1,0,0:0:0:0:
168,350,17900,1,4,1:3:0:0:
247,286,18084,1,4,1:3:0:0:
157,239,18268,1,4,1:3:0:0:
157,239,20477,6,0,P|163:173|189:99,1,144,4|4,1:0|1:3,0:0:0:0:
188,99,21029,1,2,0:3:0:0:
287,135,21213,2,0,P|343:141|379:129,1,72,2|0,1:2|0:0,0:0:0:0:
475,183,21581,1,4,1:3:0:0:
499,281,21765,1,2,0:0:0:0:
422,346,21949,2,0,P|350:336|268:345,1,144,4|4,1:3|1:3,0:0:0:0:
279,342,22501,1,2,3:2:0:0:
181,279,22685,6,0,L|92:292,2,72,4|0|2,1:2|0:0|1:2,0:0:0:0:
265,185,23237,2,0,P|263:127|238:57,1,108,2|0,1:3|0:0,0:0:0:0:
235,67,23605,1,2,1:2:0:0:
69,88,23789,2,0,B|48:133|29:246,1,144,4|4,1:3|3:0,0:0:0:0:
32,226,24342,1,2,0:0:0:0:
144,295,24526,2,0,P|196:268|228:262,1,72,2|0,1:3|0:0,0:0:0:0:
343,345,24894,6,0,L|431:349,1,72,4|0,1:0|0:0,0:0:0:0:
486,268,25262,2,0,L|415:264,1,72,4|2,1:3|0:3,0:0:0:0:
349,192,25630,2,0,L|371:103,1,72,2|0,1:2|0:0,0:0:0:0:
269,31,25998,1,4,1:3:0:0:
174,115,26182,1,2,0:0:0:0:
261,207,26366,1,4,1:3:0:0:
261,207,26734,1,4,1:3:0:0:
158,239,26918,1,4,1:2:0:0:
77,186,27102,6,0,P|68:105|47:36,1,144,4|4,1:0|1:3,0:0:0:0:
50,45,27654,1,2,0:3:0:0:
155,69,27838,2,0,L|165:143,1,72,4|2,1:3|3:2,0:0:0:0:
300,218,28207,2,0,P|387:191|438:191,1,108,4|0,1:3|0:0,0:0:0:0:
419,198,28575,1,2,1:3:0:0:
478,285,28759,1,4,0:0:0:0:
408,361,28943,1,2,1:3:0:0:
317,321,29127,1,2,1:2:0:0:
198,371,29311,6,0,L|183:278,2,72,4|2|4,1:0|0:0|1:3,0:0:0:0:
88,349,29863,1,2,0:3:0:0:
88,349,30047,2,0,L|96:254,1,72,4|2,1:3|0:0,0:0:0:0:
134,160,30415,1,4,1:3:0:0:
224,210,30599,1,2,0:0:0:0:
321,168,30783,2,0,P|323:88|301:10,1,144,4|4,1:3|1:3,0:0:0:0:
208,26,31335,1,4,1:2:0:0:
133,121,31519,6,0,P|95:96|55:86,1,72,4|2,1:0|0:0,0:0:0:0:
111,202,31888,2,0,P|66:193|25:198,1,72,4|2,1:3|0:3,0:0:0:0:
150,282,32256,2,0,P|105:290|69:311,1,72,4|2,1:3|0:0,0:0:0:0:
225,353,32624,1,4,1:2:0:0:
343,307,32808,1,2,0:0:0:0:
299,188,32992,1,4,1:3:0:0:
299,188,33360,1,2,1:3:0:0:
248,266,33544,1,4,1:2:0:0:
379,235,33728,6,0,P|411:236|468:239,1,72,4|2,1:0|0:0,0:0:0:0:
506,153,34096,2,0,P|470:89|424:55,1,108,4|0,1:3|1:0,0:0:0:0:
426,70,34464,1,4,1:3:0:0:
328,96,34648,1,0,1:0:0:0:
261,23,34832,1,4,1:3:0:0:
232,112,35016,1,2,3:2:0:0:
232,112,35108,1,0,3:0:0:0:
232,112,35200,1,4,1:3:0:0:
283,194,35384,6,0,P|280:253|265:359,1,161.999995056153,4|4,1:3|0:0,0:0:0:0:
143,362,36305,6,0,P|108:337|54:326,1,72,4|2,1:0|0:3,0:0:0:0:
22,241,36673,2,0,P|56:189|114:164,1,108,4|0,1:3|1:0,0:0:0:0:
110,177,37041,1,4,1:3:0:0:
213,195,37225,1,2,0:0:0:0:
252,102,37409,1,4,1:3:0:0:
166,54,37593,1,2,3:0:0:0:
166,54,37685,1,0,3:0:0:0:
166,54,37777,1,4,1:3:0:0:
77,103,37961,6,0,P|63:198|67:333,1,225,4|2,1:3|2:0,0:0:0:0:
256,192,43666,12,0,46242,0:0:0:0:
29,211,46611,6,0,P|86:175|144:153,1,108,2|2,3:0|0:0,0:0:0:0:
143,167,46979,2,0,L|228:164,1,72,2|0,0:0|0:0,0:0:0:0:
332,79,47347,2,0,L|244:78,1,72,2|0,0:0|0:0,0:0:0:0:
103,42,47715,5,4,0:0:0:0:
26,96,47899,1,2,3:0:0:0:
69,180,48083,2,0,P|77:234|81:296,1,90,8|0,0:2|0:0,0:0:0:0:
200,337,48451,1,2,0:3:0:0:
250,229,48635,1,2,0:2:0:0:
374,296,48819,6,0,L|286:314,1,90,2|2,0:2|0:3,0:0:0:0:
322,178,49187,2,0,L|410:160,1,90,8|0,0:2|0:2,0:0:0:0:
464,43,49555,1,0,0:0:0:0:
337,14,49739,1,2,0:2:0:0:
260,111,49923,5,6,0:2:0:0:
328,222,50107,2,0,L|375:228,3,30,2|2|0|8,0:3|0:3|0:0|0:2,0:0:0:0:
217,243,50476,1,2,0:2:0:0:
95,342,50660,1,2,0:3:0:0:
12,214,50844,1,2,0:2:0:0:
12,214,50936,1,0,0:0:0:0:
12,214,51028,6,0,P|21:134|59:28,1,180,2|8,0:2|0:2,0:0:0:0:
52,40,51580,1,0,0:0:0:0:
151,15,51764,1,2,0:3:0:0:
141,143,51948,6,0,L|135:185,3,30,2|2|0|6,0:3|0:3|0:0|0:2,0:0:0:0:
224,77,52316,1,0,0:0:0:0:
266,166,52500,2,0,L|249:266,1,90,8|0,0:2|2:0,0:0:0:0:
156,285,52868,2,0,P|99:270|64:269,1,90,2|2,0:3|0:2,0:0:0:0:
230,366,53236,6,0,P|287:351|322:350,1,90,2|2,0:2|0:3,0:0:0:0:
463,368,53604,2,0,L|490:163,1,180,8|2,0:2|0:3,0:0:0:0:
367,121,54157,1,2,0:2:0:0:
203,154,54341,6,0,P|143:149|58:162,1,135,2|0,0:2|0:0,0:0:0:0:
44,139,54709,2,0,L|64:35,2,90,8|2|0,0:2|0:3|0:0,0:0:0:0:
25,230,55261,1,0,0:0:0:0:
89,356,55445,6,0,L|112:265,1,90,2|0,0:2|2:0,0:0:0:0:
212,209,55813,2,0,P|224:273|228:345,1,135,8|0,0:2|0:0,0:0:0:0:
259,345,56181,1,2,0:3:0:0:
348,300,56365,1,0,0:0:0:0:
453,355,56549,5,6,0:2:0:0:
473,250,56733,1,0,0:0:0:0:
414,173,56917,2,0,P|358:138|314:141,1,90,8|2,0:2|0:2,0:0:0:0:
244,92,57285,2,0,P|288:40|330:19,1,90,0|2,0:0|0:2,0:0:0:0:
289,198,57654,6,0,L|276:348,1,135,2|0,0:2|0:0,0:0:0:0:
250,349,58022,1,8,0:2:0:0:
150,302,58206,1,2,0:3:0:0:
150,302,58298,1,0,0:0:0:0:
150,302,58390,1,0,0:0:0:0:
232,246,58574,1,2,0:2:0:0:
122,190,58758,6,0,P|73:203|28:248,1,90,6|0,0:2|0:0,0:0:0:0:
65,87,59126,2,0,P|24:117|0:175,1,90,8|2,0:2|0:2,0:0:0:0:
25,304,59494,1,0,0:2:0:0:
112,354,59678,1,2,0:2:0:0:
179,268,59862,6,0,P|233:258|333:287,1,135,2|0,0:2|0:0,0:0:0:0:
330,298,60230,2,0,L|423:297,1,90,8|0,0:2|0:0,0:0:0:0:
488,187,60598,5,2,0:3:0:0:
444,85,60782,1,2,0:2:0:0:
336,73,60966,2,0,P|314:138|316:213,1,135,4|0,0:2|0:0,0:0:0:0:
283,207,61334,2,0,P|225:198|193:201,2,90,8|2|0,0:2|0:3|0:0,0:0:0:0:
243,308,61887,1,2,0:2:0:0:
123,335,62071,6,0,P|90:253|50:189,1,135,6|0,0:2|0:0,0:0:0:0:
45,189,62439,2,0,P|64:124|81:85,1,90,8|0,0:2|0:0,0:0:0:0:
210,30,62807,2,0,P|265:45|327:46,1,90,2|2,0:2|0:3,0:0:0:0:
328,41,63083,1,0,2:0:0:0:
359,37,63175,6,0,L|326:242,1,180,6|8,0:2|0:2,0:0:0:0:
330,214,63727,1,2,2:3:0:0:
366,316,63911,2,0,P|426:284|458:271,1,90,0|0,0:0|0:0,0:0:0:0:
248,270,64279,5,2,1:2:0:0:
20,353,64647,1,2,1:3:0:0:
51,88,65015,1,2,1:3:0:0:
51,88,65384,6,0,L|41:180,1,72,4|0,1:2|0:0,0:0:0:0:
137,137,65752,2,0,L|145:52,1,72,2|8,1:2|0:2,0:0:0:0:
225,110,66120,2,0,L|212:203,1,72,2|2,1:2|0:3,0:0:0:0:
192,308,66488,5,8,1:2:0:0:
278,359,66672,1,2,0:3:0:0:
366,311,66856,1,4,1:3:0:0:
278,261,67040,1,8,0:2:0:0:
307,164,67224,2,0,P|361:173|440:155,1,108,2|0,1:2|0:0,0:0:0:0:
414,140,67592,6,0,L|405:54,1,72,6|0,1:2|0:0,0:0:0:0:
497,101,67960,2,0,L|488:7,1,72,4|0,1:2|0:0,0:0:0:0:
337,28,68328,1,4,1:3:0:0:
281,104,68512,1,2,0:3:0:0:
281,104,68604,1,0,1:0:0:0:
281,104,68696,1,0,1:0:0:0:
186,60,68880,1,6,0:3:0:0:
117,126,69065,2,0,P|143:165|143:222,2,72,0|8|2,1:3|0:2|1:3,0:0:0:0:
23,148,69617,1,4,1:3:0:0:
77,288,69801,6,0,L|166:266,1,72,4|0,1:0|0:0,0:0:0:0:
290,276,70169,1,2,1:2:0:0:
227,350,70353,1,8,0:2:0:0:
220,193,70537,2,0,L|289:174,1,72,2|2,1:2|0:3,0:0:0:0:
368,231,70905,6,0,L|452:211,1,72,8|2,1:2|0:3,0:0:0:0:
483,79,71273,1,4,1:3:0:0:
374,12,71457,1,8,0:2:0:0:
276,94,71641,2,0,P|219:89|184:27,1,108,2|0,1:2|0:0,0:0:0:0:
174,39,72009,6,0,L|154:191,1,144,6|4,1:2|1:2,0:0:0:0:
155,181,72561,1,0,0:0:0:0:
51,159,72746,2,0,L|18:71,1,72,4|6,1:3|0:3,0:0:0:0:
32,260,73114,2,0,L|64:348,1,72,0|6,1:3|0:3,0:0:0:0:
220,308,73482,2,0,L|143:277,1,72,0|0,1:0|0:0,0:0:0:0:
270,222,73850,1,2,1:2:0:0:
350,278,74034,1,2,0:2:0:0:
489,201,74218,5,4,1:2:0:0:
481,358,74402,1,2,0:2:0:0:
481,358,74586,1,8,1:2:0:0:
350,278,74770,1,2,0:3:0:0:
489,201,74954,2,0,L|496:97,1,72,2|2,1:2|0:3,0:0:0:0:
393,201,75322,5,4,1:2:0:0:
272,201,75506,1,2,0:2:0:0:
272,201,75598,1,0,1:0:0:0:
272,201,75690,2,0,P|256:132|227:47,1,144,2|4,1:2|1:3,0:0:0:0:
307,17,76242,1,2,1:3:0:0:
163,29,76427,5,4,1:2:0:0:
27,109,76611,1,2,0:0:0:0:
27,109,76795,1,8,1:2:0:0:
169,168,76979,1,2,0:3:0:0:
27,109,77163,2,0,L|26:214,1,72,2|2,1:2|1:3,0:0:0:0:
52,344,77531,5,4,1:2:0:0:
247,350,77715,1,2,0:2:0:0:
247,350,77807,1,0,1:0:0:0:
247,350,77899,2,0,P|263:263|285:195,1,144,2|4,1:2|1:3,0:0:0:0:
371,299,78451,1,2,0:3:0:0:
491,119,78635,5,4,1:2:0:0:
363,25,78819,1,2,0:0:0:0:
263,138,79003,1,8,1:2:0:0:
393,233,79187,1,2,0:3:0:0:
360,116,79371,1,2,1:2:0:0:
267,41,79555,1,8,0:2:0:0:
160,100,79739,6,0,L|164:230,1,108,4|0,1:2|0:0,0:0:0:0:
150,220,80107,2,0,L|76:215,1,72,4|0,1:2|0:0,0:0:0:0:
14,323,80476,1,2,1:2:0:0:
181,295,80660,1,8,1:2:0:0:
250,370,80844,6,0,P|186:343|156:335,1,72,4|2,1:0|0:3,0:0:0:0:
166,345,81120,1,0,1:0:0:0:
149,350,81212,1,8,1:2:0:0:
81,250,81396,1,2,0:3:0:0:
88,233,81488,1,0,1:0:0:0:
95,216,81580,1,2,1:2:0:0:
209,162,81764,1,2,1:3:0:0:
202,145,81856,1,0,0:0:0:0:
192,130,81948,6,0,B|184:80|184:80|210:15,1,108,2|0,1:3|2:0,0:0:0:0:
229,33,82316,2,0,B|283:49|283:49|367:36,1,108,2|0,1:3|2:0,0:0:0:0:
356,51,82684,2,0,B|408:43|408:43|462:59,1,108,2|0,1:3|0:0,0:0:0:0:
482,86,83052,6,0,P|485:168|481:294,1,198.000006042481,6|8,0:0|0:0,0:0:0:0:
349,367,83604,1,0,0:0:0:0:
349,367,83788,2,0,P|305:338|248:321,1,99.0000030212403,2|0,0:0|2:0,0:0:0:0:
24,363,84156,2,0,P|55:307|63:255,1,99.0000030212403,10|0,0:0|2:0,0:0:0:0:
142,71,84524,5,2,0:0:0:0:
45,144,84708,1,2,0:3:0:0:
45,144,84800,1,2,0:3:0:0:
45,144,84892,1,8,0:0:0:0:
165,197,85076,1,0,0:0:0:0:
283,153,85260,2,0,L|286:43,1,99.0000030212403,2|0,0:3|0:0,0:0:0:0:
463,124,85628,2,0,L|452:256,1,99.0000030212403,10|0,0:0|2:0,0:0:0:0:
241,301,85996,5,6,0:0:0:0:
136,280,86180,1,0,2:0:0:0:
32,261,86364,1,10,0:0:0:0:
88,348,86548,1,0,0:0:0:0:
211,221,86732,2,0,L|222:93,1,99.0000030212403,2|0,0:3|2:0,0:0:0:0:
452,31,87101,5,10,0:0:0:0:
450,134,87285,1,0,0:2:0:0:
332,177,87469,1,6,0:0:0:0:
335,81,87653,1,2,0:3:0:0:
335,81,87745,1,2,0:3:0:0:
335,81,87837,1,8,0:0:0:0:
450,134,88021,1,0,0:3:0:0:
414,236,88205,2,0,L|381:348,1,99.0000030212403,2|0,0:3|2:0,0:0:0:0:
355,347,88481,1,2,0:3:0:0:
324,331,88573,2,0,B|276:295|276:295|169:278,1,148.50000453186,10|0,0:0|0:0,0:0:0:0:
161,259,88941,6,0,P|98:251|80:363,1,198.000006042481,6|8,0:0|0:0,0:0:0:0:
203,361,89493,1,0,0:0:0:0:
206,167,89677,2,0,L|202:46,1,99.0000030212403,2|0,0:0|2:0,0:0:0:0:
338,225,90045,2,0,L|346:95,1,99.0000030212403,10|0,0:0|2:0,0:0:0:0:
495,24,90413,5,2,0:0:0:0:
480,147,90598,1,0,0:0:0:0:
458,278,90782,2,0,P|414:341|310:293,1,198.000006042481,8|0,0:0|0:0,0:0:0:0:
314,304,91334,1,0,0:0:0:0:
192,293,91518,2,0,P|156:339|133:391,1,99.0000030212403,10|0,0:0|0:0,0:0:0:0:
20,226,91886,6,0,L|44:27,1,198.000006042481,6|8,0:0|0:0,0:0:0:0:
154,40,92438,1,0,0:2:0:0:
154,40,92530,1,0,0:0:0:0:
154,40,92622,2,0,L|275:71,1,99.0000030212403,2|0,0:3|0:0,0:0:0:0:
351,78,92990,1,8,0:0:0:0:
426,24,93174,1,0,0:0:0:0:
372,177,93358,6,0,P|340:254|327:391,1,198.000006042481,2|8,0:0|0:0,0:0:0:0:
457,345,93910,1,2,0:0:0:0:
457,345,94094,2,0,P|452:274|441:238,1,99.0000030212403,2|0,0:0|2:0,0:0:0:0:
292,201,94463,2,0,B|201:183|223:232|130:222,1,148.50000453186,10|0,0:0|0:0,0:0:0:0:
124,198,94831,6,0,P|60:193|9:206,2,99.0000030212403,6|0|10,0:0|0:0|0:0,0:0:0:0:
233,275,95383,1,2,0:3:0:0:
233,275,95567,2,0,L|215:390,1,99.0000030212403,0|0,0:0|0:2,0:0:0:0:
360,307,95935,2,0,L|361:175,1,99.0000030212403,10|0,0:0|0:0,0:0:0:0:
264,29,96303,6,0,P|311:50|413:29,1,148.50000453186,2|2,0:0|2:3,0:0:0:0:
437,43,96671,1,10,0:0:0:0:
471,167,96855,1,0,0:2:0:0:
338,201,97039,2,0,P|286:199|211:200,1,99.0000030212403,0|2,0:0|2:3,0:0:0:0:
206,187,97315,1,2,0:3:0:0:
172,194,97407,1,8,0:0:0:0:
61,260,97591,5,2,0:0:0:0:
0,146,97775,1,6,0:0:0:0:
105,80,97959,1,0,0:0:0:0:
172,194,98144,2,0,P|192:284|166:398,1,198.000006042481,10|0,0:0|0:0,0:0:0:0:
278,273,98696,1,0,0:0:0:0:
368,288,98880,2,0,L|360:399,1,99.0000030212403,10|0,0:0|0:0,0:0:0:0:
466,249,99248,6,0,P|447:155|429:88,1,148.50000453186,2|2,0:0|2:3,0:0:0:0:
401,90,99616,1,10,0:0:0:0:
289,144,99800,1,0,0:0:0:0:
198,55,99984,1,2,0:3:0:0:
304,40,100168,1,0,0:0:0:0:
304,40,100260,1,2,2:3:0:0:
304,40,100352,1,10,0:0:0:0:
289,144,100536,1,0,0:2:0:0:
118,160,100720,6,0,P|45:204|27:298,1,148.50000453186,6|2,0:0|2:3,0:0:0:0:
45,287,101088,2,0,P|94:281|161:280,1,99.0000030212403,8|2,0:0|0:3,0:0:0:0:
263,364,101456,1,0,0:0:0:0:
263,364,101825,1,10,0:0:0:0:
274,202,102009,1,0,0:0:0:0:
362,29,102193,6,0,P|460:78|489:147,1,148.50000453186,6|2,0:0|0:3,0:0:0:0:
450,128,102561,2,0,P|392:123|348:128,1,99.0000030212403,8|0,0:0|0:2,0:0:0:0:
169,209,102929,2,0,P|227:214|271:209,1,99.0000030212403,2|0,0:3|2:0,0:0:0:0:
407,284,103297,1,10,0:0:0:0:
347,363,103481,1,4,0:3:0:0:
251,343,103665,1,6,0:0:0:0:
256,192,103757,12,4,108082,1:3:0:0:
10,177,108450,6,0,P|78:157|210:155,1,180,4|4,1:3|1:3,0:0:0:0:
269,206,109002,1,2,0:3:0:0:
313,118,109186,1,4,1:3:0:0:
243,41,109370,1,2,1:3:0:0:
243,41,109462,1,0,1:0:0:0:
243,41,109554,2,0,L|134:45,1,90,4|0,1:3|0:0,0:0:0:0:
313,118,109922,2,0,L|430:117,1,90,4|4,1:3|1:3,0:0:0:0:
372,270,110290,5,4,1:3:0:0:
285,230,110474,1,0,0:0:0:0:
199,258,110658,2,0,P|182:330|178:380,1,90,4|0,1:3|0:0,0:0:0:0:
134,195,111026,2,0,P|151:123|155:73,1,90,4|2,1:3|3:0,0:0:0:0:
58,53,111395,1,4,1:3:0:0:
21,154,111579,1,2,1:3:0:0:
21,154,111671,1,0,1:0:0:0:
21,154,111763,2,0,L|13:278,1,90,4|0,1:3|0:0,0:0:0:0:
136,218,112131,1,4,1:3:0:0:
79,351,112315,1,4,1:3:0:0:
208,320,112499,6,0,P|303:281|367:283,1,135,4|0,1:0|1:0,3:3:0:0:
365,275,112867,2,0,L|353:385,2,90,4|0|4,1:2|0:0|1:3,0:0:0:0:
374,168,113419,1,4,1:3:0:0:
466,215,113603,1,4,1:3:0:0:
470,85,113787,1,2,1:3:0:0:
470,85,113879,1,0,1:0:0:0:
470,85,113971,2,0,P|395:55|360:57,1,90,4|4,1:3|1:2,0:0:0:0:
273,100,114339,1,4,1:3:0:0:
149,36,114523,1,4,3:0:0:0:
149,36,114615,1,0,1:0:0:0:
149,36,114707,6,0,P|161:147|163:194,1,135,4|0,1:0|1:0,3:3:0:0:
152,200,115076,2,0,P|90:188|45:190,1,90,4|2,1:2|1:3,0:0:0:0:
15,310,115444,1,4,1:3:0:0:
128,340,115628,1,4,1:3:0:0:
252,244,115812,6,0,L|255:89,1,135,4|0,1:3|1:0,0:0:0:0:
280,90,116180,1,4,1:3:0:0:
383,124,116364,1,2,1:3:0:0:
383,124,116456,1,0,0:0:0:0:
383,124,116548,1,4,1:3:0:0:
384,226,116732,1,4,3:0:0:0:
489,158,116916,6,0,P|466:41|443:18,1,135,4|0,1:0|0:0,0:0:0:0:
428,41,117284,2,0,L|325:48,1,90,4|2,1:2|0:3,0:0:0:0:
227,96,117652,1,4,1:3:0:0:
111,33,117836,1,4,1:3:0:0:
227,96,118020,1,4,1:3:0:0:
93,136,118204,1,2,1:3:0:0:
93,136,118296,1,0,1:0:0:0:
93,136,118388,2,0,P|106:199|110:260,1,90,4|2,1:3|1:3,0:0:0:0:
215,207,118757,1,4,1:3:0:0:
194,339,118941,1,4,3:0:0:0:
194,339,119033,1,0,3:0:0:0:
194,339,119125,6,0,P|258:333|340:350,1,135,4|0,1:0|0:0,0:0:0:0:
358,339,119493,2,0,L|368:244,2,90,4|0|4,1:2|0:0|1:3,0:0:0:0:
453,374,120045,1,4,1:3:0:0:
492,264,120229,1,4,1:3:0:0:
111,25,131270,5,0,1:0:0:0:
100,124,131454,1,0,0:0:0:0:
89,222,131638,2,0,P|84:255|80:297,1,62.9999980773926,2|0,0:0|0:0,0:0:0:0:
64,337,131914,1,0,0:0:0:0:
64,337,132006,2,0,P|97:328|133:331,1,62.9999980773926,4|0,0:0|0:0,0:0:0:0:
233,297,132374,2,0,P|247:324|270:346,1,62.9999980773926,0|2,0:0|0:0,0:0:0:0:
152,218,132742,5,0,1:0:0:0:
139,119,132926,1,0,0:0:0:0:
239,109,133110,1,2,0:0:0:0:
252,208,133294,2,0,B|288:205|288:205|313:212|313:212|353:209,1,94.499997116089,0|0,3:0|0:0,0:0:0:0:
396,195,133662,2,0,P|387:228|399:264,1,62.9999980773926,0|0,0:0|0:0,0:0:0:0:
446,344,134030,1,2,0:0:0:0:
446,344,134398,5,0,0:0:0:0:
347,342,134582,1,2,0:0:0:0:
245,338,134766,2,0,L|169:341,1,62.9999980773926,0|4,0:0|0:0,0:0:0:0:
133,354,135043,1,0,0:0:0:0:
133,354,135135,2,0,B|139:323|139:323|130:293,1,62.9999980773926,0|0,0:0|0:0,0:0:0:0:
36,329,135503,1,2,0:0:0:0:
80,213,135687,5,0,1:0:0:0:
80,213,135779,1,0,0:0:0:0:
80,213,135871,2,0,P|136:241|202:222,1,125.999996154785,0|0,0:0|0:0,0:0:0:0:
304,240,136423,2,0,P|306:213|311:186,2,31.4999990386963,4|0|0,0:0|0:0|0:0,0:0:0:0:
242,328,136791,2,0,P|270:351|287:380,1,62.9999980773926,0|2,0:0|0:0,0:0:0:0:
398,341,137159,5,0,1:0:0:0:
501,345,137343,1,0,0:0:0:0:
398,341,137527,2,0,L|328:346,1,62.9999980773926,2|0,0:0|3:0,0:0:0:0:
293,372,137803,1,0,3:0:0:0:
293,372,137895,2,0,P|280:340|253:313,1,62.9999980773926,4|0,0:0|3:0,0:0:0:0:
237,214,138263,2,0,P|210:234|175:247,1,62.9999980773926,2|0,0:0|0:0,0:0:0:0:
325,167,138631,5,0,1:0:0:0:
396,243,138816,1,2,0:0:0:0:
360,333,139000,1,0,0:0:0:0:
261,319,139184,2,0,P|199:312|136:322,1,125.999996154785,0|0,3:0|3:0,0:0:0:0:
91,331,139644,1,0,3:0:0:0:
91,331,139736,2,0,P|105:304|111:269,1,62.9999980773926,2|0,0:0|3:0,0:0:0:0:
175,162,140104,5,0,1:0:0:0:
213,251,140288,1,0,0:0:0:0:
181,145,140472,2,0,P|180:109|179:69,1,62.9999980773926,2|0,0:0|3:0,0:0:0:0:
95,199,140840,1,4,0:0:0:0:
140,292,141024,2,0,P|188:294|243:298,1,94.499997116089,0|0,0:0|0:0,0:0:0:0:
280,271,141392,1,0,3:0:0:0:
378,205,141576,5,4,3:0:0:0:
331,376,141944,2,0,P|293:333|284:251,1,121.499996292114,2|0,0:0|2:0,0:0:0:0:
480,236,142312,2,0,P|490:307|466:358,1,121.499996292114,2|0,0:0|2:0,0:0:0:0:
385,286,142681,6,0,P|381:245|378:196,1,80.9999975280763,0|0,1:0|0:0,0:0:0:0:
391,172,143051,6,0,P|309:231|207:220,1,207.000003948212,6|8,0:0|0:0,0:0:0:0:
98,197,143603,2,0,P|190:238|231:332,1,207.000003948212,2|2,0:0|0:2,0:0:0:0:
219,135,144155,2,0,P|216:82|213:22,1,103.500001974106,10|0,0:0|2:0,0:0:0:0:
97,85,144523,5,2,0:0:0:0:
219,135,144707,1,2,0:0:0:0:
340,183,144891,2,0,P|431:180|469:79,1,207.000003948212,10|0,0:0|0:0,0:0:0:0:
381,0,145443,1,2,0:2:0:0:
385,105,145627,2,0,L|398:304,1,155.250002961159,10|0,0:0|2:0,0:0:0:0:
401,346,145995,5,6,0:0:0:0:
478,239,146179,1,2,0:0:0:0:
313,280,146363,2,0,P|205:260|187:173,1,207.000003948212,10|0,0:0|0:0,0:0:0:0:
254,67,146916,1,2,0:2:0:0:
323,177,147100,1,10,0:0:0:0:
185,177,147284,1,2,0:0:0:0:
80,290,147468,6,0,B|150:285|150:285|208:308|208:308|286:302,1,207.000003948212,2|8,0:0|0:0,0:0:0:0:
439,286,148020,1,0,0:0:0:0:
365,353,148204,1,0,0:0:0:0:
315,211,148388,2,0,L|298:160,2,51.7500009870529,2|0|10,0:2|0:0|0:0,0:0:0:0:
374,376,148756,1,8,0:0:0:0:
375,376,148848,1,8,0:0:0:0:
375,376,148940,6,0,B|323:385|323:385|273:376|273:376|225:390|167:374,1,207.000003948212,6|8,0:0|0:0,0:0:0:0:
46,384,149492,2,0,P|133:334|163:228,1,207.000003948212,2|2,0:0|0:2,0:0:0:0:
243,141,150044,2,0,L|232:35,1,103.500001974106,10|0,0:0|2:0,0:0:0:0:
307,225,150412,5,2,0:0:0:0:
206,298,150597,1,2,0:0:0:0:
324,361,150781,2,0,P|422:384|501:324,1,207.000003948212,10|0,0:0|0:0,0:0:0:0:
497,226,151333,1,2,0:2:0:0:
355,238,151517,2,0,P|275:243|200:248,1,155.250002961159,10|0,0:0|2:0,0:0:0:0:
118,253,151885,6,0,P|29:215|31:113,1,207.000003948212,6|8,0:0|0:0,0:0:0:0:
203,59,152437,1,0,0:0:0:0:
105,56,152621,1,0,0:0:0:0:
267,133,152805,1,2,0:2:0:0:
267,133,152897,1,0,0:0:0:0:
267,133,152989,1,8,0:0:0:0:
86,202,153173,1,0,0:0:0:0:
278,271,153357,6,0,P|380:268|462:329,1,207.000003948212,2|8,0:0|0:0,0:0:0:0:
321,183,153909,2,0,P|272:272|178:313,1,207.000003948212,2|2,0:0|0:2,0:0:0:0:
397,239,154462,2,0,P|343:152|353:60,1,155.250002961159,10|0,0:0|2:0,0:0:0:0:
365,20,154830,5,6,0:0:0:0:
256,188,155014,1,2,0:0:0:0:
387,333,155198,2,0,P|475:290|478:192,1,207.000003948212,10|0,0:0|0:0,0:0:0:0:
343,102,155750,1,2,0:0:0:0:
367,213,155934,1,10,0:0:0:0:
456,80,156118,1,2,0:0:0:0:
238,118,156302,6,0,P|186:117|116:115,1,103.500001974106,2|0,0:0|2:0,0:0:0:0:
45,231,156670,2,0,P|98:305|215:277,1,207.000003948212,10|0,0:0|0:0,0:0:0:0:
244,184,157222,1,0,0:0:0:0:
244,184,157314,1,0,0:0:0:0:
244,184,157406,1,8,0:0:0:0:
240,71,157590,1,2,0:0:0:0:
109,130,157774,5,6,0:0:0:0:
115,253,157958,1,2,0:0:0:0:
118,376,158143,2,0,B|190:371|190:371|254:386|254:386|324:381,1,207.000003948212,10|0,0:0|0:0,0:0:0:0:
443,282,158695,1,2,0:0:0:0:
421,377,158879,1,10,0:0:0:0:
298,288,159063,1,0,0:0:0:0:
359,107,159247,6,0,P|362:159|366:210,1,103.500001974106,6|0,0:0|0:0,0:0:0:0:
263,316,159615,2,0,P|166:335|82:268,1,207.000003948212,10|0,0:0|0:0,0:0:0:0:
149,156,160167,1,0,0:0:0:0:
149,156,160259,1,0,0:0:0:0:
149,156,160351,1,10,0:0:0:0:
280,168,160535,1,2,0:0:0:0:
402,56,160719,6,0,P|409:159|417:276,1,207.000003948212,6|8,0:0|0:0,0:0:0:0:
427,384,161271,1,0,0:0:0:0:
512,345,161455,1,0,0:0:0:0:
329,304,161639,1,0,0:0:0:0:
329,304,161731,1,0,2:0:0:0:
329,304,161824,1,10,0:0:0:0:
165,344,162008,1,2,0:0:0:0:
2,304,162192,6,0,P|18:200|28:86,1,207.000003948212,6|8,0:0|0:0,0:0:0:0:
134,5,162744,1,2,0:2:0:0:
168,146,162928,1,2,0:2:0:0:
109,85,163112,1,0,0:0:0:0:
109,85,163204,1,0,2:0:0:0:
109,85,163296,1,8,0:0:0:0:
256,33,163480,1,0,0:0:0:0:
403,85,163664,6,0,P|378:162|419:244,1,155.250002961159,4|4,0:0|2:3,0:0:0:0:
258,178,164032,2,0,P|276:245|331:288,1,141.749995674133,8|4,0:0|2:3,0:0:0:0:
206,331,164400,2,0,P|253:372|316:378,1,128.249996575356,4|4,0:0|2:3,0:0:0:0:
114,359,164768,2,0,P|75:358|37:357,1,76.5000014591217,8|8,0:0|0:0,0:0:0:0:
18,356,165044,1,8,0:0:0:0:
0,355,165136,5,4,0:0:0:0:
213,236,170658,5,2,0:0:0:0:
307,147,170842,2,0,L|301:104,3,30,0|0|0|4,1:0|1:0|1:0|1:0,0:0:0:0:
256,192,171118,12,2,173971,0:0:0:0:
452,289,174339,6,0,L|500:277,3,26.9999991760254,0|0|0|0,0:0|0:0|0:0|0:0,0:0:0:0:
363,248,174707,2,0,L|312:236,3,31.4999990386963,0|0|0|0,0:0|0:0|0:0|0:0,0:0:0:0:
458,192,175075,2,0,L|513:180,3,36,0|0|0|0,0:0|0:0|0:0|0:0,0:0:0:0:
356,151,175443,6,0,B|314:146|314:146|278:158|278:158|236:153,1,121.499996292114,2|0,0:0|0:0,0:0:0:0:
161,191,175811,2,0,P|141:250|168:308,1,121.499996292114,2|0,0:0|0:0,0:0:0:0:
207,377,176179,2,0,P|153:349|89:350,1,121.499996292114,2|0,0:0|0:0,0:0:0:0:
12,300,176547,6,0,P|8:257|4:211,1,80.9999975280763,4|0,0:0|0:0,0:0:0:0:
25,311,176916,6,0,P|13:186|8:128,1,180,4|8,0:0|0:2,0:0:0:0:
134,59,177468,1,2,0:2:0:0:
94,136,177652,1,4,0:3:0:0:
1,53,177836,1,2,0:2:0:0:
1,53,177928,1,0,0:0:0:0:
1,53,178020,1,8,0:2:0:0:
68,0,178204,1,2,0:2:0:0:
144,95,178388,5,4,0:0:0:0:
34,144,178572,1,2,0:2:0:0:
169,207,178756,1,8,0:2:0:0:
10,256,178940,2,0,P|37:313|115:323,1,135,4|0,0:2|2:0,0:0:0:0:
170,372,179308,1,2,0:2:0:0:
181,258,179492,1,8,0:2:0:0:
192,142,179676,1,2,0:2:0:0:
60,213,179860,5,4,0:0:0:0:
181,258,180044,1,2,0:2:0:0:
303,213,180228,1,8,0:2:0:0:
425,258,180412,2,0,P|420:187|416:110,1,135,2|0,0:2|2:0,0:0:0:0:
412,48,180781,1,2,0:2:0:0:
497,137,180965,1,8,0:2:0:0:
342,206,181149,1,2,0:2:0:0:
479,318,181333,5,4,0:0:0:0:
334,226,181517,1,2,0:2:0:0:
504,120,181701,2,0,P|418:113|366:35,1,180,8|4,0:2|0:3,0:0:0:0:
355,177,182253,1,0,0:0:0:0:
353,191,182345,1,0,0:0:0:0:
352,205,182437,1,8,0:2:0:0:
337,341,182621,1,2,0:2:0:0:
194,256,182805,6,0,B|66:257|66:257|96:241|128:220,1,180,4|8,0:0|0:2,0:0:0:0:
248,184,183357,2,0,P|280:239|264:311,1,135,4|0,0:2|2:0,0:0:0:0:
225,380,183725,1,2,0:2:0:0:
90,330,183909,1,8,0:2:0:0:
145,195,184093,1,2,0:2:0:0:
280,244,184277,6,0,P|323:239|377:233,1,90,4|0,0:0|0:0,0:0:0:0:
488,194,184646,2,0,P|400:191|341:114,1,180,8|4,0:2|0:3,0:0:0:0:
280,244,185198,1,0,0:0:0:0:
280,244,185290,1,0,0:0:0:0:
280,244,185382,1,8,0:2:0:0:
348,361,185566,1,8,0:2:0:0:
190,348,185750,6,0,B|130:345|130:345|72:366|72:366|10:364,1,180,4|8,0:0|0:2,0:0:0:0:
84,242,186302,1,2,0:2:0:0:
72,128,186486,1,4,0:3:0:0:
190,117,186670,1,0,0:0:0:0:
190,117,186762,1,0,0:0:0:0:
190,117,186854,1,8,0:2:0:0:
202,231,187038,1,8,0:2:0:0:
241,338,187222,6,0,P|175:338|105:286,1,135,4|2,0:0|0:0,0:0:0:0:
97,205,187590,2,0,P|130:147|210:113,1,135,8|0,0:0|0:0,0:0:0:0:
282,146,187958,2,0,P|314:203|304:289,1,135,4|0,0:0|0:0,0:0:0:0:
270,342,188327,6,0,B|292:331|314:318|314:318|342:321|379:324,1,108,4|0,1:2|2:0,0:0:0:0:
441,261,188695,6,0,P|432:159|425:53,1,207.000003948212,6|8,0:0|0:0,0:0:0:0:
425,54,189247,1,0,2:0:0:0:
263,107,189431,1,2,0:0:0:0:
326,180,189615,1,2,0:3:0:0:
317,316,189799,5,2,0:0:0:0:
202,300,189983,1,2,0:0:0:0:
86,284,190167,2,0,P|1:240|5:138,1,207.000003948212,10|4,0:0|0:3,0:0:0:0:
110,60,190719,1,2,0:0:0:0:
12,40,190903,5,6,0:0:0:0:
105,169,191087,2,0,L|110:215,3,34.5000006580353,2|2|0|8,0:3|0:3|0:0|0:0,0:0:0:0:
181,29,191455,2,0,P|235:24|290:19,1,103.500001974106,2|4,0:0|0:3,0:0:0:0:
374,110,191823,1,2,0:0:0:0:
485,215,192007,6,0,P|463:311|365:335,1,207.000003948212,2|8,0:0|0:0,0:0:0:0:
203,249,192560,1,2,2:0:0:0:
203,249,192652,1,0,0:0:0:0:
203,249,192744,1,2,0:0:0:0:
309,249,192928,1,2,0:3:0:0:
147,335,193112,6,0,P|136:231|125:128,1,207.000003948212,6|8,0:0|0:0,0:0:0:0:
125,129,193664,1,0,2:0:0:0:
38,68,193848,1,2,0:0:0:0:
19,166,194032,1,2,0:0:0:0:
191,162,194216,5,2,0:0:0:0:
158,67,194400,1,2,0:0:0:0:
104,226,194584,2,0,P|201:195|303:213,1,207.000003948212,8|4,0:0|0:3,0:0:0:0:
284,95,195136,1,2,0:3:0:0:
116,126,195320,6,0,P|99:228|30:304,1,207.000003948212,6|8,0:0|0:0,0:0:0:0:
159,355,195872,1,2,2:0:0:0:
281,307,196056,1,4,0:3:0:0:
406,353,196241,1,2,2:2:0:0:
406,353,196333,1,0,0:0:0:0:
406,353,196425,6,0,P|458:348|516:345,1,103.500001974106,2|0,0:0|0:0,0:0:0:0:
435,229,196793,2,0,P|401:320|303:317,1,207.000003948212,10|4,0:0|0:3,0:0:0:0:
203,215,197345,1,2,0:2:0:0:
204,197,197437,1,0,0:0:0:0:
206,179,197529,5,6,0:0:0:0:
107,231,197713,1,2,0:0:0:0:
201,298,197897,1,10,0:0:0:0:
302,239,198081,1,2,0:3:0:0:
195,165,198265,1,2,0:0:0:0:
193,310,198449,1,2,0:2:0:0:
303,145,198633,5,2,0:0:0:0:
164,203,198817,1,2,0:0:0:0:
24,264,199001,2,0,B|79:259|125:280|125:280|169:301|226:294,1,207.000003948212,10|4,0:0|0:3,0:0:0:0:
308,188,199553,1,2,0:0:0:0:
309,201,199645,1,0,0:0:0:0:
310,214,199737,5,6,0:0:0:0:
220,167,199921,1,2,0:2:0:0:
402,146,200106,1,10,0:0:0:0:
406,247,200290,1,2,0:3:0:0:
302,100,200474,1,2,0:0:0:0:
387,46,200658,1,2,0:2:0:0:
343,213,200842,5,2,0:0:0:0:
472,153,201026,1,2,0:0:0:0:
302,100,201210,2,0,P|218:155|121:130,1,207.000003948212,10|4,0:0|0:3,0:0:0:0:
120,129,201762,1,2,0:0:0:0:
229,249,201946,5,6,0:0:0:0:
112,280,202130,1,2,0:0:0:0:
4,311,202314,2,0,P|107:320|207:357,1,207.000003948212,10|4,0:0|0:3,0:0:0:0:
321,288,202866,1,4,0:3:0:0:
192,233,203050,5,4,0:3:0:0:
311,141,203234,1,4,0:3:0:0:
312,157,203326,1,8,0:3:0:0:
313,172,203418,1,4,0:3:0:0:
362,63,203602,6,0,P|305:95|236:91,1,135.000005149842,4|0,0:3|2:0,0:0:0:0:
177,186,204155,6,0,P|184:255|186:279,1,80.9999975280763,2|0,0:0|2:0,3:3:0:0:
126,335,204523,5,6,0:0:0:0:
280,354,204707,1,2,0:2:0:0:
435,370,204891,2,0,P|483:282|428:191,1,207.000003948212,10|0,0:0|0:0,0:0:0:0:
296,212,205443,1,2,0:3:0:0:
388,115,205627,5,0,0:0:0:0:
343,293,205811,1,4,0:3:0:0:
343,293,205903,1,8,0:3:0:0:
343,293,205995,1,4,0:3:0:0:
211,167,206179,6,0,B|177:178|145:168|145:168|114:157|76:168,1,135.000005149842,4|0,0:3|2:0,0:0:0:0:
281,137,206731,6,0,P|253:166|194:194,1,80.9999975280763,2|0,0:0|0:0,0:0:0:0:
316,69,207099,2,0,P|314:108|301:156,1,80.9999975280763,2|0,0:0|2:0,0:0:0:0:
353,221,207467,5,6,0:0:0:0:
199,213,207651,1,2,0:2:0:0:
45,204,207835,2,0,P|46:280|152:362,1,207.000003948212,10|4,0:0|0:3,0:0:0:0:
334,354,208387,1,0,0:0:0:0:
236,358,208571,5,0,0:0:0:0:
435,357,208755,1,2,0:2:0:0:
435,357,208847,1,0,0:0:0:0:
435,357,208939,2,0,P|485:361|543:365,1,103.500001974106,10|2,0:0|0:3,0:0:0:0:
283,251,209307,1,4,0:3:0:0:
335,384,209491,1,8,0:3:0:0:
384,251,209675,5,4,0:0:0:0:
369,126,209859,1,2,0:2:0:0:
369,126,209951,1,0,0:3:0:0:
369,126,210043,2,0,P|363:72|357:16,1,103.500001974106,10|2,0:0|0:3,0:0:0:0:
446,182,210411,1,4,0:3:0:0:
304,197,210595,1,0,0:0:0:0:
147,214,210779,6,0,P|71:199|36:127,1,155.250002961159,4|2,0:0|2:3,0:0:0:0:
126,126,211147,2,0,B|178:121|178:121|218:135|218:135|268:130,1,141.749995674133,6|2,0:0|2:3,0:0:0:0:
338,79,211516,1,4,0:0:0:0:
358,216,211700,1,8,0:3:0:0:
381,346,211884,5,4,0:3:0:0:
256,192,211976,12,0,214828,1:0:0:0:
335,58,215197,5,4,1:3:0:0:
335,58,215289,1,0,1:0:0:0:
335,58,215381,2,0,P|348:141|361:221,1,161.999995056153,2|2,1:2|1:3,0:0:0:0:
381,342,215933,1,4,1:3:0:0:
445,258,216117,1,2,1:2:0:0:
387,366,216301,5,4,1:3:0:0:
268,344,216485,1,2,1:3:0:0:
147,323,216669,2,0,P|108:315|63:308,1,80.9999975280763,4|0,1:2|0:0,0:0:0:0:
55,306,216945,1,2,1:3:0:0:
69,303,217037,2,0,P|115:293|168:281,1,80.9999975280763,4|2,1:3|0:2,0:0:0:0:
271,260,217405,5,4,1:3:0:0:
336,196,217589,2,0,P|279:206|219:184,1,121.499996292114,2|0,1:3|0:0,0:0:0:0:
177,118,217957,2,0,P|173:77|169:28,1,80.9999975280763,2|0,1:3|1:0,0:0:0:0:
191,263,218325,1,2,1:2:0:0:
44,368,218509,6,0,P|112:349|203:354,1,161.999995056153,2|2,1:0|0:3,0:0:0:0:
175,189,218878,6,0,P|157:257|117:319,1,141.749995674133,4|0,1:2|0:0,0:0:0:0:
270,369,219246,6,0,P|219:319|188:256,1,121.499996292114,4|0,1:3|0:0,0:0:0:0:
175,174,219614,5,4,1:3:0:0:
175,174,219706,1,0,1:3:0:0:
175,174,219798,2,0,P|175:93|176:7,1,161.999995056153,2|2,1:2|1:3,0:0:0:0:
290,49,220350,1,4,1:3:0:0:
398,84,220534,1,4,1:3:0:0:
316,182,220718,5,4,1:3:0:0:
424,217,220902,1,2,0:0:0:0:
297,176,221086,2,0,P|255:178|209:181,1,80.9999975280763,4|2,1:2|1:3,0:0:0:0:
149,141,221362,1,0,1:0:0:0:
149,141,221454,2,0,P|161:182|145:226,1,80.9999975280763,4|2,1:3|0:2,0:0:0:0:
128,360,221822,5,4,1:3:0:0:
63,271,222006,2,0,P|140:252|215:293,1,161.999995056153,2|4,1:3|1:2,0:0:0:0:
317,227,222559,1,2,1:3:0:0:
220,156,222743,1,2,1:2:0:0:
294,42,222927,6,0,P|213:50|130:57,1,161.999995056153,4|4,1:3|1:2,0:0:0:0:
33,117,223479,1,2,1:3:0:0:
145,182,223663,1,4,1:3:0:0:
23,241,223847,1,4,1:3:0:0:
159,298,224031,5,4,1:3:0:0:
157,312,224123,1,4,0:3:0:0:
156,327,224215,2,0,B|214:326|214:326|257:344|257:344|323:342,1,161.999995056153,2|4,1:3|1:2,0:0:0:0:
446,384,224767,1,4,1:3:0:0:
417,253,224951,1,4,1:3:0:0:
391,328,225135,5,4,1:0:0:0:
316,221,225319,1,2,0:0:0:0:
442,177,225503,2,0,P|437:136|434:93,1,80.9999975280763,4|2,1:2|1:3,0:0:0:0:
473,33,225779,1,0,1:0:0:0:
473,33,225871,2,0,B|432:41|432:41|386:31,1,80.9999975280763,4|2,1:3|1:2,0:0:0:0:
272,81,226240,5,4,1:3:0:0:
320,163,226424,2,0,P|264:141|200:147,1,121.499996292114,2|0,1:3|0:0,0:0:0:0:
137,116,226792,2,0,P|145:160|153:200,1,80.9999975280763,4|2,1:2|1:3,0:0:0:0:
178,314,227160,1,2,1:2:0:0:
277,172,227344,5,4,1:3:0:0:
303,291,227528,1,0,0:0:0:0:
227,384,227712,2,0,B|188:377|188:377|145:385,1,80.9999975280763,4|2,1:2|1:3,0:0:0:0:
86,331,227988,1,0,1:0:0:0:
86,331,228080,2,0,P|47:338|1:329,1,80.9999975280763,4|2,1:3|1:2,0:0:0:0:
47,231,228448,5,4,1:3:0:0:
47,231,229552,5,0,1:0:0:0:
151,248,229736,1,2,0:3:0:0:
255,264,229920,2,0,P|286:262|332:258,1,62.9999980773926,4|0,0:0|0:0,0:0:0:0:
363,273,230197,1,2,0:3:0:0:
363,273,230289,2,0,P|357:237|366:202,1,62.9999980773926,0|0,1:0|1:0,0:0:0:0:
512,146,230657,5,4,1:3:0:0:
422,152,230841,2,0,P|359:156|290:159,1,125.999996154785,2|4,1:3|0:0,0:0:0:0:
204,203,231393,1,4,0:3:0:0:
209,103,231577,1,4,0:3:0:0:
317,184,231761,5,0,1:0:0:0:
312,285,231945,1,2,0:3:0:0:
306,383,232129,2,0,L|374:377,1,62.9999980773926,4|0,0:0|0:0,0:0:0:0:
178,359,232497,2,0,L|221:357,2,31.4999990386963,0|0|0,1:0|0:0|0:0,0:0:0:0:
46,332,232865,5,4,1:3:0:0:
63,330,232957,1,0,0:0:0:0:
80,328,233049,2,0,P|141:324|168:255,1,125.999996154785,2|4,1:3|0:0,0:0:0:0:
162,172,233601,1,2,0:0:0:0:
153,77,233786,1,4,0:3:0:0:
63,183,233970,5,0,1:0:0:0:
51,86,234154,1,2,0:3:0:0:
153,77,234338,2,0,B|186:72|186:72|217:77,1,62.9999980773926,4|0,0:0|0:0,0:0:0:0:
254,46,234614,1,2,0:3:0:0:
254,46,234706,2,0,B|286:51|286:51|326:46,1,62.9999980773926,0|0,1:0|1:0,0:0:0:0:
426,100,235074,5,4,1:3:0:0:
395,194,235258,2,0,P|395:258|440:302,1,125.999996154785,2|4,1:3|0:0,0:0:0:0:
483,323,235718,1,0,0:0:0:0:
483,323,235810,2,0,P|457:350|444:386,1,62.9999980773926,4|0,1:3|0:0,0:0:0:0:
339,330,236178,5,2,0:3:0:0:
234,324,236362,1,2,0:0:0:0:
131,319,236546,2,0,P|98:323|59:328,1,62.9999980773926,4|0,0:0|0:0,0:0:0:0:
117,218,236914,2,0,L|70:224,2,31.4999990386963,0|0|0,1:0|0:0|1:0,0:0:0:0:
106,116,237282,5,4,0:3:0:0:
103,99,237374,1,0,0:0:0:0:
100,82,237466,2,0,P|157:106|239:96,1,125.999996154785,2|4,1:3|0:3,0:0:0:0:
368,61,238019,1,4,0:0:0:0:
284,46,238203,1,4,0:3:0:0:
413,137,238387,5,0,1:0:0:0:
420,244,238571,1,2,0:3:0:0:
429,350,238755,2,0,P|399:342|367:343,1,62.9999980773926,4|0,0:0|0:0,0:0:0:0:
323,325,239031,1,2,0:3:0:0:
323,325,239123,2,0,L|250:326,1,62.9999980773926,0|0,1:0|1:0,0:0:0:0:
145,302,239491,5,4,1:3:0:0:
186,384,239675,2,0,P|130:353|65:356,1,125.999996154785,2|4,0:3|0:0,0:0:0:0:
48,252,240227,1,4,0:3:0:0:
29,150,240411,1,4,0:3:0:0:
23,161,240779,5,2,0:3:0:0:
71,59,240963,2,0,P|101:64|138:56,1,62.9999980773926,4|0,0:0|0:0,0:0:0:0:
218,129,241332,2,0,P|231:114|242:88,2,31.4999990386963,0|0|0,1:0|0:0|0:0,0:0:0:0:
344,131,241700,5,4,1:3:0:0:
344,131,241792,1,0,0:0:0:0:
344,131,241884,2,0,B|392:128|392:128|421:141|421:141|469:138,1,125.999996154785,2|4,0:3|0:0,0:0:0:0:
478,241,242436,1,4,0:3:0:0:
490,343,242620,1,4,0:3:0:0:
360,303,242804,5,0,1:0:0:0:
253,310,242988,1,2,0:3:0:0:
146,315,243172,2,0,P|115:313|84:311,1,62.9999980773926,4|0,0:0|0:0,0:0:0:0:
37,321,243448,1,2,0:3:0:0:
37,321,243540,2,0,P|44:287|35:246,1,62.9999980773926,0|0,1:0|1:0,0:0:0:0:
78,127,243908,5,4,1:3:0:0:
3,185,244092,2,0,P|55:220|117:213,1,125.999996154785,2|4,0:3|0:0,0:0:0:0:
136,255,244552,1,0,0:0:0:0:
136,255,244644,2,0,P|168:245|211:243,1,62.9999980773926,4|0,1:3|0:0,0:0:0:0:
324,163,245013,5,2,0:3:0:0:
217,144,245197,1,2,0:0:0:0:
112,127,245381,2,0,P|115:91|119:46,1,62.9999980773926,4|0,0:0|0:0,0:0:0:0:
100,255,245749,2,0,L|105:214,2,31.4999990386963,0|0|0,1:0|0:0|1:0,0:0:0:0:
86,379,246117,5,4,1:3:0:0:
196,352,246301,2,0,P|255:371|319:347,1,125.999996154785,2|4,3:0|0:2,0:0:0:0:
