osu file format v14

[General]
AudioFilename: audio.mp3
AudioLeadIn: 0
PreviewTime: 205046
Countdown: 0
SampleSet: Soft
StackLeniency: 0.7
Mode: 0
LetterboxInBreaks: 0
WidescreenStoryboard: 0

[Editor]
Bookmarks: 37046,121046,229046
DistanceSpacing: 0.7
BeatDivisor: 4
GridSize: 4
TimelineZoom: 1

[Metadata]
Title:CHASER
TitleUnicode:CHASER
Artist:Cranky
ArtistUnicode:Cranky
Creator:Jounzan
Version:Normal
Source:
Tags:evilelvis v2 featured artist osu! record5-speed mirash pishifat siromaru Hiroshi Watanabe
BeatmapID:1583061
BeatmapSetID:751972

[Difficulty]
HPDrainRate:4
CircleSize:4
OverallDifficulty:4
ApproachRate:5
SliderMultiplier:1.2
SliderTickRate:1

[Events]
//Background and Video events
0,0,"CHASER_by_Melonturtle.png",0,0
//Break Periods
2,73246,82346
2,121246,125846
2,181246,189033
//Storyboard Layer 0 (Background)
//Storyboard Layer 1 (Fail)
//Storyboard Layer 2 (Pass)
//Storyboard Layer 3 (Foreground)
//Storyboard Sound Samples

[TimingPoints]
1046,375,4,2,1,40,1,0
133421,-100,4,2,1,50,0,0
193046,-100,4,2,1,40,0,0
205046,-100,4,2,1,60,0,1
213483,-100,4,2,1,60,0,0
217046,-100,4,2,1,60,0,1
226046,-100,4,2,1,60,0,0
229046,-100,4,2,1,60,0,1
229139,-100,4,2,1,60,0,0

[Colours]
Combo1 : 0,255,128
Combo2 : 232,0,232
Combo3 : 135,15,255
Combo4 : 0,244,62

[HitObjects]
67,49,37046,6,0,L|72:191,1,120,4|8,1:0|1:0,0:0:0:0:
179,106,37983,1,4,3:0:0:0:
179,106,38171,2,0,L|256:112,1,60,8|4,1:0|3:0,0:0:0:0:
271,137,38546,2,0,B|329:123|329:123|408:143,1,120,0|8,1:0|1:0,0:0:0:0:
471,227,39483,5,0,0:0:0:0:
471,227,39671,2,0,L|480:356,1,120,8|0,1:0|1:0,0:0:0:0:
402,313,40421,1,8,1:0:0:0:
282,352,40983,1,4,3:0:0:0:
282,352,41171,2,0,L|201:342,1,60,8|4,1:0|3:0,0:0:0:0:
189,370,41546,2,0,L|197:235,1,120,4|8,1:3|1:0,0:0:0:0:
200,208,42108,2,0,L|192:89,1,120,4|0,3:0|1:0,0:0:0:0:
186,46,42671,1,8,1:0:0:0:
268,30,43046,6,0,B|330:42|330:42|391:30,1,120,6|8,1:0|1:0,0:0:0:0:
458,138,43983,1,0,0:0:0:0:
458,138,44171,2,0,L|388:154,1,60,8|4,1:0|3:0,0:0:0:0:
385,191,44546,2,0,L|245:175,1,120,0|8,1:0|1:0,0:0:0:0:
145,214,45483,1,0,0:0:0:0:
145,214,45671,2,0,L|0:225,1,120,8|0,1:0|1:0,0:0:0:0:
69,294,46421,1,8,1:0:0:0:
194,284,46983,1,0,0:0:0:0:
194,284,47171,2,0,L|260:293,1,60,8|4,1:0|3:0,0:0:0:0:
293,279,47546,6,0,L|300:209,1,60,4|0,1:0|1:0,0:0:0:0:
323,185,47921,2,0,L|330:115,1,60,0|0,1:0|1:0,0:0:0:0:
351,89,48296,1,0,1:0:0:0:
351,89,48483,2,0,B|293:102|293:102|216:75,1,120,6|0,1:0|0:0,0:0:0:0:
201,106,49046,6,0,B|136:92|141:138|69:130,1,120,6|8,1:0|1:0,0:0:0:0:
17,179,49796,2,0,P|9:235|34:318,1,120,4|8,3:0|1:0,0:0:0:0:
106,303,50546,2,0,L|185:315,1,60,0|0,1:0|0:0,0:0:0:0:
207,313,50921,2,0,L|278:304,1,60,8|2,1:0|0:0,0:0:0:0:
305,322,51296,2,0,B|361:304|361:304|440:330,1,120,4|8,3:0|1:0,0:0:0:0:
465,252,52046,6,2,P|467:216|457:123,1,120,2|8,1:0|1:0,1:1:0:0:
447,92,52608,1,2,3:1:0:0:
456,51,52796,2,0,L|327:69,1,120,0|8,0:0|1:0,0:0:0:0:
256,42,53546,2,0,L|264:106,1,60,0|2,1:0|0:0,0:0:0:0:
267,143,53921,2,0,L|263:204,1,60,8|0,1:0|0:0,0:0:0:0:
271,244,54296,1,0,0:0:0:0:
115,307,55046,6,0,L|43:301,2,60,6|4|8,1:0|1:3|1:0,0:0:0:0:
149,330,55608,1,4,3:0:0:0:
188,314,55796,2,0,B|206:276|206:276|194:178,1,120,0|8,1:0|1:0,0:0:0:0:
204,157,56358,1,4,1:3:0:0:
190,117,56546,6,0,L|194:52,2,60,0|2|8,1:0|0:0|1:0,0:0:0:0:
270,93,57296,2,0,L|403:110,1,120,4|8,1:3|1:0,0:0:0:0:
430,112,57858,1,4,1:3:0:0:
470,99,58046,2,0,B|492:158|492:158|479:232,1,120,6|8,1:0|1:0,0:0:0:0:
496,253,58608,1,2,3:1:0:0:
480,291,58796,2,0,L|408:300,1,60,4|2,1:3|0:0,0:0:0:0:
378,302,59171,2,0,L|307:295,1,60,8|4,1:0|3:0,0:0:0:0:
277,304,59546,5,4,1:0:0:0:
194,288,59921,1,4,1:0:0:0:
112,308,60296,1,12,1:0:0:0:
112,308,60483,2,0,P|107:257|114:169,1,120,2|0,1:0|0:0,0:0:0:0:
102,147,61046,6,0,L|224:137,1,120,6|8,1:0|1:0,0:0:0:0:
305,146,61796,1,4,1:3:0:0:
388,135,62171,2,0,L|459:143,1,60,8|2,1:0|0:0,0:0:0:0:
487,126,62546,6,0,P|506:203|493:261,1,120,4|4,1:0|1:0,0:0:0:0:
420,270,63296,1,0,0:0:0:0:
420,270,63483,2,0,L|288:283,1,120,2|0,1:0|1:0,0:0:0:0:
265,304,64046,6,0,B|209:286|209:286|127:318,1,120,6|8,1:0|1:0,0:0:0:0:
150,350,64608,2,0,B|93:327|93:327|37:345,1,120,2|8,1:0|1:0,0:0:0:0:
9,314,65171,1,8,1:0:0:0:
59,246,65546,6,0,P|64:201|51:120,1,120,4|8,1:3|1:0,0:0:0:0:
113,68,66296,2,0,L|259:63,1,120,4|0,1:3|1:0,0:0:0:0:
273,75,66858,1,0,1:0:0:0:
312,59,67046,6,0,B|371:72|371:72|448:46,1,120,6|8,1:0|1:0,0:0:0:0:
450,133,67796,2,0,P|453:174|452:256,1,120,4|8,1:3|1:0,0:0:0:0:
331,217,68733,5,0,0:0:0:0:
331,217,68921,2,0,L|253:229,1,60,4|2,1:3|0:0,0:0:0:0:
232,209,69296,1,8,1:0:0:0:
190,208,69483,2,0,P|148:222|101:294,1,120,2|0,1:0|0:0,0:0:0:0:
96,322,70046,5,2,1:0:0:0:
111,361,70233,1,2,1:0:0:0:
181,315,70608,1,2,3:2:0:0:
181,315,70796,2,0,L|306:330,1,120,4|8,1:3|1:0,0:0:0:0:
336,307,71358,1,0,1:0:0:0:
374,324,71546,6,0,P|384:265|360:186,1,120,4|4,1:0|1:0,0:0:0:0:
365,122,72296,1,4,1:0:0:0:
298,70,72671,2,0,L|227:75,1,60,8|2,1:0|0:3,0:0:0:0:
196,74,73046,1,4,1:0:0:0:
54,96,83546,5,4,1:0:0:0:
54,96,83733,1,4,1:0:0:0:
65,182,84108,1,2,1:3:0:0:
52,265,84483,2,0,L|43:329,2,60,2|4|4,1:3|1:3|1:3,0:0:0:0:
94,262,85046,6,0,L|233:287,1,120,4|8,1:0|1:0,0:0:0:0:
332,248,85983,1,2,0:0:0:0:
332,248,86171,2,0,L|257:235,1,60,8|0,1:0|0:0,0:0:0:0:
241,209,86546,6,0,P|233:168|254:68,1,120,2|10,1:0|1:0,0:0:0:0:
359,40,87483,1,2,0:0:0:0:
359,40,87671,2,0,P|367:81|346:181,1,120,8|4,1:0|1:0,0:0:0:0:
406,225,88421,1,8,1:0:0:0:
304,299,88983,1,2,0:3:0:0:
304,299,89171,2,0,L|223:289,1,60,8|0,1:0|0:0,0:0:0:0:
202,289,89546,6,0,L|55:302,1,120,0|8,1:0|1:0,0:0:0:0:
40,306,90108,2,0,P|23:259|32:187,1,120,2|2,0:3|1:3,0:0:0:0:
55,155,90671,1,8,1:0:0:0:
134,128,91046,6,0,B|196:140|196:140|257:128,1,120,4|8,1:0|1:0,0:0:0:0:
332,32,91983,1,2,0:0:0:0:
332,32,92171,2,0,L|334:105,1,60,8|0,1:0|0:0,0:0:0:0:
354,128,92546,2,0,L|365:271,1,120,0|8,1:0|1:0,0:0:0:0:
300,356,93483,1,2,0:3:0:0:
300,356,93671,2,0,L|155:367,1,120,8|4,1:0|1:0,0:0:0:0:
113,314,94421,1,8,1:0:0:0:
32,217,94983,1,2,0:3:0:0:
32,217,95171,2,0,B|25:184|25:184|35:137,1,60,8|0,1:0|0:0,0:0:0:0:
67,137,95546,6,0,L|129:134,1,60,4|2,1:0|0:3,0:0:0:0:
169,132,95921,2,0,L|251:133,1,60,4|2,1:0|0:3,0:0:0:0:
270,123,96296,1,4,1:0:0:0:
270,123,96483,2,0,B|328:136|328:136|405:109,1,120,0|0,1:0|0:0,0:0:0:0:
427,127,97046,5,4,1:2:0:0:
295,231,97796,2,0,B|199:204|219:291|103:272,1,180,0|0,0:0|0:0,0:0:0:0:
88,253,98546,1,4,0:0:0:0:
191,120,99296,2,0,P|226:126|255:126,1,60,2|2,1:0|1:0,0:0:0:0:
161,37,100046,6,0,P|109:98|15:114,2,180,2|2|0,1:0|1:0|0:0,0:0:0:0:
243,20,101546,5,2,0:0:0:0:
255,187,102296,2,0,P|255:244|257:275,2,60,0|2|0,0:0|1:0|1:0,0:0:0:0:
262,145,102858,1,2,1:0:0:0:
255,103,103046,5,2,1:0:0:0:
417,59,103796,2,0,P|422:122|422:264,1,180,2|0,0:0|0:0,0:0:0:0:
419,280,104546,1,2,0:0:0:0:
294,261,105108,2,0,L|219:278,1,60,0|2,0:0|1:0,0:0:0:0:
198,293,105483,2,0,P|142:273|69:280,1,120,2|0,1:0|0:0,0:0:0:0:
42,289,106046,1,2,1:0:0:0:
22,326,106233,1,2,1:0:0:0:
92,173,106983,5,2,0:0:0:0:
92,173,107171,2,0,B|84:141|84:141|90:100,1,60,0|0,0:0|0:0,0:0:0:0:
77,72,107546,2,0,B|134:63|133:97|194:94,1,120,2|2,1:0|0:0,0:0:0:0:
276,86,108296,2,0,L|357:93,1,60,2|2,0:0|1:0,0:0:0:0:
377,88,108671,2,0,L|450:83,1,60,2|2,0:0|0:0,0:0:0:0:
468,113,109046,6,0,P|402:143|383:242,1,180,6|2,1:0|0:0,0:0:0:0:
391,282,109796,2,0,L|305:290,1,60,4|4,1:3|1:3,0:0:0:0:
295,276,110171,2,0,L|211:276,1,60,8|4,1:0|1:3,0:0:0:0:
195,260,110546,5,4,1:0:0:0:
81,205,111108,2,0,L|144:199,1,60,2|2,0:0|1:0,0:0:0:0:
171,170,111483,2,0,P|175:127|167:27,1,120,6|0,1:0|0:0,0:0:0:0:
147,15,112046,1,2,1:0:0:0:
68,46,112421,1,8,1:0:0:0:
68,46,112608,2,0,L|1:44,2,60,2|2|0,1:0|1:0|0:0,0:0:0:0:
79,86,113171,2,0,P|77:132|84:162,1,60,8|4,1:0|1:3,0:0:0:0:
91,185,113546,5,4,1:0:0:0:
212,217,114108,2,0,L|276:209,1,60,0|4,0:0|1:3,0:0:0:0:
313,204,114483,2,0,B|368:189|368:189|456:213,1,120,8|4,1:0|1:3,0:0:0:0:
470,199,115046,5,2,1:0:0:0:
443,75,115608,1,0,0:0:0:0:
443,75,115796,2,0,L|366:86,1,60,4|4,1:3|1:3,0:0:0:0:
341,82,116171,2,0,L|277:68,1,60,8|4,1:0|1:3,0:0:0:0:
240,75,116546,5,4,1:0:0:0:
138,149,117108,2,0,B|58:157,1,60,4|10,1:3|1:0,0:0:0:0:
37,163,117483,2,0,P|49:226|47:302,1,120,2|0,1:0|0:0,0:0:0:0:
35,321,118046,1,6,1:0:0:0:
4,349,118233,1,2,1:0:0:0:
121,302,118796,6,0,L|184:311,1,60,4|4,1:3|1:3,0:0:0:0:
219,295,119171,1,8,1:0:0:0:
256,313,119358,1,0,1:0:0:0:
294,296,119546,6,0,P|337:285|425:306,1,120,4|8,1:0|1:0,0:0:0:0:
440,268,120108,1,0,0:0:0:0:
481,264,120296,2,0,L|482:200,1,60,4|0,1:3|1:0,0:0:0:0:
480,161,120671,2,0,L|476:96,1,60,0|0,1:0|1:0,0:0:0:0:
480,59,121046,1,4,1:0:0:0:
256,192,127046,12,0,132483,1:0:0:0:
53,60,133421,5,12,1:0:0:0:
132,86,133796,2,0,P|195:88|264:76,1,120,4|8,1:3|1:0,0:0:0:0:
331,103,134546,2,0,L|395:109,1,60,4|4,1:3|1:3,0:0:0:0:
432,110,134921,1,8,1:0:0:0:
404,189,135296,2,0,P|403:237|418:332,1,120,4|8,1:3|1:0,0:0:0:0:
335,343,136046,6,0,P|332:296|331:273,1,60,6|0,1:0|0:0,0:0:0:0:
328,241,136421,1,8,1:0:0:0:
322,199,136608,2,0,B|259:179|265:227|184:214,1,120,2|0,1:0|1:0,0:0:0:0:
164,210,137171,2,0,L|88:202,1,60,8|0,1:0|1:0,0:0:0:0:
64,217,137546,6,0,P|59:175|67:89,1,120,4|8,1:3|1:0,0:0:0:0:
133,48,138296,2,0,L|212:55,1,60,2|0,1:3|1:0,0:0:0:0:
234,54,138671,1,8,1:0:0:0:
310,88,139046,6,0,P|359:89|423:136,1,120,4|8,1:0|1:0,0:0:0:0:
342,167,139796,2,0,P|292:191|260:255,1,120,4|8,1:3|1:0,0:0:0:0:
345,250,140546,6,0,L|409:262,1,60,0|0,1:0|1:0,0:0:0:0:
445,269,140921,1,8,1:0:0:0:
486,195,141296,2,0,P|486:150|470:61,1,120,4|8,1:3|1:0,0:0:0:0:
400,35,142046,6,0,L|339:49,1,60,6|0,1:0|0:0,0:0:0:0:
300,59,142421,1,8,1:0:0:0:
259,47,142608,2,0,B|201:31|201:31|123:50,1,120,2|0,1:0|0:0,0:0:0:0:
102,58,143171,2,0,L|30:51,1,60,8|0,1:0|0:0,0:0:0:0:
16,85,143546,5,4,1:2:0:0:
51,161,143921,1,4,1:2:0:0:
17,237,144296,1,2,1:3:0:0:
39,317,144671,2,0,L|114:304,1,60,8|8,1:0|1:0,0:0:0:0:
132,331,145046,6,0,L|276:351,1,120,4|8,1:0|1:0,0:0:0:0:
308,286,145796,1,4,1:3:0:0:
270,210,146171,2,0,B|263:183|263:183|269:139,1,60,8|0,1:0|0:0,0:0:0:0:
261,109,146546,6,0,L|387:120,1,120,2|8,1:0|1:0,0:0:0:0:
415,96,147108,1,4,1:3:0:0:
456,105,147296,1,8,1:0:0:0:
487,182,147671,2,0,L|425:197,1,60,0|8,0:0|1:0,0:0:0:0:
387,203,148046,6,0,P|385:258|403:340,1,120,6|8,1:0|1:0,0:0:0:0:
366,351,148608,2,0,L|290:361,1,60,2|0,1:0|0:0,0:0:0:0:
269,339,148983,1,0,1:0:0:0:
228,351,149171,2,0,L|162:340,1,60,8|0,1:0|0:0,0:0:0:0:
132,363,149546,2,0,P|126:319|130:237,1,120,0|8,1:0|1:0,0:0:0:0:
105,162,150296,1,4,1:3:0:0:
251,84,151046,6,0,L|249:22,2,60,6|4|4,1:0|1:3|1:3,0:0:0:0:
231,118,151608,1,0,1:0:0:0:
250,149,151796,2,0,P|252:205|246:291,1,120,0|4,1:0|1:3,0:0:0:0:
235,308,152358,1,0,1:0:0:0:
228,349,152546,2,0,L|148:352,1,60,0|4,1:0|1:3,0:0:0:0:
133,326,152921,1,4,1:3:0:0:
95,345,153108,1,4,1:3:0:0:
57,326,153296,2,0,B|43:272|43:272|63:182,1,120,4|4,1:3|1:3,0:0:0:0:
49,168,153858,1,0,0:0:0:0:
66,129,154046,6,0,B|122:115|123:158|189:156,1,120,6|4,1:0|1:3,0:0:0:0:
217,173,154608,2,2,P|264:159|392:199,1,180,2|0,1:0|1:0,1:1:0:0:
412,226,155358,1,0,1:0:0:0:
418,267,155546,5,4,1:0:0:0:
363,330,155921,1,4,1:0:0:0:
280,311,156296,1,0,1:0:0:0:
196,319,156671,2,0,P|161:311|120:316,1,60,0|0,1:0|1:0,0:0:0:0:
95,316,157046,6,0,P|99:259|97:182,1,120,4|8,1:0|1:0,0:0:0:0:
92,112,157796,1,0,1:3:0:0:
87,28,158171,2,0,L|150:36,1,60,8|0,1:0|0:0,0:0:0:0:
187,23,158546,6,0,P|189:72|188:147,1,120,4|8,1:3|1:0,0:0:0:0:
209,178,159108,1,0,1:3:0:0:
194,217,159296,1,0,0:0:0:0:
182,300,159671,5,8,1:0:0:0:
191,340,159858,1,0,0:0:0:0:
227,361,160046,2,0,L|299:356,1,60,4|14,1:3|1:3,0:0:0:0:
323,335,160421,2,0,L|401:341,1,60,8|2,1:0|1:3,0:0:0:0:
422,353,160796,2,0,B|434:299|434:299|418:208,1,120,8|0,1:0|1:0,0:0:0:0:
434,151,161546,5,4,1:3:0:0:
400,73,161921,2,0,L|402:12,2,60,0|4|0,1:0|1:3|1:0,0:0:0:0:
368,101,162483,2,0,B|340:94|340:94|302:99,1,60,12|0,1:3|1:0,0:0:0:0:
239,145,163046,6,0,B|180:125|177:169|117:159,1,120,4|8,1:0|1:0,0:0:0:0:
41,179,163796,2,0,P|45:215|47:248,1,60,8|14,1:0|1:3,0:0:0:0:
65,276,164171,1,8,1:0:0:0:
51,315,164358,1,2,0:3:0:0:
73,350,164546,6,0,P|133:340|185:365,1,120,4|8,1:3|1:0,0:0:0:0:
245,306,165296,2,0,L|330:313,1,60,8|14,1:0|1:3,0:0:0:0:
343,293,165671,1,8,1:0:0:0:
382,305,165858,1,2,1:3:0:0:
423,301,166046,6,0,B|437:257|437:257|422:173,1,120,4|8,1:3|1:0,0:0:0:0:
422,100,166796,2,0,L|485:106,2,60,6|12|4,1:3|1:3|1:3,0:0:0:0:
389,72,167358,1,6,1:3:0:0:
354,96,167546,6,0,L|287:101,1,60,6|8,1:3|1:3,0:0:0:0:
253,88,167921,1,8,1:0:0:0:
215,106,168108,1,2,1:3:0:0:
176,88,168296,2,2,P|80:95|34:177,1,180,2|2,1:2|1:2,0:0:0:0:
45,200,169046,6,0,L|62:333,1,120,6|10,1:0|1:0,0:0:0:0:
136,283,169796,1,2,1:0:0:0:
209,323,170171,1,10,1:0:0:0:
269,265,170546,6,0,L|280:193,1,60,4|8,1:3|1:3,0:0:0:0:
279,163,170921,2,0,L|271:92,1,60,8|10,1:0|1:3,0:0:0:0:
273,61,171296,1,4,1:3:0:0:
353,38,171671,1,8,1:0:0:0:
431,67,172046,6,0,P|441:111|441:204,1,120,6|8,1:0|1:0,0:0:0:0:
456,225,172608,1,10,1:3:0:0:
445,265,172796,2,0,L|376:277,1,60,6|12,1:3|1:3,0:0:0:0:
347,257,173171,1,8,1:0:0:0:
307,271,173358,1,8,1:3:0:0:
266,259,173546,6,0,L|180:255,1,60,6|8,1:0|1:3,0:0:0:0:
168,237,173921,2,0,L|108:239,1,60,8|8,1:0|1:3,0:0:0:0:
68,255,174296,2,0,P|59:197|72:134,1,120,6|12,1:3|1:0,0:0:0:0:
66,95,174858,1,0,0:0:0:0:
193,32,175421,6,0,B|199:62|199:62|194:110,1,60,8|12,1:0|1:3,0:0:0:0:
192,134,175796,2,0,L|314:141,1,120,4|8,1:3|1:0,0:0:0:0:
473,93,176921,5,8,1:0:0:0:
481,134,177108,1,8,1:3:0:0:
466,173,177296,2,0,B|460:204|460:204|474:237,1,60,4|8,1:3|1:3,0:0:0:0:
467,274,177671,1,8,1:0:0:0:
356,334,178233,5,12,1:3:0:0:
333,298,178421,2,0,L|336:230,1,60,8|8,1:0|1:3,0:0:0:0:
337,195,178796,2,0,B|281:209|281:209|210:191,1,120,4|8,1:3|1:0,0:0:0:0:
189,217,179358,1,10,0:3:0:0:
153,194,179546,6,0,B|120:187|120:187|72:200,1,60,4|8,1:0|1:3,0:0:0:0:
56,175,179921,1,8,1:0:0:0:
59,133,180108,1,8,1:0:0:0:
43,93,180296,2,0,B|115:51|120:134|227:123,1,180,2|0,1:0|1:0,0:0:0:0:
247,101,181046,1,4,1:0:0:0:
256,192,190233,12,4,192296,1:3:0:0:
94,69,193046,6,0,P|98:120|99:209,1,120,4|8,1:0|1:0,0:0:0:0:
219,150,193983,1,4,1:3:0:0:
252,175,194171,2,0,L|326:169,1,60,8|0,1:0|0:0,0:0:0:0:
353,178,194546,6,0,P|389:176|510:264,1,180,2|0,1:0|0:0,0:0:0:0:
499,293,195296,2,0,L|423:296,1,60,0|4,1:0|1:3,0:0:0:0:
396,297,195671,1,8,1:0:0:0:
314,317,196046,6,0,L|168:310,1,120,4|8,1:0|1:0,0:0:0:0:
76,264,196983,1,4,1:3:0:0:
67,222,197171,2,0,P|66:181|71:151,1,60,10|0,1:0|0:0,0:0:0:0:
59,124,197546,6,0,B|162:96|128:166|241:161,1,180,6|0,1:0|0:0,0:0:0:0:
261,136,198296,2,0,L|343:137,1,60,2|4,1:3|1:2,0:0:0:0:
359,118,198671,1,0,0:0:0:0:
424,65,199046,6,0,B|447:90|447:90|434:198,1,120,4|10,1:0|1:0,0:0:0:0:
417,212,199608,1,2,1:0:0:0:
433,250,199796,1,0,0:0:0:0:
359,290,200171,2,0,L|288:296,1,60,8|0,1:0|0:0,0:0:0:0:
258,307,200546,6,0,L|250:173,1,120,4|8,1:3|1:0,0:0:0:0:
235,148,201108,1,0,0:0:0:0:
244,106,201296,1,0,1:0:0:0:
208,32,201671,2,0,L|142:42,1,60,8|0,1:0|0:0,0:0:0:0:
256,192,202046,12,2,204296,1:3:0:0:
50,134,205046,6,0,P|48:181|57:254,1,120,6|10,1:0|1:0,0:0:0:0:
135,220,205796,1,2,1:0:0:0:
217,236,206171,2,0,P|221:285|218:304,1,60,10|0,1:0|0:0,0:0:0:0:
251,323,206546,6,0,L|377:317,1,120,6|10,1:0|1:0,0:0:0:0:
411,329,207108,1,0,0:0:0:0:
452,304,207296,6,0,L|454:245,1,60,2|4,1:0|1:2,0:0:0:0:
402,129,208046,2,0,L|395:54,1,60,6|0,1:0|0:0,0:0:0:0:
313,82,208608,1,4,1:2:0:0:
281,54,208796,2,0,L|149:75,1,120,0|10,0:0|1:0,0:0:0:0:
122,61,209358,1,0,0:0:0:0:
84,81,209546,6,0,B|77:116|77:116|87:150,1,60,6|2,1:0|1:0,0:0:0:0:
115,166,209921,1,10,1:0:0:0:
91,200,210108,1,0,0:0:0:0:
118,232,210296,2,0,L|114:298,1,60,2|4,1:0|1:0,0:0:0:0:
197,280,210858,5,2,1:3:0:0:
196,237,211046,2,0,L|181:110,1,120,6|10,1:0|1:0,0:0:0:0:
196,78,211608,1,0,0:0:0:0:
182,38,211796,1,2,1:0:0:0:
265,29,212171,2,0,L|338:34,1,60,10|2,1:0|0:1,0:0:0:0:
347,68,212546,6,0,B|405:56|405:56|471:75,1,120,2|10,1:0|1:0,0:0:0:0:
492,103,213108,1,0,0:0:0:0:
485,144,213296,6,0,L|477:217,1,60,6|4,1:0|1:2,0:0:0:0:
433,274,213858,1,0,0:0:0:0:
431,316,214046,2,0,P|391:316|354:332,1,60,6|2,1:0|1:0,0:0:0:0:
298,280,214608,1,0,0:0:0:0:
276,316,214796,2,0,P|218:313|160:267,1,120,4|8,1:3|1:0,0:0:0:0:
142,245,215358,1,4,1:3:0:0:
125,211,215546,6,0,L|53:222,1,60,4|2,1:2|1:3,0:0:0:0:
30,196,215921,1,8,1:0:0:0:
37,154,216108,1,4,1:3:0:0:
25,115,216296,1,0,1:0:0:0:
27,73,216483,2,0,P|89:55|148:83,1,120,2|2,1:3|1:0,0:0:0:0:
178,60,217046,5,6,1:0:0:0:
254,102,217421,1,10,1:0:0:0:
254,102,217608,2,0,L|338:106,1,60,0|2,0:0|1:0,0:0:0:0:
351,91,217983,1,2,1:0:0:0:
391,103,218171,1,10,1:0:0:0:
469,132,218546,6,0,P|470:173|480:257,1,120,6|10,1:0|1:0,0:0:0:0:
467,291,219108,1,2,0:1:0:0:
385,270,219483,1,2,1:0:0:0:
353,298,219671,2,0,L|279:304,1,60,10|0,1:0|0:0,0:0:0:0:
258,326,220046,6,0,P|251:260|260:187,1,120,6|10,1:0|1:0,0:0:0:0:
259,165,220608,2,0,P|260:107|253:37,1,120,0|2,0:0|1:0,0:0:0:0:
216,26,221171,2,0,L|136:39,1,60,10|0,1:0|0:0,0:0:0:0:
141,74,221546,6,0,B|80:60|80:60|4:86,1,120,2|10,1:0|1:0,0:0:0:0:
50,112,222108,1,0,1:0:0:0:
38,152,222296,2,0,L|36:221,1,60,2|6,1:0|1:0,0:0:0:0:
64,242,222671,1,10,1:0:0:0:
67,325,223046,6,0,L|3:333,2,60,4|4|4,1:0|1:3|1:3,0:0:0:0:
103,346,223608,1,4,3:0:0:0:
138,322,223796,2,0,L|263:339,1,120,4|0,3:0|1:0,0:0:0:0:
298,347,224358,1,0,1:0:0:0:
335,328,224546,1,4,1:0:0:0:
373,344,224733,1,4,1:3:0:0:
413,332,224921,2,0,B|418:305|418:305|405:251,1,60,4|4,1:3|1:3,0:0:0:0:
395,234,225296,5,4,3:0:0:0:
417,198,225483,2,0,L|425:68,1,120,4|0,1:2|1:0,0:0:0:0:
430,36,226046,2,0,L|364:33,1,60,6|2,1:0|1:0,0:0:0:0:
333,52,226421,6,0,B|274:38|271:85|199:77,1,120,8|0,1:0|1:0,0:0:0:0:
139,49,227171,1,8,1:0:0:0:
75,103,227546,6,0,L|85:169,1,60,4|4,1:0|1:3,0:0:0:0:
91,203,227921,2,0,L|83:271,1,60,4|4,1:3|1:3,0:0:0:0:
80,304,228296,1,4,1:3:0:0:
108,335,228483,1,6,1:0:0:0:
150,334,228671,2,0,B|210:322|210:322|283:345,1,120,2|4,0:0|1:0,0:0:0:0:
