osu file format v14

[General]
AudioFilename: audio.mp3
AudioLeadIn: 0
PreviewTime: 82125
Countdown: 0
SampleSet: Soft
StackLeniency: 0.7
Mode: 0
LetterboxInBreaks: 0
WidescreenStoryboard: 1

[Editor]
Bookmarks: 26496,47068,67639,83068,93354,104925,115211,128068,148639,169211,184639,194925,205211
DistanceSpacing: 1
BeatDivisor: 6
GridSize: 32
TimelineZoom: 0.9499999

[Metadata]
Title:Tatakai no Doutei
TitleUnicode:戦いの道程
Artist:CraftP
ArtistUnicode:クラフトP
Creator:Noffy
Version:Trynna's Slightly Harder
Source:
Tags:the road of battle virgin kagamine len vocaloid trynna 鏡音レン
BeatmapID:1695531
BeatmapSetID:807942

[Difficulty]
HPDrainRate:5.6
CircleSize:4
OverallDifficulty:7.6
ApproachRate:8.4
SliderMultiplier:1.9
SliderTickRate:1

[Events]
//Background and Video events
0,0,"virgin.jpg",0,0
Video,0,"road.avi"
//Break Periods
2,205397,209007
//Storyboard Layer 0 (Background)
//Storyboard Layer 1 (Fail)
//Storyboard Layer 2 (Pass)
//Storyboard Layer 3 (Foreground)
//Storyboard Sound Samples

[TimingPoints]
3340,428.571428571429,3,2,1,100,1,0
22625,-200,3,2,1,100,0,0
25197,-117.647058823529,3,2,1,100,0,0
80482,-117.647058823529,3,2,1,70,0,0
81768,-117.647058823529,3,2,1,100,0,0
82197,-181.818181818181,3,2,1,100,0,0
83054,-100,3,2,1,100,0,1
102768,-100,3,2,1,50,0,1
103197,-100,3,2,1,70,0,1
103625,-133.333333333333,3,2,1,100,0,1
104911,-100,3,2,1,100,0,0
128054,-117.647058823529,3,2,1,100,0,0
182054,-117.647058823529,3,2,1,70,0,0
183340,-117.647058823529,3,2,1,100,0,0
183768,-181.818181818181,3,2,1,100,0,0
184625,-100,3,2,1,100,0,1
193625,-100,3,2,1,50,0,1
194054,-100,3,2,1,60,0,1
194482,-100,3,2,1,70,0,1
194911,-100,3,2,1,100,0,1
204340,-100,3,2,1,50,0,1
204768,-100,3,2,1,70,0,1
205197,-100,3,2,1,70,0,0
209697,638.297872340426,3,2,1,60,1,0
209697,-106.837606837607,3,2,1,60,0,0
211165,550.45871559633,3,2,1,60,1,0
211472,517.241379310345,3,2,1,60,1,8
211472,-137.741046831956,3,2,1,60,0,0
213023,-137.741046831956,3,2,1,40,0,0
213540,555.555555555556,3,2,1,60,1,8
213540,-128.205128205128,3,2,1,60,0,8
214651,521.739130434783,3,2,1,40,1,8
214651,-136.612021857923,3,2,1,40,0,8
215172,-136.612021857923,3,2,1,60,0,0
216731,545.454545454546,3,2,1,40,1,8
216731,-131.233595800525,3,2,1,40,0,8
218353,545.454545454546,3,2,1,60,1,0
218353,-131.578947368421,3,2,1,60,0,0
219988,563.380281690141,3,2,1,60,1,0
219988,-131.578947368421,3,2,1,60,0,0
220552,666.666666666667,3,2,1,60,1,8
220552,-106.837606837607,3,2,1,60,0,8
221218,705.882352941176,3,2,1,40,1,0
221218,-106.837606837607,3,2,1,40,0,0
221923,681.818181818182,3,2,1,20,1,0
221923,-100,3,2,1,20,0,0
222607,428.571428571429,3,2,1,20,1,8
222607,-200,3,2,1,20,0,0
223892,-200,3,2,1,15,0,0
224321,-200,3,2,1,13,0,0
224749,-200,3,2,1,11,0,0
225178,-200,3,2,1,10,0,0
225607,-200,3,2,1,8,0,0
226035,-200,3,2,1,6,0,0
226464,-200,3,2,1,5,0,0

[Colours]
Combo1 : 198,189,159
Combo2 : 182,146,20

[HitObjects]
69,60,2911,5,0,0:0:0:0:
63,91,3054,1,0,0:0:0:0:
72,122,3197,1,0,0:0:0:0:
143,87,3340,6,0,P|190:85|237:94,1,95,2|2,0:1|0:1,0:0:0:0:
237,94,3768,1,0,1:0:0:0:
400,14,3982,1,8,0:3:0:0:
288,6,4197,1,8,1:2:0:0:
336,107,4411,1,0,0:0:0:0:
308,193,4625,6,0,L|316:287,1,95,10|2,0:1|0:1,0:0:0:0:
277,369,5054,1,8,0:3:0:0:
394,338,5268,1,10,0:0:0:0:
229,297,5482,1,2,0:0:0:0:
181,278,5625,1,2,0:2:0:0:
130,286,5768,1,2,0:2:0:0:
89,316,5911,6,0,P|91:268|89:221,1,95,2|2,0:1|0:1,0:0:0:0:
87,217,6340,1,0,1:0:0:0:
113,36,6554,1,8,0:3:0:0:
43,100,6768,1,10,1:2:0:0:
85,128,6911,1,2,0:2:0:0:
135,130,7054,1,2,0:2:0:0:
178,105,7197,6,0,P|225:96|272:101,1,95,10|2,0:1|0:1,0:0:0:0:
393,138,7625,2,0,P|362:102|343:58,1,95,8|10,0:3|0:0,0:0:0:0:
495,31,8054,1,2,0:0:0:0:
489,81,8197,1,2,0:0:0:0:
481,131,8340,1,2,0:0:0:0:
471,180,8482,6,0,L|480:255,2,63.3333333333333,2|2|2,0:1|0:2|0:2,0:0:0:0:
386,223,8911,2,0,L|377:298,2,63.3333333333333,2|2|2,0:2|0:2|0:2,0:0:0:0:
287,246,9340,1,8,0:2:0:0:
249,249,9482,1,2,0:2:0:0:
211,251,9625,1,2,0:2:0:0:
172,252,9768,6,0,P|126:232|94:201,1,95,10|2,0:1|0:1,0:0:0:0:
172,21,10197,1,8,0:3:0:0:
172,165,10411,1,10,0:0:0:0:
88,73,10625,1,2,0:0:0:0:
245,123,10840,1,8,0:0:0:0:
338,94,11054,6,0,P|335:46|335:0,1,95,2|2,0:1|0:1,0:0:0:0:
336,0,11482,1,0,1:0:0:0:
495,46,11697,1,8,0:3:0:0:
421,124,11911,1,10,1:2:0:0:
405,172,12054,1,2,0:2:0:0:
407,222,12197,1,2,0:2:0:0:
426,268,12340,5,10,0:0:0:0:
335,323,12554,1,10,0:0:0:0:
496,360,12768,1,10,0:0:0:0:
250,362,13054,1,0,0:0:0:0:
250,362,13197,2,0,L|239:289,2,63.3333333333333,2|2|2,0:0|0:0|0:0,0:0:0:0:
150,334,13625,6,0,B|129:235|186:248|167:148,1,190,6|0,0:1|0:0,0:0:0:0:
336,74,14340,1,0,0:0:0:0:
336,74,14482,2,0,L|403:88,2,63.3333333333333,2|2|2,0:0|0:0|0:0,0:0:0:0:
272,17,14911,6,0,B|206:22|206:22|152:46|152:46|88:49,1,190,10|2,0:1|0:0,0:0:0:0:
36,115,15554,1,0,0:0:0:0:
122,181,15768,2,0,P|108:210|101:241,2,63.3333333333333,2|2|2,0:0|0:0|0:0,0:0:0:0:
188,236,16197,6,0,P|201:264|208:295,1,63.3333333333333,2|2,0:0|0:0,0:0:0:0:
145,368,16482,2,0,P|211:331|282:361,1,158.333333333333,2|0,0:0|0:0,0:0:0:0:
282,361,17054,1,2,0:0:0:0:
445,191,17482,6,0,L|436:285,1,95,10|0,0:1|0:0,0:0:0:0:
340,157,17911,2,0,L|348:251,1,95,2|0,0:0|0:0,0:0:0:0:
412,116,18340,1,2,0:0:0:0:
381,83,18482,1,2,0:0:0:0:
337,75,18625,1,2,0:0:0:0:
295,89,18768,6,0,B|245:88|256:112|204:112,1,95,2|2,0:1|0:0,0:0:0:0:
31,152,19197,2,0,P|17:106|26:60,1,95,2|2,0:1|0:0,0:0:0:0:
160,28,19625,1,2,0:1:0:0:
100,101,19840,1,2,0:0:0:0:
140,191,20054,6,0,P|133:238|129:285,1,95,2|2,0:1|0:1,0:0:0:0:
173,380,20482,2,0,P|127:366|81:375,1,95,2|2,0:1|0:0,0:0:0:0:
233,306,20911,1,2,0:1:0:0:
296,381,21125,1,2,0:0:0:0:
377,301,21340,6,0,P|374:238|396:179,1,126.666666666667,2|2,0:0|0:0,0:0:0:0:
399,153,21768,2,0,P|430:164|468:168,2,63.3333333333333,2|2|2,0:0|0:0|0:0,0:0:0:0:
338,94,22197,2,0,P|332:61|316:26,2,63.3333333333333,2|2|2,0:0|0:0|0:0,0:0:0:0:
312,174,22625,1,6,0:1:0:0:
256,192,22697,12,2,25197,0:3:0:0:
256,192,25625,5,2,0:3:0:0:
256,192,26054,2,0,B|201:186|209:218|151:211,1,107.666668720245,2|0,0:3|0:0,0:0:0:0:
134,227,26482,6,0,L|134:146,1,80.750001540184,2|2,0:0|0:0,0:0:0:0:
260,62,27125,1,0,0:0:0:0:
260,62,27340,2,0,P|310:63|343:76,1,80.750001540184,0|0,0:0|0:0,0:0:0:0:
412,133,27768,6,0,B|444:72|413:24|413:24|433:16|453:0,2,161.500003080368,2|2|0,0:3|0:3|0:0,0:0:0:0:
490,277,29054,6,0,P|450:269|410:266,1,80.750001540184,2|2,0:0|0:0,0:0:0:0:
136,328,29911,2,0,P|174:319|216:317,1,80.750001540184,0|0,0:0|0:0,0:0:0:0:
238,232,30340,6,0,B|191:238|160:217|160:217|134:246|89:252,1,161.500003080368,2|2,0:3|0:3,0:0:0:0:
153,134,31197,2,0,P|151:78|142:8,1,107.666668720245,0|0,0:0|0:0,0:0:0:0:
156,13,31625,6,0,P|195:23|234:29,1,80.750001540184,2|2,0:0|0:0,0:0:0:0:
421,110,32482,2,0,L|340:104,1,80.750001540184,0|0,0:0|0:0,0:0:0:0:
440,24,32911,6,0,P|505:65|512:143,2,161.500003080368,2|2|0,0:3|0:3|0:0,0:0:0:0:
375,187,34197,6,0,P|375:227|381:267,1,80.750001540184,2|2,0:0|0:0,0:0:0:0:
441,334,34625,1,0,0:0:0:0:
377,287,34840,1,0,0:0:0:0:
298,295,35054,1,0,0:0:0:0:
253,360,35268,1,0,0:0:0:0:
189,305,35482,6,0,L|199:221,1,80.750001540184,2|0,0:3|0:0,0:0:0:0:
117,180,35911,2,0,L|107:264,1,80.750001540184,2|0,0:3|0:0,0:0:0:0:
55,130,36340,2,0,P|99:101|151:105,1,107.666668720245,0|0,0:0|0:0,0:0:0:0:
166,92,36768,6,0,P|158:52|154:12,1,80.750001540184,2|2,0:0|0:0,0:0:0:0:
301,42,37411,1,0,0:0:0:0:
301,42,37625,2,0,P|355:31|386:34,1,80.750001540184,0|0,0:0|0:0,0:0:0:0:
422,135,38054,6,0,P|348:108|282:149,1,161.500003080368,2|2,0:3|0:3,0:0:0:0:
360,254,38911,2,0,P|373:292|381:331,1,80.750001540184,0|0,0:0|0:0,0:0:0:0:
272,251,39340,6,0,P|278:211|278:170,1,80.750001540184,2|2,0:0|0:0,0:0:0:0:
200,305,39768,2,0,B|115:283|129:347|44:325,1,161.500003080368,0|0,0:0|0:0,0:0:0:0:
72,236,40411,1,0,0:0:0:0:
27,153,40625,6,0,P|45:117|53:77,1,80.750001540184,2|0,0:3|0:0,0:0:0:0:
138,17,41054,1,2,0:3:0:0:
199,101,41268,1,0,0:0:0:0:
273,30,41482,1,0,0:0:0:0:
348,78,41697,1,0,0:0:0:0:
423,31,41911,6,0,L|503:26,1,80.750001540184,2|2,0:0|0:0,0:0:0:0:
385,161,42768,2,0,L|304:156,1,80.750001540184,0|0,0:0|0:0,0:0:0:0:
266,233,43197,6,0,P|339:261|416:241,1,161.500003080368,2|2,0:3|0:3,0:0:0:0:
235,105,44054,1,0,0:0:0:0:
184,277,44482,6,0,P|192:309|197:365,1,80.750001540184,2|2,0:0|0:0,0:0:0:0:
49,376,44911,1,0,0:0:0:0:
115,329,45125,1,0,0:0:0:0:
6,293,45340,1,0,0:0:0:0:
104,219,45554,1,0,0:0:0:0:
11,164,45768,6,0,P|6:123|13:83,1,80.750001540184,2|0,0:2|0:0,0:0:0:0:
168,89,46197,1,2,0:0:0:0:
86,124,46411,1,2,0:0:0:0:
126,6,46625,2,0,P|172:0|232:21,1,107.666668720245
257,31,47054,6,0,P|295:38|346:39,1,80.750001540184,2|2,0:0|0:0,0:0:0:0:
337,39,47482,1,0,1:0:0:0:
359,205,47697,1,0,0:0:0:0:
431,168,47911,2,0,P|404:137|367:124,1,80.750001540184,2|8,1:0|0:3,0:0:0:0:
257,193,48340,6,0,L|251:273,1,80.750001540184,10|0,0:1|0:0,0:0:0:0:
164,165,48768,2,0,L|172:245,1,80.750001540184,2|2,0:0|0:0,0:0:0:0:
65,165,49197,2,0,L|91:269,1,107.666668720245,2|0,0:0|0:0,0:0:0:0:
80,287,49625,6,0,P|43:277|-5:276,1,80.750001540184,2|2,0:0|0:0,0:0:0:0:
1,276,50054,1,0,1:0:0:0:
65,165,50268,1,0,0:0:0:0:
7,91,50482,2,0,P|14:52|18:4,1,80.750001540184,2|8,1:0|0:3,0:0:0:0:
132,70,50911,6,0,B|216:84|205:36|289:48,1,161.500003080368,10|2,0:1|0:0,0:0:0:0:
470,35,51554,1,2,0:0:0:0:
378,1,51768,2,0,L|383:86,1,80.750001540184,2|0,0:0|0:0,0:0:0:0:
328,190,52197,5,2,0:0:0:0:
400,229,52411,1,2,0:0:0:0:
462,176,52625,2,0,P|501:186|534:210,1,80.750001540184,0|0,0:0|0:0,0:0:0:0:
512,292,53054,1,2,0:0:0:0:
512,292,53268,1,8,0:3:0:0:
410,346,53482,6,0,P|331:328|251:339,1,161.500003080368,10|2,0:1|0:0,0:0:0:0:
100,289,54125,1,2,0:0:0:0:
156,349,54340,2,0,P|177:314|181:275,1,80.750001540184,2|0,0:0|0:0,0:0:0:0:
55,215,54768,6,0,L|46:134,1,80.750001540184,2|2,0:0|0:0,0:0:0:0:
146,64,55197,1,0,0:0:0:0:
134,164,55411,1,0,0:0:0:0:
256,113,55625,1,2,0:0:0:0:
293,108,55768,1,2,0:0:0:0:
330,113,55911,1,2,0:0:0:0:
363,130,56054,6,0,P|357:86|361:37,1,80.750001540184,10|0,0:1|0:0,0:0:0:0:
437,0,56482,1,2,0:0:0:0:
512,85,56697,1,2,0:0:0:0:
447,178,56911,2,0,L|440:279,1,80.750001540184,2|0,0:0|0:0,0:0:0:0:
473,359,57340,6,0,P|435:345|395:348,1,80.750001540184,2|2,0:0|0:0,0:0:0:0:
395,347,57768,1,0,1:0:0:0:
248,368,57982,1,0,0:0:0:0:
312,251,58197,2,0,L|319:331,1,80.750001540184,2|8,1:0|0:3,0:0:0:0:
378,178,58625,6,0,P|305:149|238:189,1,161.500003080368,10|2,0:1|0:0,0:0:0:0:
148,193,59268,2,0,P|186:205|226:208,1,80.750001540184,2|2,0:0|0:0,0:0:0:0:
191,109,59697,1,0,0:0:0:0:
279,41,59911,6,0,P|207:5|128:15,1,161.500003080368,2|0,0:0|0:0,0:0:0:0:
0,126,60554,1,0,0:0:0:0:
84,91,60768,1,2,0:0:0:0:
91,127,60911,1,2,0:0:0:0:
82,163,61054,1,2,0:0:0:0:
59,192,61197,6,0,P|57:232|60:272,1,80.750001540184,10|2,0:1|0:0,0:0:0:0:
155,282,61625,2,0,P|133:315|116:352,1,80.750001540184,2|2,0:1|0:0,0:0:0:0:
237,333,62054,1,2,0:1:0:0:
219,215,62268,1,2,0:1:0:0:
318,259,62482,6,0,B|400:230|398:289|475:258,1,161.500003080368,2|0,0:0|0:0,0:0:0:0:
435,176,63125,1,0,0:0:0:0:
445,77,63340,2,0,L|436:157,1,80.750001540184,2|8,0:0|0:3,0:0:0:0:
298,8,63768,6,0,P|345:74|350:153,1,161.500003080368,10|2,0:1|0:0,0:0:0:0:
217,170,64411,1,2,0:0:0:0:
187,93,64625,2,0,P|227:91|266:104,1,80.750001540184,2|0,0:0|0:0,0:0:0:0:
282,248,65054,6,0,B|226:251|226:251|180:268|180:268|124:271,1,161.500003080368,2|2,0:0|0:0,0:0:0:0:
77,346,65697,1,2,0:0:0:0:
239,333,65911,1,2,0:0:0:0:
276,337,66054,1,2,0:0:0:0:
309,353,66197,1,2,0:0:0:0:
334,380,66340,5,10,0:1:0:0:
483,275,66554,1,2,0:0:0:0:
305,239,66768,1,2,0:1:0:0:
410,328,66982,1,2,0:0:0:0:
393,143,67197,1,2,0:1:0:0:
423,345,67411,1,2,0:0:0:0:
224,235,67625,6,0,P|238:197|266:169,1,80.750001540184,2|2,0:1|0:1,0:0:0:0:
266,168,68054,1,0,0:0:0:0:
180,129,68268,1,8,0:3:0:0:
79,170,68482,1,8,0:2:0:0:
189,116,68697,1,0,0:0:0:0:
87,6,68911,2,0,P|98:44|105:84,1,80.750001540184,10|2,0:1|0:1,0:0:0:0:
18,230,69340,6,0,P|67:253|118:241,1,107.666668720245,8|0,0:3|0:0,0:0:0:0:
135,256,69768,2,0,P|128:299|134:341,1,80.750001540184,2|8,0:0|0:0,0:0:0:0:
294,355,70197,5,2,0:1:0:0:
214,301,70411,1,2,0:1:0:0:
370,294,70625,1,0,0:0:0:0:
288,267,70840,1,8,0:3:0:0:
285,181,71054,2,0,L|282:99,1,80.750001540184,8|0,0:2|0:0,0:0:0:0:
211,25,71482,6,0,P|282:59|356:33,1,161.500003080368,10|8,0:1|0:3,0:0:0:0:
356,32,72125,1,10,0:0:0:0:
488,90,72340,1,2,0:0:0:0:
382,142,72554,1,8,0:0:0:0:
432,218,72768,6,0,L|429:298,1,80.750001540184,2|2,0:1|0:1,0:0:0:0:
298,359,73197,1,0,0:0:0:0:
350,265,73411,1,8,0:3:0:0:
253,183,73625,1,8,0:2:0:0:
332,264,73840,1,0,0:0:0:0:
190,313,74054,6,0,P|149:314|109:308,1,80.750001540184,10|2,0:1|0:1,0:0:0:0:
28,255,74482,1,8,0:3:0:0:
147,219,74697,1,10,0:0:0:0:
51,88,74911,1,2,0:0:0:0:
73,186,75125,1,8,0:0:0:0:
219,101,75340,6,0,L|138:119,1,80.750001540184,2|2,0:1|0:1,0:0:0:0:
140,119,75768,1,0,1:0:0:0:
223,17,75982,1,8,0:3:0:0:
301,140,76197,2,0,P|294:177|292:220,1,80.750001540184,8|0,2:2|0:0,0:0:0:0:
470,275,76625,5,10,0:1:0:0:
377,191,76840,1,10,0:1:0:0:
351,314,77054,1,8,0:0:0:0:
351,314,77482,1,2,0:0:0:0:
310,298,77625,1,2,0:0:0:0:
267,305,77768,1,2,0:0:0:0:
234,333,77911,6,0,P|193:337|153:332,1,80.750001540184,4|2,0:1|0:0,0:0:0:0:
60,364,78340,2,0,L|68:256,1,107.666668720245,0|0,0:0|0:0,0:0:0:0:
80,238,78768,1,2,0:0:0:0:
57,201,78911,1,2,0:0:0:0:
57,157,79054,1,2,0:0:0:0:
75,117,79197,6,0,P|113:129|132:29,1,161.500003080368,8|2,0:1|0:0,0:0:0:0:
221,163,79840,1,2,0:0:0:0:
318,80,80054,1,2,0:0:0:0:
356,98,80197,1,0,0:0:0:0:
398,90,80340,1,0,0:0:0:0:
427,58,80482,6,0,L|495:67,2,53.8333343601227,2|0|0,1:2|1:0|1:0,0:0:0:0:
335,0,80911,2,0,L|267:9,2,53.8333343601227,2|0|0,1:2|1:0|1:0,0:0:0:0:
356,98,81340,1,2,1:2:0:0:
384,136,81482,1,0,1:0:0:0:
387,184,81625,1,0,1:0:0:0:
364,226,81768,6,0,L|277:222,1,80.750001540184,4|0,0:1|0:0,0:0:0:0:
199,304,82197,6,0,B|255:292|245:326|300:313,1,104.500003189087,0|0,0:0|0:0,0:0:0:0:
127,360,83054,6,0,P|110:315|113:268,1,95,4|2,0:1|0:0,0:0:0:0:
150,178,83482,1,0,0:0:0:0:
29,227,83697,1,0,0:0:0:0:
136,93,83911,2,0,P|182:96|221:123,1,95,2|0,0:0|0:0,0:0:0:0:
296,29,84340,6,0,P|269:120|256:214,1,190,10|2,0:1|0:0,0:0:0:0:
255,214,84982,1,2,0:0:0:0:
364,163,85197,2,0,P|408:177|462:185,1,95,2|0,0:0|0:0,0:0:0:0:
512,309,85625,6,0,P|466:299|429:326,1,95,2|2,0:0|0:0,0:0:0:0:
429,326,86054,1,0,0:0:0:0:
268,380,86482,2,0,L|272:285,1,95,2|0,0:0|0:0,0:0:0:0:
140,297,86911,5,10,0:1:0:0:
192,212,87125,1,0,0:0:0:0:
87,150,87340,2,0,P|69:89|85:29,1,126.666666666667,2|0,0:0|0:0,0:0:0:0:
94,11,87768,2,0,P|54:24|-1:24,1,95,2|0,0:0|0:0,0:0:0:0:
201,88,88197,5,2,0:1:0:0:
279,36,88411,1,2,0:0:0:0:
343,132,88625,1,2,0:1:0:0:
389,0,88840,1,2,0:0:0:0:
509,70,89054,2,0,P|461:67|416:79,1,95,2|2,0:1|0:0,0:0:0:0:
476,173,89482,6,0,B|464:236|464:236|472:300|472:300|464:361,2,190,10|2|2,0:1|0:0|0:0,0:0:0:0:
476,173,90554,1,0,0:0:0:0:
392,298,90768,6,0,P|319:301|348:215,1,190,2|2,0:1|0:1,0:0:0:0:
343,215,91411,1,0,0:0:0:0:
276,296,91625,2,0,B|227:308|231:280|182:292,1,95,2|2,0:0|0:0,0:0:0:0:
111,191,92054,6,0,P|168:212|219:179,1,126.666666666667,10|0,0:1|0:0,0:0:0:0:
241,187,92482,2,0,L|237:61,1,126.666666666667,10|0,0:0|0:0,0:0:0:0:
258,47,92911,1,0,1:0:0:0:
223,9,93054,1,0,1:0:0:0:
172,9,93197,1,0,1:0:0:0:
125,29,93340,6,0,B|125:147|71:96|80:209,1,190,4|0,0:1|0:0,0:0:0:0:
79,208,93982,1,0,0:0:0:0:
157,312,94197,2,0,P|109:313|66:332,1,95,2|0,0:0|0:0,0:0:0:0:
218,237,94625,6,0,P|300:281|388:254,1,190,10|2,0:1|0:0,0:0:0:0:
388,254,95268,1,2,0:0:0:0:
309,183,95482,2,0,P|299:136|308:72,1,95,2|0,0:0|0:0,0:0:0:0:
410,15,95911,6,0,L|400:118,1,95,2|2,0:0|0:0,0:0:0:0:
400,109,96340,1,0,0:0:0:0:
238,32,96768,2,0,P|190:32|145:48,1,95,2|0,0:0|0:0,0:0:0:0:
79,129,97197,6,0,P|126:129|171:145,1,95,10|0,0:1|0:0,0:0:0:0:
230,217,97625,1,2,0:0:0:0:
104,252,97840,1,2,0:0:0:0:
238,198,98054,1,2,0:0:0:0:
187,309,98268,1,0,0:0:0:0:
295,354,98482,6,0,B|401:324|372:398|478:368,1,190,2|2,0:1|0:1,0:0:0:0:
438,290,99125,1,2,0:0:0:0:
512,218,99340,2,0,P|477:229|435:282,1,95,2|2,0:1|0:0,0:0:0:0:
362,128,99768,6,0,L|371:222,1,95,10|0,0:1|0:0,0:0:0:0:
262,105,100197,2,0,L|287:196,1,95,2|2,0:0|0:0,0:0:0:0:
153,99,100625,2,0,L|194:184,1,95,2|0,0:0|0:0,0:0:0:0:
46,147,101054,6,0,P|56:100|62:53,1,95,2|2,0:1|0:1,0:0:0:0:
112,216,101482,1,0,0:0:0:0:
0,225,101697,1,8,0:3:0:0:
161,305,101911,1,4,0:1:0:0:
62,292,102125,1,0,0:0:0:0:
210,384,102340,6,0,P|251:361|298:353,1,95,2|2,0:1|0:1,0:0:0:0:
298,353,102768,1,2,1:0:0:0:
293,334,102911,1,0,1:0:0:0:
292,314,103054,1,0,1:0:0:0:
298,296,103197,1,2,1:0:0:0:
311,267,103340,1,0,1:0:0:0:
316,235,103482,1,0,1:0:0:0:
307,204,103625,6,0,P|288:135|290:64,1,142.500005435944,2|0,0:1|0:0,0:0:0:0:
289,64,104482,2,0,L|353:71,2,47.5000018119813,0|0|0,0:0|0:0|0:0,0:0:0:0:
221,23,104911,6,0,P|170:32|126:35,1,95,6|2,0:1|0:1,0:0:0:0:
127,35,105340,1,0,1:0:0:0:
162,138,105554,1,8,0:3:0:0:
45,96,105768,1,8,1:2:0:0:
60,219,105982,1,0,0:0:0:0:
17,312,106197,6,0,P|62:303|111:308,1,95,10|2,0:1|0:1,0:0:0:0:
209,357,106625,2,0,P|255:366|302:360,1,95,8|10,0:3|0:0,0:0:0:0:
403,283,107054,1,2,0:0:0:0:
359,256,107197,1,2,0:2:0:0:
308,253,107340,1,2,0:2:0:0:
262,275,107482,6,0,P|256:227|259:180,1,95,2|2,0:1|0:1,0:0:0:0:
257,175,107911,1,0,1:0:0:0:
343,17,108125,1,8,0:3:0:0:
413,110,108340,1,10,1:2:0:0:
362,105,108482,1,2,0:2:0:0:
311,99,108625,1,2,0:2:0:0:
260,91,108768,6,0,B|160:71|174:138|76:115,1,190,10|8,0:1|0:3,0:0:0:0:
115,38,109411,1,8,0:0:0:0:
221,173,109625,1,2,0:0:0:0:
195,216,109768,1,2,0:0:0:0:
181,264,109911,1,2,0:0:0:0:
174,314,110054,6,0,P|131:328|101:333,2,63.3333333333333,2|2|2,0:1|0:2|0:2,0:0:0:0:
266,351,110482,2,0,P|296:357|326:368,2,63.3333333333333,2|2|2,0:2|0:2|0:2,0:0:0:0:
330,272,110911,1,8,0:2:0:0:
378,285,111054,1,2,0:2:0:0:
411,323,111197,1,2,0:2:0:0:
420,371,111340,6,0,P|463:353|510:352,1,95,10|0,0:1|0:0,0:0:0:0:
433,217,111768,1,8,0:3:0:0:
378,285,111982,1,10,0:0:0:0:
512,260,112197,1,2,0:0:0:0:
488,138,112411,1,10,0:0:0:0:
393,92,112625,6,0,P|347:107|301:118,1,95,2|2,0:1|0:1,0:0:0:0:
297,122,113054,1,0,1:0:0:0:
112,82,113268,1,8,0:3:0:0:
215,25,113482,1,10,1:2:0:0:
207,75,113625,1,2,0:2:0:0:
199,125,113768,1,2,0:2:0:0:
190,174,113911,5,10,0:0:0:0:
80,238,114125,1,10,0:0:0:0:
254,288,114340,1,10,0:0:0:0:
254,288,114768,2,0,P|301:278|348:278,1,95,0|0,0:0|0:0,0:0:0:0:
416,319,115090,1,0,0:0:0:0:
416,319,115197,6,0,P|405:270|404:219,1,95,6|2,0:1|0:0,0:0:0:0:
349,372,115625,1,2,0:1:0:0:
488,265,115840,1,2,0:0:0:0:
325,175,116054,1,2,0:0:0:0:
281,148,116197,1,2,0:0:0:0:
230,151,116340,1,2,0:0:0:0:
187,177,116482,5,10,0:1:0:0:
207,116,116625,1,2,0:0:0:0:
184,56,116768,1,2,0:0:0:0:
212,2,116911,2,0,P|253:9|289:9,2,63.3333333333333,2|2|2,0:0|0:0|0:0,0:0:0:0:
99,65,117340,1,2,0:0:0:0:
77,95,117482,1,2,0:0:0:0:
73,132,117625,1,2,0:0:0:0:
81,169,117768,6,0,P|78:201|69:231,1,63.3333333333333,2|2,0:0|0:0,0:0:0:0:
12,298,118054,1,2,0:0:0:0:
11,298,118197,2,0,P|70:279|126:304,1,126.666666666667,2|0,0:0|0:0,0:0:0:0:
200,355,118625,1,2,0:0:0:0:
249,349,118768,1,2,0:0:0:0:
299,342,118911,1,2,0:0:0:0:
349,336,119054,5,10,0:1:0:0:
324,277,119197,1,2,0:0:0:0:
336,214,119340,1,2,0:0:0:0:
386,176,119482,2,0,P|417:186|448:189,2,63.3333333333333,2|2|2,0:0|0:0|0:0,0:0:0:0:
298,121,119911,2,0,P|266:123|236:133,2,63.3333333333333,2|2|2,0:0|0:0|0:0,0:0:0:0:
380,73,120340,5,2,0:1:0:0:
170,50,120554,1,2,0:0:0:0:
322,13,120768,1,2,0:1:0:0:
282,200,120982,1,2,0:0:0:0:
212,141,121197,2,0,P|167:151|117:152,1,95,2|2,0:1|0:0,0:0:0:0:
41,257,121625,6,0,P|85:247|115:281,1,95,10|2,0:1|0:1,0:0:0:0:
172,370,122054,2,0,P|124:366|77:372,1,95,2|2,0:1|0:0,0:0:0:0:
203,274,122482,1,2,0:1:0:0:
275,378,122697,1,2,0:0:0:0:
403,283,122911,5,2,0:0:0:0:
291,293,123125,1,2,0:0:0:0:
339,196,123340,2,0,L|332:69,1,126.666666666667,2|0,0:0|0:0,0:0:0:0:
344,53,123768,1,2,0:0:0:0:
295,36,123911,1,2,0:0:0:0:
247,54,124054,1,2,0:0:0:0:
199,34,124197,6,0,P|163:134|187:220,1,190,2|2,0:3|0:3,0:0:0:0:
49,315,125482,6,0,P|94:301|140:306,1,95,2|2,0:0|0:0,0:0:0:0:
334,301,126125,1,0,0:0:0:0:
397,352,126340,2,0,P|413:308|405:261,1,95,0|0,0:0|0:0,0:0:0:0:
475,190,126768,6,0,B|444:192|410:168|410:168|358:199|294:191,1,190,2|2,0:3|0:3,0:0:0:0:
239,97,127411,1,0,0:0:0:0:
302,27,127625,2,0,P|328:67|332:114,1,95,2|0,0:3|0:0,0:0:0:0:
209,181,128054,6,0,P|172:164|133:153,1,80.750001540184,2|2,0:0|0:0,0:0:0:0:
37,301,128697,1,0,0:0:0:0:
37,301,128911,2,0,L|125:296,1,80.750001540184,0|0,0:0|0:0,0:0:0:0:
208,353,129340,5,2,0:3:0:0:
267,294,129554,1,0,0:0:0:0:
244,211,129768,2,0,P|240:175|258:46,1,161.500003080368,2|0,0:3|0:0,0:0:0:0:
419,122,130625,6,0,P|379:115|340:124,1,80.750001540184,2|2,0:0|0:0,0:0:0:0:
150,60,131268,1,0,0:0:0:0:
150,60,131482,2,0,P|137:111|135:155,1,80.750001540184,0|0,0:0|0:0,0:0:0:0:
25,126,131911,6,0,P|47:203|55:283,2,161.500003080368,2|2|0,0:3|0:3|0:0,0:0:0:0:
139,233,133197,6,0,P|169:238|226:233,1,80.750001540184,2|2,0:0|0:0,0:0:0:0:
289,279,133625,1,0,0:0:0:0:
323,207,133840,1,0,0:0:0:0:
401,188,134054,1,0,0:0:0:0:
473,228,134268,1,0,0:0:0:0:
312,189,134482,6,0,P|305:108|314:28,1,161.500003080368,2|2,0:3|0:3,0:0:0:0:
161,145,135340,2,0,P|120:147|80:145,1,80.750001540184,0|0,0:0|0:0,0:0:0:0:
234,14,135768,6,0,P|228:47|226:95,1,80.750001540184,2|2,0:0|0:0,0:0:0:0:
171,164,136197,1,0,0:0:0:0:
294,203,136411,1,0,0:0:0:0:
200,277,136625,1,0,0:0:0:0:
253,341,136840,1,0,0:0:0:0:
150,372,137054,6,0,P|73:350|-6:355,1,161.500003080368,2|2,0:3|0:3,0:0:0:0:
52,157,137911,2,0,P|22:198|15:229,1,80.750001540184,0|0,0:0|0:0,0:0:0:0:
117,223,138340,6,0,P|92:190|60:67,1,161.500003080368,2|0,0:0|0:0,0:0:0:0:
138,25,138982,1,0,0:0:0:0:
138,25,139197,2,0,L|224:21,1,80.750001540184,0|0,0:0|0:0,0:0:0:0:
328,24,139625,6,0,P|252:33|238:107,1,161.500003080368,2|2,0:3|0:3,0:0:0:0:
361,232,140482,1,0,0:0:0:0:
346,136,140697,1,0,0:0:0:0:
435,172,140911,6,0,P|471:178|515:176,1,80.750001540184,2|2,0:0|0:0,0:0:0:0:
350,252,141340,2,0,B|295:256|295:256|246:242|246:242|190:244,1,161.500003080368,0|0,0:0|0:0,0:0:0:0:
4,265,141982,1,0,0:0:0:0:
88,310,142197,2,0,P|102:258|82:209,1,107.666668720245,2|0,0:3|0:0,0:0:0:0:
71,192,142625,2,0,L|75:111,1,80.750001540184,2|0,0:3|0:0,0:0:0:0:
129,44,143054,1,0,0:0:0:0:
11,63,143268,1,0,0:0:0:0:
157,144,143482,6,0,P|197:145|237:142,1,80.750001540184,2|2,0:0|0:0,0:0:0:0:
316,192,143911,1,0,0:0:0:0:
308,71,144125,1,0,0:0:0:0:
450,73,144340,1,0,0:0:0:0:
377,129,144554,1,0,0:0:0:0:
483,169,144768,6,0,P|472:208|451:332,1,161.500003080368,2|2,0:3|0:3,0:0:0:0:
257,277,145625,2,0,L|337:271,1,80.750001540184,0|0,0:0|0:0,0:0:0:0:
306,360,146054,6,0,L|225:365,1,80.750001540184,2|2,0:0|0:0,0:0:0:0:
221,361,146482,1,0,0:0:0:0:
115,337,146697,1,0,0:0:0:0:
178,247,146911,2,0,P|171:207|167:166,1,80.750001540184,0|0,0:0|0:0,0:0:0:0:
244,101,147340,6,0,P|177:129|151:62,1,161.500003080368,2|2,0:2|0:0,0:0:0:0:
225,19,147982,1,2,0:0:0:0:
55,14,148197,2,0,P|61:53|64:94,1,80.750001540184,4|0,0:1|0:0,0:0:0:0:
14,180,148625,6,0,P|8:219|5:260,1,80.750001540184,2|2,0:0|0:0,0:0:0:0:
82,313,149054,1,0,1:0:0:0:
5,363,149268,1,0,0:0:0:0:
152,352,149482,2,0,P|163:313|153:274,1,80.750001540184,2|8,1:0|0:3,0:0:0:0:
154,161,149911,6,0,P|213:210|288:190,1,161.500003080368,10|2,0:1|0:0,0:0:0:0:
233,121,150554,1,2,0:0:0:0:
279,27,150768,2,0,P|253:36|192:38,1,80.750001540184,2|0,0:0|0:0,0:0:0:0:
335,109,151197,6,0,L|415:103,1,80.750001540184,2|2,0:0|0:0,0:0:0:0:
415,103,151625,1,0,1:0:0:0:
432,276,151840,1,0,0:0:0:0:
463,196,152054,2,0,P|423:191|386:205,1,80.750001540184,2|8,1:0|0:3,0:0:0:0:
347,306,152482,6,0,L|185:297,1,161.500003080368,10|2,0:1|0:0,0:0:0:0:
210,209,153125,1,2,0:0:0:0:
104,273,153340,2,0,P|104:313|119:350,1,80.750001540184,2|0,0:0|0:0,0:0:0:0:
126,174,153768,6,0,P|88:187|47:188,1,80.750001540184,2|2,0:0|0:0,0:0:0:0:
74,108,154197,1,0,1:0:0:0:
74,108,154411,1,0,0:0:0:0:
169,41,154625,2,0,P|219:54|290:60,1,107.666668720245,2|0,1:0|0:0,0:0:0:0:
295,46,155054,6,0,L|289:126,1,80.750001540184,10|0,0:1|0:0,0:0:0:0:
256,231,155482,2,0,L|328:195,1,80.750001540184,2|2,0:0|0:0,0:0:0:0:
435,172,155911,2,0,L|368:126,1,80.750001540184,2|0,0:0|0:0,0:0:0:0:
209,163,156340,6,0,P|173:231|209:300,1,161.500003080368,2|0,0:0|0:0,0:0:0:0:
178,382,156982,1,0,0:0:0:0:
288,340,157197,1,2,0:0:0:0:
330,332,157340,1,2,0:0:0:0:
372,339,157482,1,2,0:0:0:0:
406,364,157625,6,0,B|387:305|387:305|400:197,1,161.500003080368,10|2,0:1|0:0,0:0:0:0:
357,126,158268,1,2,0:0:0:0:
446,131,158482,2,0,P|486:132|526:124,1,80.750001540184,2|0,0:0|0:0,0:0:0:0:
374,45,158911,6,0,P|299:64|275:138,1,161.500003080368,2|0,0:0|0:0,0:0:0:0:
215,244,159554,1,0,0:0:0:0:
273,301,159768,2,0,P|293:265|290:209,1,80.750001540184,2|8,0:0|0:3,0:0:0:0:
188,161,160197,6,0,P|104:173|27:176,1,161.500003080368,10|2,0:1|0:0,0:0:0:0:
59,95,160840,1,2,0:0:0:0:
96,255,161054,2,0,P|84:291|78:353,1,80.750001540184,2|0,0:0|0:0,0:0:0:0:
197,182,161482,6,0,P|180:104|183:24,1,161.500003080368,2|0,0:0|0:0,0:0:0:0:
282,65,162125,1,0,0:0:0:0:
397,16,162340,1,2,0:0:0:0:
437,30,162482,1,2,0:0:0:0:
461,65,162625,1,2,0:0:0:0:
466,107,162768,6,0,P|467:146|477:196,1,80.750001540184,10|2,0:1|0:0,0:0:0:0:
385,202,163197,2,0,P|405:235|439:273,1,80.750001540184,2|2,0:1|0:0,0:0:0:0:
362,324,163625,2,0,P|396:342|444:358,1,80.750001540184,2|2,0:1|0:1,0:0:0:0:
282,276,164054,6,0,B|191:256|212:311|126:298,1,161.500003080368,2|0,0:0|0:0,0:0:0:0:
126,298,164697,1,0,0:0:0:0:
144,140,164911,2,0,L|152:220,1,80.750001540184,2|8,0:0|0:3,0:0:0:0:
51,167,165340,6,0,L|57:86,1,80.750001540184,10|0,0:1|0:0,0:0:0:0:
225,74,165768,2,0,L|239:154,1,80.750001540184,2|2,0:0|0:0,0:0:0:0:
141,38,166197,1,2,0:0:0:0:
141,38,166411,1,0,0:0:0:0:
304,23,166625,6,0,P|356:32|410:29,1,107.666668720245,2|0,0:0|0:0,0:0:0:0:
429,18,167054,2,0,L|422:84,2,53.8333343601227,2|0|0,0:0|0:0|0:0,0:0:0:0:
506,64,167482,2,0,L|513:130,2,53.8333343601227,2|2|2,0:0|0:0|0:0,0:0:0:0:
415,153,167911,5,10,0:1:0:0:
239,154,168125,1,2,0:0:0:0:
361,85,168340,1,2,0:1:0:0:
322,245,168554,1,2,0:0:0:0:
340,70,168768,1,2,0:1:0:0:
403,283,168982,1,2,0:0:0:0:
239,279,169197,6,0,P|201:276|143:277,1,80.750001540184,2|2,0:1|0:1,0:0:0:0:
49,334,169625,1,0,1:0:0:0:
139,266,169840,1,8,0:3:0:0:
2,208,170054,1,8,1:2:0:0:
158,276,170268,1,0,0:0:0:0:
117,102,170482,6,0,P|104:139|95:179,1,80.750001540184,10|2,0:1|0:1,0:0:0:0:
213,126,170911,2,0,P|146:90|156:15,1,161.500003080368,8|2,0:3|0:0,0:0:0:0:
247,39,171554,1,8,0:0:0:0:
342,28,171768,6,0,P|302:20|262:27,1,80.750001540184,2|2,0:1|0:1,0:0:0:0:
320,133,172197,2,0,P|367:109|419:116,1,107.666668720245
441,108,172625,2,0,P|441:147|436:188,1,80.750001540184,8|0,0:2|0:0,0:0:0:0:
501,278,173054,2,0,B|441:276|441:276|402:293|402:293|343:292,1,161.500003080368,10|8,0:1|0:3,0:0:0:0:
240,348,173697,1,10,0:0:0:0:
245,242,173911,2,0,L|241:322,1,80.750001540184,2|8,0:0|0:0,0:0:0:0:
147,372,174340,5,2,0:1:0:0:
86,281,174554,1,2,0:1:0:0:
158,197,174768,1,0,0:0:0:0:
60,278,174982,1,8,0:3:0:0:
17,157,175197,2,0,L|21:76,1,80.750001540184,8|0,0:2|0:0,0:0:0:0:
179,28,175625,5,10,0:1:0:0:
102,115,175840,1,2,0:1:0:0:
246,164,176054,2,0,P|286:159|326:158,1,80.750001540184,8|10,0:3|0:0,0:0:0:0:
381,72,176482,2,0,P|340:70|300:66,1,80.750001540184,2|8,0:0|0:0,0:0:0:0:
487,35,176911,6,0,P|471:74|466:113,1,80.750001540184,2|2,0:1|0:1,0:0:0:0:
466,112,177340,1,0,1:0:0:0:
399,256,177554,1,8,0:3:0:0:
511,219,177768,1,8,1:2:0:0:
326,158,177982,1,0,0:0:0:0:
337,312,178197,6,0,P|370:333|410:339,1,80.750001540184,10|10,0:1|0:1,0:0:0:0:
255,248,178625,1,8,0:0:0:0:
255,248,179054,1,2,0:0:0:0:
212,254,179197,1,2,0:0:0:0:
178,280,179340,1,2,0:0:0:0:
162,320,179482,6,0,L|82:308,1,80.750001540184,4|2,0:1|0:0,0:0:0:0:
2,229,179911,2,0,P|54:230|96:198,1,107.666668720245,0|0,0:0|0:0,0:0:0:0:
116,206,180340,1,2,0:0:0:0:
114,163,180482,1,2,0:0:0:0:
118,120,180625,1,2,0:0:0:0:
129,78,180768,6,0,B|211:115|204:54|286:81,1,161.500003080368,8|2,0:1|0:0,0:0:0:0:
469,65,181411,1,2,0:0:0:0:
387,11,181625,1,2,0:0:0:0:
374,52,181768,1,0,0:0:0:0:
375,95,181911,1,0,0:0:0:0:
392,134,182054,6,0,P|391:174|383:213,1,80.750001540184,2|0,1:2|0:0,0:0:0:0:
421,300,182482,2,0,P|446:291|471:280,2,53.8333343601227,2|0|0,1:2|1:0|1:0,0:0:0:0:
346,343,182911,1,2,1:2:0:0:
310,318,183054,1,0,1:0:0:0:
267,310,183197,1,0,1:0:0:0:
225,319,183340,6,0,P|241:273|236:228,1,80.750001540184,4|0,0:1|0:0,0:0:0:0:
284,149,183768,6,0,B|243:168|200:153|200:153|214:141,1,104.500003189087,0|0,0:0|0:0,0:0:0:0:
157,58,184625,6,0,P|198:35|245:33,1,95,4|2,0:1|0:0,0:0:0:0:
105,131,185054,2,0,P|64:106|40:66,1,95,0|0,0:0|0:0,0:0:0:0:
194,139,185482,2,0,P|193:186|170:227,1,95,2|0,0:0|0:0,0:0:0:0:
86,302,185911,6,0,P|171:267|251:314,1,190,10|2,0:1|0:0,0:0:0:0:
429,304,186554,1,2,0:0:0:0:
343,349,186768,2,0,L|338:254,1,95,2|0,0:0|0:0,0:0:0:0:
416,145,187197,6,0,P|459:162|506:159,2,95,2|0|0,0:0|0:0|0:0,0:0:0:0:
253,24,188054,2,0,P|272:67|281:113,1,95,2|0,0:0|0:0,0:0:0:0:
174,196,188482,5,10,0:1:0:0:
183,97,188697,1,0,0:0:0:0:
89,203,188911,2,0,P|116:259|174:279,1,126.666666666667,2|0,0:0|0:0,0:0:0:0:
188,300,189340,2,0,P|140:314|101:346,1,95,2|0,0:0|0:0,0:0:0:0:
267,352,189768,5,2,0:1:0:0:
342,230,189982,1,2,0:0:0:0:
422,346,190197,1,2,0:1:0:0:
249,245,190411,1,2,0:0:0:0:
345,384,190625,1,2,0:1:0:0:
435,237,190840,1,2,0:0:0:0:
338,147,191054,6,0,L|336:52,1,95,10|0,0:1|0:0,0:0:0:0:
426,93,191482,2,0,P|461:105|528:113,1,95,2|2,0:0|0:0,0:0:0:0:
249,87,191911,2,0,P|201:92|156:106,1,95,2|0,0:0|0:0,0:0:0:0:
77,72,192340,6,0,B|101:59|118:39|118:39|104:106|100:175,1,190,2|2,0:1|0:1,0:0:0:0:
170,233,192982,1,0,0:0:0:0:
24,221,193197,2,0,P|7:265|0:312,1,95,2|0,0:0|0:0,0:0:0:0:
130,311,193625,5,0,0:1:0:0:
180,316,193767,1,0,1:0:0:0:
227,299,193910,1,0,1:0:0:0:
277,305,194054,2,0,P|272:273|275:237,2,63.3333333333333,0|0|0,0:0|1:0|1:0,0:0:0:0:
397,332,194482,1,2,1:0:0:0:
408,282,194625,1,0,1:0:0:0:
402,231,194768,1,0,1:0:0:0:
378,186,194911,6,0,P|367:139|371:92,1,95,4|2,0:1|0:0,0:0:0:0:
279,151,195340,2,0,P|233:157|201:125,1,95,0|0,0:0|0:0,0:0:0:0:
266,61,195768,1,2,0:0:0:0:
89,83,195982,1,0,0:0:0:0:
173,12,196197,6,0,L|182:106,1,95,10|0,0:1|0:0,0:0:0:0:
100,178,196625,1,2,0:0:0:0:
3,121,196840,1,2,0:0:0:0:
111,196,197054,2,0,P|88:244|80:294,1,95,2|0,0:0|0:0,0:0:0:0:
180,364,197482,6,0,P|136:350|101:379,2,95,2|2|0,0:0|0:0|0:0,0:0:0:0:
321,288,198340,2,0,P|361:308|411:311,1,95,2|0,0:0|0:0,0:0:0:0:
391,219,198768,5,10,0:1:0:0:
231,258,198982,1,0,0:0:0:0:
284,103,199197,2,0,L|301:196,1,95,2|0,0:0|0:0,0:0:0:0:
196,140,199625,1,2,0:0:0:0:
238,20,199840,1,0,0:0:0:0:
144,58,200054,6,0,P|85:74|19:56,1,126.666666666667,2|0,0:1|0:0,0:0:0:0:
8,39,200482,2,0,L|3:133,1,95,2|2,0:1|0:0,0:0:0:0:
95,197,200911,1,2,0:1:0:0:
4,257,201125,1,2,0:0:0:0:
131,307,201340,6,0,P|177:312|224:306,1,95,10|0,0:1|0:0,0:0:0:0:
360,333,201768,1,2,0:0:0:0:
308,251,201982,1,2,0:0:0:0:
392,154,202197,1,0,1:0:0:0:
442,148,202340,1,0,1:0:0:0:
486,171,202482,1,0,1:0:0:0:
501,219,202625,6,0,P|491:251|477:313,1,95,2|2,0:1|0:1,0:0:0:0:
308,251,203054,1,0,0:0:0:0:
404,237,203268,1,8,0:3:0:0:
254,161,203482,1,4,0:1:0:0:
350,147,203696,1,0,0:0:0:0:
197,219,203911,6,0,P|174:179|181:133,1,95,2|2,0:1|0:1,0:0:0:0:
61,40,204340,1,0,1:0:0:0:
70,56,204482,1,0,1:0:0:0:
74,74,204625,1,0,1:0:0:0:
75,92,204768,1,0,1:0:0:0:
64,122,204911,1,0,1:0:0:0:
58,153,205054,1,0,1:0:0:0:
60,184,205197,1,4,0:1:0:0:
316,105,209697,6,0,P|335:111|377:113,2,59.2799991678223
235,155,210335,6,0,B|170:148|178:177|119:174,1,118.559998335645
125,175,211165,1,0,0:0:0:0:
217,241,211472,6,0,P|209:278|204:318,1,68.9700018732697
305,360,211989,2,0,P|300:322|292:285,1,68.9700018732697
366,236,212506,1,0,0:0:0:0:
440,284,212765,1,0,0:0:0:0:
486,171,213023,5,2,0:0:0:0:
486,171,213196,2,0,P|453:175|424:177,1,45.9800012488465,2|2,0:0|0:0,0:0:0:0:
328,138,213540,6,0,P|327:23|245:112,1,296.400009949952
259,186,214824,1,2,0:0:0:0:
259,186,214998,1,2,0:0:0:0:
154,119,215172,6,0,B|97:90|97:90|41:128|41:243|100:286,1,278.160014430909
182,269,216390,2,0,L|179:314,1,46.3600024051515
278,350,216731,6,2,P|268:323|266:294,1,48.2599996318054
269,278,217094,1,2,0:0:0:0:
385,235,217276,2,2,P|394:261|396:290,1,48.2599996318054
394,307,217640,1,2,0:0:0:0:
310,199,217821,2,2,L|305:148,1,48.2599996318054
349,91,218185,5,2,0:0:0:0:
349,91,218353,2,0,P|298:73|253:104,1,96.2666654915365
166,73,218898,2,0,P|128:81|91:81,1,72.1999991186524
145,163,219443,6,0,P|136:200|133:245,1,72.1999991186524
178,336,219988,2,0,P|140:331|103:337,2,72.3899994477081
273,271,220885,6,0,P|296:290|371:287,1,88.9199987517334,2|2,0:0|0:0,0:0:0:0:
335,220,221570,1,2,0:0:0:0:
426,107,221923,6,0,P|416:126|461:99,1,158.333333333333,2|0,0:0|0:0,0:0:0:0:
256,192,222607,12,0,226892,0:0:0:0:
