osu file format v14

[General]
AudioFilename: audio.mp3
AudioLeadIn: 0
PreviewTime: 82125
Countdown: 0
SampleSet: Soft
StackLeniency: 0.7
Mode: 0
LetterboxInBreaks: 0
WidescreenStoryboard: 1

[Editor]
Bookmarks: 26496,47068,67639,83068,93354,104925,115211,128068,148639,169211,184639,194925,205211
DistanceSpacing: 1.4
BeatDivisor: 6
GridSize: 32
TimelineZoom: 0.6999999

[Metadata]
Title:Tatakai no Doutei
TitleUnicode:戦いの道程
Artist:CraftP
ArtistUnicode:クラフトP
Creator:Noffy
Version:Normal
Source:
Tags:the road of battle virgin kagamine len vocaloid trynna 鏡音レン
BeatmapID:1843131
BeatmapSetID:807942

[Difficulty]
HPDrainRate:3
CircleSize:3
OverallDifficulty:5
ApproachRate:5
SliderMultiplier:1.3
SliderTickRate:1

[Events]
//Background and Video events
0,0,"virgin.jpg",0,0
Video,0,"road.avi"
//Break Periods
2,104911,113997
//Storyboard Layer 0 (Background)
//Storyboard Layer 1 (Fail)
//Storyboard Layer 2 (Pass)
//Storyboard Layer 3 (Foreground)
//Storyboard Sound Samples

[TimingPoints]
3340,428.571428571429,3,2,1,100,1,0
47054,-100,3,2,1,100,0,0
80482,-100,3,2,1,70,0,0
81768,-100,3,2,1,100,0,0
83054,-76.9230769230769,3,2,1,100,0,1
102768,-76.9230769230769,3,2,1,50,0,1
103197,-76.9230769230769,3,2,1,70,0,1
103625,-76.9230769230769,3,2,1,100,0,1
104911,-100,3,2,1,100,0,0
115197,-76.9230769230769,3,2,1,100,0,0
128054,-100,3,2,1,100,0,0
148625,-100,3,2,1,100,0,0
182054,-100,3,2,1,70,0,0
183340,-100,3,2,1,100,0,0
184625,-76.9230769230769,3,2,1,100,0,1
193625,-76.9230769230769,3,2,1,50,0,1
194054,-76.9230769230769,3,2,1,60,0,1
194482,-76.9230769230769,3,2,1,70,0,1
194911,-76.9230769230769,3,2,1,100,0,1
204340,-76.9230769230769,3,2,1,50,0,1
204768,-76.9230769230769,3,2,1,70,0,1
205197,-100,3,2,1,70,0,0
209697,638.297872340426,3,2,1,60,1,0
211165,550.45871559633,3,2,1,60,1,0
211472,517.241379310345,3,2,1,60,1,8
213540,555.555555555556,3,2,1,60,1,8
214651,521.739130434783,3,2,1,40,1,8
216731,545.454545454546,3,2,1,60,1,8
218353,545.454545454546,3,2,1,60,1,0
219988,563.380281690141,3,2,1,60,1,0
220552,666.666666666667,3,2,1,60,1,8
221218,705.882352941176,3,2,1,40,1,0
221923,681.818181818182,3,2,1,40,1,0
222607,428.571428571429,3,2,1,20,1,8

[Colours]
Combo1 : 198,189,159
Combo2 : 182,146,20

[HitObjects]
414,216,3340,6,0,P|402:186|369:157,1,65,2|2,0:1|0:1,0:0:0:0:
249,152,3982,1,8,0:3:0:0:
232,215,4197,2,0,P|254:292|294:324,2,130,8|10|8,0:2|0:1|0:3,0:0:0:0:
241,85,5482,5,2,0:0:0:0:
112,63,5911,2,0,B|59:96|77:179|77:179|40:188|32:243,1,195,2|8,0:1|0:3,0:0:0:0:
43,289,6768,2,0,P|75:333|111:345,1,86.6666666666667,10|2,0:2|0:2,0:0:0:0:
148,345,7197,2,0,B|184:340|193:303|193:303|276:321|309:268,1,195,10|10,0:1|0:0,0:0:0:0:
345,214,8054,1,2,0:0:0:0:
240,178,8482,6,0,P|216:134|241:53,2,130,2|2|8,0:1|0:2|0:2,0:0:0:0:
352,113,9768,2,0,P|415:99|482:137,1,130,10|8,0:1|0:3,0:0:0:0:
398,233,10625,1,2,0:0:0:0:
306,325,11054,6,0,P|270:330|234:321,1,65,2|2,0:1|0:1,0:0:0:0:
154,228,11697,1,8,0:3:0:0:
211,197,11911,2,0,P|251:188|302:204,1,86.6666666666667,10|2,0:2|0:2,0:0:0:0:
339,208,12340,2,0,P|312:143|324:78,1,130,10|10,0:0|0:0,0:0:0:0:
446,119,13197,5,2,0:0:0:0:
451,249,13626,2,0,P|416:316|296:323,1,195,6|0,0:1|0:0,0:0:0:0:
256,285,14482,2,0,L|256:198,1,86.6666666666667,2|2,0:0|0:0,0:0:0:0:
256,154,14912,2,0,L|256:7,2,130,10|2|0,0:1|0:0|0:0,0:0:0:0:
256,285,16197,5,2,0:0:0:0:
206,328,16412,2,0,P|112:327|61:249,1,195,2|2,0:0|0:0,0:0:0:0:
173,208,17482,2,0,P|200:143|187:78,2,130,10|2|2,0:1|0:0|0:0,0:0:0:0:
63,137,18768,5,2,0:1:0:0:
58,267,19197,1,2,0:1:0:0:
169,333,19625,1,2,0:1:0:0:
256,236,20054,1,2,0:1:0:0:
292,289,20268,1,2,0:1:0:0:
340,332,20482,2,0,P|405:324|456:268,1,130,2|2,0:1|0:1,0:0:0:0:
449,150,21340,6,0,P|413:161|376:194,1,86.6666666666667,2|2,0:0|0:0,0:0:0:0:
346,224,21768,2,0,P|314:194|273:181,1,86.6666666666667,2|2,0:0|0:0,0:0:0:0:
230,183,22197,2,0,P|189:196|157:225,1,86.6666666666667,2|2,0:0|0:0,0:0:0:0:
256,192,22625,12,2,25197,0:3:0:0:
65,185,26482,6,0,P|164:235|256:251,1,195,2|0,0:0|0:0,0:0:0:0:
311,243,27340,1,0,0:0:0:0:
388,138,27768,2,0,P|333:117|262:119,1,130,2|2,0:3|0:3,0:0:0:0:
311,243,28625,1,0,0:0:0:0:
435,281,29054,6,0,P|480:195|500:100,1,195,2|0,0:0|0:0,0:0:0:0:
478,38,29912,1,0,0:0:0:0:
350,59,30340,2,0,P|335:138|297:190,1,130,2|2,0:3|0:3,0:0:0:0:
200,252,31197,1,0,0:0:0:0:
70,256,31625,6,0,P|73:142|194:79,1,260,2|0,0:0|0:0,0:0:0:0:
301,147,32911,1,2,0:3:0:0:
287,276,33340,1,2,0:3:0:0:
171,334,33768,1,0,0:0:0:0:
120,214,34197,6,0,P|243:222|296:344,1,260,2|0,0:0|0:0,0:0:0:0:
167,331,35482,2,0,P|102:348|35:321,2,130,2|2|0,0:3|0:3|0:0,0:0:0:0:
260,240,36768,6,0,B|294:241|320:218|320:218|369:262|449:249,1,195,2|0,0:0|0:0,0:0:0:0:
501,215,37626,1,0,0:0:0:0:
408,123,38054,2,0,P|349:93|282:95,1,130,2|2,0:3|0:3,0:0:0:0:
320,218,38911,2,0,P|350:239|387:249,1,65
442,247,39340,5,2,0:0:0:0:
408,123,39768,1,0,0:0:0:0:
289,67,40198,1,0,0:0:0:0:
237,190,40626,2,0,B|187:211|162:163|109:202,2,130,2|2|0,0:3|0:3|0:0,0:0:0:0:
348,123,41911,6,0,P|432:151|499:318,1,260,2|0,0:0|0:0,0:0:0:0:
379,341,43197,1,2,0:3:0:0:
256,298,43626,1,2,0:3:0:0:
133,341,44054,1,0,0:0:0:0:
10,297,44482,6,0,P|15:240|49:177,1,130,2|0,0:0|0:0,0:0:0:0:
163,123,45340,1,0,0:0:0:0:
256,214,45768,2,0,L|256:353,2,130,2|2|4,0:2|0:0|0:1,0:0:0:0:
171,115,47054,6,0,P|256:160|339:111,1,195,2|0,0:0|0:0,0:0:0:0:
375,64,47912,1,2,0:0:0:0:
256,10,48340,2,0,L|256:143,1,130,10|2,0:1|0:0,0:0:0:0:
256,270,49197,1,2,0:0:0:0:
336,167,49625,6,0,P|253:124|172:170,1,195,2|0,0:0|0:0,0:0:0:0:
137,219,50482,1,2,0:0:0:0:
116,281,50697,1,8,0:3:0:0:
115,346,50912,2,0,P|184:354|260:334,1,130,10|0,0:1|0:0,0:0:0:0:
334,253,51769,1,2,0:0:0:0:
375,129,52197,6,0,B|303:86|288:174|218:174|199:90|127:126,1,260,2|2,0:0|0:0,0:0:0:0:
163,252,53483,1,10,0:1:0:0:
256,342,53912,1,2,0:0:0:0:
349,252,54340,1,2,0:0:0:0:
478,268,54769,6,0,P|444:133|390:119,1,195,2|0,0:0|0:0,0:0:0:0:
346,145,55625,2,0,P|321:186|327:238,1,86.6666666666667,2|2,0:0|0:0,0:0:0:0:
327,266,56054,2,0,P|309:343|253:374,2,130,10|2|2,0:1|0:0|0:0,0:0:0:0:
237,184,57340,6,0,B|172:145|135:235|34:195,1,195,2|0,0:0|0:0,0:0:0:0:
6,151,58198,1,2,0:0:0:0:
42,97,58411,1,8,0:3:0:0:
96,58,58625,2,0,B|161:19|198:109|299:69,1,195,10|2,0:1|0:0,0:0:0:0:
327,25,59483,1,2,0:0:0:0:
391,137,59912,5,2,0:0:0:0:
331,252,60340,1,0,0:0:0:0:
391,367,60768,2,0,P|430:348|455:323,1,65,2|0,0:0|0:3,0:0:0:0:
478,276,61198,2,0,B|500:212|456:213|480:136,2,130,10|0|0,0:1|0:0|0:0,0:0:0:0:
350,298,62483,6,0,P|280:291|208:307,1,130,2|0,0:0|0:0,0:0:0:0:
102,354,63340,2,0,P|74:323|58:287,1,65,2|0,0:0|0:0,0:0:0:0:
46,239,63769,1,10,0:1:0:0:
49,108,64198,1,2,0:0:0:0:
168,58,64626,1,2,0:0:0:0:
230,40,64840,1,0,0:0:0:0:
295,35,65055,6,0,P|362:49|421:95,1,130,2|0,0:0|0:0,0:0:0:0:
424,213,65911,1,2,0:0:0:0:
382,336,66340,1,10,0:1:0:0:
256,304,66768,6,0,L|256:227,1,65,2|2,0:1|0:0,0:0:0:0:
256,173,67197,1,2,0:1:0:0:
256,173,67411,1,2,0:0:0:0:
288,117,67625,6,0,P|327:66|386:41,1,130,2|0,0:1|0:0,0:0:0:0:
451,37,68268,1,8,0:3:0:0:
476,96,68482,2,0,P|478:160|449:217,1,130,8|10,0:2|0:1,0:0:0:0:
365,317,69340,1,8,0:3:0:0:
256,243,69768,5,2,0:0:0:0:
224,117,70197,2,0,P|184:66|125:41,1,130,2|0,0:1|0:0,0:0:0:0:
61,37,70840,1,8,0:3:0:0:
36,96,71054,2,0,P|33:160|62:217,1,130,8|10,0:2|0:1,0:0:0:0:
147,317,71912,1,8,0:3:0:0:
256,243,72340,5,2,0:0:0:0:
301,121,72768,1,2,0:1:0:0:
364,7,73197,1,0,0:0:0:0:
427,120,73625,2,0,L|471:190,1,65,8|0,0:2|0:0,0:0:0:0:
494,231,74054,1,10,0:1:0:0:
463,288,74268,1,2,0:1:0:0:
422,338,74482,2,0,L|380:269,1,65,8|10,0:3|0:0,0:0:0:0:
348,230,74911,2,0,L|307:162,1,65,2|8,0:0|0:0,0:0:0:0:
256,144,75340,6,0,L|256:273,2,130,2|0|8,0:1|0:0|0:2,0:0:0:0:
195,37,76625,2,0,P|223:21|255:14,1,65,10|10,0:1|0:1,0:1:0:0:
317,39,77054,1,8,0:0:0:0:
410,141,77482,6,0,P|399:181|356:228,1,86.6666666666667,2|2,0:0|0:0,0:0:0:0:
328,212,77911,2,0,B|234:188|234:188|132:220,1,195,4|0,0:1|0:0,0:0:0:0:
79,239,78768,2,0,P|90:279|133:326,1,86.6666666666667,2|2,0:0|0:0,0:0:0:0:
160,318,79197,2,0,B|234:295|234:295|289:313,1,130,8|2,0:1|0:0,0:0:0:0:
403,362,80054,5,2,0:0:0:0:
487,263,80482,2,0,B|479:221|479:221|429:201,1,86.6666666666667,2|0,1:2|1:0,0:0:0:0:
397,190,80911,2,0,B|360:170|360:170|347:121,1,86.6666666666667,2|0,1:2|1:0,0:0:0:0:
336,84,81340,1,2,1:2:0:0:
256,186,81768,5,4,0:1:0:0:
256,152,83054,6,0,P|343:173|428:157,1,168.999992263794,4|0,0:1|0:0,0:0:0:0:
507,14,83911,1,2,0:0:0:0:
377,65,84340,2,0,P|328:60|288:29,1,84.4999961318971,10|0,0:1|0:0,0:0:0:0:
214,41,84768,2,0,P|177:62|135:64,1,84.4999961318971,2|2,0:0|0:0,0:0:0:0:
56,35,85197,1,2,0:0:0:0:
43,177,85625,6,0,P|78:269|150:272,1,168.999992263794,2|0,0:0|0:0,0:0:0:0:
256,155,86482,1,2,0:0:0:0:
214,314,86911,2,0,P|255:323|296:314,1,84.4999961318971,10|0,0:1|0:0,0:0:0:0:
373,277,87340,1,2,0:0:0:0:
256,155,87768,1,2,0:0:0:0:
256,70,87982,1,0,0:0:0:0:
183,114,88197,6,0,P|254:153|326:116,1,168.999992263794,2|2,0:1|0:1,0:0:0:0:
472,29,89054,2,0,P|459:78|471:132,1,84.4999961318971,2|2,0:1|0:0,0:0:0:0:
481,193,89482,2,0,P|495:275|477:357,1,168.999992263794,10|2,0:1|0:0,0:0:0:0:
312,317,90340,1,2,0:0:0:0:
149,358,90768,6,0,P|135:313|152:178,1,168.999992263794,2|2,0:1|0:1,0:0:0:0:
227,233,91411,1,0,0:0:0:0:
294,181,91625,2,0,P|299:139|292:97,1,84.4999961318971,2|2,0:0|0:0,0:0:0:0:
256,20,92054,1,10,0:1:0:0:
131,133,92482,5,10,0:0:0:0:
131,133,92911,2,0,B|147:180|147:180|129:199|129:199|146:240,1,112.666661509196,0|0,1:0|1:0,0:0:0:0:
179,276,93340,6,0,P|256:241|328:285,1,168.999992263794,4|0,0:1|0:0,0:0:0:0:
252,384,94197,1,2,0:0:0:0:
419,363,94626,2,0,P|448:332|465:294,1,84.4999961318971,10|0,0:1|0:0,0:0:0:0:
465,210,95054,2,0,P|447:171|418:141,1,84.4999961318971,2|2,0:0|0:0,0:0:0:0:
344,99,95483,1,2,0:0:0:0:
180,142,95911,6,0,P|88:107|85:35,1,168.999992263794,2|0,0:0|0:0,0:0:0:0:
256,38,96768,1,2,0:0:0:0:
432,46,97197,2,0,P|426:103|400:134,1,84.4999961318971,10|0,0:1|0:0,0:0:0:0:
332,142,97626,1,2,0:0:0:0:
256,293,98054,1,2,0:0:0:0:
256,378,98268,1,0,0:0:0:0:
183,334,98483,6,0,P|254:295|326:332,1,168.999992263794,2|2,0:1|0:1,0:0:0:0:
363,167,99340,2,0,P|323:152|298:113,1,84.4999961318971,2|2,0:1|0:0,0:0:0:0:
215,118,99768,2,0,P|190:151|78:134,1,168.999992263794,10|2,0:1|0:0,0:0:0:0:
135,6,100625,1,2,0:0:0:0:
304,6,101054,5,2,0:1:0:0:
304,6,101268,1,2,0:1:0:0:
425,123,101697,1,8,0:3:0:0:
425,123,101911,1,4,0:1:0:0:
256,192,102340,12,2,103625,0:1:0:0:
256,192,115197,5,6,0:1:0:0:
357,57,115625,1,2,0:1:0:0:
420,213,116054,2,0,P|439:232|477:250,2,56.3333307545981,2|2|2,0:0|0:0|0:0,0:0:0:0:
446,162,116482,2,0,P|465:143|483:105,2,56.3333307545981,10|2|2,0:1|0:0|0:0,0:0:0:0:
392,146,116911,2,0,P|373:127|335:109,2,56.3333307545981,2|2|2,0:0|0:0|0:0,0:0:0:0:
371,198,117340,2,0,P|352:217|334:255,2,56.3333307545981,2|2|2,0:0|0:0|0:0,0:0:0:0:
420,213,117768,6,0,P|411:285|377:330,1,112.666661509196,2|2,0:0|0:0,0:0:0:0:
338,342,118197,2,0,P|288:351|215:336,1,112.666661509196,2|0,0:0|0:0,0:0:0:0:
175,321,118625,1,2,0:0:0:0:
92,171,119054,2,0,P|73:152|35:134,2,56.3333307545981,10|2|2,0:1|0:0|0:0,0:0:0:0:
66,222,119482,2,0,P|47:241|29:279,2,56.3333307545981,2|2|2,0:0|0:0|0:0,0:0:0:0:
120,238,119911,2,0,P|139:257|177:275,2,56.3333307545981,2|2|2,0:0|0:0|0:0,0:0:0:0:
141,186,120340,1,2,0:1:0:0:
256,63,120768,1,2,0:1:0:0:
371,186,121197,1,2,0:1:0:0:
256,321,121625,5,10,0:1:0:0:
171,321,121840,1,2,0:1:0:0:
105,268,122054,2,0,P|80:295|67:344,2,84.4999961318971,2|2|2,0:1|0:0|0:1,0:0:0:0:
172,217,122697,1,2,0:0:0:0:
256,236,122911,6,0,L|255:329,1,84.4999961318971,0|2,0:0|0:0,0:0:0:0:
340,325,123340,2,0,P|406:308|453:222,1,168.999992263794,2|2,0:0|0:0,0:0:0:0:
442,168,123911,1,2,0:0:0:0:
403,126,124054,1,2,0:0:0:0:
346,121,124197,2,0,B|305:124|279:155|279:155|252:123|197:121,2,168.999992263794,2|2|0,0:3|0:3|0:0,0:0:0:0:
323,288,125482,2,0,P|282:298|240:289,1,84.4999961318971,2|2,0:0|0:0,0:0:0:0:
63,150,126768,6,0,P|99:161|136:194,1,84.4999961318971,2|0,0:3|0:0,0:0:0:0:
166,224,127197,2,0,P|198:194|239:181,1,84.4999961318971,2|0,0:3|0:0,0:0:0:0:
282,183,127625,2,0,P|323:196|355:225,1,84.4999961318971,2|0,0:3|0:0,0:0:0:0:
404,265,128054,6,0,P|449:179|469:84,1,195,2|0,0:0|0:0,0:0:0:0:
467,18,128912,1,0,0:0:0:0:
337,26,129340,2,0,P|334:90|356:151,1,130,2|2,0:3|0:3,0:0:0:0:
404,265,130197,1,0,0:0:0:0:
275,285,130625,6,0,P|229:199|209:104,1,195,2|0,0:0|0:0,0:0:0:0:
212,38,131483,1,0,0:0:0:0:
82,35,131911,2,0,P|84:99|62:160,1,130,2|2,0:3|0:3,0:0:0:0:
6,278,132768,1,0,0:0:0:0:
61,160,133197,6,0,P|175:163|238:284,1,260,2|0,0:0|0:0,0:0:0:0:
108,284,134483,1,2,0:3:0:0:
61,160,134912,1,2,0:3:0:0:
105,38,135340,1,0,0:0:0:0:
160,155,135769,6,0,P|152:278|36:331,1,260,2|0,0:0|0:0,0:0:0:0:
40,181,137054,2,0,P|12:123|21:59,2,130,2|2|0,0:3|0:3|0:0,0:0:0:0:
162,225,138340,6,0,B|196:224|222:247|222:247|271:203|351:216,1,195,2|0,0:0|0:0,0:0:0:0:
407,224,139198,1,0,0:0:0:0:
437,350,139626,2,0,P|378:320|311:322,1,130,2|2,0:3|0:3,0:0:0:0:
196,373,140483,1,0,0:0:0:0:
74,325,140912,5,2,0:0:0:0:
128,207,141340,1,0,0:0:0:0:
189,91,141768,1,0,0:0:0:0:
266,195,142197,2,0,B|334:222|337:170|402:195,2,130,2|2|0,0:3|0:3|0:0,0:0:0:0:
206,79,143483,6,0,P|283:35|451:97,1,260,2|0,0:0|0:0,0:0:0:0:
384,199,144769,1,2,0:3:0:0:
253,199,145198,1,2,0:3:0:0:
206,79,145625,1,0,0:0:0:0:
253,199,146054,6,0,P|202:236|137:250,1,130,2|0,0:0|0:0,0:0:0:0:
14,206,146911,1,0,0:0:0:0:
66,86,147340,2,0,B|122:108|125:56|193:83,2,130,2|2|4,0:2|0:0|0:1,0:0:0:0:
44,214,148626,6,0,P|97:310|180:340,1,195,2|0,0:0|0:0,0:0:0:0:
237,351,149482,1,2,0:0:0:0:
256,222,149912,2,0,L|256:92,1,130,10|2,0:1|0:0,0:0:0:0:
366,7,150769,1,2,0:0:0:0:
366,7,151197,6,0,P|452:46|494:132,1,195,2|0,0:0|0:0,0:0:0:0:
489,198,152054,1,2,0:0:0:0:
456,254,152269,1,8,0:3:0:0:
400,219,152484,2,0,P|352:199|270:223,2,130,10|0|0,0:1|0:0|0:0,0:0:0:0:
375,359,153769,6,0,B|303:402|288:314|218:314|199:398|127:362,1,260,2|2,0:0|0:0,0:0:0:0:
163,237,155055,1,10,0:1:0:0:
256,147,155482,1,2,0:0:0:0:
349,237,155912,1,2,0:0:0:0:
338,107,156341,6,8,P|255:62|173:106,1,195,2|0,0:0|0:0,0:0:0:0:
173,171,157197,2,0,P|181:222|163:268,1,86.6666666666667,2|2,0:0|0:0,0:0:0:0:
140,286,157625,2,0,P|78:304|13:288,2,130,10|2|2,0:1|0:0|0:0,0:0:0:0:
260,233,158912,6,0,B|321:216|381:260|381:260|453:240,1,195,2|0,0:0|0:0,0:0:0:0:
506,219,159768,1,2,0:0:0:0:
506,154,159983,1,8,0:3:0:0:
460,108,160197,2,0,B|396:90|396:90|336:134|275:117,1,195,10|2,0:1|0:0,0:0:0:0:
215,91,161055,1,2,0:0:0:0:
105,20,161482,5,2,0:0:0:0:
2,99,161912,1,0,0:0:0:0:
118,156,162340,2,0,P|171:149|206:119,1,86.6666666666667,2|2,0:0|0:0,0:0:0:0:
229,100,162768,2,0,P|272:140|352:151,2,130,10|2|2,0:1|0:1|0:1,0:0:0:0:
130,15,164055,6,0,P|113:108|132:275,1,260,2|2,0:0|0:0,0:0:0:0:
197,384,165341,1,10,0:1:0:0:
248,264,165768,1,2,0:0:0:0:
338,357,166198,1,2,0:0:0:0:
402,363,166412,1,0,0:0:0:0:
455,327,166625,6,0,B|481:257|417:215|417:215|451:178|453:145,1,195,2|2,0:0|0:0,0:0:0:0:
457,94,167482,1,2,0:0:0:0:
361,5,167912,1,10,0:1:0:0:
256,80,168340,6,0,L|256:157,1,65,2|2,0:1|0:0,0:0:0:0:
256,211,168769,1,2,0:1:0:0:
256,211,168983,1,2,0:0:0:0:
288,267,169197,6,0,P|327:318|386:343,1,130,2|0,0:1|0:0,0:0:0:0:
451,347,169840,1,8,0:3:0:0:
476,288,170054,2,0,P|478:224|449:167,1,130,8|10,0:2|0:1,0:0:0:0:
365,67,170912,1,8,0:3:0:0:
256,141,171340,5,2,0:0:0:0:
224,267,171769,2,0,P|184:318|125:343,1,130,2|0,0:1|0:0,0:0:0:0:
61,347,172411,1,8,0:3:0:0:
36,288,172626,2,0,P|33:224|62:167,1,130,8|10,0:2|0:1,0:0:0:0:
147,67,173482,1,8,0:3:0:0:
256,141,173912,5,2,0:0:0:0:
301,263,174340,1,2,0:1:0:0:
364,377,174768,1,0,0:0:0:0:
427,264,175196,2,0,L|471:194,1,65,8|0,0:2|0:0,0:0:0:0:
494,153,175625,1,10,0:1:0:0:
463,96,175839,1,2,0:1:0:0:
422,46,176053,2,0,L|380:115,1,65,8|10,0:3|0:0,0:0:0:0:
348,154,176482,2,0,L|307:222,1,65,2|8,0:0|0:0,0:0:0:0:
256,240,176911,6,0,L|256:111,2,130,2|0|8,0:1|0:0|0:2,0:0:0:0:
195,347,178196,2,0,P|223:363|255:370,1,65,10|10,0:1|0:1,0:1:0:0:
317,345,178625,1,8,0:0:0:0:
373,217,179054,6,0,P|362:177|369:118,1,86.6666666666667,2|2,0:0|0:0,0:0:0:0:
363,88,179483,2,0,B|308:77|287:34|287:34|264:82|198:87,1,195,4|0,0:1|0:0,0:0:0:0:
145,100,180340,2,0,P|147:143|136:184,1,86.6666666666667,2|2,0:0|0:0,0:0:0:0:
117,223,180768,2,0,P|105:264|117:352,1,130,8|2,0:1|0:0,0:0:0:0:
256,290,181626,5,2,0:0:0:0:
395,349,182054,2,0,B|383:307|383:307|401:251,1,86.6666666666667,2|0,1:2|1:0,0:0:0:0:
413,226,182482,2,0,B|429:184|429:184|410:139,1,86.6666666666667,2|0,1:2|1:0,0:0:0:0:
389,108,182912,1,2,1:2:0:0:
257,258,183340,5,4,0:1:0:0:
255,258,184626,6,0,P|168:279|83:263,1,168.999992263794,4|0,0:1|0:0,0:0:0:0:
67,98,185483,1,2,0:0:0:0:
225,157,185912,2,0,P|184:172|138:167,1,84.4999961318971,10|0,0:1|0:0,0:0:0:0:
168,88,186340,2,0,P|209:73|255:78,1,84.4999961318971,2|0,0:0|0:0,0:0:0:0:
329,101,186769,1,2,0:0:0:0:
257,258,187197,6,0,P|344:279|429:263,1,168.999992263794,2|0,0:0|0:0,0:0:0:0:
445,98,188054,1,2,0:0:0:0:
287,157,188483,2,0,P|328:172|374:167,1,84.4999961318971,10|0,0:1|0:0,0:0:0:0:
342,87,188912,1,0,0:0:0:0:
170,87,189340,1,2,0:0:0:0:
144,168,189554,1,0,0:0:0:0:
79,222,189769,6,0,P|123:299|201:280,1,168.999992263794,2|0,0:1|0:0,0:0:0:0:
323,182,190626,2,0,L|323:273,1,84.4999961318971,2|2,0:1|0:0,0:0:0:0:
363,340,191054,2,0,P|443:346|477:274,1,168.999992263794,10|2,0:1|0:0,0:0:0:0:
477,105,191911,1,2,0:0:0:0:
338,201,192340,6,0,P|255:216|170:200,1,168.999992263794,2|2,0:1|0:1,0:0:0:0:
218,129,192983,1,0,0:0:0:0:
182,52,193197,2,0,P|146:47|92:52,1,84.4999961318971,2|2,0:0|0:0,0:0:0:0:
16,75,193625,6,0,B|32:122|32:122|14:141|14:141|31:182,1,112.666661509196,0|0,0:1|1:0,0:0:0:0:
52,226,194054,2,0,B|36:273|36:273|54:292|54:292|37:333,1,112.666661509196,0|0,0:0|1:0,0:0:0:0:
23,380,194482,2,0,B|57:365|57:365|76:383|76:383|123:367,1,112.666661509196,2|0,1:0|1:0,0:0:0:0:
175,345,194912,6,0,P|253:371|332:345,1,168.999992263794,4|0,0:1|0:0,0:0:0:0:
256,193,195769,1,2,0:0:0:0:
144,66,196198,2,0,P|173:94|222:111,1,84.4999961318971,10|0,0:1|0:0,0:0:0:0:
298,109,196625,2,0,P|337:94|367:65,1,84.4999961318971,2|2,0:0|0:0,0:0:0:0:
429,4,197055,1,2,0:0:0:0:
476,166,197483,6,0,P|424:226|325:251,1,168.999992263794,2|0,0:0|0:0,0:0:0:0:
256,104,198340,1,2,0:0:0:0:
172,251,198769,2,0,P|130:245|92:227,1,84.4999961318971,10|0,0:1|0:0,0:0:0:0:
37,162,199198,1,2,0:0:0:0:
173,62,199626,1,2,0:0:0:0:
256,97,199840,1,0,0:0:0:0:
256,188,200054,6,0,L|256:358,1,168.999992263794,2|2,0:1|0:1,0:0:0:0:
348,215,200912,2,0,P|350:176|321:121,1,84.4999961318971,2|2,0:1|0:0,0:0:0:0:
256,97,201340,2,0,P|181:134|170:227,1,168.999992263794,10|2,0:1|0:0,0:0:0:0:
256,360,202197,1,0,1:0:0:0:
256,192,202625,5,2,0:1:0:0:
256,192,202840,1,2,0:1:0:0:
256,24,203268,1,8,0:3:0:0:
256,24,203483,1,4,0:1:0:0:
256,192,203912,12,4,205197,0:1:0:0:
