osu file format v14

[General]
AudioFilename: audio.mp3
AudioLeadIn: 0
PreviewTime: 82125
Countdown: 0
SampleSet: Soft
StackLeniency: 0.7
Mode: 0
LetterboxInBreaks: 0
WidescreenStoryboard: 1

[Editor]
Bookmarks: 26496,47068,67639,83068,93354,104925,115211,128068,148639,169211,184639,194925,205211
DistanceSpacing: 1
BeatDivisor: 6
GridSize: 16
TimelineZoom: 0.8499999

[Metadata]
Title:Tatakai no Doutei
TitleUnicode:戦いの道程
Artist:CraftP
ArtistUnicode:クラフトP
Creator:Noffy
Version:Insane
Source:
Tags:the road of battle virgin kagamine len vocaloid trynna 鏡音レン
BeatmapID:1695565
BeatmapSetID:807942

[Difficulty]
HPDrainRate:5
CircleSize:5
OverallDifficulty:8
ApproachRate:8
SliderMultiplier:2
SliderTickRate:1

[Events]
//Background and Video events
0,0,"virgin.jpg",0,0
Video,0,"road.avi"
//Break Periods
2,205467,207018
//Storyboard Layer 0 (Background)
//Storyboard Layer 1 (Fail)
//Storyboard Layer 2 (Pass)
//Storyboard Layer 3 (Foreground)
//Storyboard Sound Samples

[TimingPoints]
3340,428.571428571429,3,2,1,100,1,0
47054,-86.9565217391304,3,2,1,100,0,0
80482,-86.9565217391304,3,2,1,70,0,0
81768,-86.9565217391304,3,2,1,100,0,0
83054,-76.9230769230769,3,2,1,100,0,1
102768,-76.9230769230769,3,2,1,50,0,1
103197,-76.9230769230769,3,2,1,70,0,1
103625,-76.9230769230769,3,2,1,100,0,1
104482,-100,3,2,1,100,0,1
104911,-86.9565217391304,3,2,1,100,0,0
115197,-76.9230769230769,3,2,1,100,0,0
128054,-100,3,2,1,100,0,0
148625,-86.9565217391304,3,2,1,100,0,0
182054,-86.9565217391304,3,2,1,70,0,0
183340,-86.9565217391304,3,2,1,100,0,0
184625,-76.9230769230769,3,2,1,100,0,1
193625,-76.9230769230769,3,2,1,50,0,1
194054,-76.9230769230769,3,2,1,60,0,1
194482,-76.9230769230769,3,2,1,70,0,1
194911,-76.9230769230769,3,2,1,100,0,1
204340,-76.9230769230769,3,2,1,50,0,1
204768,-76.9230769230769,3,2,1,70,0,1
205197,-100,3,2,1,70,0,0
205268,-100,3,2,1,30,0,0
207768,-100,3,2,1,50,0,0
208625,-100,3,2,1,30,0,0
209054,-100,3,2,1,10,0,0
209697,638.297872340426,3,2,1,60,1,0
209697,-106.837606837607,3,2,1,60,0,0
211165,550.45871559633,3,2,1,60,1,0
211472,517.241379310345,3,2,1,60,1,8
211472,-137.741046831956,3,2,1,60,0,0
213023,-137.741046831956,3,2,1,40,0,0
213540,555.555555555556,3,2,1,60,1,8
213540,-128.205128205128,3,2,1,60,0,8
214651,521.739130434783,3,2,1,40,1,8
214651,-136.612021857923,3,2,1,40,0,8
215172,-136.612021857923,3,2,1,60,0,0
216731,545.454545454546,3,2,1,40,1,8
216731,-131.233595800525,3,2,1,40,0,8
218353,545.454545454546,3,2,1,60,1,0
218353,-131.578947368421,3,2,1,60,0,0
219988,563.380281690141,3,2,1,60,1,0
219988,-131.578947368421,3,2,1,60,0,0
220552,666.666666666667,3,2,1,60,1,8
220552,-106.837606837607,3,2,1,60,0,8
221218,705.882352941176,3,2,1,40,1,0
221218,-106.837606837607,3,2,1,40,0,0
221923,681.818181818182,3,2,1,20,1,0
221923,-200,3,2,1,20,0,0
222607,428.571428571429,3,2,1,20,1,8
222607,-200,3,2,1,20,0,0
223892,-200,3,2,1,15,0,0
224321,-200,3,2,1,13,0,0
224749,-200,3,2,1,11,0,0
225178,-200,3,2,1,10,0,0
225607,-200,3,2,1,8,0,0
226035,-200,3,2,1,6,0,0
226464,-200,3,2,1,5,0,0

[Colours]
Combo1 : 198,189,159
Combo2 : 182,146,20

[HitObjects]
361,165,2911,6,0,L|435:179,2,66.6666666666667
294,153,3340,1,2,0:1:0:0:
227,250,3554,2,0,B|220:281|255:292|287:282|282:247,1,100,2|0,0:1|0:0,0:0:0:0:
218,153,3982,1,8,0:3:0:0:
124,189,4197,1,8,0:2:0:0:
36,140,4411,1,0,0:0:0:0:
10,236,4625,1,10,0:1:0:0:
92,292,4840,1,2,0:1:0:0:
124,189,5054,1,8,0:3:0:0:
158,95,5268,1,10,0:0:0:0:
256,112,5482,1,2,0:0:0:0:
321,97,5625,1,2,0:2:0:0:
386,84,5768,1,2,0:2:0:0:
409,146,5911,6,0,B|336:180|226:224|142:181|120:65,1,333.333333333333,2|0,0:1|0:0,0:0:0:0:
191,75,6768,1,10,0:2:0:0:
256,63,6911,1,2,0:2:0:0:
321,75,7054,1,2,0:2:0:0:
385,92,7197,6,0,B|370:181|286:224|176:180|103:146,1,333.333333333333,10|0,0:1|0:0,0:0:0:0:
46,173,8054,1,2,0:0:0:0:
54,239,8197,1,2,0:0:0:0:
98,288,8340,1,2,0:0:0:0:
163,304,8482,5,2,0:1:0:0:
200,222,8625,1,2,0:2:0:0:
241,144,8768,1,2,0:2:0:0:
282,195,8911,1,2,0:2:0:0:
335,235,9054,1,2,0:2:0:0:
401,235,9197,1,2,0:2:0:0:
442,182,9340,1,8,0:2:0:0:
432,116,9482,1,2,0:2:0:0:
378,76,9625,1,2,0:2:0:0:
311,85,9768,2,0,B|308:130|337:158|393:160,1,100,10|2,0:1|0:1,0:0:0:0:
426,236,10197,1,8,0:3:0:0:
326,236,10411,1,10,0:0:0:0:
226,236,10625,1,2,0:0:0:0:
125,236,10840,1,8,0:0:0:0:
175,138,11054,5,2,0:1:0:0:
103,67,11268,2,0,P|133:37|194:19,1,100,2|0,0:1|0:0,0:0:0:0:
186,19,11697,1,8,0:3:0:0:
293,125,11911,1,10,0:2:0:0:
358,114,12054,1,2,0:2:0:0:
423,128,12197,1,2,0:2:0:0:
484,177,12340,2,0,L|455:278,1,100,10|10,0:0|0:0,0:0:0:0:
484,176,12769,1,10,0:0:0:0:
484,176,13197,1,2,0:0:0:0:
418,196,13340,1,2,0:0:0:0:
357,170,13482,1,2,0:0:0:0:
293,150,13625,6,0,B|236:159|175:228|253:240|222:301|197:324|160:341|102:318|87:298|97:233,1,333.333333333333,6|0,0:1|0:0,0:0:0:0:
95,187,14482,1,2,0:0:0:0:
129,129,14625,1,2,0:0:0:0:
183,89,14768,1,2,0:0:0:0:
218,149,14911,2,0,P|274:183|292:246,1,133.333333333333,10|0,0:1|0:0,0:0:0:0:
408,283,15340,2,0,P|354:316|302:280,1,133.333333333333,2|0,0:0|0:0,0:0:0:0:
357,241,15768,1,2,0:0:0:0:
351,174,15911,1,2,0:0:0:0:
310,121,16054,1,2,0:0:0:0:
161,174,16197,5,2,0:0:0:0:
202,121,16340,1,2,0:0:0:0:
256,157,16482,2,0,B|271:233|222:241|185:312|221:337|255:344|290:335|310:305|269:253,1,266.666666666667,2|2,0:0|0:0,0:0:0:0:
187,177,17268,1,0,0:0:0:0:
264,53,17482,2,0,B|266:17|235:5|196:24|193:93|217:72|253:98|256:160,2,200,10|2|2,0:1|0:0|0:0,0:0:0:0:
245,117,18482,1,2,0:0:0:0:
179,130,18625,1,2,0:0:0:0:
114,169,18768,5,2,0:1:0:0:
114,169,18982,1,2,0:0:0:0:
114,269,19197,1,2,0:1:0:0:
114,269,19411,1,2,0:0:0:0:
213,269,19625,1,2,0:1:0:0:
213,269,19839,1,2,0:0:0:0:
259,118,20054,1,2,0:1:0:0:
259,118,20268,1,2,0:1:0:0:
299,269,20482,1,2,0:1:0:0:
299,269,20696,1,2,0:0:0:0:
399,269,20911,1,2,0:1:0:0:
399,269,21125,1,2,0:0:0:0:
399,168,21340,5,2,0:0:0:0:
375,105,21482,1,2,0:0:0:0:
323,62,21625,1,2,0:0:0:0:
256,42,21768,1,2,0:0:0:0:
189,62,21911,1,2,0:0:0:0:
137,105,22054,1,2,0:0:0:0:
113,168,22196,1,2,0:0:0:0:
113,248,22339,1,2,0:0:0:0:
169,328,22482,1,2,0:0:0:0:
264,358,22625,5,6,0:1:0:0:
256,192,22697,12,2,26054,0:3:0:0:
110,157,26482,6,0,P|164:176|223:186,1,100,2|2,0:0|0:0,0:0:0:0:
378,82,27125,1,0,0:0:0:0:
285,44,27340,2,0,P|235:47|187:62,1,100,0|0,0:0|0:0,0:0:0:0:
150,136,27697,1,0,0:0:0:0:
150,136,27768,2,0,B|171:171|129:200|164:241,1,100,2|0,0:3|0:0,0:0:0:0:
242,286,28197,2,0,B|263:251|221:222|256:181,1,100,2|0,0:3|0:0,0:0:0:0:
204,356,28625,2,0,B|269:381|313:325,1,100,0|0,0:0|0:0,0:0:0:0:
413,204,29054,6,0,B|348:179|304:235,1,100,2|2,0:0|0:0,0:0:0:0:
367,382,29912,1,0,0:0:0:0:
379,283,30125,1,0,0:0:0:0:
363,196,30268,1,0,0:0:0:0:
363,196,30340,2,0,P|341:160|334:88,1,100,2|0,0:3|0:0,0:0:0:0:
222,228,30768,2,0,P|244:192|251:120,1,100,2|0,0:3|0:0,0:0:0:0:
154,154,31197,1,0,0:0:0:0:
302,20,31625,6,0,P|363:27|394:61,1,100,2|2,0:0|0:0,0:0:0:0:
209,364,32482,2,0,P|160:362|122:331,1,100,0|0,0:0|0:0,0:0:0:0:
192,259,32911,2,0,L|210:138,1,100,2|0,0:3|0:0,0:0:0:0:
320,259,33340,2,0,L|302:138,1,100,2|0,0:3|0:0,0:0:0:0:
256,72,33768,1,0,0:0:0:0:
205,332,34197,6,0,P|256:342|320:325,1,100,2|2,0:0|0:0,0:0:0:0:
256,161,35054,1,0,0:0:0:0:
348,122,35268,1,0,0:0:0:0:
426,184,35482,2,0,B|443:246|414:249|416:280,1,100,2|0,0:3|0:0,0:0:0:0:
343,350,35911,2,0,B|345:318|316:315|333:253,1,100,2|0,0:3|0:0,0:0:0:0:
364,157,36340,1,0,0:0:0:0:
96,280,36768,6,0,B|98:249|69:246|86:184,1,100,2|2,0:0|0:0,0:0:0:0:
192,45,37411,1,0,0:0:0:0:
102,89,37625,1,0,0:0:0:0:
178,153,37840,1,0,0:0:0:0:
266,107,38054,2,0,P|308:104|389:127,1,100,2|0,0:3|0:0,0:0:0:0:
412,203,38482,2,0,P|370:206|289:183,1,100,2|0,0:3|0:0,0:0:0:0:
256,276,38911,1,0,0:0:0:0:
199,194,39125,1,0,0:0:0:0:
140,112,39340,6,0,P|98:109|17:132,1,100,2|2,0:0|0:0,0:0:0:0:
84,210,39768,2,0,P|49:234|2:304,1,100,0|0,0:0|0:0,0:0:0:0:
77,356,40198,1,0,0:0:0:0:
164,307,40411,1,0,0:0:0:0:
253,263,40554,1,0,0:0:0:0:
253,263,40625,2,0,P|292:293|321:333,1,100,2|0,0:3|0:0,0:0:0:0:
414,295,41054,2,0,P|398:247|372:205,1,100,2|0,0:3|0:0,0:0:0:0:
303,131,41482,1,0,0:0:0:0:
337,37,41697,1,0,0:0:0:0:
219,145,41911,6,0,P|178:145|106:165,1,100,2|2,0:0|0:0,0:0:0:0:
420,185,42769,1,0,0:0:0:0:
323,159,42982,1,0,0:0:0:0:
319,259,43197,2,0,L|303:366,1,100,2|0,0:3|0:0,0:0:0:0:
193,259,43625,2,0,L|207:357,1,100,2|0,0:3|0:0,0:0:0:0:
256,270,44054,2,0,L|256:161,1,100,0|0,0:0|0:0,0:0:0:0:
256,70,44482,6,0,L|256:179,1,100,2|2,0:0|0:0,0:0:0:0:
328,238,44911,1,0,0:0:0:0:
308,335,45125,1,0,0:0:0:0:
207,335,45340,1,0,0:0:0:0:
184,238,45554,1,0,0:0:0:0:
256,170,45697,1,0,0:0:0:0:
256,170,45769,2,0,B|344:206|355:122|457:159,1,200,2|2,0:2|0:0,0:0:0:0:
292,31,46626,1,4,0:1:0:0:
270,259,47054,5,2,0:0:0:0:
270,259,47268,2,0,B|313:259|341:238|341:238|355:273|390:281,1,115.000002193451,2|0,0:0|0:0,0:0:0:0:
440,182,47697,1,0,0:0:0:0:
349,113,47911,2,0,P|310:155|255:168,1,115.000002193451,2|8,0:0|0:3,0:0:0:0:
182,146,48268,1,0,0:0:0:0:
182,146,48340,2,0,P|116:161|65:221,1,115.000002193451,10|0,0:1|0:0,0:0:0:0:
151,307,48768,2,0,P|186:262|240:243,1,115.000002193451,2|2,0:0|0:0,0:0:0:0:
250,358,49197,1,2,0:0:0:0:
417,203,49625,5,2,0:0:0:0:
417,203,49840,2,0,P|377:162|325:140,1,115.000002193451,2|0,0:0|0:0,0:0:0:0:
213,171,50268,1,0,0:0:0:0:
280,76,50482,1,2,0:0:0:0:
283,190,50697,1,8,0:3:0:0:
212,101,50840,1,0,0:0:0:0:
212,101,50911,2,0,P|151:97|95:118,1,115.000002193451,10|0,0:1|0:0,0:0:0:0:
73,226,51340,2,0,L|102:109,1,115.000002193451,2|0,0:0|0:0,0:0:0:0:
132,4,51768,1,2,0:0:0:0:
212,101,51982,1,0,0:0:0:0:
286,189,52197,6,0,B|335:215|362:172|408:188,1,115.000002193451,2|2,0:0|0:0,0:0:0:0:
385,299,52625,1,0,0:0:0:0:
438,75,53054,2,0,P|393:64|310:83,1,115.000002193451,2|8,0:0|0:3,0:0:0:0:
256,168,53482,2,0,P|304:176|390:144,1,115.000002193451,10|0,0:1|0:0,0:0:0:0:
185,74,53911,2,0,P|129:63|74:75,1,115.000002193451,2|2,0:0|0:0,0:0:0:0:
144,159,54340,2,0,P|199:175|256:168,1,115.000002193451,2|0,0:0|0:0,0:0:0:0:
256,53,54768,6,0,L|256:173,1,115.000002193451,2|2,0:0|0:0,0:0:0:0:
256,283,55197,1,0,0:0:0:0:
256,53,55625,1,2,0:0:0:0:
199,105,55768,1,2,0:0:0:0:
170,176,55911,1,2,0:0:0:0:
165,253,56055,2,0,B|111:270|96:230|39:254,1,115.000002193451,10|0,0:1|0:0,0:0:0:0:
48,362,56482,2,0,B|31:308|71:293|47:236,1,115.000002193451,2|2,0:0|0:0,0:0:0:0:
23,136,56912,1,2,0:0:0:0:
134,162,57125,1,0,0:0:0:0:
236,107,57340,6,0,B|265:85|295:85|295:85|345:54|341:5|295:-32|239:9|239:55|295:85|295:85|322:85|348:107,1,345.000006580353,2|0,0:0|0:0,0:0:0:0:
220,212,58197,1,2,0:0:0:0:
294,171,58411,1,8,0:3:0:0:
276,277,58625,2,0,B|246:298|216:298|216:298|166:329|170:378|216:416|272:374|272:328|216:298|216:298|189:298|163:276,1,345.000006580353,10|2,0:1|0:0,0:0:0:0:
221,176,59483,1,2,0:0:0:0:
256,66,59697,1,0,0:0:0:0:
291,176,59911,6,0,P|344:221|355:277,1,115.000002193451,2|2,0:0|0:0,0:0:0:0:
221,175,60340,2,0,P|175:209|156:262,1,115.000002193451,0|0,0:0|0:0,0:0:0:0:
258,350,60768,2,0,P|294:358|336:352,1,76.6666681289673,2|2,0:0|0:0,0:0:0:0:
404,323,61054,1,2,0:0:0:0:
454,265,61197,1,10,0:1:0:0:
429,152,61411,1,2,0:0:0:0:
476,47,61625,1,2,0:1:0:0:
362,65,61840,1,2,0:0:0:0:
256,111,62055,5,2,0:1:0:0:
150,65,62268,1,2,0:1:0:0:
103,170,62482,2,0,B|109:220|121:264|156:282,1,115.000002193451,2|2,0:0|0:0,0:0:0:0:
256,271,62911,2,0,B|256:133,1,115.000002193451,0|0,0:0|0:0,0:0:0:0:
256,40,63341,5,2,0:0:0:0:
367,63,63554,1,8,0:3:0:0:
409,170,63768,2,0,B|402:220|390:264|355:282,1,115.000002193451,10|0,0:1|0:0,0:0:0:0:
256,271,64197,2,0,B|256:133,1,115.000002193451,2|2,0:0|0:0,0:0:0:0:
256,55,64625,1,2,0:0:0:0:
179,117,64840,1,0,0:0:0:0:
199,224,65054,6,0,P|254:245|308:225,1,115.000002193451,2|2,0:0|0:0,0:0:0:0:
371,151,65483,1,2,0:0:0:0:
256,153,65697,1,2,0:0:0:0:
141,151,65911,1,2,0:0:0:0:
256,231,66125,1,8,0:3:0:0:
371,151,66340,1,10,0:1:0:0:
256,231,66768,5,2,0:1:0:0:
256,153,66982,1,2,0:0:0:0:
256,300,67196,1,2,0:1:0:0:
256,84,67411,1,2,0:0:0:0:
256,300,67625,6,0,L|316:195,1,115.000002193451,2|2,0:1|0:1,0:0:0:0:
381,106,68054,1,0,0:0:0:0:
382,220,68268,1,8,0:3:0:0:
311,129,68482,1,8,0:2:0:0:
420,164,68697,1,0,0:0:0:0:
274,116,68911,1,10,0:1:0:0:
420,164,69125,1,2,0:1:0:0:
385,287,69340,2,0,P|331:246|303:197,1,115.000002193451,8|10,0:3|0:0,0:0:0:0:
256,84,69768,5,2,0:0:0:0:
256,300,69983,1,8,0:0:0:0:
256,84,70197,2,0,L|196:189,1,115.000002193451,2|2,0:1|0:1,0:0:0:0:
131,278,70626,1,0,0:0:0:0:
130,164,70840,1,8,0:3:0:0:
201,255,71054,1,8,0:2:0:0:
92,220,71269,1,0,0:0:0:0:
238,268,71482,2,0,P|212:319|145:347,1,115.000002193451,10|2,0:1|0:1,0:0:0:0:
92,220,71911,2,0,P|118:170|169:144,1,115.000002193451,8|10,0:3|0:0,0:0:0:0:
256,300,72340,5,2,0:0:0:0:
256,84,72555,1,8,0:0:0:0:
329,185,72768,1,2,0:1:0:0:
404,84,72982,1,2,0:1:0:0:
481,185,73198,1,0,0:0:0:0:
404,52,73412,1,8,0:3:0:0:
329,220,73626,1,8,0:2:0:0:
257,52,73841,1,0,0:0:0:0:
330,247,74055,1,10,0:1:0:0:
329,43,74269,1,2,0:1:0:0:
330,247,74482,1,8,0:3:0:0:
469,137,74697,1,10,0:0:0:0:
468,341,74911,1,2,0:0:0:0:
469,137,75126,1,8,0:0:0:0:
360,63,75341,6,0,P|303:65|256:97,1,115.000002193451,2|2,0:1|0:1,0:0:0:0:
256,223,75768,1,0,0:0:0:0:
195,333,75982,1,8,0:3:0:0:
321,333,76198,1,8,0:2:0:0:
256,223,76411,1,0,0:0:0:0:
151,63,76625,2,0,P|208:65|256:97,1,115.000002193451,10|10,0:1|0:1,0:0:0:0:
360,63,77054,2,0,P|303:65|256:97,1,115.000002193451,8|0,0:0|0:0,0:0:0:0:
158,157,77482,5,2,0:0:0:0:
158,157,77625,1,2,0:0:0:0:
158,157,77768,1,2,0:0:0:0:
158,157,77911,2,0,P|174:268|302:265,1,230.000004386902,4|0,0:1|0:0,0:0:0:0:
357,167,78768,1,2,0:0:0:0:
357,167,78911,1,2,0:0:0:0:
357,167,79054,1,2,0:0:0:0:
357,167,79197,2,0,P|245:183|234:238,1,153.333336257935,8|0,0:1|0:0,0:0:0:0:
296,252,79625,6,0,L|323:88,1,153.333336257935,2|0,0:0|0:0,0:0:0:0:
191,100,80054,2,0,L|216:252,1,153.333336257935,2|0,0:0|0:0,0:0:0:0:
255,317,80482,2,0,L|256:132,1,153.333336257935,2|0,1:2|1:0,0:0:0:0:
320,121,80911,2,0,P|255:85|192:121,1,153.333336257935,2|0,1:2|1:0,0:0:0:0:
191,262,81340,2,0,P|255:298|320:263,1,153.333336257935,2|0,1:2|1:0,0:0:0:0:
256,192,81768,1,4,0:1:0:0:
313,78,82197,5,0,0:0:0:0:
312,124,82340,1,0,0:0:0:0:
291,164,82482,1,0,0:0:0:0:
256,192,82625,1,0,0:0:0:0:
235,232,82767,1,0,0:0:0:0:
234,278,82910,1,0,0:0:0:0:
177,324,83054,6,0,B|118:298|99:345|34:316,1,129.999994049073,4|2,0:1|0:0,0:0:0:0:
15,214,83482,2,0,P|5:276|49:320,1,129.999994049073,0|0,0:0|0:0,0:0:0:0:
140,177,83911,1,2,0:0:0:0:
140,177,84125,1,0,0:0:0:0:
251,49,84340,6,0,P|319:50|373:98,1,129.999994049073,10|0,0:1|0:0,0:0:0:0:
262,164,84768,2,0,P|269:117|314:156,1,129.999994049073,2|2,0:0|0:0,0:0:0:0:
316,283,85197,1,2,0:0:0:0:
316,283,85411,1,0,0:0:0:0:
187,300,85625,6,0,B|129:278|130:144|187:166|182:82|135:41,2,259.999988098145,2|0|2,0:0|0:0|0:0,0:0:0:0:
255,189,86697,1,0,0:0:0:0:
325,300,86840,1,0,0:0:0:0:
325,300,86911,2,0,P|357:261|352:170,1,129.999994049073,10|0,0:1|0:0,0:0:0:0:
360,59,87340,2,0,B|335:90|343:135|359:185,1,129.999994049073,2|0,0:0|0:0,0:0:0:0:
256,244,87768,5,2,0:0:0:0:
261,25,87982,1,0,0:0:0:0:
170,263,88197,2,0,P|255:343|337:258,1,259.999988098145,2|2,0:1|0:1,0:0:0:0:
258,155,88840,1,2,0:0:0:0:
180,50,89054,6,0,B|143:57|134:95|134:95|115:179,1,129.999994049073,2|2,0:1|0:0,0:0:0:0:
198,259,89482,2,0,B|235:252|244:214|244:214|263:130,1,129.999994049073,10|0,0:1|0:0,0:0:0:0:
335,50,89911,6,0,B|372:57|381:95|381:95|400:179,1,129.999994049073,2|2,0:0|0:0,0:0:0:0:
417,283,90340,1,2,0:0:0:0:
417,283,90554,1,0,0:0:0:0:
318,198,90768,6,0,P|389:156|483:171,1,173.333325398763,2|0,0:1|0:0,0:0:0:0:
475,167,91197,1,2,0:1:0:0:
375,83,91411,1,0,0:0:0:0:
318,198,91625,1,2,0:0:0:0:
198,146,91840,1,2,0:0:0:0:
84,83,92054,2,0,B|29:119|91:212|33:239,1,173.333325398763,10|0,0:1|0:0,0:0:0:0:
57,321,92482,6,0,P|110:280|134:172,1,173.333325398763,10|0,0:0|0:0,0:0:0:0:
174,102,92910,1,0,1:0:0:0:
256,73,93053,1,0,1:0:0:0:
338,102,93197,1,0,1:0:0:0:
376,180,93340,6,0,P|382:244|418:297,1,129.999994049073,4|2,0:1|0:0,0:0:0:0:
461,175,93768,2,0,P|454:110|418:57,1,129.999994049073,0|0,0:0|0:0,0:0:0:0:
300,1,94197,1,2,0:0:0:0:
266,126,94411,1,0,0:0:0:0:
161,48,94626,6,0,P|136:105|144:182,1,129.999994049073,10|0,0:1|0:0,0:0:0:0:
245,249,95054,2,0,P|270:189|265:125,1,129.999994049073,2|2,0:0|0:0,0:0:0:0:
161,48,95483,1,2,0:0:0:0:
123,172,95697,1,0,0:0:0:0:
178,289,95911,6,0,B|220:340|298:337|340:283|340:283|368:315|420:313,2,259.999988098145,2|0|2,0:0|0:0|0:0,0:0:0:0:
256,192,96983,1,0,0:0:0:0:
334,95,97126,1,0,0:0:0:0:
334,95,97197,2,0,P|279:61|213:69,1,129.999994049073,10|0,0:1|0:0,0:0:0:0:
107,72,97626,2,0,B|149:74|172:101|172:101|186:81|217:67,1,129.999994049073,2|0,0:0|0:0,0:0:0:0:
256,192,98054,5,2,0:0:0:0:
216,67,98268,1,0,0:0:0:0:
375,165,98483,2,0,P|331:269|194:294,1,259.999988098145,2|2,0:1|0:1,0:0:0:0:
93,216,99126,1,2,0:0:0:0:
185,124,99340,6,0,B|171:93|151:79|151:79|178:56|180:14,1,129.999994049073,2|2,0:1|0:0,0:0:0:0:
50,21,99768,2,0,P|32:67|51:147,1,129.999994049073,10|0,0:1|0:0,0:0:0:0:
185,260,100197,2,0,B|171:291|151:305|151:305|178:328|180:370,1,129.999994049073,2|2,0:0|0:0,0:0:0:0:
50,363,100625,2,0,P|32:317|51:237,1,129.999994049073,2|0,0:0|0:0,0:0:0:0:
138,145,101054,6,0,B|184:121|184:121|205:45,1,129.999994049073,2|2,0:1|0:1,0:0:0:0:
257,165,101483,1,0,0:0:0:0:
307,45,101697,1,8,0:3:0:0:
373,218,101911,1,4,0:1:0:0:
424,98,102126,1,0,0:0:0:0:
373,218,102340,2,0,B|327:242|327:242|304:323,1,129.999994049073,2|2,0:1|0:1,0:0:0:0:
180,352,102768,6,0,B|146:367|111:363|108:336|147:326,2,86.6666626993817,2|0|0,1:0|1:0|1:0,0:0:0:0:
164,266,103197,2,0,B|198:251|233:255|236:282|197:292,2,86.6666626993817,2|0|0,1:0|1:0|1:0,0:0:0:0:
106,219,103554,1,0,0:0:0:0:
106,219,103625,2,0,P|167:184|233:186,1,129.999994049073,2|0,0:1|0:0,0:0:0:0:
382,227,104482,6,0,P|390:183|385:156,2,66.6666666666667
342,292,104911,1,6,0:1:0:0:
229,316,105125,2,0,P|196:306|238:263,1,115.000002193451,2|0,0:1|0:0,0:0:0:0:
342,292,105554,1,8,0:3:0:0:
455,313,105769,1,8,0:2:0:0:
411,206,105983,1,0,0:0:0:0:
462,103,106197,1,10,0:1:0:0:
347,87,106412,1,2,0:1:0:0:
294,189,106626,1,8,0:3:0:0:
242,86,106840,1,10,0:0:0:0:
130,59,107054,1,2,0:0:0:0:
74,111,107197,1,2,0:2:0:0:
65,187,107340,1,2,0:2:0:0:
98,255,107483,6,0,B|126:304|193:296|193:296|219:306|219:306|243:293|243:293|267:306|267:306|288:293|288:293|371:306|398:246,1,345.000006580353,2|8,0:1|0:3,0:0:0:0:
431,138,108340,1,10,0:2:0:0:
355,151,108483,1,2,0:2:0:0:
295,103,108626,1,2,0:2:0:0:
360,64,108768,6,0,B|332:15|265:23|265:23|239:13|239:13|215:26|215:26|191:13|191:13|170:26|170:26|87:13|60:73,1,345.000006580353,10|8,0:1|0:0,0:0:0:0:
43,173,109626,1,2,0:0:0:0:
65,238,109769,1,2,0:0:0:0:
124,273,109912,1,2,0:0:0:0:
192,273,110054,5,2,0:1:0:0:
208,190,110197,1,2,0:2:0:0:
220,106,110340,1,2,0:2:0:0:
279,141,110483,1,2,0:2:0:0:
348,141,110626,1,2,0:2:0:0:
412,117,110769,1,2,0:2:0:0:
476,139,110911,1,8,0:2:0:0:
508,200,111054,1,2,0:2:0:0:
498,268,111197,1,2,0:2:0:0:
462,327,111340,2,0,P|406:332|339:310,1,115.000002193451,10|0,0:1|0:0,0:0:0:0:
249,260,111768,1,8,0:3:0:0:
147,313,111982,1,10,0:0:0:0:
248,260,112197,1,2,0:0:0:0:
147,313,112411,1,10,0:0:0:0:
76,221,112626,5,2,0:1:0:0:
181,175,112840,2,0,L|206:62,1,115.000002193451,2|0,0:1|0:0,0:0:0:0:
205,62,113269,1,8,0:3:0:0:
97,20,113483,1,10,0:2:0:0:
34,64,113626,1,2,0:2:0:0:
15,138,113769,1,2,0:2:0:0:
35,212,113912,2,0,L|67:332,1,115.000002193451,10|10,0:0|0:0,0:0:0:0:
35,211,114341,1,10,0:0:0:0:
276,342,114768,6,0,B|290:319|290:319|261:270,1,57.5000010967255,0|0,0:0|0:0,0:0:0:0:
339,271,114982,2,0,B|325:248|325:248|354:199,1,57.5000010967255,0|0,0:0|0:0,0:0:0:0:
384,173,115197,5,6,0:1:0:0:
344,49,115411,1,2,0:0:0:0:
384,173,115625,1,2,0:1:0:0:
429,295,115840,1,2,0:0:0:0:
309,345,116054,1,2,0:0:0:0:
279,263,116197,1,2,0:0:0:0:
257,179,116340,1,2,0:0:0:0:
174,154,116482,6,0,P|172:196|197:236,1,86.6666626993817,10|2,0:1|0:0,0:0:0:0:
279,263,116768,1,2,0:0:0:0:
313,115,116911,2,0,P|335:151|335:193,1,86.6666626993817,2|2,0:0|0:0,0:0:0:0:
279,263,117197,1,2,0:0:0:0:
345,319,117340,2,0,P|385:331|440:327,2,86.6666626993817,2|2|2,0:0|0:0|0:0,0:0:0:0:
262,344,117768,6,0,P|223:374|178:383,2,86.6666626993817,2|2|2,0:0|0:0|0:0,0:0:0:0:
188,296,118197,2,0,P|96:297|30:244,1,173.333325398763,2|0,0:0|0:0,0:0:0:0:
97,190,118625,2,0,P|133:218|179:210,2,86.6666626993817,2|2|2,0:0|0:0|0:0,0:0:0:0:
160,129,119054,5,10,0:1:0:0:
194,49,119197,1,2,0:0:0:0:
245,118,119340,1,2,0:0:0:0:
306,178,119482,2,0,L|392:186,1,86.6666626993817,2|2,0:0|0:0,0:0:0:0:
479,193,119768,1,2,0:0:0:0:
482,279,119911,2,0,L|364:290,1,86.6666626993817,2|2,0:0|0:0,0:0:0:0:
309,291,120197,1,2,0:0:0:0:
223,306,120340,5,2,0:1:0:0:
223,306,120554,1,2,0:0:0:0:
120,225,120768,1,2,0:1:0:0:
120,225,120982,1,2,0:0:0:0:
86,98,121197,1,2,0:1:0:0:
86,98,121411,1,2,0:0:0:0:
183,183,121625,6,0,B|210:200|210:200|259:171,1,64.9999970245363,10|0,0:1|0:0,0:0:0:0:
258,248,121839,2,0,B|285:231|285:231|331:262,1,64.9999970245363,2|0,0:1|0:0,0:0:0:0:
361,292,122054,1,2,0:1:0:0:
433,184,122268,1,2,0:0:0:0:
327,108,122482,1,2,0:1:0:0:
285,232,122697,1,2,0:0:0:0:
158,180,122911,6,0,B|94:163|94:214|10:174,2,129.999994049073,2|2|2,0:0|0:0|0:0,0:0:0:0:
386,305,123768,2,0,P|420:307|472:272,2,86.6666626993817,2|2|2,0:0|0:0|0:0,0:0:0:0:
409,220,124197,2,0,B|319:200|297:308|144:257,1,259.999988098145,2|2,0:3|0:3,0:0:0:0:
210,6,125054,1,0,0:0:0:0:
160,262,125482,5,2,0:0:0:0:
160,262,125697,1,2,0:0:0:0:
312,51,126125,1,0,0:0:0:0:
350,175,126340,1,0,0:0:0:0:
391,298,126554,1,0,0:0:0:0:
350,175,126768,2,0,B|332:143|299:135|299:135|264:149|249:195,1,129.999994049073,2|0,0:3|0:0,0:0:0:0:
233,307,127197,1,2,0:3:0:0:
233,307,127411,1,0,0:0:0:0:
157,201,127625,1,2,0:3:0:0:
157,201,127840,1,0,0:0:0:0:
255,66,128054,6,0,L|255:187,1,100,2|2,0:0|0:0,0:0:0:0:
376,325,128697,1,0,0:0:0:0:
417,233,128912,2,0,P|365:239|317:260,1,100,0|0,0:0|0:0,0:0:0:0:
235,287,129268,1,0,0:0:0:0:
235,287,129340,2,0,B|206:254|248:225|227:190,1,100,2|0,0:3|0:0,0:0:0:0:
128,191,129768,2,0,B|157:223|115:252|136:287,1,100,2|0,0:3|0:0,0:0:0:0:
167,126,130197,2,0,P|118:117|69:139,1,100,0|0,0:0|0:0,0:0:0:0:
97,357,130625,6,0,P|145:365|191:346,1,100,2|2,0:0|0:0,0:0:0:0:
256,192,131482,1,0,0:0:0:0:
317,269,131697,1,0,0:0:0:0:
393,223,131840,1,0,0:0:0:0:
393,223,131912,2,0,B|421:190|379:161|400:126,1,100,2|0,0:3|0:0,0:0:0:0:
500,127,132340,2,0,B|471:159|513:188|492:223,1,100,2|0,0:3|0:0,0:0:0:0:
433,303,132769,1,0,0:0:0:0:
322,57,133197,6,0,P|383:64|414:98,1,100,2|2,0:0|0:0,0:0:0:0:
190,327,134054,2,0,P|129:320|98:286,1,100,0|0,0:0|0:0,0:0:0:0:
168,251,134483,2,0,P|190:202|182:153,1,100,2|0,0:3|0:0,0:0:0:0:
344,251,134911,2,0,P|322:207|327:158,1,100,2|0,0:3|0:0,0:0:0:0:
256,32,135340,2,0,L|256:135,1,100,0|0,0:0|0:0,0:0:0:0:
256,352,135769,6,0,L|256:249,1,100,2|2,0:0|0:0,0:0:0:0:
256,32,136626,1,0,0:0:0:0:
345,76,136840,1,0,0:0:0:0:
387,166,137054,2,0,P|379:231|351:276,1,100,2|0,0:3|0:0,0:0:0:0:
485,359,137482,2,0,P|465:314|462:265,1,100,2|0,0:3|0:0,0:0:0:0:
474,165,137912,1,0,0:0:0:0:
302,267,138340,6,0,P|254:279|205:271,1,100,2|2,0:0|0:0,0:0:0:0:
252,76,138983,1,0,0:0:0:0:
176,11,139197,1,0,0:0:0:0:
98,74,139412,1,0,0:0:0:0:
125,166,139625,2,0,P|133:231|161:276,1,100,2|0,0:3|0:0,0:0:0:0:
27,359,140053,2,0,P|47:314|50:265,1,100,2|0,0:3|0:0,0:0:0:0:
12,170,140483,1,0,0:0:0:0:
65,85,140697,1,0,0:0:0:0:
165,86,140912,6,0,P|187:135|187:197,1,100,2|0,0:0|0:0,0:0:0:0:
252,258,141340,2,0,P|274:209|274:147,1,100,0|0,0:0|0:0,0:0:0:0:
261,63,141768,1,0,0:0:0:0:
165,86,141983,1,0,0:0:0:0:
99,141,142126,1,0,0:0:0:0:
99,141,142197,2,0,B|119:175|81:203|121:252,1,100,2|0,0:3|0:0,0:0:0:0:
130,333,142625,2,0,B|106:301|138:277|110:236,1,100,2|0,0:3|0:0,0:0:0:0:
205,202,143055,1,0,0:0:0:0:
255,288,143269,1,0,0:0:0:0:
382,333,143482,6,0,B|406:301|374:277|402:236,1,100,2|2,0:0|0:0,0:0:0:0:
457,81,144341,1,0,0:0:0:0:
358,89,144554,1,0,0:0:0:0:
422,165,144769,2,0,P|378:190|323:187,1,100,2|0,0:3|0:0,0:0:0:0:
89,164,145197,2,0,P|132:189|182:189,1,100,2|0,0:3|0:0,0:0:0:0:
256,122,145625,1,0,0:0:0:0:
256,122,145840,1,0,0:0:0:0:
256,322,146054,6,0,L|256:222,1,100,2|2,0:0|0:0,0:0:0:0:
256,122,146482,2,0,L|256:231,1,100,0|0,0:0|0:0,0:0:0:0:
167,174,146912,1,0,0:0:0:0:
256,122,147126,1,0,0:0:0:0:
345,172,147269,1,0,0:0:0:0:
345,172,147341,2,0,B|374:124|359:57|318:21|249:19,1,200,2|2,0:2|0:0,0:0:0:0:
256,222,148197,1,4,0:1:0:0:
256,222,148625,5,2,0:0:0:0:
256,222,148839,2,0,B|214:215|214:215|192:245|136:244,1,115.000002193451,2|0,0:0|0:0,0:0:0:0:
35,229,149268,1,0,0:0:0:0:
105,138,149482,2,0,B|138:112|173:124|173:124|204:95,1,115.000002193451,2|8,0:0|0:3,0:0:0:0:
251,34,149839,1,0,0:0:0:0:
251,33,149911,2,0,P|294:72|369:80,1,115.000002193451,10|0,0:1|0:0,0:0:0:0:
449,122,150339,2,0,P|404:86|348:83,1,115.000002193451,2|2,0:0|0:0,0:0:0:0:
260,147,150768,2,0,P|295:102|349:83,1,115.000002193451,2|0,0:0|0:0,0:0:0:0:
366,197,151196,5,2,0:0:0:0:
365,197,151411,2,0,L|349:84,1,115.000002193451,2|0,0:0|0:0,0:0:0:0:
255,16,151839,1,0,0:0:0:0:
255,131,152055,1,2,0:0:0:0:
164,84,152268,1,8,0:3:0:0:
158,160,152411,1,0,0:0:0:0:
158,160,152482,2,0,L|141:273,1,115.000002193451,10|0,0:1|0:0,0:0:0:0:
96,54,152911,1,2,0:0:0:0:
76,160,153125,2,0,L|58:275,1,115.000002193451,2|2,0:0|0:0,0:0:0:0:
128,364,153553,1,0,0:0:0:0:
203,276,153768,6,0,P|255:255|313:275,1,115.000002193451,2|2,0:0|0:0,0:0:0:0:
258,375,154196,1,0,0:0:0:0:
364,179,154625,2,0,P|313:152|257:143,1,115.000002193451,2|8,0:0|0:3,0:0:0:0:
149,179,155054,2,0,P|199:152|256:143,1,115.000002193451,10|0,0:1|0:0,0:0:0:0:
389,71,155482,2,0,P|333:60|285:6,1,115.000002193451,2|2,0:0|0:0,0:0:0:0:
123,71,155911,2,0,P|179:60|227:6,1,115.000002193451,2|0,0:0|0:0,0:0:0:0:
256,245,156339,6,0,L|256:130,1,115.000002193451,2|2,0:0|0:0,0:0:0:0:
256,14,156768,1,0,0:0:0:0:
356,220,157196,1,2,0:0:0:0:
327,291,157339,1,2,0:0:0:0:
256,320,157482,1,2,0:0:0:0:
185,291,157626,2,0,P|152:253|143:178,1,115.000002193451,10|0,0:1|0:0,0:0:0:0:
210,99,158054,2,0,P|245:143|254:199,1,115.000002193451,2|2,0:0|0:0,0:0:0:0:
140,190,158483,1,2,0:0:0:0:
210,99,158696,1,0,0:0:0:0:
324,114,158911,6,0,B|371:179|351:245|351:245|341:279|378:303|415:288|416:253|416:253|415:195|365:163,1,345.000006580353,2|0,0:0|0:0,0:0:0:0:
256,80,159768,1,2,0:0:0:0:
256,194,159982,1,8,0:3:0:0:
188,114,160197,2,0,B|141:179|161:245|161:245|171:279|134:303|97:288|96:253|96:253|97:195|147:163,1,345.000006580353,10|2,0:1|0:0,0:0:0:0:
256,194,161054,1,2,0:0:0:0:
256,308,161268,1,0,0:0:0:0:
291,101,161482,6,0,P|344:146|355:202,1,115.000002193451,2|2,0:0|0:0,0:0:0:0:
221,283,161911,2,0,P|168:238|157:182,1,115.000002193451,0|0,0:0|0:0,0:0:0:0:
291,101,162339,2,0,P|328:125|348:157,1,76.6666681289673,2|2,0:0|0:0,0:0:0:0:
335,251,162625,1,2,0:0:0:0:
256,192,162768,1,10,0:1:0:0:
149,297,162982,1,2,0:0:0:0:
42,192,163196,1,2,0:1:0:0:
149,87,163411,1,2,0:0:0:0:
256,192,163626,5,2,0:1:0:0:
256,43,163839,1,2,0:1:0:0:
200,242,164054,2,0,B|229:264|259:264|259:264|309:295|305:344|259:381|203:340|203:294|259:264|259:264|286:264|312:242,1,345.000006580353,2|0,0:0|0:0,0:0:0:0:
256,43,164912,5,2,0:0:0:0:
256,191,165125,1,8,0:3:0:0:
395,135,165340,2,0,B|360:156|342:156|279:110,1,115.000002193451,10|0,0:1|0:0,0:0:0:0:
117,135,165768,2,0,B|152:156|170:156|233:110,1,115.000002193451,2|2,0:0|0:0,0:0:0:0:
256,263,166196,1,0,0:0:0:0:
256,43,166411,1,0,0:0:0:0:
160,230,166625,6,0,B|189:193|221:221|255:170|255:170|282:221|323:189|356:239,1,230.000004386902,2|2,0:0|0:0,0:0:0:0:
256,347,167268,1,2,0:0:0:0:
160,230,167482,1,2,0:0:0:0:
256,92,167696,1,0,0:0:0:0:
352,230,167911,1,10,0:1:0:0:
256,153,168339,5,2,0:1:0:0:
256,231,168553,1,2,0:0:0:0:
256,84,168767,1,0,0:0:0:0:
256,300,168982,1,2,0:0:0:0:
256,84,169197,6,0,P|314:105|374:74,1,115.000002193451,2|2,0:1|0:1,0:0:0:0:
315,0,169626,1,0,0:0:0:0:
429,0,169840,1,8,0:3:0:0:
510,81,170054,1,8,0:2:0:0:
428,162,170269,1,0,0:0:0:0:
278,162,170483,1,10,0:1:0:0:
428,162,170697,1,2,0:1:0:0:
484,275,170911,2,0,P|430:293|375:277,1,115.000002193451,8|10,0:3|0:0,0:0:0:0:
256,84,171340,1,2,0:0:0:0:
256,300,171555,1,8,0:0:0:0:
256,84,171768,6,0,P|198:105|138:74,1,115.000002193451,2|2,0:1|0:1,0:0:0:0:
197,0,172197,1,0,0:0:0:0:
83,0,172411,1,8,0:3:0:0:
2,81,172625,1,8,0:2:0:0:
84,162,172840,1,0,0:0:0:0:
189,268,173054,2,0,P|207:214|191:159,1,115.000002193451,10|2,0:1|0:1,0:0:0:0:
40,232,173482,2,0,P|24:286|42:340,1,115.000002193451,8|10,0:3|0:0,0:0:0:0:
256,300,173911,5,2,0:0:0:0:
256,84,174126,1,8,0:0:0:0:
329,199,174339,1,2,0:1:0:0:
404,300,174553,1,0,0:0:0:0:
481,199,174769,1,0,0:0:0:0:
404,332,174983,1,8,0:3:0:0:
329,164,175197,1,8,0:2:0:0:
257,332,175412,1,0,0:0:0:0:
330,137,175626,1,10,0:1:0:0:
329,341,175840,1,2,0:1:0:0:
330,137,176053,1,0,0:0:0:0:
469,247,176268,1,10,0:0:0:0:
468,43,176482,1,2,0:0:0:0:
469,247,176697,1,8,0:0:0:0:
360,321,176911,6,0,P|303:319|256:287,1,115.000002193451,2|2,0:1|0:1,0:0:0:0:
170,138,177340,1,0,0:0:0:0:
342,138,177554,1,8,0:3:0:0:
170,223,177768,1,8,0:2:0:0:
170,49,177983,1,0,0:0:0:0:
342,49,178197,1,10,0:1:0:0:
342,223,178412,1,10,0:1:0:0:
256,49,178626,2,0,L|256:184,1,115.000002193451,8|0,0:0|0:0,0:0:0:0:
357,333,179054,5,2,0:0:0:0:
357,333,179197,1,2,0:0:0:0:
357,333,179340,1,2,0:0:0:0:
357,333,179482,2,0,P|341:222|346:206,1,115.000002193451,4|2,0:1|0:0,0:0:0:0:
171,222,179911,2,0,P|173:279|155:333,1,115.000002193451,0|0,0:0|0:0,0:0:0:0:
104,166,180340,1,2,0:0:0:0:
104,166,180483,1,2,0:0:0:0:
104,166,180626,1,2,0:0:0:0:
104,166,180768,2,0,B|193:74|318:74|414:163,1,345.000006580353,8|2,0:1|0:0,0:0:0:0:
335,248,181626,6,0,B|301:281|301:281|291:160,1,153.333336257935,2|0,0:0|0:0,0:0:0:0:
219,175,182054,2,0,B|211:281|211:281|177:248,1,153.333336257935,2|0,1:2|1:0,0:0:0:0:
143,146,182482,2,0,L|126:313,1,153.333336257935,2|0,1:2|1:0,0:0:0:0:
384,298,182911,2,0,L|369:146,1,153.333336257935,2|0,1:2|1:0,0:0:0:0:
255,191,183340,1,4,0:1:0:0:
161,88,183769,5,0,0:0:0:0:
191,54,183911,1,0,0:0:0:0:
232,34,184054,1,0,0:0:0:0:
278,34,184197,1,0,0:0:0:0:
319,54,184340,1,0,0:0:0:0:
349,88,184482,1,0,0:0:0:0:
312,146,184625,6,0,B|256:91|182:153,1,129.999994049073,4|2,0:1|0:0,0:0:0:0:
198,325,185054,2,0,B|254:380|328:318,1,129.999994049073,0|0,0:0|0:0,0:0:0:0:
258,238,185482,1,2,0:0:0:0:
258,238,185697,1,0,0:0:0:0:
439,238,185911,6,0,P|468:293|411:279,1,129.999994049073,10|0,0:1|0:0,0:0:0:0:
325,145,186340,2,0,P|367:109|384:162,1,129.999994049073,2|0,0:0|0:0,0:0:0:0:
259,293,186768,1,2,0:0:0:0:
259,293,186982,1,0,0:0:0:0:
187,145,187197,6,0,B|186:106|154:91|118:105|107:137|131:169|131:169|167:219|140:303,2,259.999988098145,2|0|0,0:0|0:0|0:0,0:0:0:0:
256,313,188268,1,0,0:0:0:0:
325,145,188411,1,0,0:0:0:0:
325,145,188482,2,0,B|326:106|358:91|394:105|405:137|381:169|381:169,1,129.999994049073,10|0,0:1|0:0,0:0:0:0:
364,288,188911,2,0,B|346:219|382:164,1,129.999994049073,2|0,0:0|0:0,0:0:0:0:
268,38,189339,5,2,0:0:0:0:
381,163,189553,1,0,0:0:0:0:
137,165,189768,2,0,P|259:127|381:168,1,259.999988098145,2|2,0:1|0:1,0:0:0:0:
262,288,190411,1,2,0:0:0:0:
97,279,190625,6,0,B|99:217|99:217|102:178|137:165,1,129.999994049073,2|2,0:1|0:0,0:0:0:0:
97,52,191054,2,0,B|99:113|99:113|102:152|137:165,1,129.999994049073,10|0,0:1|0:0,0:0:0:0:
415,52,191482,6,0,B|412:113|412:113|409:152|374:165,1,129.999994049073,2|2,0:0|0:0,0:0:0:0:
256,192,191911,1,2,0:0:0:0:
256,192,192125,1,0,0:0:0:0:
335,88,192340,6,0,P|372:168|371:253,1,173.333325398763,2|0,0:1|0:0,0:0:0:0:
335,330,192768,1,2,0:1:0:0:
256,226,192982,1,0,0:0:0:0:
177,330,193196,1,2,0:0:0:0:
97,226,193411,1,2,0:0:0:0:
166,116,193625,5,0,1:1:0:0:
208,86,193768,1,0,1:0:0:0:
258,100,193911,1,0,1:0:0:0:
273,167,194054,1,0,1:0:0:0:
228,220,194197,1,0,1:0:0:0:
158,218,194340,1,0,1:0:0:0:
89,167,194481,1,2,1:0:0:0:
91,80,194624,1,0,1:0:0:0:
151,16,194768,1,0,1:0:0:0:
256,25,194911,6,0,L|255:185,1,129.999994049073,4|2,0:1|0:0,0:0:0:0:
297,272,195339,2,0,P|290:207|254:154,1,129.999994049073,0|0,0:0|0:0,0:0:0:0:
215,272,195768,1,2,0:0:0:0:
288,378,195982,1,0,0:0:0:0:
410,333,196197,6,0,P|405:268|430:209,1,129.999994049073,10|0,0:1|0:0,0:0:0:0:
487,93,196625,2,0,P|419:100|355:151,1,129.999994049073,2|2,0:0|0:0,0:0:0:0:
314,251,197054,1,2,0:0:0:0:
256,134,197268,1,0,0:0:0:0:
137,186,197482,6,0,B|124:260|192:291|192:291|114:272|141:350|70:339,2,259.999988098145,2|0|2,0:0|0:0|0:0,0:0:0:0:
256,134,198554,1,0,0:0:0:0:
375,186,198697,1,0,0:0:0:0:
375,186,198768,2,0,P|365:254|303:296,1,129.999994049073,10|0,0:1|0:0,0:0:0:0:
432,338,199197,2,0,B|365:349|387:274|309:293,1,129.999994049073,2|0,0:0|0:0,0:0:0:0:
195,365,199625,5,2,0:0:0:0:
324,365,199839,1,0,0:0:0:0:
193,291,200054,2,0,P|178:186|257:48,1,259.999988098145,2|2,0:1|0:1,0:0:0:0:
300,192,200697,1,2,0:0:0:0:
134,29,200911,6,0,P|88:94|74:158,1,129.999994049073,2|2,0:1|0:0,0:0:0:0:
134,355,201340,2,0,P|88:290|74:226,1,129.999994049073,10|0,0:1|0:0,0:0:0:0:
191,192,201768,2,0,B|323:192,1,129.999994049073,2|2,0:0|0:0,0:0:0:0:
451,192,202197,1,0,1:0:0:0:
413,113,202340,1,0,1:0:0:0:
329,93,202482,1,0,1:0:0:0:
249,131,202625,6,0,P|229:191|249:252,1,129.999994049073,2|2,0:1|0:1,0:0:0:0:
365,192,203054,1,0,0:0:0:0:
249,131,203268,1,8,0:3:0:0:
134,192,203482,1,4,0:1:0:0:
249,131,203697,1,0,0:0:0:0:
365,192,203911,2,0,P|384:252|364:313,1,129.999994049073,2|2,0:1|0:1,0:0:0:0:
240,352,204340,5,0,1:0:0:0:
156,332,204482,1,0,1:0:0:0:
118,253,204625,1,0,1:0:0:0:
118,166,204768,5,0,1:0:0:0:
225,132,204911,1,0,1:0:0:0:
335,110,205053,1,0,1:0:0:0:
324,222,205196,6,0,P|294:214|274:185,1,43.3333313496908,4|0,0:1|0:0,0:0:0:0:
270,58,207768,6,0,B|301:127|241:140|265:185,1,133.333333333333,0|0,0:0|0:0,0:0:0:0:
301,239,208197,2,0,P|438:258|437:7,1,450
256,292,209697,6,0,L|256:368,2,62.3999991240235
177,253,210335,2,0,P|100:248|49:98,1,243.5
267,221,211472,6,0,P|267:262|255:296,1,72.6000019718629
361,370,211989,2,0,P|350:335|351:299,1,72.6000019718629
405,180,212506,1,0,0:0:0:0:
467,294,212765,1,0,0:0:0:0:
351,299,213023,1,2,0:0:0:0:
297,265,213196,1,2,0:0:0:0:
279,204,213368,1,2,0:0:0:0:
256,145,213540,6,0,B|241:110|183:119|183:119|168:110|168:110|151:119|151:119|135:110|135:110|117:117|117:117|70:111|50:146,1,234.000007855225
161,299,214651,1,2,0:0:0:0:
215,265,214824,1,2,0:0:0:0:
233,204,214998,1,2,0:0:0:0:
256,144,215172,6,0,B|269:113|322:121|322:121|336:113|336:113|352:121|352:121|367:113|367:113|384:119|384:119|428:114|446:146,1,219.600011392823
386,265,216216,2,0,P|387:291|394:315,2,48.8000025317384
304,243,216731,6,0,P|319:208|317:175,1,50.7999996124268,2|2,0:0|0:0,0:0:0:0:
302,126,217094,1,2,0:0:0:0:
208,243,217276,2,0,P|193:208|195:175,1,50.7999996124268,2|2,0:0|0:0,0:0:0:0:
210,126,217639,1,2,0:0:0:0:
126,265,217821,2,0,P|125:291|118:315,2,50.7999996124268,2|2|2,0:0|0:0|0:0,0:0:0:0:
75,188,218353,6,0,P|97:143|99:84,1,101.333332096354
80,18,218898,1,0,0:0:0:0:
205,73,219171,1,0,0:0:0:0:
330,16,219443,1,0,0:0:0:0:
454,74,219716,1,0,0:0:0:0:
434,209,219988,6,0,P|400:199|350:213,1,76.1999994186401
211,285,220552,2,0,P|255:296|300:284,1,93.5999986860352
152,206,221218,1,2,0:0:0:0:
256,73,221570,1,2,0:0:0:0:
256,296,221923,1,2,0:0:0:0:
256,204,222607,6,0,L|256:158,4,33.3333333333333
256,192,223321,12,0,226892,0:0:0:0:
