osu file format v14

[General]
AudioFilename: audio.mp3
AudioLeadIn: 0
PreviewTime: 82125
Countdown: 0
SampleSet: Soft
StackLeniency: 0.7
Mode: 0
LetterboxInBreaks: 0
WidescreenStoryboard: 1

[Editor]
Bookmarks: 26496,47068,67639,83068,93354,104925,115211,128068,148639,169211,184639,194925,205211
DistanceSpacing: 1
BeatDivisor: 6
GridSize: 32
TimelineZoom: 0.7499999

[Metadata]
Title:Tatakai no Doutei
TitleUnicode:戦いの道程
Artist:CraftP
ArtistUnicode:クラフトP
Creator:Noffy
Version:Hard
Source:
Tags:the road of battle virgin kagamine len vocaloid trynna 鏡音レン
BeatmapID:1695530
BeatmapSetID:807942

[Difficulty]
HPDrainRate:4
CircleSize:4
OverallDifficulty:7
ApproachRate:7
SliderMultiplier:1.6
SliderTickRate:1

[Events]
//Background and Video events
0,0,"virgin.jpg",0,0
Video,0,"road.avi"
//Break Periods
//Storyboard Layer 0 (Background)
//Storyboard Layer 1 (Fail)
//Storyboard Layer 2 (Pass)
//Storyboard Layer 3 (Foreground)
//Storyboard Sound Samples

[TimingPoints]
3340,428.571428571429,3,2,1,100,1,0
47054,-86.9565217391304,3,2,1,100,0,0
80482,-86.9565217391304,3,2,1,70,0,0
81768,-86.9565217391304,3,2,1,100,0,0
83054,-76.9230769230769,3,2,1,100,0,1
102768,-76.9230769230769,3,2,1,50,0,1
103197,-76.9230769230769,3,2,1,70,0,1
103625,-76.9230769230769,3,2,1,100,0,1
104911,-86.9565217391304,3,2,1,100,0,0
115197,-76.9230769230769,3,2,1,100,0,0
128054,-100,3,2,1,100,0,0
148625,-86.9565217391304,3,2,1,100,0,0
182054,-86.9565217391304,3,2,1,70,0,0
183340,-86.9565217391304,3,2,1,100,0,0
184625,-76.9230769230769,3,2,1,100,0,1
193625,-76.9230769230769,3,2,1,50,0,1
194054,-76.9230769230769,3,2,1,60,0,1
194482,-76.9230769230769,3,2,1,70,0,1
194911,-76.9230769230769,3,2,1,100,0,1
204340,-76.9230769230769,3,2,1,50,0,1
204768,-76.9230769230769,3,2,1,70,0,1
205197,-100,3,2,1,70,0,0
207768,-100,3,2,1,50,0,0
208625,-100,3,2,1,30,0,0
209054,-100,3,2,1,10,0,0
209697,638.297872340426,3,2,1,60,1,0
211165,550.45871559633,3,2,1,60,1,0
211472,517.241379310345,3,2,1,60,1,8
213540,555.555555555556,3,2,1,60,1,8
214651,521.739130434783,3,2,1,40,1,8
216731,545.454545454546,3,2,1,60,1,8
218353,545.454545454546,3,2,1,60,1,0
219988,563.380281690141,3,2,1,60,1,0
220552,666.666666666667,3,2,1,60,1,8
221218,705.882352941176,3,2,1,40,1,0
221923,681.818181818182,3,2,1,40,1,0
222607,428.571428571429,3,2,1,20,1,8

[Colours]
Combo1 : 198,189,159
Combo2 : 182,146,20

[HitObjects]
289,226,2911,6,0,P|302:244|347:262,2,53.3333333333333,0|0|0,0:0|0:0|0:0,0:0:0:0:
274,150,3340,1,2,0:1:0:0:
274,150,3554,1,2,0:1:0:0:
68,48,3982,1,8,0:3:0:0:
36,155,4197,2,0,P|40:199|69:234,1,80,8|0,0:2|0:0,0:0:0:0:
172,230,4625,2,0,P|203:201|213:159,1,80,10|2,0:1|0:1,0:0:0:0:
144,87,5054,1,8,0:3:0:0:
233,28,5268,1,10,0:0:0:0:
288,118,5482,2,0,P|314:124|341:121,2,53.3333333333333,2|2|2,0:0|0:2|0:2,0:0:0:0:
324,52,5911,6,0,B|373:41|435:71|431:164|373:187|373:187|412:204|414:244,1,266.666666666667,2|0,0:1|0:0,0:0:0:0:
344,260,6768,2,0,L|371:316,2,53.3333333333333,10|2|2,0:2|0:2|0:2,0:0:0:0:
272,282,7197,2,0,B|256:269|272:229|272:229|214:254|146:191|168:126|211:99,1,266.666666666667,10|0,0:1|0:0,0:0:0:0:
207,25,8054,2,0,P|246:21|278:31,2,53.3333333333333,2|2|2,0:0|0:0|0:0,0:0:0:0:
122,54,8482,5,2,0:1:0:0:
81,116,8625,1,2,0:2:0:0:
72,190,8768,1,2,0:2:0:0:
68,264,8911,2,0,P|39:265|16:252,2,53.3333333333333,2|2|2,0:2|0:2|0:2,0:0:0:0:
140,244,9340,2,0,P|169:237|200:243,2,53.3333333333333,8|2|2,0:2|0:2|0:2,0:0:0:0:
124,320,9768,2,0,P|165:367|208:375,1,106.666666666667,10|0,0:1|0:0,0:0:0:0:
281,368,10197,1,8,0:3:0:0:
319,262,10411,1,10,0:0:0:0:
249,176,10625,1,2,0:0:0:0:
306,79,10840,1,8,0:0:0:0:
363,174,11054,5,2,0:1:0:0:
363,174,11268,1,2,0:1:0:0:
496,354,11697,1,8,0:3:0:0:
405,288,11911,1,10,0:2:0:0:
330,291,12054,1,2,0:2:0:0:
275,240,12197,1,2,0:2:0:0:
260,166,12340,2,0,P|269:130|261:78,1,80,10|10,0:0|0:0,0:0:0:0:
158,124,12769,1,10,0:0:0:0:
158,124,13197,2,0,P|132:127|96:119,2,53.3333333333333,2|2|2,0:0|0:0|0:0,0:0:0:0:
227,97,13625,6,0,P|332:92|462:154,1,240,6|0,0:1|0:0,0:0:0:0:
470,257,14483,2,0,P|479:287|497:313,2,53.3333333333333,2|2|2,0:0|0:0|0:0,0:0:0:0:
403,292,14911,2,0,P|333:304|283:281,1,106.666666666667,10|0,0:1|0:0,0:0:0:0:
237,251,15340,2,0,P|170:262|118:240,1,106.666666666667,2|0,0:0|0:0,0:0:0:0:
74,204,15769,2,0,P|45:210|18:199,2,53.3333333333333,2|2|2,0:0|0:0|0:0,0:0:0:0:
136,162,16197,5,2,0:0:0:0:
188,109,16340,1,2,0:0:0:0:
262,114,16482,2,0,P|332:238|322:305,1,213.333333333333,2|2,0:0|0:0,0:0:0:0:
222,352,17268,1,0,0:0:0:0:
129,293,17482,2,0,P|126:239|177:134,2,160,10|2|2,0:1|0:0|0:0,0:0:0:0:
180,346,18482,1,2,0:0:0:0:
253,361,18625,1,2,0:0:0:0:
327,356,18768,6,0,P|372:334|395:306,1,80,2|2,0:1|0:0,0:0:0:0:
311,232,19197,2,0,P|345:203|364:165,1,80,2|2,0:1|0:0,0:0:0:0:
256,134,19625,2,0,P|285:85|289:54,1,80,2|2,0:1|0:0,0:0:0:0:
182,27,20054,1,2,0:1:0:0:
182,27,20268,1,2,0:1:0:0:
76,62,20482,2,0,P|86:101|109:134,1,80,2|2,0:1|0:0,0:0:0:0:
3,172,20911,2,0,P|23:206|54:232,1,80,2|2,0:1|0:0,0:0:0:0:
158,272,21340,2,0,P|151:306|158:346,2,53.3333333333333,2|2|2,0:0|0:0|0:0,0:0:0:0:
228,246,21768,2,0,P|260:235|292:209,2,53.3333333333333,2|2|2,0:0|0:0|0:0,0:0:0:0:
172,195,22197,2,0,P|146:171|107:158,2,53.3333333333333,2|2|2,0:0|0:0|0:0,0:0:0:0:
158,272,22625,5,6,0:1:0:0:
256,192,22697,12,2,26054,0:3:0:0:
110,157,26482,6,0,P|191:179|297:188,1,160,2|0,0:0|0:0,0:0:0:0:
353,173,27125,1,0,0:0:0:0:
301,101,27340,1,0,0:0:0:0:
322,275,27768,2,0,P|364:273|419:252,1,80,2|0,0:3|0:0,0:0:0:0:
350,188,28197,2,0,P|310:189|271:201,1,80,2|0,0:3|0:0,0:0:0:0:
201,253,28625,1,0,0:0:0:0:
347,60,29054,6,0,P|229:81|128:144,1,240,2|0,0:0|0:0,0:0:0:0:
82,219,29912,1,0,0:0:0:0:
104,294,30125,1,0,0:0:0:0:
189,317,30340,2,0,P|213:279|226:214,1,80,2|0,0:3|0:0,0:0:0:0:
280,179,30768,2,0,P|292:216|314:250,1,80,2|0,0:3|0:0,0:0:0:0:
386,301,31197,1,0,0:0:0:0:
214,58,31625,6,0,P|171:176|211:307,1,240,2|0,0:0|0:0,0:0:0:0:
262,342,32483,1,0,0:0:0:0:
380,212,32911,2,0,P|343:196|303:191,1,80,2|0,0:3|0:0,0:0:0:0:
215,188,33340,2,0,L|226:85,1,80,2|0,0:3|0:0,0:0:0:0:
232,21,33768,1,0,0:0:0:0:
59,57,34197,6,0,P|26:187|162:300,1,320,2|0,0:0|0:0,0:0:0:0:
316,362,35483,2,0,P|329:325|328:283,1,80,2|0,0:3|0:0,0:0:0:0:
282,210,35911,2,0,P|281:170|294:132,1,80,2|0,0:3|0:0,0:0:0:0:
349,63,36340,1,0,0:0:0:0:
463,196,36768,6,0,P|422:265|340:301,1,160,2|0,0:0|0:0,0:0:0:0:
264,291,37411,1,0,0:0:0:0:
199,231,37625,1,0,0:0:0:0:
162,150,37840,1,0,0:0:0:0:
86,194,38054,2,0,P|123:290|232:379,1,240,2|0,0:3|0:0,0:0:0:0:
314,376,38911,1,0,0:0:0:0:
318,288,39125,1,0,0:0:0:0:
326,200,39340,5,2,0:0:0:0:
245,43,39768,1,0,0:0:0:0:
326,200,40198,1,0,0:0:0:0:
331,101,40411,1,0,0:0:0:0:
245,43,40626,2,0,P|179:122|169:196,1,160,2|2,0:3|0:3,0:0:0:0:
252,330,41483,1,0,0:0:0:0:
260,232,41697,1,0,0:0:0:0:
168,175,41911,6,0,P|73:226|46:349,1,240,2|0,0:0|0:0,0:0:0:0:
131,325,42769,1,0,0:0:0:0:
213,355,42982,1,0,0:0:0:0:
296,325,43197,2,0,P|314:281|315:235,1,80,2|0,0:3|0:0,0:0:0:0:
401,226,43625,2,0,P|383:182|382:136,1,80,2|0,0:3|0:0,0:0:0:0:
295,124,44054,2,0,P|313:80|314:34,1,80,0|0,0:0|0:0,0:0:0:0:
239,2,44483,6,0,P|198:20|167:52,1,80,2|2,0:0|0:0,0:0:0:0:
129,120,44911,1,0,0:0:0:0:
129,120,45125,1,0,0:0:0:0:
129,208,45340,1,0,0:0:0:0:
129,208,45554,1,0,0:0:0:0:
183,277,45769,2,0,P|253:308|322:273,1,160,2|2,0:2|0:0,0:0:0:0:
253,109,46626,1,4,0:1:0:0:
253,109,47054,6,0,P|343:134|413:209,1,184.000003509522,2|0,0:0|0:0,0:0:0:0:
343,276,47697,1,0,0:0:0:0:
377,371,47912,1,2,0:0:0:0:
275,196,48340,2,0,P|221:216|186:265,1,92.0000017547608,10|0,0:1|0:0,0:0:0:0:
159,333,48768,2,0,P|125:301|82:288,1,92.0000017547608,2|2,0:0|0:0,0:0:0:0:
3,353,49197,1,2,0:0:0:0:
4,150,49626,6,0,B|90:108|94:188|199:136,1,184.000003509522,2|0,0:0|0:0,0:0:0:0:
128,58,50268,1,0,0:0:0:0:
230,57,50482,1,2,0:0:0:0:
282,142,50697,1,8,0:3:0:0:
353,70,50912,2,0,P|397:60|442:70,1,92.0000017547608,10|0,0:1|0:0,0:0:0:0:
486,161,51340,2,0,P|463:203|408:234,1,92.0000017547608,2|0,0:0|0:0,0:0:0:0:
334,188,51769,1,2,0:0:0:0:
185,50,52197,6,0,P|65:75|32:213,1,276.000005264282,2|0,0:0|0:0,0:0:0:0:
104,280,53055,1,2,0:0:0:0:
253,144,53483,2,0,P|205:152|149:135,1,92.0000017547608,10|0,0:1|0:0,0:0:0:0:
185,241,53912,2,0,P|235:243|282:227,1,92.0000017547608,2|2,0:0|0:0,0:0:0:0:
337,151,54340,1,2,0:0:0:0:
123,321,54768,6,0,P|260:334|386:260,1,276.000005264282,2|0,0:0|0:0,0:0:0:0:
429,181,55625,2,0,P|449:206|463:244,2,61.3333345031739,2|2|2,0:0|0:0|0:0,0:0:0:0:
364,142,56055,2,0,P|317:128|224:147,1,122.666669006348,10|0,0:1|0:0,0:0:0:0:
180,171,56482,2,0,P|133:157|40:176,1,122.666669006348,2|0,0:0|0:0,0:0:0:0:
5,215,56912,1,2,0:0:0:0:
256,328,57340,6,0,B|248:253|311:183|352:261|425:182|393:101,1,276.000005264282,2|0,0:0|0:0,0:0:0:0:
306,78,58197,1,2,0:0:0:0:
204,78,58412,1,8,0:3:0:0:
113,121,58625,2,0,B|101:183|160:261|201:183|264:253|256:328,1,276.000005264282,10|2,0:1|0:0,0:0:0:0:
358,328,59483,1,2,0:0:0:0:
256,327,59697,1,0,0:0:0:0:
154,328,59911,5,2,0:0:0:0:
256,153,60340,1,0,0:0:0:0:
358,328,60768,1,2,0:0:0:0:
398,236,60983,1,0,0:0:0:0:
440,143,61198,2,0,P|404:125|345:121,1,92.0000017547608,10|2,0:1|0:0,0:0:0:0:
252,130,61625,2,0,L|278:26,1,92.0000017547608,2|2,0:1|0:0,0:0:0:0:
174,59,62055,1,2,0:1:0:0:
150,157,62269,1,2,0:1:0:0:
138,256,62482,6,0,P|153:295|205:332,1,92.0000017547608,2|2,0:0|0:0,0:0:0:0:
256,249,62910,2,0,L|256:150,1,92.0000017547608,0|0,0:0|0:0,0:0:0:0:
256,54,63341,1,2,0:0:0:0:
333,117,63554,1,8,0:3:0:0:
409,182,63768,2,0,P|394:221|342:258,1,92.0000017547608,10|0,0:1|0:0,0:0:0:0:
256,249,64196,2,0,L|256:150,1,92.0000017547608,2|2,0:0|0:0,0:0:0:0:
256,55,64625,1,2,0:0:0:0:
179,117,64840,1,0,0:0:0:0:
78,123,65054,6,0,P|28:100|8:60,1,92.0000017547608,2|2,0:0|0:0,0:0:0:0:
105,34,65483,1,2,0:0:0:0:
205,19,65697,1,2,0:0:0:0:
304,38,65912,1,2,0:0:0:0:
372,112,66126,1,8,0:3:0:0:
395,210,66340,1,10,0:1:0:0:
256,356,66768,5,2,0:1:0:0:
256,254,66982,1,2,0:0:0:0:
256,152,67196,1,2,0:1:0:0:
327,80,67411,1,2,0:0:0:0:
344,179,67625,6,0,P|367:228|413:269,1,92.0000017547608,2|2,0:1|0:1,0:0:0:0:
494,249,68054,1,0,0:0:0:0:
497,147,68268,1,8,0:3:0:0:
502,46,68482,1,8,0:2:0:0:
497,147,68697,1,0,0:0:0:0:
400,118,68911,1,10,0:1:0:0:
347,31,69125,1,2,0:1:0:0:
256,76,69340,1,8,0:3:0:0:
256,266,69768,5,2,0:0:0:0:
185,338,69983,1,8,0:0:0:0:
171,237,70197,2,0,P|148:188|102:147,1,92.0000017547608,2|2,0:1|0:1,0:0:0:0:
18,135,70626,1,0,0:0:0:0:
15,237,70840,1,8,0:3:0:0:
10,338,71054,1,8,0:2:0:0:
15,237,71269,1,0,0:0:0:0:
108,201,71482,2,0,P|154:205|196:232,1,92.0000017547608,10|2,0:1|0:1,0:0:0:0:
256,308,71911,1,8,0:3:0:0:
256,152,72340,5,2,0:0:0:0:
307,64,72555,1,8,0:0:0:0:
407,60,72768,1,2,0:1:0:0:
470,139,72982,1,2,0:1:0:0:
407,60,73197,1,0,0:0:0:0:
362,150,73411,1,8,0:3:0:0:
373,250,73625,1,8,0:2:0:0:
474,242,73840,1,0,0:0:0:0:
432,334,74054,1,10,0:1:0:0:
373,250,74268,1,2,0:1:0:0:
327,340,74482,1,8,0:3:0:0:
266,258,74697,1,10,0:0:0:0:
313,168,74911,1,2,0:0:0:0:
367,82,75125,1,8,0:0:0:0:
294,10,75340,6,0,P|261:59|256:97,1,92.0000017547608,2|2,0:1|0:1,0:0:0:0:
218,10,75768,2,0,P|251:59|256:97,1,92.0000017547608,0|8,0:0|0:3,0:0:0:0:
131,153,76197,2,0,P|175:164|207:197,1,92.0000017547608,8|0,0:2|0:0,0:0:0:0:
381,153,76625,2,0,P|336:165|305:199,1,92.0000017547608,10|10,0:1|0:1,0:0:0:0:
256,296,77054,2,0,L|256:191,1,92.0000017547608,8|0,0:0|0:0,0:0:0:0:
256,102,77482,6,0,L|256:39,2,61.3333345031739,2|2|2,0:0|0:0|0:0,0:0:0:0:
184,116,77911,2,0,B|124:140|86:267|181:229|167:316|120:361,1,276.000005264282,4|0,0:1|0:0,0:0:0:0:
256,282,78768,2,0,L|256:345,2,61.3333345031739,2|2|2,0:0|0:0|0:0,0:0:0:0:
320,259,79197,2,0,P|367:188|350:133,1,122.666669006348,8|0,0:1|0:0,0:0:0:0:
317,104,79625,6,0,B|256:120|256:120|183:102,1,122.666669006348,2|0,0:0|0:0,0:0:0:0:
149,155,80054,2,0,P|151:215|192:259,1,122.666669006348,2|0,0:0|0:0,0:0:0:0:
256,278,80482,2,0,L|256:137,1,122.666669006348,2|0,1:2|1:0,0:0:0:0:
318,128,80911,2,0,L|290:0,1,122.666669006348,2|0,1:2|1:0,0:0:0:0:
223,9,81340,2,0,L|196:128,1,122.666669006348,2|0,1:2|1:0,0:0:0:0:
263,208,81768,1,4,0:1:0:0:
263,208,82197,5,0,0:0:0:0:
263,208,82625,1,0,0:0:0:0:
263,208,83054,6,0,P|323:198|435:93,1,207.999990478516,4|0,0:1|0:0,0:0:0:0:
306,48,83697,1,0,0:0:0:0:
170,48,83911,2,0,P|173:123|195:171,1,103.999995239258,2|0,0:0|0:0,0:0:0:0:
102,258,84340,2,0,P|99:183|77:135,1,103.999995239258,10|0,0:1|0:0,0:0:0:0:
13,268,84768,2,0,P|11:319|25:369,1,103.999995239258,2|2,0:0|0:0,0:0:0:0:
161,379,85197,2,0,P|185:331|193:273,1,103.999995239258,2|0,0:0|0:0,0:0:0:0:
327,269,85625,6,0,P|387:259|398:51,1,311.999985717774,2|0,0:0|0:0,0:0:0:0:
271,88,86482,2,0,P|317:148|367:163,1,103.999995239258,2|0,0:0|0:0,0:0:0:0:
230,242,86911,2,0,P|299:270|350:258,1,103.999995239258,10|0,0:1|0:0,0:0:0:0:
437,133,87340,2,0,P|392:158|340:158,1,103.999995239258,2|0,0:0|0:0,0:0:0:0:
362,24,87768,1,2,0:0:0:0:
437,133,87982,1,0,0:0:0:0:
455,267,88197,6,0,P|357:258|261:339,1,207.999990478516,2|2,0:1|0:1,0:0:0:0:
75,133,89054,2,0,P|120:158|172:158,1,103.999995239258,2|2,0:1|0:0,0:0:0:0:
206,27,89483,2,0,P|255:12|305:24,1,103.999995239258,10|0,0:1|0:0,0:0:0:0:
340,158,89911,2,0,P|392:157|437:133,1,103.999995239258,2|2,0:0|0:0,0:0:0:0:
482,260,90340,2,0,P|447:302|386:329,1,103.999995239258,2|0,0:0|0:0,0:0:0:0:
268,324,90768,6,0,P|222:299|189:259,1,103.999995239258,2|0,0:1|0:0,0:0:0:0:
171,125,91197,1,2,0:1:0:0:
110,245,91411,1,0,0:0:0:0:
231,185,91625,1,2,0:0:0:0:
97,161,91840,1,2,0:0:0:0:
200,270,92054,1,10,0:1:0:0:
200,270,92482,5,10,0:0:0:0:
200,270,92911,1,0,1:0:0:0:
200,270,93340,6,0,P|123:217|92:93,1,207.999990478516,4|0,0:1|0:0,0:0:0:0:
224,111,93982,1,0,0:0:0:0:
125,16,94196,2,0,P|98:60|89:111,1,103.999995239258,2|0,0:0|0:0,0:0:0:0:
45,239,94625,2,0,P|17:194|8:144,1,103.999995239258,10|0,0:1|0:0,0:0:0:0:
137,186,95054,2,0,P|164:141|173:91,1,103.999995239258,2|2,0:0|0:0,0:0:0:0:
308,91,95482,2,0,P|316:141|344:185,1,103.999995239258,2|0,0:0|0:0,0:0:0:0:
455,261,95911,6,0,P|341:351|227:263,1,311.999985717774,2|0,0:0|0:0,0:0:0:0:
244,128,96767,2,0,P|307:168|359:165,1,103.999995239258,2|0,0:0|0:0,0:0:0:0:
425,128,97197,2,0,P|385:160|334:170,1,103.999995239258,10|0,0:1|0:0,0:0:0:0:
337,1,97625,2,0,L|336:127,1,103.999995239258,2|0,0:0|0:0,0:0:0:0:
336,240,98053,1,2,0:0:0:0:
256,349,98267,1,0,0:0:0:0:
336,240,98482,6,0,P|254:184|174:245,1,207.999990478516,2|2,0:1|0:1,0:0:0:0:
36,63,99339,2,0,P|81:88|133:88,1,103.999995239258,2|2,0:1|0:0,0:0:0:0:
277,71,99768,2,0,P|185:77|95:163,1,207.999990478516,10|2,0:1|0:0,0:0:0:0:
254,360,100625,1,2,0:0:0:0:
400,150,101053,6,0,P|368:109|324:81,1,103.999995239258,2|2,0:1|0:1,0:0:0:0:
189,81,101482,1,0,0:0:0:0:
189,216,101697,1,8,0:3:0:0:
323,216,101910,1,4,0:1:0:0:
324,81,102125,1,0,0:0:0:0:
256,192,102340,12,2,103625,0:1:0:0:
254,98,104482,6,0,B|282:160|228:172|259:242,1,138.666660319011,0|0,0:0|0:0,0:0:0:0:
303,283,104911,5,6,0:1:0:0:
390,201,105125,1,2,0:1:0:0:
218,36,105554,1,8,0:3:0:0:
143,128,105768,1,8,0:2:0:0:
189,238,105982,1,0,0:0:0:0:
300,282,106197,2,0,P|311:324|295:386,2,92.0000017547608,10|2|8,0:1|0:1|0:3,0:0:0:0:
240,177,106840,1,10,0:0:0:0:
121,159,107054,2,0,P|97:150|70:124,2,61.3333345031739,2|2|2,0:0|0:2|0:2,0:0:0:0:
145,82,107482,6,0,P|199:100|331:53,1,184.000003509522,2|0,0:1|0:0,0:0:0:0:
433,94,108125,1,8,0:3:0:0:
400,209,108340,2,0,P|376:200|349:174,2,61.3333345031739,10|2|2,0:2|0:2|0:2,0:0:0:0:
474,238,108768,2,0,P|389:323|306:347,1,184.000003509522,10|0,0:1|0:0,0:0:0:0:
280,234,109411,1,8,0:0:0:0:
331,126,109625,2,0,P|330:96|306:50,2,61.3333345031739,2|2|2,0:0|0:0|0:0,0:0:0:0:
251,118,110054,5,2,0:1:0:0:
181,156,110197,1,2,0:2:0:0:
109,121,110340,1,2,0:2:0:0:
29,123,110482,2,0,P|30:93|54:47,2,61.3333345031739,2|2|2,0:2|0:2|0:2,0:0:0:0:
58,197,110911,2,0,P|88:198|134:222,2,61.3333345031739,8|2|2,0:2|0:2|0:2,0:0:0:0:
68,276,111340,2,0,P|141:245|196:136,1,184.000003509522,10|8,0:1|0:3,0:0:0:0:
279,75,111982,1,10,0:0:0:0:
166,38,112197,1,2,0:0:0:0:
279,75,112411,1,10,0:0:0:0:
313,189,112625,6,0,P|346:226|402:242,1,92.0000017547608,2|2,0:1|0:1,0:0:0:0:
498,13,113268,1,8,0:3:0:0:
430,111,113482,2,0,L|380:179,2,61.3333345031739,10|2|2,0:2|0:2|0:2,0:0:0:0:
507,89,113911,1,10,0:0:0:0:
509,208,114125,1,10,0:0:0:0:
436,303,114340,1,10,0:0:0:0:
237,335,114768,6,0,B|265:269|265:269|250:246|250:246|273:190,1,138.000002632141
292,162,115197,6,0,P|343:193|399:183,1,103.999995239258,6|2,0:1|0:0,0:0:0:0:
465,94,115625,1,2,0:1:0:0:
354,34,115840,1,2,0:0:0:0:
219,30,116054,2,0,P|189:56|140:65,2,69.3333301595054,2|2|2,0:0|0:0|0:0,0:0:0:0:
147,146,116482,2,0,P|114:134|89:111,2,69.3333301595054,10|2|2,0:1|0:0|0:0,0:0:0:0:
216,193,116911,2,0,P|186:219|137:228,2,69.3333301595054,2|2|2,0:0|0:0|0:0,0:0:0:0:
147,305,117340,2,0,P|114:293|89:270,2,69.3333301595054,2|2|2,0:0|0:0|0:0,0:0:0:0:
236,314,117768,6,0,L|236:387,2,69.3333301595054,2|2|2,0:0|0:0|0:0,0:0:0:0:
325,327,118197,2,0,P|380:327|453:272,1,138.666660319011,2|0,0:0|0:0,0:0:0:0:
419,195,118625,2,0,P|457:182|498:183,2,69.3333301595054,2|2|2,0:0|0:0|0:0,0:0:0:0:
333,214,119054,2,0,P|307:177|299:153,2,69.3333301595054,10|2|2,0:1|0:0|0:0,0:0:0:0:
215,171,119482,2,0,L|215:101,2,69.3333301595054,2|2|2,0:0|0:0|0:0,0:0:0:0:
97,214,119911,2,0,P|123:177|131:153,2,69.3333301595054,2|2|2,0:0|0:0|0:0,0:0:0:0:
39,131,120340,6,0,P|4:180|-5:233,1,103.999995239258,2|2,0:1|0:0,0:0:0:0:
83,309,120768,2,0,P|136:293|179:256,1,103.999995239258,2|2,0:1|0:0,0:0:0:0:
298,262,121197,2,0,P|338:293|388:308,1,103.999995239258,2|2,0:1|0:0,0:0:0:0:
487,215,121625,1,10,0:1:0:0:
443,86,121840,1,2,0:1:0:0:
331,10,122054,1,2,0:1:0:0:
262,113,122268,1,2,0:0:0:0:
256,237,122482,1,2,0:1:0:0:
249,362,122697,1,2,0:0:0:0:
346,284,122911,6,0,P|397:281|457:308,2,103.999995239258,2|2|2,0:0|0:0|0:0,0:0:0:0:
98,312,123768,2,0,P|64:314|30:295,2,69.3333301595054,2|2|2,0:0|0:0|0:0,0:0:0:0:
87,228,124197,2,0,B|177:208|199:316|296:273,1,207.999990478516,2|2,0:3|0:3,0:0:0:0:
282,93,125054,1,0,0:0:0:0:
285,282,125482,5,2,0:0:0:0:
285,282,125697,1,2,0:0:0:0:
417,181,126125,1,0,0:0:0:0:
448,258,126340,1,0,0:0:0:0:
441,340,126554,1,0,0:0:0:0:
360,361,126768,2,0,P|326:294|326:241,1,103.999995239258,2|0,0:3|0:0,0:0:0:0:
326,182,127197,2,0,P|323:113|294:60,1,103.999995239258,2|0,0:3|0:0,0:0:0:0:
239,32,127625,2,0,P|163:55|117:98,1,103.999995239258,2|0,0:3|0:0,0:0:0:0:
92,135,128054,6,0,L|134:308,1,160,2|0,0:0|0:0,0:0:0:0:
160,373,128697,1,0,0:0:0:0:
216,305,128912,1,0,0:0:0:0:
185,131,129340,2,0,P|226:146|266:177,1,80,2|0,0:3|0:0,0:0:0:0:
326,218,129768,2,0,P|358:195|396:182,1,80,2|0,0:3|0:0,0:0:0:0:
482,163,130197,1,0,0:0:0:0:
371,328,130626,6,0,B|318:359|258:319|258:319|207:367|125:326,1,240,2|0,0:0|0:0,0:0:0:0:
189,257,131482,1,0,0:0:0:0:
257,203,131697,1,0,0:0:0:0:
331,251,131912,2,0,P|355:213|368:148,1,80,2|0,0:3|0:0,0:0:0:0:
364,91,132340,2,0,L|453:80,1,80,2|0,0:3|0:0,0:0:0:0:
499,13,132769,1,0,0:0:0:0:
279,40,133197,6,0,B|155:52|195:127|71:103|43:62,1,240,2|0,0:0|0:0,0:0:0:0:
121,15,134055,1,0,0:0:0:0:
116,190,134483,2,0,P|74:186|39:169,1,80,2|0,0:3|0:0,0:0:0:0:
26,256,134911,2,0,P|62:272|101:276,1,80,2|0,0:3|0:0,0:0:0:0:
186,251,135340,1,0,0:0:0:0:
332,153,135769,6,0,P|427:256|511:144,1,320,2|0,0:0|0:0,0:0:0:0:
383,23,137055,2,0,P|417:69|421:110,1,80,2|0,0:3|0:0,0:0:0:0:
425,176,137482,2,0,L|426:276,1,80,2|0,0:3|0:0,0:0:0:0:
399,340,137912,1,0,0:0:0:0:
328,179,138340,6,0,P|351:106|445:78,1,160,2|0,0:0|0:0,0:0:0:0:
421,163,138983,1,0,0:0:0:0:
397,247,139197,1,0,0:0:0:0:
311,269,139412,1,0,0:0:0:0:
226,245,139626,2,0,P|197:131|79:94,1,240,2|0,0:3|0:0,0:0:0:0:
11,131,140483,1,0,0:0:0:0:
29,216,140697,1,0,0:0:0:0:
51,301,140912,5,2,0:0:0:0:
226,245,141340,1,0,0:0:0:0:
51,301,141768,1,0,0:0:0:0:
121,353,141983,1,0,0:0:0:0:
207,337,142198,2,0,P|293:297|345:227,1,160,2|2,0:3|0:3,0:0:0:0:
358,74,143054,1,0,0:0:0:0:
352,162,143269,1,0,0:0:0:0:
334,248,143483,6,0,P|213:337|101:328,1,240,2|0,0:0|0:0,0:0:0:0:
61,278,144341,1,0,0:0:0:0:
104,202,144554,1,0,0:0:0:0:
166,140,144769,2,0,P|205:144|242:160,1,80,2|0,0:3|0:0,0:0:0:0:
290,86,145197,2,0,P|329:90|366:106,1,80,2|0,0:3|0:0,0:0:0:0:
424,40,145625,2,0,P|463:44|500:60,1,80
505,148,146055,6,0,L|485:225,1,80,2|2,0:0|0:0,0:0:0:0:
401,251,146482,2,0,L|380:328,1,80,0|0,0:0|0:0,0:0:0:0:
306,280,146912,1,0,0:0:0:0:
331,195,147126,1,0,0:0:0:0:
329,107,147341,2,0,P|259:76|190:111,1,160,2|2,0:2|0:0,0:0:0:0:
256,274,148198,1,4,0:1:0:0:
256,274,148625,6,0,P|166:249|96:174,1,184.000003509522,2|0,0:0|0:0,0:0:0:0:
77,88,149268,1,0,0:0:0:0:
120,0,149483,1,2,0:0:0:0:
274,130,149911,2,0,P|226:117|190:74,1,92.0000017547608,10|0,0:1|0:0,0:0:0:0:
284,36,150340,2,0,P|332:49|368:92,1,92.0000017547608,2|2,0:0|0:0,0:0:0:0:
380,177,150768,1,2,0:0:0:0:
274,357,151197,6,0,P|406:350|479:238,1,276.000005264282,2|0,0:0|0:0,0:0:0:0:
378,250,152055,1,2,0:0:0:0:
282,219,152268,1,8,0:3:0:0:
346,140,152483,2,0,P|390:130|437:147,1,92.0000017547608,10|0,0:1|0:0,0:0:0:0:
480,239,152911,1,2,0:0:0:0:
433,144,153126,2,0,P|461:97|499:79,1,92.0000017547608,2|2,0:0|0:0,0:0:0:0:
381,248,153768,6,0,P|282:331|174:260,1,276.000005264282,2|0,0:0|0:0,0:0:0:0:
274,230,154626,1,2,0:0:0:0:
190,46,155054,2,0,L|231:148,1,92.0000017547608,10|0,0:1|0:0,0:0:0:0:
325,131,155482,2,0,L|359:45,1,92.0000017547608,2|2,0:0|0:0,0:0:0:0:
274,0,155911,1,2,0:0:0:0:
170,173,156339,6,0,P|289:232|403:163,1,276.000005264282,2|0,0:0|0:0,0:0:0:0:
400,62,157197,2,0,P|366:45|348:20,2,61.3333345031739,2|2|2,0:0|0:0|0:0,0:0:0:0:
464,86,157626,2,0,P|496:134|514:204,1,122.666669006348,10|0,0:1|0:0,0:0:0:0:
510,263,158054,2,0,P|474:312|425:349,1,122.666669006348,2|0,0:0|0:0,0:0:0:0:
359,362,158483,1,2,0:0:0:0:
202,234,158911,6,0,B|158:192|69:208|69:208|59:123|117:85,1,276.000005264282,2|0,0:0|0:0,0:0:0:0:
206,46,159768,1,2,0:0:0:0:
307,46,159983,1,8,0:3:0:0:
398,87,160197,2,0,B|453:123|443:208|443:208|354:192|310:234,1,276.000005264282,10|2,0:1|0:0,0:0:0:0:
370,315,161054,1,2,0:0:0:0:
256,364,161268,1,0,0:0:0:0:
142,315,161482,5,2,0:0:0:0:
256,153,161911,1,0,0:0:0:0:
370,315,162340,2,0,P|379:281|374:236,2,61.3333345031739,2|2|2,0:0|0:0|0:0,0:0:0:0:
311,350,162769,2,0,P|285:316|282:255,1,92.0000017547608,10|2,0:1|0:0,0:0:0:0:
286,167,163197,2,0,P|280:121|253:85,1,92.0000017547608,2|2,0:1|0:0,0:0:0:0:
167,31,163626,1,2,0:1:0:0:
99,105,163840,1,2,0:1:0:0:
98,205,164053,6,0,P|174:249|256:213,1,184.000003509522,2|0,0:0|0:0,0:0:0:0:
345,31,164911,1,2,0:0:0:0:
413,105,165125,1,8,0:3:0:0:
414,205,165340,2,0,P|337:249|255:213,1,184.000003509522,10|2,0:1|0:0,0:0:0:0:
256,55,166196,1,0,0:0:0:0:
179,117,166411,1,0,0:0:0:0:
107,187,166625,6,0,P|138:258|237:332,1,184.000003509522,2|2,0:0|0:0,0:0:0:0:
318,343,167268,1,2,0:0:0:0:
344,245,167483,1,2,0:0:0:0:
433,292,167697,1,0,0:0:0:0:
445,191,167911,1,10,0:1:0:0:
256,118,168339,5,2,0:1:0:0:
256,219,168553,1,2,0:0:0:0:
256,118,168767,1,0,0:0:0:0:
336,56,168982,1,2,0:0:0:0:
412,124,169197,6,0,P|424:175|410:220,1,92.0000017547608,2|2,0:1|0:1,0:0:0:0:
360,298,169625,1,0,0:0:0:0:
455,332,169840,1,8,0:3:0:0:
509,247,170053,1,8,0:2:0:0:
509,144,170269,1,0,0:0:0:0:
460,55,170482,2,0,P|420:99|413:148,1,92.0000017547608,10|2,0:1|0:1,0:0:0:0:
417,231,170911,1,8,0:3:0:0:
256,266,171340,5,2,0:0:0:0:
176,328,171555,1,8,0:0:0:0:
100,260,171769,2,0,P|88:209|102:164,1,92.0000017547608,2|2,0:1|0:1,0:0:0:0:
185,121,172197,2,0,P|194:76|182:32,1,92.0000017547608,0|8,0:0|0:3,0:0:0:0:
96,70,172625,1,8,0:2:0:0:
97,171,172841,1,0,0:0:0:0:
185,121,173054,2,0,P|197:164|187:209,1,92.0000017547608,10|2,0:1|0:1,0:0:0:0:
130,293,173483,1,8,0:3:0:0:
332,293,173912,5,2,0:0:0:0:
425,332,174125,1,8,0:0:0:0:
511,280,174340,1,2,0:1:0:0:
415,245,174554,1,0,0:0:0:0:
321,205,174769,1,0,0:0:0:0:
410,158,174983,1,8,0:3:0:0:
504,120,175197,1,8,0:2:0:0:
410,158,175412,1,0,0:0:0:0:
315,120,175626,1,10,0:1:0:0:
412,68,175840,1,2,0:1:0:0:
504,120,176054,1,0,0:0:0:0:
499,230,176269,1,10,0:0:0:0:
496,340,176483,1,2,0:0:0:0:
388,313,176697,1,8,0:0:0:0:
294,374,176911,6,0,P|261:325|256:287,1,92.0000017547608,2|2,0:1|0:1,0:0:0:0:
218,374,177339,2,0,P|251:325|256:287,1,92.0000017547608,0|8,0:0|0:3,0:0:0:0:
131,231,177768,2,0,P|175:220|207:187,1,92.0000017547608,8|0,0:2|0:0,0:0:0:0:
381,231,178196,2,0,P|336:219|305:185,1,92.0000017547608,10|10,0:1|0:1,0:0:0:0:
256,88,178625,2,0,L|256:193,1,92.0000017547608,8|0,0:0|0:0,0:0:0:0:
256,282,179054,6,0,L|256:345,2,61.3333345031739,2|2|2,0:0|0:0|0:0,0:0:0:0:
183,267,179483,2,0,B|124:243|85:116|181:154|166:66|119:21,1,276.000005264282,4|0,0:1|0:0,0:0:0:0:
256,102,180340,2,0,L|256:39,2,61.3333345031739,2|2|2,0:0|0:0|0:0,0:0:0:0:
327,117,180768,2,0,B|386:140|424:266|329:228|344:315|391:360,1,276.000005264282,8|2,0:1|0:0,0:0:0:0:
468,243,181625,6,0,P|466:181|434:117,1,122.666669006348,2|0,0:0|0:0,0:0:0:0:
397,74,182054,2,0,P|336:30|277:16,1,122.666669006348,2|0,1:2|1:0,0:0:0:0:
223,17,182482,2,0,P|164:35|116:73,1,122.666669006348,2|0,1:2|1:0,0:0:0:0:
73,126,182911,2,0,P|48:181|46:242,1,122.666669006348,2|0,1:2|1:0,0:0:0:0:
72,305,183340,1,4,0:1:0:0:
256,192,183769,5,0,0:0:0:0:
256,192,184197,1,0,0:0:0:0:
256,192,184625,6,0,B|285:129|260:66|260:66|296:94|346:64,1,207.999990478516,4|0,0:1|0:0,0:0:0:0:
460,22,185268,1,0,0:0:0:0:
509,147,185482,2,0,P|459:161|407:159,1,103.999995239258,2|0,0:0|0:0,0:0:0:0:
339,276,185911,2,0,P|388:290|440:288,1,103.999995239258,10|0,0:1|0:0,0:0:0:0:
407,159,186339,2,0,P|358:145|307:102,1,103.999995239258,2|0,0:0|0:0,0:0:0:0:
180,113,186768,2,0,P|138:144|89:158,1,103.999995239258,2|0,0:0|0:0,0:0:0:0:
142,281,187197,6,0,B|177:282|237:235|251:181|251:181|263:235|319:285|365:281,1,311.999985717774,2|0,0:0|0:0,0:0:0:0:
391,149,188053,2,0,P|348:156|376:199,1,103.999995239258,0|0,0:0|0:0,0:0:0:0:
437,82,188482,2,0,P|395:61|318:76,1,103.999995239258,10|0,0:1|0:0,0:0:0:0:
253,184,188911,2,0,P|273:229|317:270,1,103.999995239258,2|0,0:0|0:0,0:0:0:0:
452,220,189339,1,2,0:0:0:0:
336,150,189553,1,0,0:0:0:0:
219,81,189768,6,0,P|121:72|25:153,1,207.999990478516,2|2,0:1|0:1,0:0:0:0:
249,300,190625,2,0,P|277:257|283:206,1,103.999995239258,2|2,0:1|0:0,0:0:0:0:
149,183,191054,2,0,P|136:232|151:282,1,103.999995239258,10|0,0:1|0:0,0:0:0:0:
223,167,191482,2,0,L|247:58,1,103.999995239258,2|2,0:0|0:0,0:0:0:0:
335,166,191911,2,0,L|357:267,1,103.999995239258,2|0,0:0|0:0,0:0:0:0:
286,382,192339,6,0,P|240:357|211:307,1,103.999995239258,2|0,0:1|0:0,0:0:0:0:
237,180,192768,1,2,0:1:0:0:
296,300,192982,1,0,0:0:0:0:
177,238,193197,1,2,0:0:0:0:
311,219,193411,1,2,0:0:0:0:
224,325,193625,1,0,1:1:0:0:
224,325,194053,5,0,1:0:0:0:
224,325,194482,1,2,1:0:0:0:
224,325,194911,6,0,P|337:291|417:323,1,207.999990478516,4|0,0:1|0:0,0:0:0:0:
490,209,195553,1,0,0:0:0:0:
429,88,195767,2,0,P|402:132|393:183,1,103.999995239258,2|0,0:0|0:0,0:0:0:0:
257,182,196196,2,0,P|252:135|220:87,1,103.999995239258,10|0,0:1|0:0,0:0:0:0:
328,4,196625,2,0,L|327:129,1,103.999995239258,2|2,0:0|0:0,0:0:0:0:
375,234,197053,2,0,P|325:246|275:235,1,103.999995239258,2|0,0:0|0:0,0:0:0:0:
438,274,197482,6,0,P|324:364|210:276,1,311.999985717774,2|0,0:0|0:0,0:0:0:0:
179,143,198340,2,0,P|139:110|88:101,1,103.999995239258,2|0,0:0|0:0,0:0:0:0:
0,143,198768,2,0,P|40:111|91:101,1,103.999995239258,10|0,0:1|0:0,0:0:0:0:
89,272,199196,2,0,L|89:168,1,103.999995239258,2|0,0:0|0:0,0:0:0:0:
89,32,199624,1,2,0:0:0:0:
219,66,199840,1,0,0:0:0:0:
274,189,200053,6,0,P|354:244|434:188,1,207.999990478516,2|2,0:1|0:1,0:0:0:0:
237,372,200910,2,0,P|207:324|195:271,1,103.999995239258,2|2,0:1|0:0,0:0:0:0:
189,160,201340,2,0,P|270:105|350:162,1,207.999990478516,10|2,0:1|0:0,0:0:0:0:
268,365,202196,1,0,1:0:0:0:
122,112,202625,6,0,P|154:71|198:43,1,103.999995239258,2|2,0:1|0:1,0:0:0:0:
333,43,203054,1,0,0:0:0:0:
333,178,203268,1,8,0:3:0:0:
198,178,203481,1,4,0:1:0:0:
197,43,203697,1,0,0:0:0:0:
256,192,203911,12,4,205196,0:1:0:0:
270,77,207768,6,0,B|292:123|253:127|281:172,1,80,0|0,0:0|0:0,0:0:0:0:
316,237,208197,2,0,P|425:252|419:50,1,360
