osu file format v14

[General]
AudioFilename: audio.mp3
AudioLeadIn: 0
PreviewTime: 43734
Countdown: 0
SampleSet: Soft
StackLeniency: 0.2
Mode: 0
LetterboxInBreaks: 0
EpilepsyWarning: 1
WidescreenStoryboard: 1

[Editor]
Bookmarks: 61188,122279,138098,174643,197683,209203,224563,242017,275835,294381,311835,329290,346744
DistanceSpacing: 0.6
BeatDivisor: 3
GridSize: 16
TimelineZoom: 2.1

[Metadata]
Title:The Abhorrent
TitleUnicode:The Abhorrent
Artist:Cradle Of Filth
ArtistUnicode:Cradle Of Filth
Creator:Mazzerin
Version:Ensorcelled by Khaos
Source:
Tags:owc2021ftb extreme symphonic gothic death black metal english the manticore and other horrors venerablenyanta
BeatmapID:3322616
BeatmapSetID:1627506

[Difficulty]
HPDrainRate:5
CircleSize:4
OverallDifficulty:9
ApproachRate:9.8
SliderMultiplier:3
SliderTickRate:0.5

[Events]
//Background and Video events
0,0,"bgabh3.jpg",0,0
//Break Periods
2,122479,128388
//Storyboard Layer 0 (Background)
//Storyboard Layer 1 (Fail)
//Storyboard Layer 2 (Pass)
//Storyboard Layer 3 (Foreground)
//Storyboard Layer 4 (Overlay)
//Storyboard Sound Samples

[TimingPoints]
98,272.727272727273,4,1,5,60,1,0
3643,-133.333333333333,4,1,5,60,0,0
3916,-100,4,1,5,60,0,0
4461,-66.6666666666667,4,1,5,60,0,0
4666,-66.6666666666667,4,1,5,5,0,0
4734,-66.6666666666667,4,1,5,60,0,0
5552,-100,4,1,5,60,0,0
7734,-66.6666666666667,4,1,5,60,0,0
7938,-66.6666666666667,4,1,5,5,0,0
8007,-66.6666666666667,4,1,5,60,0,0
8211,-66.6666666666667,4,1,5,5,0,0
8279,-100,4,1,5,60,0,0
8348,-66.6666666666667,4,1,5,5,0,0
8416,-100,4,1,5,60,0,0
8484,-66.6666666666667,4,1,5,5,0,0
8552,-100,4,1,5,60,0,0
8620,-66.6666666666667,4,1,5,5,0,0
8688,-100,4,1,5,60,0,0
8757,-66.6666666666667,4,1,5,5,0,0
8825,-66.6666666666667,4,1,5,60,0,0
9029,-66.6666666666667,4,1,5,5,0,0
9098,-100,4,1,5,60,0,0
13188,-66.6666666666667,4,1,5,60,0,0
13393,-66.6666666666667,4,1,5,5,0,0
13461,-100,4,1,5,60,0,0
13529,-66.6666666666667,4,1,5,5,0,0
13598,-100,4,1,5,60,0,0
16461,-66.6666666666667,4,1,5,60,0,0
16666,-66.6666666666667,4,1,5,5,0,0
16734,-66.6666666666667,4,1,5,60,0,0
16938,-66.6666666666667,4,1,5,5,0,0
17007,-100,4,1,5,60,0,0
17075,-66.6666666666667,4,1,5,5,0,0
17143,-100,4,1,5,60,0,0
17211,-66.6666666666667,4,1,5,5,0,0
17279,-100,4,1,5,60,0,0
17348,-66.6666666666667,4,1,5,5,0,0
17416,-100,4,1,5,60,0,0
17484,-66.6666666666667,4,1,5,5,0,0
17552,-66.6666666666667,4,1,5,60,0,0
17825,-86.9565217391304,4,1,5,60,0,0
18098,-100,4,1,5,60,0,0
21916,-66.6666666666667,4,1,5,60,0,0
22120,-66.6666666666667,4,1,5,5,0,0
22188,-100,4,1,5,60,0,0
22257,-66.6666666666667,4,1,5,5,0,0
22325,-100,4,1,5,60,0,0
25188,-57.1428571428571,4,1,5,60,0,0
25393,-57.1428571428571,4,1,5,5,0,0
25461,-48.780487804878,4,1,5,60,0,0
25666,-48.780487804878,4,1,5,5,0,0
25734,-117.647058823529,4,1,5,60,0,0
26279,-133.333333333333,4,1,5,75,0,1
45370,-71.4285714285714,4,1,5,75,0,1
46734,-100,4,1,5,75,0,1
47007,-71.4285714285714,4,1,5,75,0,1
48098,-133.333333333333,4,1,5,75,0,1
49734,-71.4285714285714,4,1,5,75,0,1
52461,-133.333333333333,4,1,5,75,0,1
54643,-71.4285714285714,4,1,5,75,0,1
56825,-133.333333333333,4,1,5,75,0,1
61188,-66.6666666666667,4,1,5,60,0,0
61393,-66.6666666666667,4,1,5,5,0,0
61461,-66.6666666666667,4,1,5,60,0,0
63098,-200,4,1,5,60,0,0
63166,-200,4,1,5,5,0,0
63370,-62.5,4,1,5,60,0,0
63438,-66.6666666666667,4,1,5,5,0,0
63643,-66.6666666666667,4,1,5,60,0,0
65279,-133.333333333333,4,1,5,60,0,0
65586,-133.333333333333,4,1,5,5,0,0
65825,-133.333333333333,4,1,5,60,0,0
65859,-133.333333333333,4,1,5,5,0,0
66098,-270.27027027027,4,1,5,60,0,0
66132,-270.27027027027,4,1,5,5,0,0
66370,-270.27027027027,4,1,5,60,0,0
66404,-270.27027027027,4,1,5,5,0,0
66643,-1000,4,1,5,60,0,0
66677,-1000,4,1,5,5,0,0
67461,-1000,4,1,5,60,0,0
67768,-1000,4,1,5,5,0,0
68007,-100,4,1,5,60,0,0
68075,-100,4,1,5,5,0,0
68143,-100,4,1,5,60,0,0
68211,-100,4,1,5,5,0,0
68279,-200,4,1,5,60,0,0
68348,-200,4,1,5,5,0,0
68552,-200,4,1,5,60,0,0
68620,-200,4,1,5,5,0,0
68825,-400,4,1,5,60,0,0
68893,-400,4,1,5,5,0,0
69098,-100,4,1,5,60,0,0
71893,-100,4,1,5,5,0,0
72098,-100,4,1,5,60,0,0
73257,-100,4,1,5,5,0,0
73461,-80,4,1,5,60,0,0
73529,-80,4,1,5,5,0,0
73734,-66.6666666666667,4,1,5,60,0,0
73802,-66.6666666666667,4,1,5,5,0,0
74007,-100,4,1,5,60,0,0
74075,-100,4,1,5,5,0,0
74143,-100,4,1,5,60,0,0
74211,-100,4,1,5,5,0,0
74279,-66.6666666666667,4,1,5,60,0,0
74348,-66.6666666666667,4,1,5,5,0,0
74552,-100,4,1,5,60,0,0
75984,-100,4,1,5,5,0,0
76188,-100,4,1,5,60,0,0
77007,-66.6666666666667,4,1,5,60,0,0
77552,-100,4,1,5,60,0,0
78643,-100,4,1,6,75,0,1
79188,-90.9090909090909,4,1,6,75,0,1
79461,-100,4,1,6,75,0,1
85188,-100,4,1,5,75,0,1
85734,-71.4285714285714,4,1,5,75,0,1
85802,-71.4285714285714,4,1,5,5,0,1
86007,-71.4285714285714,4,1,5,75,0,1
86075,-71.4285714285714,4,1,5,5,0,1
86279,-133.333333333333,4,1,5,75,0,1
87370,-133.333333333333,4,1,5,60,0,0
87916,-80,4,1,5,60,0,0
89552,-100,4,1,5,60,0,0
91734,-80,4,1,5,60,0,0
92007,-100,4,1,5,60,0,0
94461,-66.6666666666667,4,1,5,60,0,0
94734,-62.5,4,1,5,60,0,0
95007,-125,4,1,5,60,0,0
95552,-100,4,1,5,60,0,0
96098,-80,4,1,5,60,0,0
96370,-100,4,1,5,60,0,0
97188,-66.6666666666667,4,1,5,60,0,0
98279,-80,4,1,5,60,0,0
98552,-83.3333333333333,4,1,5,60,0,0
98688,-100,4,1,5,60,0,0
99370,-66.6666666666667,4,1,5,60,0,0
100461,-80,4,1,5,60,0,0
100734,-100,4,1,5,60,0,0
103188,-62.5,4,1,5,60,0,0
103461,-66.6666666666667,4,1,5,60,0,0
103938,-66.6666666666667,4,1,5,5,0,0
104007,-66.6666666666667,4,1,5,60,0,0
104211,-66.6666666666667,4,1,5,5,0,0
104279,-100,4,1,5,60,0,0
104348,-66.6666666666667,4,1,5,5,0,0
104416,-100,4,1,5,60,0,0
104484,-66.6666666666667,4,1,5,5,0,0
104552,-80,4,1,5,60,0,0
104620,-66.6666666666667,4,1,5,5,0,0
104688,-100,4,1,5,60,0,0
104757,-66.6666666666667,4,1,5,5,0,0
104825,-66.6666666666667,4,1,5,60,0,0
105029,-66.6666666666667,4,1,5,5,0,0
105098,-86.9565217391304,4,1,5,60,0,0
105370,-100,4,1,5,60,0,0
109188,-66.6666666666667,4,1,5,60,0,0
109257,-66.6666666666667,4,1,5,5,0,0
109461,-83.3333333333333,4,1,5,60,0,0
109529,-100,4,1,5,5,0,0
109598,-100,4,1,5,60,0,0
112461,-66.6666666666667,4,1,5,60,0,0
112529,-66.6666666666667,4,1,5,5,0,0
112734,-65.359477124183,4,1,5,60,0,0
112802,-66.6666666666667,4,1,5,5,0,0
113007,-100,4,1,5,60,0,0
113075,-66.6666666666667,4,1,5,5,0,0
113143,-100,4,1,5,60,0,0
113211,-66.6666666666667,4,1,5,5,0,0
113279,-100,4,1,5,60,0,0
113348,-66.6666666666667,4,1,5,5,0,0
113416,-100,4,1,5,60,0,0
113484,-66.6666666666667,4,1,5,5,0,0
113552,-66.6666666666667,4,1,5,60,0,0
113620,-66.6666666666667,4,1,5,5,0,0
113825,-100,4,1,5,60,0,0
117916,-66.6666666666667,4,1,5,60,0,0
118120,-66.6666666666667,4,1,5,5,0,0
118188,-100,4,1,5,60,0,0
118257,-100,4,1,5,5,0,0
118325,-100,4,1,5,60,0,0
121188,-66.6666666666667,4,1,5,60,0,0
121257,-66.6666666666667,4,1,5,5,0,0
121461,-66.6666666666667,4,1,5,60,0,0
121529,-66.6666666666667,4,1,5,5,0,0
121734,-100,4,1,5,60,0,0
121802,-66.6666666666667,4,1,5,5,0,0
121870,-100,4,1,5,60,0,0
121938,-66.6666666666667,4,1,5,5,0,0
122007,-100,4,1,5,60,0,0
122075,-66.6666666666667,4,1,5,5,0,0
122143,-100,4,1,5,60,0,0
122211,-66.6666666666667,4,1,5,5,0,0
122279,-100,4,1,5,60,0,0
130188,-400,4,2,5,25,0,0
130223,-400,4,2,5,5,0,0
130257,-400,4,2,5,10,0,0
130291,-400,4,2,5,15,0,0
130325,-400,4,2,5,20,0,0
130359,-400,4,2,5,25,0,0
130393,-400,4,2,5,30,0,0
130427,-400,4,2,5,35,0,0
130461,-400,4,2,5,40,0,0
130495,-400,4,2,5,45,0,0
130529,-400,4,2,5,47,0,0
130563,-400,4,2,5,50,0,0
130598,-400,4,2,5,53,0,0
130632,-400,4,2,5,59,0,0
130666,-400,4,2,5,67,0,0
130700,-400,4,2,5,75,0,0
130734,-400,4,2,5,80,0,0
131007,-285.714285714286,4,2,5,40,0,0
131024,-285.714285714286,4,2,5,5,0,0
131552,-181.818181818182,4,2,5,40,0,0
131569,-181.818181818182,4,2,5,5,0,0
132098,-263.157894736842,4,2,5,40,0,0
132115,-181.818181818182,4,2,5,5,0,0
132643,-285.714285714286,4,2,5,40,0,0
132660,-181.818181818182,4,2,5,5,0,0
132916,-285.714285714286,4,2,5,40,0,0
132933,-181.818181818182,4,2,5,5,0,0
133188,-333.333333333333,4,2,5,40,0,0
133211,-333.333333333333,4,2,5,5,0,0
133734,-285.714285714286,4,2,5,40,0,0
134098,-333.333333333333,4,2,5,5,0,0
134348,-285.714285714286,4,2,5,40,0,0
134825,-200,4,2,5,40,0,0
134842,-200,4,2,5,5,0,0
135098,-133.333333333333,4,2,5,40,0,0
135115,-200,4,2,5,5,0,0
135370,-200,4,2,5,40,0,0
135387,-200,4,2,5,5,0,0
135825,-181.818181818182,4,2,5,40,0,0
135984,-111.111111111111,4,2,5,40,0,0
136001,-111.111111111111,4,2,5,5,0,0
136461,-133.333333333333,4,2,5,40,0,0
136478,-133.333333333333,4,2,5,5,0,0
136734,-133.333333333333,4,2,5,40,0,0
136751,-133.333333333333,4,2,5,5,0,0
137007,-181.818181818182,4,2,5,40,0,0
137024,-181.818181818182,4,2,5,5,0,0
137552,-181.818181818182,4,2,5,40,0,0
137569,-181.818181818182,4,2,5,5,0,0
138098,-133.333333333333,4,1,5,60,0,0
139734,-133.333333333333,4,1,5,75,0,1
158824,-71.4285714285714,4,1,5,75,0,1
160188,-90.9090909090909,4,1,5,75,0,1
160370,-71.4285714285714,4,1,5,75,0,1
161279,-100,4,1,5,75,0,1
161552,-133.333333333333,4,1,5,75,0,1
163188,-71.4285714285714,4,1,5,75,0,1
165916,-133.333333333333,4,1,5,75,0,1
167825,-76.9230769230769,4,1,5,75,0,1
169461,-100,4,1,5,75,0,1
169643,-133.333333333333,4,1,5,75,0,1
174643,480,4,1,5,60,1,0
177763,-100,4,1,5,5,0,0
177843,-100,4,1,5,60,0,0
181003,-100,4,1,5,5,0,0
181043,-100,4,1,5,60,0,0
193123,-100,4,1,5,5,0,0
193203,-100,4,1,5,60,0,0
195283,-50,4,1,5,60,0,0
195523,-50,4,1,5,5,0,0
195603,-50,4,1,5,60,0,0
196163,-50,4,1,5,5,0,0
196243,-41.6666666666667,4,1,5,60,0,0
196643,-41.6666666666667,4,1,5,5,0,0
196723,-41.6666666666667,4,1,5,60,0,0
197683,-100,4,1,5,60,0,1
204403,-66.6666666666667,4,1,5,60,0,1
204723,-100,4,1,5,60,0,1
208243,-50,4,1,5,60,0,0
209203,-66.6666666666667,4,1,5,60,0,0
224563,272.727272727273,4,1,5,60,1,0
224563,-133.333333333333,4,1,5,60,0,0
224631,-133.333333333333,4,1,5,5,0,0
225381,-200,4,1,5,60,0,0
225449,-200,4,1,5,5,0,0
225517,-200,4,1,5,60,0,0
225585,-200,4,1,5,5,0,0
225653,-200,4,1,5,60,0,0
225722,-200,4,1,5,5,0,0
225926,-133.333333333333,4,1,5,60,0,0
225994,-200,4,1,5,5,0,0
226199,-100,4,1,5,60,0,0
226267,-200,4,1,5,5,0,0
226472,-80,4,1,5,60,0,0
226540,-200,4,1,5,5,0,0
227017,-80,4,1,5,60,0,0
227631,-200,4,1,5,5,0,0
227699,-100,4,1,5,60,0,0
227767,-200,4,1,5,5,0,0
227835,-133.333333333333,4,1,5,60,0,0
227903,-133.333333333333,4,1,5,5,0,0
228244,-133.333333333333,4,1,5,60,0,0
228653,-80,4,1,5,60,0,0
228722,-200,4,1,5,5,0,0
228790,-100,4,1,5,60,0,0
228858,-200,4,1,5,5,0,0
228926,-133.333333333333,4,1,5,60,0,0
228994,-200,4,1,5,5,0,0
229744,-100,4,1,5,60,0,0
229813,-200,4,1,5,5,0,0
229881,-133.333333333333,4,1,5,60,0,0
229949,-200,4,1,5,5,0,0
230017,-133.333333333333,4,1,5,60,0,0
230085,-200,4,1,5,5,0,0
230835,-100,4,1,5,60,0,0
230903,-200,4,1,5,5,0,0
230972,-133.333333333333,4,1,5,60,0,0
231040,-200,4,1,5,5,0,0
231108,-133.333333333333,4,1,5,60,0,0
231176,-200,4,1,5,5,0,0
231381,-133.333333333333,4,1,5,60,0,0
233358,-133.333333333333,4,1,5,5,0,0
234108,-133.333333333333,4,1,5,60,0,0
234176,-133.333333333333,4,1,5,5,0,0
234244,-133.333333333333,4,1,5,60,0,0
234313,-133.333333333333,4,1,5,5,0,0
234381,-200,4,1,5,60,0,0
234449,-133.333333333333,4,1,5,5,0,0
234653,-133.333333333333,4,1,5,60,0,0
234722,-133.333333333333,4,1,5,5,0,0
234926,-100,4,1,5,60,0,0
234994,-133.333333333333,4,1,5,5,0,0
235199,-80,4,1,5,60,0,0
235267,-133.333333333333,4,1,5,5,0,0
235744,-80,4,1,5,60,0,0
236358,-80,4,1,5,5,0,0
236426,-100,4,1,5,60,0,0
236494,-133.333333333333,4,1,5,5,0,0
236563,-133.333333333333,4,1,5,60,0,0
236631,-133.333333333333,4,1,5,5,0,0
236972,-133.333333333333,4,1,5,60,0,0
237381,-80,4,1,5,60,0,0
237449,-133.333333333333,4,1,5,5,0,0
237517,-100,4,1,5,60,0,0
237585,-133.333333333333,4,1,5,5,0,0
237653,-133.333333333333,4,1,5,60,0,0
237722,-133.333333333333,4,1,5,5,0,0
238472,-80,4,1,5,60,0,0
238540,-133.333333333333,4,1,5,5,0,0
238608,-100,4,1,5,60,0,0
238676,-133.333333333333,4,1,5,5,0,0
238744,-133.333333333333,4,1,5,60,0,0
238813,-133.333333333333,4,1,5,5,0,0
239563,-80,4,1,5,60,0,0
239631,-133.333333333333,4,1,5,5,0,0
239699,-100,4,1,5,60,0,0
239767,-133.333333333333,4,1,5,5,0,0
239835,-133.333333333333,4,1,5,60,0,0
239903,-133.333333333333,4,1,5,5,0,0
239972,-133.333333333333,4,1,5,60,0,0
240244,-100,4,1,5,60,0,0
242563,-200,4,2,5,40,0,0
242580,-200,4,2,5,5,0,0
242835,-200,4,2,5,40,0,0
242852,-200,4,2,5,5,0,0
243108,-200,4,2,5,40,0,0
243125,-200,4,2,5,5,0,0
243653,-200,4,2,5,40,0,0
243670,-200,4,2,5,5,0,0
244199,-200,4,2,5,40,0,0
244216,-200,4,2,5,5,0,0
244744,-200,4,2,5,40,0,0
244761,-200,4,2,5,5,0,0
245290,-200,4,2,5,40,0,0
245307,-200,4,2,5,5,0,0
245835,-200,4,2,5,40,0,0
245852,-200,4,2,5,5,0,0
246108,-200,4,2,5,40,0,0
246125,-200,4,2,5,5,0,0
246381,-200,4,2,5,40,0,0
246398,-200,4,2,5,5,0,0
246653,-200,4,2,5,40,0,0
246670,-200,4,2,5,5,0,0
246926,-200,4,2,5,40,0,0
246943,-200,4,2,5,5,0,0
247472,-172.413793103448,4,2,5,40,0,0
247489,-200,4,2,5,5,0,0
247744,-172.413793103448,4,2,5,40,0,0
247761,-200,4,2,5,5,0,0
248017,-172.413793103448,4,2,5,40,0,0
248034,-200,4,2,5,5,0,0
248563,-151.515151515152,4,2,5,40,0,0
248580,-200,4,2,5,5,0,0
248835,-151.515151515152,4,2,5,40,0,0
248852,-200,4,2,5,5,0,0
249108,-151.515151515152,4,2,5,40,0,0
249125,-200,4,2,5,5,0,0
249381,-151.515151515152,4,2,5,40,0,0
249398,-200,4,2,5,5,0,0
249653,-133.333333333333,4,2,5,40,0,0
249670,-200,4,2,5,5,0,0
249926,-133.333333333333,4,2,5,40,0,0
249943,-200,4,2,5,5,0,0
250199,-133.333333333333,4,2,5,40,0,0
250216,-200,4,2,5,5,0,0
250472,-200,4,2,5,40,0,0
250761,-200,4,2,5,5,0,0
251563,-200,4,2,5,40,0,0
251852,-200,4,2,5,5,0,0
252653,-200,4,2,5,40,0,0
253489,-200,4,2,5,5,0,0
254017,-200,4,2,5,40,0,0
254034,-200,4,2,5,5,0,0
254563,-200,4,2,5,40,0,0
254580,-200,4,2,5,5,0,0
255108,-200,4,2,5,40,0,0
255670,-200,4,2,5,5,0,0
256199,-200,4,2,5,40,0,0
256216,-200,4,2,5,5,0,0
256744,-200,4,2,5,40,0,0
256761,-200,4,2,5,5,0,0
257290,-200,4,2,5,40,0,0
257307,-200,4,2,5,5,0,0
257563,-200,4,2,5,40,0,0
257580,-200,4,2,5,5,0,0
257835,-200,4,2,5,40,0,0
257852,-200,4,2,5,5,0,0
258108,-200,4,2,5,40,0,0
258398,-200,4,2,5,5,0,0
258926,-200,4,2,5,40,0,0
258943,-200,4,2,5,5,0,0
259199,-181.818181818182,4,2,5,40,0,0
259489,-200,4,2,5,5,0,0
260017,-200,4,2,5,40,0,0
260034,-200,4,2,5,5,0,0
260290,-200,4,2,5,40,0,0
260580,-200,4,2,5,5,0,0
261108,-200,4,2,5,40,0,0
261125,-200,4,2,5,5,0,0
261381,-200,4,2,5,40,0,0
261398,-200,4,2,5,5,0,0
261653,-161.290322580645,4,2,5,40,0,0
261670,-200,4,2,5,5,0,0
262199,-172.413793103448,4,2,5,40,0,0
262216,-200,4,2,5,5,0,0
262744,-151.515151515152,4,2,5,40,0,0
262761,-200,4,2,5,5,0,0
263290,-133.333333333333,4,2,5,40,0,0
263307,-200,4,2,5,5,0,0
263563,-133.333333333333,4,2,5,40,0,0
263835,-120.481927710843,4,2,5,40,0,0
263852,-200,4,2,5,5,0,0
264244,-120.481927710843,4,2,5,40,0,0
264261,-200,4,2,5,5,0,0
264653,-120.481927710843,4,2,5,40,0,0
264670,-200,4,2,5,5,0,0
264926,-120.481927710843,4,2,5,40,0,0
264943,-200,4,2,5,5,0,0
265472,-1000,4,2,5,40,0,0
265489,-200,4,2,5,5,0,0
266017,-133.333333333333,4,2,5,40,0,0
266034,-200,4,2,5,5,0,0
266563,-200,4,2,5,40,0,0
266580,-200,4,2,5,5,0,0
267108,-250,4,2,5,40,0,0
267125,-200,4,2,5,5,0,0
267381,-333.333333333333,4,2,5,40,0,0
267398,-200,4,2,5,5,0,0
267653,-400,4,2,5,40,0,0
267670,-200,4,2,5,5,0,0
267926,-500,4,2,5,40,0,0
267943,-200,4,2,5,5,0,0
268199,-100,4,2,5,40,0,0
268216,-200,4,2,5,5,0,0
269290,-500,4,2,5,40,0,0
269307,-200,4,2,5,5,0,0
269835,-500,4,2,5,40,0,0
269852,-200,4,2,5,5,0,0
270381,-500,4,2,5,40,0,0
270398,-200,4,2,5,5,0,0
271472,-500,4,2,5,40,0,0
271489,-200,4,2,5,5,0,0
272563,-200,4,2,5,40,0,0
272580,-200,4,2,5,5,0,0
272869,-200,4,2,5,40,0,0
272886,-200,4,2,5,5,0,0
273176,-200,4,2,5,40,0,0
273193,-200,4,2,5,5,0,0
273449,-200,4,2,5,40,0,0
273466,-200,4,2,5,5,0,0
273756,-200,4,2,5,40,0,0
273773,-200,4,2,5,5,0,0
274028,-200,4,2,5,40,0,0
274045,-200,4,2,5,5,0,0
274301,-133.333333333333,4,2,5,40,0,0
274318,-200,4,2,5,5,0,0
274608,-133.333333333333,4,2,5,40,0,0
274625,-200,4,2,5,5,0,0
274881,-147.058823529412,4,2,5,40,0,0
274898,-200,4,2,5,5,0,0
275153,-200,4,2,5,40,0,0
275170,-200,4,2,5,5,0,0
275426,-285.714285714286,4,2,5,40,0,0
275443,-200,4,2,5,5,0,0
275972,-133.333333333333,4,1,5,40,0,0
276926,-58.8235294117647,4,1,5,60,0,0
276994,-66.6666666666667,4,1,5,5,0,0
277199,-100,4,1,5,60,0,0
281290,-66.6666666666667,4,1,5,60,0,0
281358,-66.6666666666667,4,1,5,5,0,0
281563,-100,4,1,5,60,0,0
281631,-100,4,1,5,5,0,0
281699,-100,4,1,5,60,0,0
284563,-66.6666666666667,4,1,5,60,0,0
284631,-66.6666666666667,4,1,5,5,0,0
284835,-66.6666666666667,4,1,5,60,0,0
284903,-66.6666666666667,4,1,5,5,0,0
285108,-100,4,1,5,60,0,0
285176,-66.6666666666667,4,1,5,5,0,0
285244,-100,4,1,5,60,0,0
285313,-66.6666666666667,4,1,5,5,0,0
285381,-100,4,1,5,60,0,0
285449,-66.6666666666667,4,1,5,5,0,0
285517,-100,4,1,5,60,0,0
285585,-66.6666666666667,4,1,5,5,0,0
285653,-66.6666666666667,4,1,5,60,0,0
285722,-66.6666666666667,4,1,5,5,0,0
285926,-100,4,1,5,60,0,0
290017,-62.5,4,1,5,60,0,0
290085,-66.6666666666667,4,1,5,5,0,0
290290,-100,4,1,5,60,0,0
294381,-100,4,1,6,75,0,1
299290,-86.9565217391304,4,1,6,75,0,1
299563,-100,4,1,6,75,0,1
300926,-100,4,1,5,60,0,0
301472,-66.6666666666667,4,1,5,60,0,0
302017,-100,4,1,5,60,0,0
303108,-100,4,1,6,75,0,1
309653,-100,4,1,5,75,0,1
310199,-66.6666666666667,4,1,5,75,0,1
310472,-64.5161290322581,4,1,5,75,0,1
310744,-100,4,1,5,75,0,1
311290,-66.6666666666667,4,1,5,75,0,1
311563,-100,4,1,5,75,0,1
311835,-80,4,1,5,60,0,0
312108,-100,4,1,5,60,0,0
312926,-66.6666666666667,4,1,5,60,0,0
314017,-80,4,1,5,60,0,0
314290,-80,4,1,5,60,0,0
314426,-100,4,1,5,60,0,0
315108,-66.6666666666667,4,1,5,60,0,0
316199,-80,4,1,5,60,0,0
316472,-100,4,1,5,60,0,0
318926,-66.6666666666667,4,1,5,60,0,0
319472,-100,4,1,5,60,0,0
320699,-80,4,1,5,60,0,0
321108,-100,4,1,5,60,0,0
321653,-66.6666666666667,4,1,5,60,0,0
322744,-80,4,1,5,60,0,0
323017,-100,4,1,5,60,0,0
323835,-66.6666666666667,4,1,5,60,0,0
324926,-80,4,1,5,60,0,0
325199,-83.3333333333333,4,1,5,60,0,0
325335,-100,4,1,5,60,0,0
326017,-66.6666666666667,4,1,5,60,0,0
327108,-100,4,1,5,60,0,0
327653,-66.6666666666667,4,1,5,60,0,0
328267,-66.6666666666667,4,1,5,5,0,0
328472,-64.9350649350649,4,1,5,60,0,0
328540,-66.6666666666667,4,1,5,5,0,0
328744,-100,4,1,5,60,0,0
328813,-66.6666666666667,4,1,5,5,0,0
328881,-100,4,1,5,60,0,0
328949,-66.6666666666667,4,1,5,5,0,0
329017,-100,4,1,5,60,0,0
329085,-66.6666666666667,4,1,5,5,0,0
329153,-100,4,1,5,60,0,0
329222,-66.6666666666667,4,1,5,5,0,0
329290,-80,4,1,5,60,0,0
329699,-100,4,1,5,60,0,0
333653,-62.5,4,1,5,60,0,0
333722,-66.6666666666667,4,1,5,5,0,0
333926,-100,4,1,5,60,0,0
333994,-100,4,1,5,5,0,0
334063,-100,4,1,5,60,0,0
337199,-62.5,4,1,5,60,0,0
337472,-100,4,1,5,60,0,0
337540,-66.6666666666667,4,1,5,5,0,0
337608,-100,4,1,5,60,0,0
337676,-66.6666666666667,4,1,5,5,0,0
337744,-100,4,1,5,60,0,0
337813,-66.6666666666667,4,1,5,5,0,0
337881,-100,4,1,5,60,0,0
337949,-66.6666666666667,4,1,5,5,0,0
338017,-100,4,1,6,75,0,1
340199,-66.6666666666667,4,1,6,75,0,1
340472,-100,4,1,6,75,0,1
342381,-62.5,4,1,6,75,0,1
342653,-100,4,1,6,75,0,1
345653,-100,4,1,5,75,0,1
346267,-100,4,1,5,5,0,1
346335,-100,4,1,5,75,0,1
346403,-100,4,1,5,5,0,1
346472,-100,4,1,5,75,0,1
346540,-100,4,1,5,5,0,1
346608,-100,4,1,5,60,0,0
346676,-100,4,1,5,5,0,0

[Colours]
Combo1 : 255,65,61
Combo2 : 255,99,53
Combo3 : 53,66,255
Combo4 : 53,148,255
Combo5 : 53,255,169
Combo6 : 255,204,53
Combo7 : 171,63,239
Combo8 : 247,69,158

[HitObjects]
17,12,98,118,0,L|-7:213,1,150,8|8,0:0|0:0,0:0:0:0:
298,283,370,2,0,L|274:82,1,150,8|8,0:0|0:0,0:0:0:0:
62,217,643,5,8,0:0:0:0:
362,120,779,1,8,0:0:0:0:
101,23,916,1,8,0:0:0:0:
135,139,1052,1,8,0:0:0:0:
443,88,1188,53,8,0:0:0:0:
356,347,1325,1,8,0:0:0:0:
211,285,1461,1,8,0:0:0:0:
439,235,1598,1,8,0:0:0:0:
129,310,1734,37,2,0:0:0:0:
114,306,1802,1,2,0:0:0:0:
99,302,1870,1,2,0:0:0:0:
84,298,1938,1,2,0:0:0:0:
46,288,2007,5,14,0:0:0:0:
220,66,2279,53,8,0:0:0:0:
512,159,2416,1,8,0:0:0:0:
248,204,2552,1,8,0:0:0:0:
493,25,2688,1,8,0:0:0:0:
180,145,2825,38,0,B|-7:112,1,150,8|8,0:0|0:0,0:0:0:0:
329,171,3098,2,0,B|355:318,1,150,8|8,0:0|0:0,0:0:0:0:
167,231,3370,5,8,0:0:0:0:
189,287,3438,1,8,0:0:0:0:
237,294,3507,1,2,0:0:0:0:
263,277,3575,1,2,0:0:0:0:
268,269,3643,2,0,L|254:186,3,56.2500021457673,2|2|2|2,0:0|0:0|0:0|0:0,0:0:0:0:
353,328,3915,53,2,0:0:0:0:
369,294,3983,1,2,0:0:0:0:
397,285,4051,1,2,0:0:0:0:
419,290,4120,1,2,0:0:0:0:
434,306,4188,1,2,0:0:0:0:
447,311,4256,1,2,0:0:0:0:
461,306,4324,1,2,0:0:0:0:
466,300,4392,1,2,0:0:0:0:
468,292,4461,38,0,B|509:239|509:239|213:308,1,337.500012874604,12|0,0:0|0:0,0:0:0:0:
165,316,4734,1,8,0:0:0:0:
215,85,4870,1,8,0:0:0:0:
111,384,5007,5,8,0:0:0:0:
60,133,5143,1,8,0:0:0:0:
168,323,5279,1,8,0:0:0:0:
6,285,5416,1,8,0:0:0:0:
282,382,5552,54,0,L|428:350,1,150,8|8,0:0|0:0,0:0:0:0:
249,307,5825,1,8,0:0:0:0:
300,96,5961,1,8,0:0:0:0:
198,376,6098,37,2,0:0:0:0:
182,372,6166,1,2,0:0:0:0:
167,368,6234,1,2,0:0:0:0:
151,364,6302,1,2,0:0:0:0:
113,356,6371,5,14,0:0:0:0:
9,167,6643,53,10,0:0:0:0:
63,144,6711,1,8,0:0:0:0:
119,160,6779,1,8,0:0:0:0:
154,207,6847,1,8,0:0:0:0:
150,266,6916,2,0,L|65:243,1,75,8|8,0:0|0:0,0:0:0:0:
210,28,7052,37,10,0:0:0:0:
264,49,7120,1,8,0:0:0:0:
292,100,7188,1,8,0:0:0:0:
284,158,7256,1,8,0:0:0:0:
239,197,7325,2,0,L|209:108,1,75,8|8,0:0|0:0,0:0:0:0:
160,351,7461,5,10,0:0:0:0:
218,337,7529,1,8,0:0:0:0:
276,323,7597,1,8,0:0:0:0:
335,310,7665,1,8,0:0:0:0:
393,296,7734,54,0,B|323:365|323:365|389:79,1,337.500012874604,6|0,0:0|0:0,0:0:0:0:
401,56,8007,38,0,B|259:18|259:18|342:249,1,337.500012874604,6|0,0:0|0:0,0:0:0:0:
383,138,8279,6,0,L|406:209,1,75,2|0,0:0|0:0,0:0:0:0:
237,175,8416,2,0,L|310:191,1,75,2|0,0:0|0:0,0:0:0:0:
485,74,8552,54,0,L|468:147,1,75,2|0,0:0|0:0,0:0:0:0:
132,81,8688,2,0,L|206:98,1,75,6|0,0:0|0:0,0:0:0:0:
512,219,8825,38,0,L|176:321,1,337.500012874604,6|0,0:0|0:0,0:0:0:0:
178,320,9098,6,0,B|215:344|215:344|184:230,1,150,2|8,0:0|0:0,0:0:0:0:
128,0,9370,1,2,0:0:0:0:
0,160,9507,1,8,0:0:0:0:
298,65,9643,2,0,L|255:236,1,150,2|8,0:0|0:0,0:0:0:0:
100,280,9916,53,2,0:0:0:0:
351,189,10052,1,8,0:0:0:0:
464,308,10188,2,0,L|318:271,1,150,2|8,0:0|0:0,0:0:0:0:
129,0,10461,37,6,0:0:0:0:
263,338,10598,1,8,0:0:0:0:
512,239,10734,1,6,0:0:0:0:
360,199,10870,1,8,0:0:0:0:
178,334,11007,6,0,L|122:189,1,150,2|8,0:0|0:0,0:0:0:0:
211,22,11279,1,2,0:0:0:0:
240,252,11416,54,0,L|308:115,1,150,8|2,0:0|0:0,0:0:0:0:
44,188,11688,1,8,0:0:0:0:
330,290,11825,38,0,L|477:248,1,150,2|8,0:0|0:0,0:0:0:0:
390,80,12098,5,6,0:0:0:0:
261,342,12234,1,8,0:0:0:0:
211,22,12370,1,2,0:0:0:0:
262,355,12507,1,8,0:0:0:0:
42,105,12643,53,2,0:0:0:0:
264,372,12779,1,8,0:0:0:0:
0,293,12916,1,2,0:0:0:0:
264,384,13052,1,8,0:0:0:0:
278,122,13188,38,0,B|397:74|397:74|312:290,1,337.500012874604,6|0,0:0|0:0,0:0:0:0:
315,275,13461,6,0,L|286:188,1,75,2|0,0:0|0:0,0:0:0:0:
511,127,13598,2,0,L|359:180,1,150,8|2,0:0|0:0,0:0:0:0:
256,41,13870,53,8,0:0:0:0:
363,384,14007,2,0,L|423:230,1,150,2|8,0:0|0:0,0:0:0:0:
89,194,14279,37,8,0:0:0:0:
150,220,14347,1,8,0:0:0:0:
164,272,14416,1,2,0:0:0:0:
144,309,14484,1,2,0:0:0:0:
130,316,14552,2,0,L|104:215,3,75,2|2|2|2,0:0|0:0|0:0|0:0,0:0:0:0:
66,375,14824,5,6,0:0:0:0:
137,70,14961,1,6,0:0:0:0:
419,109,15098,1,6,0:0:0:0:
268,160,15234,1,2,0:0:0:0:
92,0,15370,53,8,0:0:0:0:
252,244,15507,1,8,0:0:0:0:
344,138,15643,37,8,0:0:0:0:
289,380,15780,1,8,0:0:0:0:
305,304,15916,5,8,0:0:0:0:
212,368,16053,1,8,0:0:0:0:
151,258,16188,53,8,0:0:0:0:
137,199,16256,1,8,0:0:0:0:
124,140,16324,1,8,0:0:0:0:
111,82,16392,1,8,0:0:0:0:
97,23,16461,38,0,B|198:-18|198:-18|133:269,1,337.500012874604,6|0,0:0|0:0,0:0:0:0:
50,175,16734,6,0,B|-25:158|-25:158|255:45,1,337.500012874604,6|0,0:0|0:0,0:0:0:0:
242,141,17007,54,0,L|221:230,1,75,2|0,0:0|0:0,0:0:0:0:
381,154,17143,2,0,L|311:182,1,75,2|0,0:0|0:0,0:0:0:0:
288,31,17279,38,0,L|316:100,1,75,2|0,0:0|0:0,0:0:0:0:
404,309,17416,2,0,L|375:239,1,75,2|0,0:0|0:0,0:0:0:0:
382,0,17552,6,0,L|304:336,1,337.500012874604,6|0,0:0|0:0,0:0:0:0:
304,338,17825,54,0,B|343:372|343:372|282:218,1,172.500003290176,2|8,0:0|0:0,0:0:0:0:
461,184,18098,1,2,0:0:0:0:
223,294,18234,1,8,0:0:0:0:
177,76,18370,2,0,L|235:214,1,150,2|8,0:0|0:0,0:0:0:0:
26,263,18643,37,2,0:0:0:0:
304,338,18779,2,0,L|344:167,1,150,8|2,0:0|0:0,0:0:0:0:
512,107,19052,1,8,0:0:0:0:
382,375,19188,5,6,0:0:0:0:
242,22,19325,1,12,0:0:0:0:
21,102,19461,1,6,0:0:0:0:
163,128,19598,1,8,0:0:0:0:
378,117,19734,54,0,L|238:182,1,150,2|8,0:0|0:0,0:0:0:0:
202,361,20007,1,2,0:0:0:0:
449,162,20143,38,0,L|489:-9,1,150,8|2,0:0|0:0,0:0:0:0:
299,98,20416,1,8,0:0:0:0:
438,337,20552,6,0,L|379:200,1,150,2|8,0:0|0:0,0:0:0:0:
394,37,20825,53,2,0:0:0:0:
311,342,20961,1,8,0:0:0:0:
215,62,21098,1,2,0:0:0:0:
316,356,21234,1,8,0:0:0:0:
96,156,21370,37,2,0:0:0:0:
321,370,21507,1,8,0:0:0:0:
29,278,21643,1,2,0:0:0:0:
326,384,21779,1,8,0:0:0:0:
415,74,21916,6,0,B|293:58|293:58|379:260,1,337.500012874604,6|0,0:0|0:0,0:0:0:0:
291,246,22188,54,0,L|365:254,1,75,2|0,0:0|0:0,0:0:0:0:
469,11,22325,2,0,L|412:149,1,150,8|2,0:0|0:0,0:0:0:0:
232,191,22598,37,8,0:0:0:0:
447,219,22734,2,0,L|506:356,1,150,2|8,0:0|0:0,0:0:0:0:
251,341,23007,5,8,0:0:0:0:
218,280,23075,1,8,0:0:0:0:
157,273,23143,1,8,0:0:0:0:
125,305,23211,1,8,0:0:0:0:
124,336,23279,2,0,L|210:320,3,75,2|2|2|2,0:0|0:0|0:0|0:0,0:0:0:0:
61,257,23552,53,6,0:0:0:0:
409,373,23688,1,6,0:0:0:0:
488,140,23825,1,6,0:0:0:0:
370,177,23961,1,2,0:0:0:0:
416,293,24097,37,8,0:0:0:0:
416,285,24166,1,0,0:0:0:0:
422,289,24234,2,0,L|449:211,1,75,8|0,0:0|0:0,0:0:0:0:
159,195,24370,6,0,L|-4:146,1,150,8|8,0:0|0:0,0:0:0:0:
152,47,24643,54,0,L|179:125,1,75,8|0,0:0|0:0,0:0:0:0:
226,253,24779,2,0,L|304:226,1,75,8|0,0:0|0:0,0:0:0:0:
379,34,24916,37,8,0:0:0:0:
432,10,24984,1,8,0:0:0:0:
487,31,25052,1,8,0:0:0:0:
510,85,25120,1,8,0:0:0:0:
488,140,25188,6,0,B|538:67|538:67|240:166,1,393.750003755093,6|0,0:0|0:0,0:0:0:0:
239,168,25461,54,0,B|226:119|170:94|170:94|306:52|405:148|405:148|363:188|382:246,1,461.250007038117,6|0,0:0|0:0,0:0:0:0:
462,229,25734,69,2,0:0:0:0:
464,219,25825,2,0,L|367:254,1,85.0000016212464,8|2,0:0|0:0,0:0:0:0:
76,197,26007,5,2,0:0:0:0:
72,207,26098,2,0,L|169:172,1,85.0000016212464,2|2,0:0|0:0,0:0:0:0:
242,372,26279,5,6,0:0:0:0:
190,317,26370,1,2,0:0:0:0:
219,247,26461,1,2,0:0:0:0:
286,242,26552,1,10,0:0:0:0:
323,184,26643,1,2,0:0:0:0:
308,117,26734,1,2,0:0:0:0:
250,81,26825,1,2,0:0:0:0:
195,106,26916,1,2,0:0:0:0:
170,160,27007,1,2,0:0:0:0:
119,173,27098,1,10,0:0:0:0:
71,151,27188,1,2,0:0:0:0:
58,99,27279,1,2,0:0:0:0:
91,58,27370,85,2,0:0:0:0:
101,93,27460,1,2,0:0:0:0:
112,129,27551,1,2,0:0:0:0:
123,165,27642,1,10,0:0:0:0:
134,201,27734,1,2,0:0:0:0:
144,237,27824,1,2,0:0:0:0:
155,273,27915,5,2,0:0:0:0:
212,252,28007,1,2,0:0:0:0:
252,275,28098,1,2,0:0:0:0:
258,295,28188,5,10,0:0:0:0:
316,278,28279,1,2,0:0:0:0:
357,313,28370,1,2,0:0:0:0:
356,332,28461,85,2,0:0:0:0:
300,355,28552,1,2,0:0:0:0:
245,330,28643,1,2,0:0:0:0:
232,280,28734,1,10,0:0:0:0:
258,249,28825,1,2,0:0:0:0:
295,250,28916,1,2,0:0:0:0:
306,268,29007,6,0,B|294:226|294:226|253:198,5,75.000002861023,2|2|2|10|2|2,0:0|0:0|0:0|0:0|0:0|0:0,0:0:0:0:
386,255,29552,5,2,0:0:0:0:
421,302,29643,1,2,0:0:0:0:
481,293,29734,1,2,0:0:0:0:
503,245,29825,1,10,0:0:0:0:
477,199,29916,1,2,0:0:0:0:
486,167,30007,1,2,0:0:0:0:
496,161,30098,85,2,0:0:0:0:
443,189,30188,1,2,0:0:0:0:
393,155,30279,1,2,0:0:0:0:
396,108,30370,1,10,0:0:0:0:
370,83,30461,1,2,0:0:0:0:
340,82,30552,1,2,0:0:0:0:
333,89,30643,5,6,0:0:0:0:
313,161,30734,1,2,0:0:0:0:
239,176,30825,1,2,0:0:0:0:
184,124,30916,1,10,0:0:0:0:
116,115,31007,1,2,0:0:0:0:
67,161,31098,1,2,0:0:0:0:
68,227,31188,1,2,0:0:0:0:
120,261,31279,1,2,0:0:0:0:
140,323,31370,1,2,0:0:0:0:
111,375,31461,1,10,0:0:0:0:
50,384,31552,1,2,0:0:0:0:
2,339,31643,1,2,0:0:0:0:
11,283,31734,5,2,0:0:0:0:
47,291,31824,1,2,0:0:0:0:
83,300,31915,1,2,0:0:0:0:
120,309,32006,1,10,0:0:0:0:
156,318,32097,1,2,0:0:0:0:
193,327,32188,1,2,0:0:0:0:
229,336,32279,86,0,L|202:256,2,75.000002861023,2|2|2,0:0|0:0|0:0,0:0:0:0:
97,220,32552,6,0,L|168:195,2,75.000002861023,10|2|2,0:0|0:0|0:0,0:0:0:0:
249,195,32825,6,0,L|276:102,1,75.000002861023,6|2,0:0|0:0,0:0:0:0:
293,43,33007,85,2,0:0:0:0:
208,56,33098,2,0,B|183:86|183:86|190:149,1,75.000002861023,8|2,0:0|0:0,0:0:0:0:
341,164,33279,2,0,B|365:133|365:133|358:70,1,75.000002861023,2|2,0:0|0:0,0:0:0:0:
107,123,33461,5,8,0:0:0:0:
57,108,33552,1,8,0:0:0:0:
52,53,33643,1,8,0:0:0:0:
10,40,33734,1,2,0:0:0:0:
7,17,33825,1,2,0:0:0:0:
0,14,33916,5,8,0:0:0:0:
60,12,34007,1,8,0:0:0:0:
91,63,34098,1,2,0:0:0:0:
62,115,34188,1,8,0:0:0:0:
94,165,34279,1,8,0:0:0:0:
154,163,34370,1,8,0:0:0:0:
179,108,34461,86,0,L|89:136,2,75.000002861023,2|2|2,0:0|0:0|0:0,0:0:0:0:
271,236,34734,6,0,L|248:164,2,75.000002861023,2|2|2,0:0|0:0|0:0,0:0:0:0:
259,85,35007,5,6,0:0:0:0:
296,19,35098,1,2,0:0:0:0:
369,8,35188,1,2,0:0:0:0:
418,64,35279,1,10,0:0:0:0:
418,132,35370,1,2,0:0:0:0:
361,170,35461,1,2,0:0:0:0:
353,237,35552,1,2,0:0:0:0:
395,279,35643,1,2,0:0:0:0:
381,337,35734,1,2,0:0:0:0:
322,352,35825,1,10,0:0:0:0:
282,316,35916,1,2,0:0:0:0:
230,326,36007,1,2,0:0:0:0:
202,370,36098,85,2,0:0:0:0:
238,360,36188,1,2,0:0:0:0:
274,351,36279,1,2,0:0:0:0:
310,341,36370,1,10,0:0:0:0:
347,332,36461,1,2,0:0:0:0:
383,323,36552,1,2,0:0:0:0:
419,313,36643,5,2,0:0:0:0:
360,300,36734,1,2,0:0:0:0:
315,289,36825,1,2,0:0:0:0:
298,285,36916,5,10,0:0:0:0:
307,305,37007,1,2,0:0:0:0:
316,325,37098,1,2,0:0:0:0:
325,345,37188,85,2,0:0:0:0:
241,380,37279,2,0,L|260:281,1,75.000002861023,2|2,0:0|0:0,0:0:0:0:
285,168,37461,2,0,L|299:94,2,75.000002861023,10|2|2,0:0|0:0|0:0,0:0:0:0:
226,230,37734,5,2,0:0:0:0:
167,217,37825,1,2,0:0:0:0:
122,206,37916,1,2,0:0:0:0:
35,195,38007,5,10,0:0:0:0:
35,187,38098,1,2,0:0:0:0:
41,191,38188,1,2,0:0:0:0:
125,193,38279,85,2,0:0:0:0:
112,134,38370,1,2,0:0:0:0:
101,89,38461,1,2,0:0:0:0:
79,11,38552,5,10,0:0:0:0:
78,3,38643,1,2,0:0:0:0:
84,6,38733,1,2,0:0:0:0:
162,27,38825,6,0,L|140:110,5,75.000002861023,2|2|2|10|2|2,0:0|0:0|0:0|0:0|0:0|0:0,0:0:0:0:
240,40,39370,85,6,0:0:0:0:
305,4,39461,1,2,0:0:0:0:
370,41,39552,1,2,0:0:0:0:
366,115,39643,1,10,0:0:0:0:
307,148,39734,1,2,0:0:0:0:
244,123,39825,1,2,0:0:0:0:
188,162,39916,1,2,0:0:0:0:
193,221,40007,1,2,0:0:0:0:
243,253,40098,1,2,0:0:0:0:
298,230,40188,1,10,0:0:0:0:
352,254,40279,1,2,0:0:0:0:
359,313,40370,1,2,0:0:0:0:
322,360,40461,5,2,0:0:0:0:
317,322,40551,1,2,0:0:0:0:
313,285,40643,1,2,0:0:0:0:
309,248,40733,1,10,0:0:0:0:
305,210,40824,1,2,0:0:0:0:
301,173,40915,1,2,0:0:0:0:
297,136,41006,5,2,0:0:0:0:
350,170,41098,1,2,0:0:0:0:
388,197,41188,1,2,0:0:0:0:
405,210,41279,85,10,0:0:0:0:
383,215,41370,1,2,0:0:0:0:
361,220,41461,1,2,0:0:0:0:
339,225,41552,5,2,0:0:0:0:
264,211,41643,2,0,B|254:249|254:249|293:288,1,75.000002861023,2|2,0:0|0:0,0:0:0:0:
421,116,41825,5,10,0:0:0:0:
496,130,41916,2,0,B|505:91|505:91|466:52,1,75.000002861023,2|2,0:0|0:0,0:0:0:0:
251,129,42098,85,6,0:0:0:0:
236,117,42188,1,8,0:0:0:0:
184,172,42279,1,8,0:0:0:0:
124,124,42370,5,8,0:0:0:0:
79,183,42460,1,8,0:0:0:0:
10,152,42551,1,8,0:0:0:0:
53,81,42643,5,2,0:0:0:0:
53,73,42734,1,8,0:0:0:0:
59,77,42825,2,0,L|39:0,2,75.000002861023,8|2|2,0:0|0:0|0:0,0:0:0:0:
38,233,43098,85,8,0:0:0:0:
82,171,43188,5,8,0:0:0:0:
49,237,43279,1,2,0:0:0:0:
76,280,43369,1,2,0:0:0:0:
118,286,43460,1,2,0:0:0:0:
139,270,43551,1,2,0:0:0:0:
139,242,43642,1,2,0:0:0:0:
129,235,43734,5,6,0:0:0:0:
109,311,43824,1,2,0:0:0:0:
163,367,43915,1,2,0:0:0:0:
241,350,44006,1,10,0:0:0:0:
266,275,44097,1,2,0:0:0:0:
215,214,44188,1,2,0:0:0:0:
247,142,44279,1,2,0:0:0:0:
324,128,44370,1,2,0:0:0:0:
375,187,44461,1,2,0:0:0:0:
355,263,44552,1,10,0:0:0:0:
413,316,44643,1,2,0:0:0:0:
489,295,44734,1,2,0:0:0:0:
506,218,44825,85,2,0:0:0:0:
447,229,44915,1,2,0:0:0:0:
388,241,45006,1,2,0:0:0:0:
329,253,45097,1,10,0:0:0:0:
270,265,45188,1,2,0:0:0:0:
211,276,45279,1,2,0:0:0:0:
152,288,45370,6,0,B|142:252|111:237|111:237|213:226|242:297|242:297|219:321|218:354,1,279.999991455078,2|2,0:0|0:0,0:0:0:0:
317,372,45643,6,0,B|351:346|328:296|328:296|330:330|292:364,1,139.999995727539,10|2,0:0|0:0,0:0:0:0:
75,309,45825,1,2,0:0:0:0:
138,372,45916,86,0,P|280:343|461:309,1,279.999991455078,6|2,0:0|0:0,0:0:0:0:
507,232,46188,5,10,0:0:0:0:
461,169,46279,1,2,0:0:0:0:
497,239,46370,1,2,0:0:0:0:
411,102,46461,6,0,B|506:147|483:274|483:274|446:222|369:252,1,279.999991455078,2|2,0:0|0:0,0:0:0:0:
362,185,46734,86,0,B|334:174|337:146|337:146|365:158|362:185,1,100,10|2,0:0|0:0,0:0:0:0:
416,17,46916,1,2,0:0:0:0:
339,49,47007,6,0,P|387:183|427:335,1,279.999991455078,2|2,0:0|0:0,0:0:0:0:
351,375,47279,5,10,0:0:0:0:
299,320,47370,1,2,0:0:0:0:
255,329,47461,1,2,0:0:0:0:
244,341,47552,85,2,0:0:0:0:
189,295,47644,1,2,0:0:0:0:
141,314,47734,1,2,0:0:0:0:
125,354,47825,1,10,0:0:0:0:
137,377,47916,1,2,0:0:0:0:
164,384,48007,1,2,0:0:0:0:
172,376,48098,5,6,0:0:0:0:
147,301,48188,1,2,0:0:0:0:
201,244,48279,1,2,0:0:0:0:
277,263,48370,1,10,0:0:0:0:
336,211,48461,1,2,0:0:0:0:
322,133,48552,1,2,0:0:0:0:
246,109,48643,1,2,0:0:0:0:
181,153,48734,1,2,0:0:0:0:
108,121,48825,1,2,0:0:0:0:
100,42,48916,1,10,0:0:0:0:
169,3,49007,1,2,0:0:0:0:
242,30,49098,1,2,0:0:0:0:
255,106,49188,5,2,0:0:0:0:
195,109,49279,1,2,0:0:0:0:
173,164,49370,1,2,0:0:0:0:
217,204,49461,1,10,0:0:0:0:
204,262,49552,1,2,0:0:0:0:
145,274,49643,1,2,0:0:0:0:
109,225,49734,86,0,B|36:233|-6:134|202:161|223:353,1,279.999991455078,2|2,0:0|0:0,0:0:0:0:
263,361,50007,6,0,B|274:311|358:361|256:411|215:370,1,139.999995727539,10|2,0:0|0:0,0:0:0:0:
61,300,50188,1,2,0:0:0:0:
95,371,50279,6,0,P|223:325|400:260,1,279.999991455078,6|2,0:0|0:0,0:0:0:0:
366,273,50552,85,10,0:0:0:0:
438,308,50643,1,2,0:0:0:0:
372,353,50734,1,2,0:0:0:0:
480,234,50825,6,0,B|506:270|477:328|402:341|322:198|486:140,1,279.999991455078,2|2,0:0|0:0,0:0:0:0:
507,97,51098,6,0,B|489:71|447:69|463:104|417:63|487:15|522:65|503:102,1,139.999995727539,10|2,0:0|0:0,0:0:0:0:
360,132,51279,1,2,0:0:0:0:
363,118,51370,85,2,0:0:0:0:
330,186,51461,1,8,0:0:0:0:
257,166,51552,1,8,0:0:0:0:
284,88,51643,5,2,0:0:0:0:
283,81,51734,1,2,0:0:0:0:
289,83,51824,1,2,0:0:0:0:
207,104,51916,5,2,0:0:0:0:
142,75,52007,1,2,0:0:0:0:
92,109,52098,1,10,0:0:0:0:
85,155,52188,1,2,0:0:0:0:
107,180,52279,1,2,0:0:0:0:
132,177,52370,1,2,0:0:0:0:
152,160,52461,85,6,0:0:0:0:
143,237,52551,1,2,0:0:0:0:
208,280,52643,1,2,0:0:0:0:
277,242,52733,1,10,0:0:0:0:
266,163,52825,1,2,0:0:0:0:
325,111,52916,1,2,0:0:0:0:
400,132,53007,1,2,0:0:0:0:
421,207,53098,1,2,0:0:0:0:
363,259,53188,1,2,0:0:0:0:
367,337,53279,1,10,0:0:0:0:
439,368,53370,1,2,0:0:0:0:
505,324,53461,1,2,0:0:0:0:
493,246,53552,5,2,0:0:0:0:
443,280,53642,1,2,0:0:0:0:
389,305,53733,1,2,0:0:0:0:
331,320,53824,1,10,0:0:0:0:
271,323,53915,1,2,0:0:0:0:
228,310,54006,1,2,0:0:0:0:
216,278,54098,1,2,0:0:0:0:
231,259,54188,1,2,0:0:0:0:
247,267,54279,1,2,0:0:0:0:
249,277,54370,5,10,0:0:0:0:
189,231,54461,1,2,0:0:0:0:
186,188,54552,1,2,0:0:0:0:
198,169,54643,86,0,B|106:78|374:108|286:296|112:351,1,279.999991455078,6|2,0:0|0:0,0:0:0:0:
140,316,54916,6,0,B|142:352|168:356|175:318|213:388|126:394|117:348|139:313,1,139.999995727539,10|2,0:0|0:0,0:0:0:0:
25,140,55098,1,2,0:0:0:0:
53,220,55188,6,0,P|199:247|375:286,1,279.999991455078,6|2,0:0|0:0,0:0:0:0:
409,225,55461,85,10,0:0:0:0:
507,321,55552,1,2,0:0:0:0:
509,311,55643,1,2,0:0:0:0:
430,303,55734,6,0,B|433:277|457:249|457:249|413:269|377:310|426:307|409:378|357:433|303:342|373:342,1,279.999991455078,6|0,0:0|0:0,0:0:0:0:
328,270,56007,6,0,B|292:246|304:208|304:208|338:231|328:270,1,139.999995727539,10|2,0:0|0:0,0:0:0:0:
229,31,56188,1,2,0:0:0:0:
286,93,56279,86,0,L|249:393,1,279.999991455078,6|2,0:0|0:0,0:0:0:0:
241,381,56552,5,10,0:0:0:0:
216,324,56643,1,2,0:0:0:0:
192,269,56734,1,2,0:0:0:0:
158,196,56825,5,6,0:0:0:0:
93,240,56915,1,2,0:0:0:0:
22,206,57006,1,2,0:0:0:0:
16,127,57097,1,10,0:0:0:0:
82,83,57188,1,2,0:0:0:0:
153,115,57279,1,2,0:0:0:0:
229,92,57370,1,2,0:0:0:0:
258,19,57461,1,2,0:0:0:0:
336,10,57552,1,2,0:0:0:0:
387,69,57643,1,10,0:0:0:0:
356,141,57734,1,2,0:0:0:0:
400,206,57825,1,2,0:0:0:0:
478,206,57916,85,2,0:0:0:0:
436,139,58007,1,2,0:0:0:0:
376,141,58098,1,2,0:0:0:0:
354,171,58188,1,10,0:0:0:0:
368,210,58279,1,2,0:0:0:0:
397,220,58370,1,2,0:0:0:0:
405,214,58461,5,2,0:0:0:0:
441,277,58552,1,2,0:0:0:0:
405,326,58643,1,2,0:0:0:0:
359,326,58734,1,10,0:0:0:0:
336,337,58825,1,2,0:0:0:0:
336,359,58916,1,2,0:0:0:0:
341,367,59007,6,0,L|361:285,5,75.000002861023,6|2|2|10|2|2,0:0|0:0|0:0|0:0|0:0|0:0,0:0:0:0:
241,228,59552,86,0,L|268:308,2,75.000002861023,2|2|2,0:0|0:0|0:0,0:0:0:0:
100,342,59825,5,10,0:0:0:0:
175,364,59916,2,0,L|248:384,1,75.000002861023,2|2,0:0|0:0,0:0:0:0:
323,226,60098,69,8,0:0:0:0:
332,166,60166,1,8,0:0:0:0:
340,106,60234,2,0,L|365:175,1,56.2500021457673,8|8,0:0|0:0,0:0:0:0:
196,88,60370,5,2,0:0:0:0:
161,132,60438,1,2,0:0:0:0:
108,136,60507,1,2,0:0:0:0:
72,103,60575,1,2,0:0:0:0:
71,58,60643,1,2,0:0:0:0:
98,28,60711,1,2,0:0:0:0:
134,22,60779,1,2,0:0:0:0:
162,37,60848,1,2,0:0:0:0:
176,62,60916,1,2,0:0:0:0:
175,85,60984,1,2,0:0:0:0:
165,102,61052,1,2,0:0:0:0:
155,111,61120,1,2,0:0:0:0:
146,113,61188,6,0,B|78:68|78:68|338:103,1,337.500012874604,6|0,0:0|0:0,0:0:0:0:
410,114,61461,1,2,0:0:0:0:
451,10,61598,1,2,0:0:0:0:
418,118,61734,1,2,0:0:0:0:
459,14,61871,1,2,0:0:0:0:
483,206,62007,5,2,0:0:0:0:
269,275,62143,1,2,0:0:0:0:
55,333,62279,6,0,B|-23:340|-23:340|62:308|62:308|61:313|61:313|209:337|209:337|212:351|212:351|332:372,1,450.000017166138,14|0,0:0|0:0,0:0:0:0:
266,86,62825,1,0,0:0:0:0:
408,329,63098,86,0,L|433:206,1,112.5,6|0,0:0|0:0,0:0:0:0:
471,145,63370,6,0,B|350:107|350:107|410:381,1,360,6|0,0:0|0:0,0:0:0:0:
487,354,63643,1,2,0:0:0:0:
312,313,63779,1,2,0:0:0:0:
483,365,63916,1,2,0:0:0:0:
308,324,64052,1,2,0:0:0:0:
16,299,64188,5,2,0:0:0:0:
238,253,64325,1,2,0:0:0:0:
460,207,64461,86,0,B|460:267|460:267|419:141|419:141|421:134|421:134|415:131|415:131|387:29|387:29|356:70|356:70|392:94|413:162,1,450.000017166138,14|0,0:0|0:0,0:0:0:0:
118,66,65007,1,0,0:0:0:0:
317,146,65279,5,0,0:0:0:0:
0,374,65443,5,2,0:0:0:0:
7,379,65498,1,2,0:0:0:0:
0,384,65552,2,0,P|45:297|18:200,1,196.875007510186,6|0,0:0|0:0,0:0:0:0:
90,152,65825,86,0,P|162:217|263:217,1,196.875007510186
317,146,66098,6,0,P|362:112|411:116,1,97.1250023712159
433,195,66370,6,0,P|387:228|338:224,1,97.1250023712159
260,214,66643,86,0,P|274:249|287:297,1,86.25
286,300,67461,5,2,0:0:0:0:
435,89,67734,6,0,L|433:97,1,7.5,6|0,0:0|0:0,0:0:0:0:
338,362,68007,86,0,P|371:352|365:318,1,75
351,107,68143,6,0,P|341:152|335:194,1,75
250,193,68279,6,0,P|274:251|286:306,1,112.5
246,368,68552,86,0,P|194:345|212:299,1,112.5
149,240,68825,6,0,P|166:218|166:190,1,56.25
115,76,69098,69,8,0:0:0:0:
123,124,69166,1,8,0:0:0:0:
93,152,69234,2,0,P|69:180|67:216,1,75,2|2,0:0|0:0,0:0:0:0:
82,293,69370,1,8,0:0:0:0:
115,341,69438,1,8,0:0:0:0:
171,360,69506,1,8,0:0:0:0:
227,342,69574,1,8,0:0:0:0:
262,295,69642,1,2,0:0:0:0:
312,289,69711,1,2,0:0:0:0:
344,304,69779,1,2,0:0:0:0:
352,317,69848,1,2,0:0:0:0:
353,323,69916,5,6,0:0:0:0:
512,384,71825,54,0,B|500:299|500:299|514:274|514:274|493:254|493:254|478:159,1,225,6|0,0:0|0:0,0:0:0:0:
423,289,72098,37,6,0:0:0:0:
360,78,73188,6,0,B|293:44|293:44|446:69,1,225,6|0,0:0|0:0,0:0:0:0:
449,71,73461,54,0,L|165:138,1,281.25,6|0,0:0|0:0,0:0:0:0:
110,94,73734,38,0,B|75:77|75:77|-13:183|-13:183|108:228|108:228|130:195,1,337.500012874604,6|0,0:0|0:0,0:0:0:0:
183,139,74007,6,0,L|262:122,1,75,6|0,0:0|0:0,0:0:0:0:
168,277,74143,2,0,L|207:211,1,75
195,48,74279,54,0,B|119:10|119:10|387:59,1,337.500012874604,6|0,0:0|0:0,0:0:0:0:
472,102,74552,37,8,0:0:0:0:
458,68,74620,1,8,0:0:0:0:
447,33,74688,2,0,B|460:26|460:26|438:113,1,75,2|2,0:0|0:0,0:0:0:0:
376,278,74825,5,10,0:0:0:0:
421,238,74893,1,10,0:0:0:0:
424,182,74961,1,10,0:0:0:0:
386,138,75029,1,10,0:0:0:0:
328,135,75098,54,0,L|350:229,3,75,2|2|2|2,0:0|0:0|0:0|0:0,0:0:0:0:
247,113,75370,38,0,B|232:151|232:151|270:191,1,75,2|2,0:0|0:0,0:0:0:0:
280,314,75507,2,0,B|295:276|295:276|272:252,1,75,2|2,0:0|0:0,0:0:0:0:
198,231,75643,5,2,0:0:0:0:
161,236,75711,1,2,0:0:0:0:
124,241,75779,1,2,0:0:0:0:
87,246,75847,1,2,0:0:0:0:
50,251,75916,54,0,B|9:225|9:225|223:267,1,225,2|0,0:0|0:0,0:0:0:0:
236,322,76188,37,2,0:0:0:0:
258,318,76257,1,2,0:0:0:0:
280,314,76325,1,2,0:0:0:0:
302,310,76393,1,2,0:0:0:0:
324,306,76461,6,0,L|310:379,1,75,14|2,0:0|0:0,0:0:0:0:
395,365,76598,2,0,L|409:292,1,75,10|2,0:0|0:0,0:0:0:0:
448,159,76734,54,0,L|462:232,1,75,10|2,0:0|0:0,0:0:0:0:
377,218,76871,2,0,L|363:145,1,75,10|2,0:0|0:0,0:0:0:0:
512,290,77007,38,0,L|162:231,1,337.500012874604,14|0,0:0|0:0,0:0:0:0:
170,232,77279,6,0,B|199:117|374:133|374:133|294:142|288:238,1,337.500012874604,14|0,0:0|0:0,0:0:0:0:
377,218,77552,53,8,0:0:0:0:
410,265,77620,1,8,0:0:0:0:
395,321,77688,1,8,0:0:0:0:
343,346,77756,1,8,0:0:0:0:
290,322,77824,1,2,0:0:0:0:
288,282,77893,1,2,0:0:0:0:
306,271,77961,1,2,0:0:0:0:
321,276,78029,1,2,0:0:0:0:
326,284,78098,38,0,L|312:366,3,75,6|2|2|2,0:0|0:0|0:0|0:0,0:0:0:0:
234,384,78370,6,0,L|152:370,3,75,2|2|2|2,0:0|0:0|0:0|0:0,0:0:0:0:
163,289,78643,69,2,0:0:0:0:
105,241,78711,1,10,0:0:0:0:
45,248,78779,1,2,0:0:0:0:
8,287,78848,1,10,0:0:0:0:
12,323,78916,1,2,0:0:0:0:
38,348,78984,1,10,0:0:0:0:
70,344,79052,1,2,0:0:0:0:
83,335,79120,1,10,0:0:0:0:
87,324,79188,2,0,L|53:135,1,165.000005035401,2|2,0:0|0:0,0:0:0:0:
429,87,79461,2,0,L|402:234,1,150,2|2,0:0|0:0,0:0:0:0:
44,76,79734,5,2,0:0:0:0:
71,50,79802,1,10,0:0:0:0:
108,53,79870,1,2,0:0:0:0:
137,76,79938,1,10,0:0:0:0:
141,113,80007,101,2,0:0:0:0:
136,119,80075,1,10,0:0:0:0:
128,117,80143,1,2,0:0:0:0:
123,110,80211,1,10,0:0:0:0:
128,104,80279,5,2,0:0:0:0:
143,98,80348,1,10,0:0:0:0:
167,110,80416,1,2,0:0:0:0:
176,141,80484,1,10,0:0:0:0:
160,180,80552,1,2,0:0:0:0:
111,195,80620,1,10,0:0:0:0:
88,242,80688,1,2,0:0:0:0:
111,289,80757,1,10,0:0:0:0:
162,300,80825,101,2,0:0:0:0:
172,294,80893,1,10,0:0:0:0:
171,305,80961,2,0,L|-5:340,1,150,2|2,0:0|0:0,0:0:0:0:
316,274,81234,1,2,0:0:0:0:
275,93,81370,6,0,L|240:238,1,150,2|2,0:0|0:0,0:0:0:0:
257,345,81643,2,0,L|403:380,1,150,2|2,0:0|0:0,0:0:0:0:
442,223,81916,101,6,0:0:0:0:
403,187,81984,1,10,0:0:0:0:
395,135,82052,1,2,0:0:0:0:
427,92,82120,1,10,0:0:0:0:
478,84,82188,5,2,0:0:0:0:
483,78,82257,1,10,0:0:0:0:
482,72,82325,1,2,0:0:0:0:
474,71,82393,1,10,0:0:0:0:
469,75,82461,102,0,L|432:219,1,150,2|2,0:0|0:0,0:0:0:0:
32,134,82734,2,0,L|68:279,1,150,2|2,0:0|0:0,0:0:0:0:
323,202,83007,5,2,0:0:0:0:
301,207,83075,1,10,0:0:0:0:
279,212,83143,1,2,0:0:0:0:
257,217,83211,1,10,0:0:0:0:
235,223,83279,1,2,0:0:0:0:
213,228,83347,1,10,0:0:0:0:
191,233,83416,1,2,0:0:0:0:
169,239,83484,1,10,0:0:0:0:
148,244,83552,101,2,0:0:0:0:
158,247,83620,1,10,0:0:0:0:
169,251,83688,1,2,0:0:0:0:
180,255,83756,1,10,0:0:0:0:
190,258,83824,1,2,0:0:0:0:
201,262,83892,1,10,0:0:0:0:
212,265,83961,1,2,0:0:0:0:
222,269,84029,1,10,0:0:0:0:
233,272,84098,6,0,L|204:184,3,75,2|10|2|10,0:0|0:0|0:0|0:0,0:0:0:0:
130,377,84370,102,0,L|201:353,3,75,2|10|2|10,0:0|0:0|0:0|0:0,0:0:0:0:
87,269,84643,5,2,0:0:0:0:
86,260,84711,1,10,0:0:0:0:
81,264,84779,2,0,L|182:295,1,75,2|10,0:0|0:0,0:0:0:0:
314,308,84916,101,2,0:0:0:0:
313,317,84984,1,10,0:0:0:0:
308,313,85052,2,0,L|409:282,1,75,2|10,0:0|0:0,0:0:0:0:
255,201,85188,6,0,L|233:272,1,75,10|2,0:0|0:0,0:0:0:0:
171,207,85325,2,0,L|192:135,1,75,10|2,0:0|0:0,0:0:0:0:
330,168,85461,102,0,L|401:189,1,75,10|2,0:0|0:0,0:0:0:0:
382,100,85598,2,0,L|310:78,1,75,10|2,0:0|0:0,0:0:0:0:
313,317,85734,6,0,L|239:-17,1,314.999990386963,14|0,0:0|0:0,0:0:0:0:
243,1,86007,102,0,B|136:59|175:187|175:187|186:131|262:110,1,314.999990386963,14|0,0:0|0:0,0:0:0:0:
255,201,86279,6,0,L|273:278,1,56.2500021457673,2|2,0:0|0:0,0:0:0:0:
342,222,86416,2,0,L|330:168,1,56.2500021457673,10|2,0:0|0:0,0:0:0:0:
183,269,86552,102,0,L|165:346,1,56.2500021457673,2|2,0:0|0:0,0:0:0:0:
95,290,86689,2,0,L|107:235,1,56.2500021457673,10|2,0:0|0:0,0:0:0:0:
329,359,86825,5,2,0:0:0:0:
335,359,86893,1,2,0:0:0:0:
332,355,86961,2,0,L|399:339,1,56.2500021457673,2|2,0:0|0:0,0:0:0:0:
435,267,87097,101,2,0:0:0:0:
440,224,87166,1,2,0:0:0:0:
468,207,87234,1,2,0:0:0:0:
490,209,87302,1,2,0:0:0:0:
493,216,87370,21,6,0:0:0:0:
254,327,87507,1,10,0:0:0:0:
295,78,87643,1,2,0:0:0:0:
295,78,87711,1,2,0:0:0:0:
295,78,87779,1,10,0:0:0:0:
247,318,87916,6,0,B|223:351|155:359|109:228|263:183|326:283,1,281.25,2|0,0:0|0:0,0:0:0:0:
322,277,88188,54,0,L|38:311,1,281.25,2|0,0:0|0:0,0:0:0:0:
36,312,88461,37,2,0:0:0:0:
79,126,88597,1,10,0:0:0:0:
180,211,88734,5,2,0:0:0:0:
124,0,88870,1,10,0:0:0:0:
330,282,89007,53,6,0:0:0:0:
462,252,89143,1,10,0:0:0:0:
207,354,89279,37,6,0:0:0:0:
75,384,89415,1,10,0:0:0:0:
279,197,89552,6,0,L|318:30,1,150,6|8,0:0|0:0,0:0:0:0:
490,125,89825,1,2,0:0:0:0:
490,125,89893,1,2,0:0:0:0:
490,125,89961,1,10,0:0:0:0:
512,0,90098,53,2,0:0:0:0:
206,78,90234,2,0,L|49:41,1,150,10|2,0:0|0:0,0:0:0:0:
113,227,90507,1,10,0:0:0:0:
313,50,90643,37,2,0:0:0:0:
313,50,90711,1,2,0:0:0:0:
313,50,90779,1,10,0:0:0:0:
252,293,90916,2,0,L|286:147,1,150,6|10,0:0|0:0,0:0:0:0:
350,353,91188,5,2,0:0:0:0:
469,323,91325,1,10,0:0:0:0:
148,328,91461,53,6,0:0:0:0:
29,358,91598,1,10,0:0:0:0:
61,78,91734,38,0,B|13:31|13:31|258:90,1,281.25,6|0,0:0|0:0,0:0:0:0:
230,86,92007,2,0,L|134:109,1,75,2|2,0:0|0:0,0:0:0:0:
0,140,92143,1,10,0:0:0:0:
309,136,92279,6,0,L|459:100,1,150,2|10,0:0|0:0,0:0:0:0:
302,21,92552,1,2,0:0:0:0:
236,194,92688,1,10,0:0:0:0:
129,26,92825,53,2,0:0:0:0:
129,26,92893,1,2,0:0:0:0:
129,26,92961,1,10,0:0:0:0:
207,277,93098,2,0,L|60:245,1,150,2|10,0:0|0:0,0:0:0:0:
262,359,93370,37,6,0:0:0:0:
309,136,93507,1,10,0:0:0:0:
344,305,93643,5,6,0:0:0:0:
508,270,93779,1,10,0:0:0:0:
382,172,93916,54,0,L|401:262,1,75,2|2,0:0|0:0,0:0:0:0:
465,201,94052,2,0,L|449:127,1,75,10|2,0:0|0:0,0:0:0:0:
163,128,94188,38,0,L|253:108,1,75,2|2,0:0|0:0,0:0:0:0:
193,44,94325,2,0,L|115:62,1,75,10|2,0:0|0:0,0:0:0:0:
330,28,94461,6,0,L|260:364,1,337.500012874604,2|0,0:0|0:0,0:0:0:0:
258,368,94734,54,0,B|124:303|124:303|143:212|143:212|221:192|221:192|209:246,1,360,2|0,0:0|0:0,0:0:0:0:
213,234,95007,38,0,L|228:304,1,60,2|2,0:0|0:0,0:0:0:0:
305,302,95143,2,0,L|290:232,1,60,10|2,0:0|0:0,0:0:0:0:
352,186,95279,6,0,L|422:171,1,60,2|2,0:0|0:0,0:0:0:0:
425,94,95416,2,0,L|355:109,1,60,10|2,0:0|0:0,0:0:0:0:
110,229,95552,53,8,0:0:0:0:
101,208,95620,1,8,0:0:0:0:
92,187,95688,1,8,0:0:0:0:
85,166,95756,1,8,0:0:0:0:
80,154,95825,38,0,B|67:185|67:185|68:141,3,75,2|2|2|2,0:0|0:0|0:0|0:0,0:0:0:0:
122,81,96098,6,0,B|58:41|58:41|135:243,1,281.25,6|0,0:0|0:0,0:0:0:0:
135,241,96370,2,0,L|168:155,1,75,2|2,0:0|0:0,0:0:0:0:
233,0,96507,1,10,0:0:0:0:
25,179,96643,54,0,L|90:349,1,150,2|10,0:0|0:0,0:0:0:0:
293,250,96916,1,2,0:0:0:0:
293,250,96984,1,2,0:0:0:0:
293,250,97052,1,10,0:0:0:0:
402,384,97188,38,0,L|179:300,1,225.000008583069,2|10,0:0|0:0,0:0:0:0:
226,26,97461,6,0,L|142:249,1,225.000008583069,2|10,0:0|0:0,0:0:0:0:
142,379,97734,53,2,0:0:0:0:
20,95,97870,1,10,0:0:0:0:
293,250,98007,37,6,0:0:0:0:
364,79,98143,1,10,0:0:0:0:
11,288,98279,6,0,B|147:265|147:265|159:274|159:274|285:252,1,281.25,6|0,0:0|0:0,0:0:0:0:
293,250,98552,2,0,L|185:230,1,89.9999972534181,2|2,0:0|0:0,0:0:0:0:
125,349,98688,1,10,0:0:0:0:
143,179,98825,53,2,0:0:0:0:
360,310,98961,2,0,L|419:117,1,150,10|2,0:0|0:0,0:0:0:0:
407,160,99166,1,2,0:0:0:0:
411,153,99234,1,10,0:0:0:0:
225,42,99370,38,0,L|292:256,1,225.000008583069,2|10,0:0|0:0,0:0:0:0:
435,384,99643,6,0,L|220:316,1,225.000008583069,2|10,0:0|0:0,0:0:0:0:
0,239,99916,53,2,0:0:0:0:
71,51,100052,1,10,0:0:0:0:
168,378,100188,37,2,0:0:0:0:
66,59,100325,1,10,0:0:0:0:
292,256,100461,6,0,B|217:234|217:234|416:172,1,281.25,6|0,0:0|0:0,0:0:0:0:
419,173,100734,2,0,L|390:258,1,75,2|0,0:0|0:0,0:0:0:0:
349,380,100870,1,10,0:0:0:0:
259,182,101007,53,2,0:0:0:0:
474,261,101143,1,10,0:0:0:0:
334,155,101279,38,0,L|296:9,1,150,2|10,0:0|0:0,0:0:0:0:
203,166,101552,6,0,B|257:181,2,50,2|2|2,0:0|0:0|0:0,0:0:0:0:
128,144,101688,1,10,0:0:0:0:
307,254,101825,54,0,L|160:293,1,150,2|10,0:0|0:0,0:0:0:0:
70,64,102098,37,2,0:0:0:0:
106,225,102234,1,10,0:0:0:0:
186,85,102370,5,2,0:0:0:0:
113,356,102507,1,10,0:0:0:0:
0,94,102643,54,0,L|77:72,1,75,2|2,0:0|0:0,0:0:0:0:
120,137,102779,2,0,L|43:159,1,75,10|2,0:0|0:0,0:0:0:0:
248,235,102916,38,0,L|226:158,1,75,2|2,0:0|0:0,0:0:0:0:
295,122,103052,2,0,L|317:199,1,75,10|2,0:0|0:0,0:0:0:0:
100,231,103188,6,0,L|466:333,1,360,2|0,0:0|0:0,0:0:0:0:
395,262,103461,53,8,0:0:0:0:
408,207,103529,1,8,0:0:0:0:
423,153,103597,1,8,0:0:0:0:
437,98,103665,1,8,0:0:0:0:
453,45,103734,38,0,B|351:6|351:6|456:278,1,337.500012874604,6|0,0:0|0:0,0:0:0:0:
330,171,104007,6,0,B|292:74|292:74|575:173,1,337.500012874604,6|0,0:0|0:0,0:0:0:0:
512,239,104279,54,0,L|436:211,1,75,2|0,0:0|0:0,0:0:0:0:
236,140,104416,2,0,L|264:216,1,75,2|0,0:0|0:0,0:0:0:0:
333,255,104552,38,0,B|358:249|358:249|329:324,1,93.75,2|0,0:0|0:0,0:0:0:0:
191,265,104688,2,0,L|261:290,1,75,2|0,0:0|0:0,0:0:0:0:
461,311,104825,6,0,L|135:190,1,337.500012874604,6|0,0:0|0:0,0:0:0:0:
138,191,105098,54,0,B|153:142|153:142|204:278,1,172.500003290176,8|8,0:0|0:0,0:0:0:0:
486,78,105370,2,0,L|421:248,1,150,8|8,0:0|0:0,0:0:0:0:
108,269,105643,37,8,0:0:0:0:
319,345,105779,1,8,0:0:0:0:
357,120,105916,5,8,0:0:0:0:
247,384,106052,1,8,0:0:0:0:
461,311,106188,1,8,0:0:0:0:
309,260,106325,1,8,0:0:0:0:
164,376,106461,53,2,0:0:0:0:
149,371,106529,1,2,0:0:0:0:
134,366,106597,1,2,0:0:0:0:
119,361,106665,1,2,0:0:0:0:
80,347,106734,37,14,0:0:0:0:
221,0,107007,5,8,0:0:0:0:
309,260,107143,1,8,0:0:0:0:
472,126,107279,1,8,0:0:0:0:
275,81,107416,1,8,0:0:0:0:
377,332,107552,54,0,L|417:175,1,150,8|8,0:0|0:0,0:0:0:0:
234,221,107825,2,0,L|187:78,1,150,8|2,0:0|0:0,0:0:0:0:
53,277,108098,37,10,0:0:0:0:
103,243,108166,1,10,0:0:0:0:
144,254,108234,1,2,0:0:0:0:
163,278,108302,1,2,0:0:0:0:
162,298,108370,2,0,L|79:284,3,75,2|2|2|2,0:0|0:0|0:0|0:0,0:0:0:0:
104,48,108643,5,6,0:0:0:0:
71,66,108711,1,2,0:0:0:0:
64,95,108779,1,2,0:0:0:0:
71,117,108848,1,2,0:0:0:0:
89,130,108916,1,2,0:0:0:0:
95,143,108984,1,2,0:0:0:0:
91,157,109052,1,2,0:0:0:0:
85,163,109120,1,2,0:0:0:0:
78,165,109188,54,0,B|10:93|10:93|249:136,1,337.500012874604,6|0,0:0|0:0,0:0:0:0:
255,135,109461,38,0,L|188:61,1,89.9999972534181,8|0,0:0|0:0,0:0:0:0:
152,323,109598,2,0,L|178:169,1,150,8|8,0:0|0:0,0:0:0:0:
222,0,109870,5,8,0:0:0:0:
396,192,110007,2,0,L|248:216,1,150,8|8,0:0|0:0,0:0:0:0:
0,251,110279,53,8,0:0:0:0:
235,297,110416,1,8,0:0:0:0:
343,124,110552,1,8,0:0:0:0:
178,155,110688,1,8,0:0:0:0:
429,268,110825,37,2,0:0:0:0:
444,271,110893,1,2,0:0:0:0:
459,274,110961,1,2,0:0:0:0:
474,277,111029,1,2,0:0:0:0:
512,284,111098,5,14,0:0:0:0:
348,313,111370,53,10,0:0:0:0:
293,334,111438,1,8,0:0:0:0:
238,315,111506,1,8,0:0:0:0:
206,266,111574,1,8,0:0:0:0:
213,207,111643,2,0,B|233:179|233:179|248:233,1,75,8|8,0:0|0:0,0:0:0:0:
117,26,111779,37,10,0:0:0:0:
61,43,111847,1,8,0:0:0:0:
29,92,111915,1,8,0:0:0:0:
33,150,111983,1,8,0:0:0:0:
75,193,112052,2,0,L|-11:210,1,75,8|8,0:0|0:0,0:0:0:0:
125,114,112188,5,10,0:0:0:0:
184,102,112256,1,8,0:0:0:0:
243,90,112324,1,8,0:0:0:0:
301,79,112393,1,8,0:0:0:0:
361,67,112461,54,0,B|262:13|262:13|329:246,1,337.500012874604,6|0,0:0|0:0,0:0:0:0:
345,305,112734,38,0,B|228:360|228:360|266:122,1,344.250015495873,6|0,0:0|0:0,0:0:0:0:
341,147,113007,6,0,L|327:232,1,75,2|0,0:0|0:0,0:0:0:0:
482,142,113143,2,0,L|400:183,1,75,2|0,0:0|0:0,0:0:0:0:
158,257,113279,54,0,L|241:278,1,75,2|0,0:0|0:0,0:0:0:0:
432,323,113416,2,0,L|409:251,1,75,2|0,0:0|0:0,0:0:0:0:
196,48,113552,38,0,L|283:373,1,337.500012874604,6|0,0:0|0:0,0:0:0:0:
285,382,113825,5,2,0:0:0:0:
361,67,113961,2,0,L|324:220,1,150,10|2,0:0|0:0,0:0:0:0:
283,373,114234,53,10,0:0:0:0:
42,317,114370,2,0,L|195:354,1,150,2|10,0:0|0:0,0:0:0:0:
351,296,114643,37,2,0:0:0:0:
158,257,114779,2,0,L|107:87,1,150,10|2,0:0|0:0,0:0:0:0:
270,148,115052,1,10,0:0:0:0:
42,56,115188,5,6,0:0:0:0:
127,357,115325,1,10,0:0:0:0:
360,298,115461,1,2,0:0:0:0:
238,273,115598,1,10,0:0:0:0:
456,384,115734,54,0,L|488:237,1,150,2|10,0:0|0:0,0:0:0:0:
439,9,116007,37,2,0:0:0:0:
403,216,116143,2,0,L|371:69,1,150,10|2,0:0|0:0,0:0:0:0:
106,243,116416,5,10,0:0:0:0:
368,295,116552,2,0,L|221:263,1,150,2|10,0:0|0:0,0:0:0:0:
70,384,116825,53,2,0:0:0:0:
382,299,116961,1,10,0:0:0:0:
94,239,117098,1,2,0:0:0:0:
396,303,117234,1,10,0:0:0:0:
177,117,117370,37,2,0:0:0:0:
411,307,117507,1,10,0:0:0:0:
303,41,117643,1,2,0:0:0:0:
425,312,117779,1,10,0:0:0:0:
136,325,117916,6,0,B|58:276|58:276|301:327,1,337.500012874604,6|0,0:0|0:0,0:0:0:0:
306,331,118188,54,0,L|217:353,1,75,2|0,0:0|0:0,0:0:0:0:
177,117,118325,2,0,L|213:262,1,150,10|2,0:0|0:0,0:0:0:0:
36,190,118598,37,10,0:0:0:0:
294,245,118734,2,0,L|446:200,1,150,2|10,0:0|0:0,0:0:0:0:
350,65,119007,5,10,0:0:0:0:
296,86,119075,1,10,0:0:0:0:
255,70,119143,1,10,0:0:0:0:
233,41,119211,1,10,0:0:0:0:
237,11,119279,2,0,L|267:119,3,75,2|2|2|2,0:0|0:0|0:0|0:0,0:0:0:0:
116,51,119552,53,6,0:0:0:0:
51,339,119688,1,2,0:0:0:0:
273,384,119825,1,2,0:0:0:0:
216,235,119961,1,2,0:0:0:0:
336,318,120098,37,8,0:0:0:0:
341,313,120166,1,0,0:0:0:0:
344,318,120234,2,0,L|261:267,1,75,8|0,0:0|0:0,0:0:0:0:
192,311,120370,2,0,L|174:384,3,75,8|0|2|2,0:0|0:0|0:0|0:0,0:0:0:0:
195,167,120643,5,2,0:0:0:0:
189,167,120711,1,2,0:0:0:0:
192,163,120779,2,0,L|222:254,1,75,2|2,0:0|0:0,0:0:0:0:
409,171,120916,1,2,0:0:0:0:
415,134,120984,1,2,0:0:0:0:
421,97,121052,1,2,0:0:0:0:
427,60,121120,1,2,0:0:0:0:
433,23,121188,54,0,B|361:-5|361:-5|445:257,1,337.500012874604,6|0,0:0|0:0,0:0:0:0:
445,248,121461,38,0,B|477:278|477:278|332:234|332:234|298:127|298:127|342:144,1,337.500012874604,6|0,0:0|0:0,0:0:0:0:
330,144,121734,6,0,L|306:72,1,75,2|0,0:0|0:0,0:0:0:0:
497,131,121870,2,0,L|422:108,1,75,2|0,0:0|0:0,0:0:0:0:
152,91,122007,54,0,L|223:112,1,75,2|0,0:0|0:0,0:0:0:0:
512,204,122143,2,0,L|488:132,1,75,2|0,0:0|0:0,0:0:0:0:
305,309,122279,37,0,0:0:0:0:
2,15,130188,22,0,L|-2:1,16,9.375
84,4,131007,6,0,B|89:55|52:99|49:66|8:113|15:172,1,183.749994392395
0,242,131552,6,0,B|-8:276|-8:276|42:286|73:342|73:342|62:279|97:234|97:234|63:212,1,288.750008811951
0,384,132098,86,0,B|24:338|55:323|67:319|67:319|64:310|64:310|67:319|67:319|85:312|113:308|171:323,1,199.499997564697
172,179,132643,6,0,P|173:224|201:253,1,78.7499975967408
256,295,132916,6,0,B|289:313|289:313|264:280,1,78.7499975967408
248,193,133188,86,0,L|221:374,1,179.999994506836
249,183,134007,5,0,0:0:0:0:
248,193,134075,2,0,B|200:167|259:136|299:187|248:193,1,104.999996795654
177,268,134825,6,0,B|110:234|182:191|176:267,1,112.5
179,271,135098,86,0,B|178:296|166:311|166:311|182:343|232:312|215:282|215:282|191:284|179:271,1,168.750006437302
71,239,135370,6,0,P|207:263|317:291,1,250
397,267,135984,6,1,B|421:277|449:260|449:260|449:258|449:258|471:240|463:210|463:210|485:196|485:196|485:196|485:196|482:170|454:153|454:153|451:154|451:154|425:144|404:166|404:166|381:154|381:154|381:154|381:154|359:170|360:204|360:204|361:205|361:205|364:232|396:240|396:240|397:267,1,404.999987640381,0|0,0:0|0:0,0:0:0:0:
321,292,136461,86,0,B|288:293|273:303|273:303|262:308|262:308|255:307|256:281|268:262|278:260|278:260|289:260|303:267|321:292,1,168.750006437302
282,182,136734,6,0,B|282:148|251:139|251:139|252:173|282:182,1,112.500004291535
304,375,137007,6,0,P|316:233|336:76,1,288.750008811951
365,18,137552,86,0,B|419:41|441:125|355:73|435:167|513:109|457:-37|365:17,1,288.750008811951
334,87,138098,5,6,0:0:0:0:
112,333,138279,5,10,0:0:0:0:
63,282,138370,1,10,0:0:0:0:
74,239,138461,1,2,0:0:0:0:
86,228,138552,1,2,0:0:0:0:
161,259,138643,85,10,0:0:0:0:
174,190,138734,1,10,0:0:0:0:
141,160,138825,1,2,0:0:0:0:
125,157,138916,1,2,0:0:0:0:
46,158,139007,5,8,0:0:0:0:
42,148,139098,2,0,L|16:72,3,75.000002861023,2|2|2|2,0:0|0:0|0:0|0:0,0:0:0:0:
127,30,139461,5,2,0:0:0:0:
107,50,139552,1,2,0:0:0:0:
107,67,139643,1,2,0:0:0:0:
112,75,139734,85,2,0:0:0:0:
186,78,139825,1,2,0:0:0:0:
235,134,139916,1,2,0:0:0:0:
226,208,140007,1,10,0:0:0:0:
177,254,140098,1,2,0:0:0:0:
182,320,140188,1,2,0:0:0:0:
242,349,140279,1,2,0:0:0:0:
294,320,140370,1,2,0:0:0:0:
304,260,140461,1,2,0:0:0:0:
355,229,140552,1,10,0:0:0:0:
404,247,140643,1,2,0:0:0:0:
422,296,140734,1,2,0:0:0:0:
392,339,140825,5,2,0:0:0:0:
359,319,140915,1,2,0:0:0:0:
326,303,141006,1,2,0:0:0:0:
290,290,141097,1,10,0:0:0:0:
254,280,141188,1,2,0:0:0:0:
217,274,141279,1,2,0:0:0:0:
180,271,141370,5,2,0:0:0:0:
190,329,141461,1,2,0:0:0:0:
172,353,141552,1,2,0:0:0:0:
158,356,141643,85,10,0:0:0:0:
112,312,141734,1,2,0:0:0:0:
68,322,141825,1,2,0:0:0:0:
57,337,141916,6,0,L|31:260,5,75.000002861023,2|2|2|10|2|2,0:0|0:0|0:0|0:0|0:0|0:0,0:0:0:0:
106,221,142461,5,2,0:0:0:0:
144,168,142552,1,2,0:0:0:0:
140,118,142643,1,2,0:0:0:0:
96,98,142734,1,10,0:0:0:0:
64,115,142825,1,2,0:0:0:0:
61,139,142916,1,2,0:0:0:0:
66,149,143007,85,2,0:0:0:0:
128,172,143098,1,2,0:0:0:0:
177,153,143188,1,2,0:0:0:0:
198,113,143279,1,10,0:0:0:0:
199,77,143370,1,2,0:0:0:0:
193,62,143461,1,2,0:0:0:0:
184,56,143552,5,2,0:0:0:0:
247,75,143643,1,2,0:0:0:0:
295,41,143734,1,2,0:0:0:0:
344,43,143825,1,10,0:0:0:0:
370,66,143916,1,2,0:0:0:0:
376,85,144007,1,2,0:0:0:0:
372,92,144098,5,6,0:0:0:0:
309,131,144188,1,2,0:0:0:0:
313,205,144279,1,2,0:0:0:0:
378,241,144370,1,10,0:0:0:0:
394,306,144461,1,2,0:0:0:0:
357,362,144552,1,2,0:0:0:0:
289,362,144643,1,2,0:0:0:0:
242,323,144734,1,2,0:0:0:0:
247,263,144825,1,2,0:0:0:0:
209,216,144916,1,10,0:0:0:0:
156,210,145007,1,2,0:0:0:0:
114,242,145098,1,2,0:0:0:0:
111,293,145188,86,0,L|91:218,5,75.000002861023,2|2|2|10|2|2,0:0|0:0|0:0|0:0|0:0|0:0,0:0:0:0:
126,374,145734,5,2,0:0:0:0:
42,346,145825,2,0,B|11:327|11:327|23:289,1,75.000002861023,2|2,0:0|0:0,0:0:0:0:
73,141,146007,5,10,0:0:0:0:
157,169,146098,2,0,B|187:187|187:187|175:225,1,75.000002861023,2|2,0:0|0:0,0:0:0:0:
350,355,146279,86,0,L|428:334,1,75.000002861023,6|2,0:0|0:0,0:0:0:0:
443,212,146461,1,2,0:0:0:0:
381,267,146552,6,0,L|295:290,1,75.000002861023,10|2,0:0|0:0,0:0:0:0:
249,340,146734,2,0,B|218:321|218:321|230:283,1,75.000002861023,2|2,0:0|0:0,0:0:0:0:
366,186,146916,5,10,0:0:0:0:
321,119,147007,1,10,0:0:0:0:
383,71,147098,1,10,0:0:0:0:
332,8,147188,85,2,0:0:0:0:
334,0,147279,1,2,0:0:0:0:
338,5,147370,5,2,0:0:0:0:
274,52,147461,1,10,0:0:0:0:
205,16,147552,1,10,0:0:0:0:
139,62,147643,5,8,0:0:0:0:
70,24,147734,2,0,B|43:53|43:53|64:82,1,75.000002861023,2|2,0:0|0:0,0:0:0:0:
163,270,147916,85,10,0:0:0:0:
184,207,148007,1,2,0:0:0:0:
158,153,148098,1,2,0:0:0:0:
116,144,148188,1,2,0:0:0:0:
89,169,148279,1,2,0:0:0:0:
92,208,148370,1,2,0:0:0:0:
101,214,148461,5,6,0:0:0:0:
34,249,148552,1,2,0:0:0:0:
42,323,148643,1,2,0:0:0:0:
115,338,148734,1,10,0:0:0:0:
160,287,148825,1,2,0:0:0:0:
226,272,148916,1,2,0:0:0:0:
288,296,149007,1,2,0:0:0:0:
325,351,149098,1,2,0:0:0:0:
382,364,149188,1,2,0:0:0:0:
436,338,149279,1,10,0:0:0:0:
453,288,149370,1,2,0:0:0:0:
442,236,149461,1,2,0:0:0:0:
396,209,149552,5,2,0:0:0:0:
332,258,149643,2,0,B|302:233|302:233|318:201,1,75.000002861023,2|2,0:0|0:0,0:0:0:0:
482,81,149825,86,0,B|498:117|498:117|441:156,2,75.000002861023,10|2|2,0:0|0:0|0:0,0:0:0:0:
398,93,150098,5,2,0:0:0:0:
334,72,150188,1,2,0:0:0:0:
269,51,150279,1,2,0:0:0:0:
186,31,150370,5,10,0:0:0:0:
188,23,150461,1,2,0:0:0:0:
192,28,150552,1,2,0:0:0:0:
209,110,150643,85,2,0:0:0:0:
155,151,150734,1,2,0:0:0:0:
159,218,150825,1,2,0:0:0:0:
233,193,150916,5,10,0:0:0:0:
235,185,151007,1,2,0:0:0:0:
239,190,151098,1,2,0:0:0:0:
222,276,151188,5,2,0:0:0:0:
226,343,151279,1,2,0:0:0:0:
172,384,151370,1,2,0:0:0:0:
148,301,151461,85,10,0:0:0:0:
146,309,151552,1,2,0:0:0:0:
142,304,151643,1,2,0:0:0:0:
84,252,151734,6,0,B|51:273|51:273|63:306,2,75.000002861023,2|2|2,0:0|0:0|0:0,0:0:0:0:
53,133,152007,6,0,B|65:166|65:166|32:187,2,75.000002861023,10|2|2,0:0|0:0|0:0,0:0:0:0:
142,188,152279,85,2,0:0:0:0:
206,206,152370,1,2,0:0:0:0:
252,173,152461,1,2,0:0:0:0:
257,125,152552,1,10,0:0:0:0:
227,105,152643,1,2,0:0:0:0:
199,110,152734,1,2,0:0:0:0:
191,123,152825,5,6,0:0:0:0:
244,175,152916,1,2,0:0:0:0:
319,175,153007,1,2,0:0:0:0:
363,114,153098,1,10,0:0:0:0:
429,107,153188,1,2,0:0:0:0:
480,150,153279,1,2,0:0:0:0:
471,217,153370,1,2,0:0:0:0:
425,255,153461,1,2,0:0:0:0:
365,250,153552,1,2,0:0:0:0:
328,297,153643,1,10,0:0:0:0:
337,348,153734,1,2,0:0:0:0:
381,376,153825,1,2,0:0:0:0:
430,358,153916,5,2,0:0:0:0:
421,321,154006,1,2,0:0:0:0:
412,285,154097,1,2,0:0:0:0:
403,248,154188,1,10,0:0:0:0:
394,212,154279,1,2,0:0:0:0:
385,175,154370,1,2,0:0:0:0:
376,139,154461,2,0,L|343:252,2,75.000002861023,2|2|2,0:0|0:0|0:0,0:0:0:0:
415,9,154734,85,10,0:0:0:0:
440,85,154825,2,0,L|523:109,1,75.000002861023,2|2,0:0|0:0,0:0:0:0:
332,288,155007,5,2,0:0:0:0:
277,247,155098,1,2,0:0:0:0:
215,266,155188,1,2,0:0:0:0:
260,333,155279,5,10,0:0:0:0:
261,341,155370,1,2,0:0:0:0:
267,335,155461,1,2,0:0:0:0:
176,343,155552,85,2,0:0:0:0:
114,362,155642,1,2,0:0:0:0:
59,321,155733,1,2,0:0:0:0:
126,275,155825,6,0,L|137:190,2,75.000002861023,10|2|2,0:0|0:0|0:0,0:0:0:0:
86,136,156098,5,2,0:0:0:0:
82,124,156188,1,10,0:0:0:0:
149,84,156279,1,10,0:0:0:0:
197,148,156370,85,10,0:0:0:0:
262,102,156461,1,10,0:0:0:0:
266,111,156552,1,2,0:0:0:0:
328,163,156643,6,0,B|358:138|358:138|343:107,5,75.000002861023,2|2|2|2|2|2,0:0|0:0|0:0|0:0|0:0|0:0,0:0:0:0:
256,384,157188,5,6,0:0:0:0:
181,358,157279,1,2,0:0:0:0:
165,282,157370,1,2,0:0:0:0:
219,224,157461,1,10,0:0:0:0:
298,236,157552,1,2,0:0:0:0:
327,311,157643,1,2,0:0:0:0:
403,334,157734,1,2,0:0:0:0:
466,286,157825,1,2,0:0:0:0:
456,208,157916,1,2,0:0:0:0:
387,170,158007,1,10,0:0:0:0:
366,93,158098,1,2,0:0:0:0:
424,39,158188,1,2,0:0:0:0:
501,58,158279,85,2,0:0:0:0:
467,107,158369,1,2,0:0:0:0:
435,158,158460,1,2,0:0:0:0:
405,209,158551,1,10,0:0:0:0:
376,262,158642,1,2,0:0:0:0:
349,316,158733,1,2,0:0:0:0:
324,370,158825,6,0,B|368:408|414:274|328:157|184:218|300:252,1,279.999991455078,2|2,0:0|0:0,0:0:0:0:
234,312,159098,6,0,B|264:369|216:393|182:354|234:312,1,139.999995727539,10|2,0:0|0:0,0:0:0:0:
480,244,159279,1,2,0:0:0:0:
441,314,159370,86,0,P|316:284|83:235,1,279.999991455078,2|2,0:0|0:0,0:0:0:0:
158,249,159643,5,10,0:0:0:0:
115,175,159734,1,2,0:0:0:0:
146,247,159825,1,2,0:0:0:0:
57,253,159916,6,0,B|10:222|24:138|128:129|190:271|87:324,1,279.999991455078,2|2,0:0|0:0,0:0:0:0:
28,333,160188,86,0,B|13:364|40:382|40:382|49:350|28:333,1,110.000003356934,10|2,0:0|0:0,0:0:0:0:
195,155,160370,1,2,0:0:0:0:
252,94,160461,6,0,P|221:222|189:384,1,279.999991455078,2|2,0:0|0:0,0:0:0:0:
192,374,160734,5,10,0:0:0:0:
273,365,160825,1,2,0:0:0:0:
250,284,160916,1,2,0:0:0:0:
343,310,161007,86,0,B|366:336|359:372|359:372|413:317|382:223|314:195,1,279.999991455078,2|2,0:0|0:0,0:0:0:0:
307,193,161279,6,0,B|290:188|274:200|274:200|291:162|337:178,1,100,10|2,0:0|0:0,0:0:0:0:
512,247,161461,1,2,0:0:0:0:
445,207,161552,5,6,0:0:0:0:
493,144,161643,1,2,0:0:0:0:
468,68,161734,1,2,0:0:0:0:
393,40,161825,1,10,0:0:0:0:
326,83,161916,1,2,0:0:0:0:
247,77,162007,1,2,0:0:0:0:
186,26,162098,1,2,0:0:0:0:
108,26,162188,1,2,0:0:0:0:
59,88,162279,1,2,0:0:0:0:
65,166,162370,1,10,0:0:0:0:
127,214,162461,1,2,0:0:0:0:
204,200,162552,1,2,0:0:0:0:
250,136,162643,85,2,0:0:0:0:
193,115,162734,1,2,0:0:0:0:
141,145,162825,1,2,0:0:0:0:
123,202,162916,1,10,0:0:0:0:
139,259,163007,1,2,0:0:0:0:
110,311,163098,1,2,0:0:0:0:
53,319,163188,6,0,B|19:259|19:259|234:330,1,279.999991455078,2|2,0:0|0:0,0:0:0:0:
279,241,163461,6,0,B|303:251|303:251|294:272|294:294|294:294|282:273|265:260|265:260|279:241,1,139.999995727539,10|2,0:0|0:0,0:0:0:0:
440,117,163643,1,2,0:0:0:0:
359,115,163734,86,0,P|317:261|275:410,1,279.999991455078,6|0,0:0|0:0,0:0:0:0:
282,384,164007,5,10,0:0:0:0:
222,324,164098,1,2,0:0:0:0:
372,287,164188,1,2,0:0:0:0:
279,241,164279,6,0,B|222:63|222:63|276:112|276:112|267:145,1,279.999991455078,6|2,0:0|0:0,0:0:0:0:
316,39,164552,85,10,0:0:0:0:
317,32,164643,1,2,0:0:0:0:
322,36,164734,1,2,0:0:0:0:
359,115,164825,5,2,0:0:0:0:
430,123,164916,1,2,0:0:0:0:
470,82,165007,1,2,0:0:0:0:
464,47,165098,1,2,0:0:0:0:
440,29,165188,1,10,0:0:0:0:
409,34,165279,1,2,0:0:0:0:
403,46,165370,5,2,0:0:0:0:
441,116,165461,1,2,0:0:0:0:
412,167,165552,1,2,0:0:0:0:
424,212,165643,1,2,0:0:0:0:
443,226,165734,1,2,0:0:0:0:
458,232,165825,1,2,0:0:0:0:
466,232,165916,85,6,0:0:0:0:
423,165,166007,1,2,0:0:0:0:
345,177,166098,1,2,0:0:0:0:
314,248,166188,1,10,0:0:0:0:
238,269,166279,1,2,0:0:0:0:
176,220,166370,1,2,0:0:0:0:
177,141,166461,1,2,0:0:0:0:
115,91,166552,1,2,0:0:0:0:
38,111,166643,1,2,0:0:0:0:
7,183,166734,1,10,0:0:0:0:
36,255,166825,1,2,0:0:0:0:
113,268,166916,1,2,0:0:0:0:
171,215,167007,6,0,L|153:311,5,75.000002861023,2|2|2|10|2|2,0:0|0:0|0:0|0:0|0:0|0:0,0:0:0:0:
302,220,167552,5,2,0:0:0:0:
238,269,167643,2,0,L|222:359,1,75.000002861023,2|2,0:0|0:0,0:0:0:0:
70,340,167825,86,0,P|205:313|359:287,1,259.999988098145,10|2,0:0|0:0,0:0:0:0:
382,237,168098,6,0,B|397:253|402:271|402:271|427:178|335:143|335:143|368:160|376:190,1,259.999988098145,2|2,0:0|0:0,0:0:0:0:
302,220,168370,5,10,0:0:0:0:
327,301,168461,1,2,0:0:0:0:
297,210,168552,1,2,0:0:0:0:
332,311,168643,86,0,P|348:207|375:44,1,259.999988098145,2|2,0:0|0:0,0:0:0:0:
433,0,168916,6,0,B|499:25|495:96|411:90|469:25,1,129.999994049073,10|2,0:0|0:0,0:0:0:0:
224,0,169098,1,2,0:0:0:0:
301,7,169188,6,0,B|346:13|353:-72|124:-37|203:133|313:74,1,259.999988098145,2|2,0:0|0:0,0:0:0:0:
373,54,169461,86,0,P|362:119|351:192,1,100,10|2,0:0|0:0,0:0:0:0:
332,311,169643,1,2,0:0:0:0:
267,355,169734,1,6,0:0:0:0:
208,341,169825,1,2,0:0:0:0:
178,300,169916,1,2,0:0:0:0:
136,284,170007,1,10,0:0:0:0:
104,290,170098,1,2,0:0:0:0:
87,298,170188,1,2,0:0:0:0:
83,307,170279,5,6,0:0:0:0:
134,366,170370,1,2,0:0:0:0:
210,348,170461,1,2,0:0:0:0:
230,271,170552,1,10,0:0:0:0:
177,211,170643,1,2,0:0:0:0:
196,134,170734,1,2,0:0:0:0:
270,109,170825,1,2,0:0:0:0:
328,162,170916,1,2,0:0:0:0:
310,238,171007,1,2,0:0:0:0:
367,291,171098,1,10,0:0:0:0:
443,274,171188,1,2,0:0:0:0:
463,197,171279,1,2,0:0:0:0:
406,143,171370,5,2,0:0:0:0:
479,114,171461,1,2,0:0:0:0:
495,54,171552,1,2,0:0:0:0:
461,19,171643,1,10,0:0:0:0:
422,27,171734,1,2,0:0:0:0:
410,48,171825,1,2,0:0:0:0:
412,61,171916,86,0,L|442:151,5,75.000002861023,2|2|2|10|2|2,0:0|0:0|0:0|0:0|0:0|0:0,0:0:0:0:
257,33,172461,5,6,0:0:0:0:
185,0,172552,1,8,0:0:0:0:
155,72,172643,1,8,0:0:0:0:
84,39,172734,1,8,0:0:0:0:
47,119,172825,5,2,0:0:0:0:
41,113,172916,1,2,0:0:0:0:
47,108,173007,1,2,0:0:0:0:
52,115,173098,1,2,0:0:0:0:
122,153,173188,86,0,L|152:243,1,75.000002861023,10|2,0:0|0:0,0:0:0:0:
74,248,173370,2,0,L|104:338,1,75.000002861023,2|2,0:0|0:0,0:0:0:0:
221,193,173552,5,2,0:0:0:0:
269,230,173643,1,2,0:0:0:0:
322,222,173734,1,2,0:0:0:0:
353,181,173825,1,2,0:0:0:0:
349,139,173916,1,2,0:0:0:0:
325,118,174007,1,2,0:0:0:0:
293,121,174098,1,2,0:0:0:0:
285,140,174188,1,2,0:0:0:0:
294,155,174279,1,2,0:0:0:0:
311,158,174370,1,2,0:0:0:0:
315,148,174461,1,2,0:0:0:0:
311,139,174552,1,2,0:0:0:0:
303,138,174643,70,0,L|288:277,1,100,6|0,0:0|0:0,0:0:0:0:
292,237,174883,1,0,0:0:0:0:
292,237,174963,1,0,0:0:0:0:
0,193,175123,5,10,0:0:0:0:
234,309,175283,1,2,0:0:0:0:
359,66,175443,1,2,0:0:0:0:
170,250,175603,53,2,0:0:0:0:
133,256,175683,1,0,0:0:0:0:
96,262,175763,1,0,0:0:0:0:
59,269,175843,1,0,0:0:0:0:
22,275,175923,1,0,0:0:0:0:
184,27,176083,37,10,0:0:0:0:
234,309,176243,1,2,0:0:0:0:
493,251,176403,1,2,0:0:0:0:
209,119,176563,5,2,0:0:0:0:
171,112,176643,1,0,0:0:0:0:
134,103,176723,1,0,0:0:0:0:
97,95,176803,1,0,0:0:0:0:
59,86,176883,1,0,0:0:0:0:
281,164,177043,53,10,0:0:0:0:
330,384,177203,1,0,0:0:0:0:
413,35,177363,1,0,0:0:0:0:
344,256,177523,38,0,B|361:186|361:186|365:185|365:185|362:181|362:181|379:110,1,150,2|0,0:0|0:0,0:0:0:0:
400,39,177843,1,2,0:0:0:0:
10,98,178003,5,8,0:0:0:0:
443,202,178163,1,2,0:0:0:0:
82,352,178323,1,2,0:0:0:0:
328,303,178483,53,6,0:0:0:0:
345,240,178563,1,0,0:0:0:0:
361,177,178643,1,0,0:0:0:0:
378,114,178723,1,0,0:0:0:0:
394,51,178803,1,0,0:0:0:0:
423,286,178963,37,10,0:0:0:0:
192,226,179123,1,2,0:0:0:0:
243,0,179283,1,2,0:0:0:0:
246,297,179443,5,2,0:0:0:0:
209,307,179523,1,0,0:0:0:0:
173,317,179603,1,0,0:0:0:0:
137,327,179683,1,0,0:0:0:0:
101,338,179763,1,0,0:0:0:0:
328,303,179923,53,10,0:0:0:0:
101,251,180083,1,0,0:0:0:0:
148,38,180243,1,2,0:0:0:0:
384,165,180403,37,2,0:0:0:0:
392,201,180483,1,0,0:0:0:0:
401,237,180563,1,0,0:0:0:0:
410,273,180643,1,0,0:0:0:0:
418,309,180723,1,2,0:0:0:0:
374,155,180883,6,0,L|396:63,1,75,8|0,0:0|0:0,0:0:0:0:
465,112,181043,54,0,B|478:57|478:57|449:32,2,75,2|2|2,0:0|0:0|0:0,0:0:0:0:
465,112,181323,1,2,0:0:0:0:
465,112,181363,37,14,0:0:0:0:
296,191,181523,1,2,0:0:0:0:
345,4,181683,1,2,0:0:0:0:
512,196,181843,5,8,0:0:0:0:
269,274,182003,1,8,0:0:0:0:
121,66,182163,1,8,0:0:0:0:
347,262,182323,53,6,0:0:0:0:
384,265,182403,1,0,0:0:0:0:
421,268,182483,1,0,0:0:0:0:
459,271,182563,1,0,0:0:0:0:
496,275,182643,1,0,0:0:0:0:
322,341,182803,37,10,0:0:0:0:
92,383,182963,1,0,0:0:0:0:
56,124,183123,1,0,0:0:0:0:
269,274,183283,5,2,0:0:0:0:
272,237,183363,1,0,0:0:0:0:
275,200,183443,1,0,0:0:0:0:
278,162,183523,1,0,0:0:0:0:
282,125,183603,1,0,0:0:0:0:
118,186,183763,53,10,0:0:0:0:
352,77,183923,1,0,0:0:0:0:
322,341,184083,1,2,0:0:0:0:
215,196,184243,37,2,0:0:0:0:
289,161,184403,1,0,0:0:0:0:
278,243,184563,1,0,0:0:0:0:
192,69,184723,5,10,0:0:0:0:
403,217,184883,1,0,0:0:0:0:
159,323,185043,1,2,0:0:0:0:
5,167,185203,54,0,L|153:145,1,150,2|0,0:0|0:0,0:0:0:0:
215,196,185523,1,2,0:0:0:0:
512,269,185683,37,12,0:0:0:0:
81,362,185843,1,2,0:0:0:0:
240,0,186003,1,2,0:0:0:0:
418,214,186163,5,6,0:0:0:0:
423,251,186243,1,0,0:0:0:0:
429,288,186323,1,0,0:0:0:0:
434,325,186403,1,0,0:0:0:0:
440,362,186483,1,0,0:0:0:0:
94,225,186643,53,10,0:0:0:0:
352,311,186803,1,0,0:0:0:0:
439,66,186963,1,0,0:0:0:0:
279,273,187123,37,2,0:0:0:0:
242,278,187203,1,0,0:0:0:0:
205,284,187283,1,0,0:0:0:0:
168,289,187363,1,0,0:0:0:0:
131,295,187443,1,0,0:0:0:0:
434,325,187603,5,10,0:0:0:0:
178,202,187763,1,0,0:0:0:0:
448,59,187923,1,2,0:0:0:0:
403,250,188083,53,2,0:0:0:0:
288,196,188243,1,0,0:0:0:0:
408,129,188403,1,2,0:0:0:0:
370,384,188563,37,10,0:0:0:0:
84,246,188723,2,0,L|106:134,1,100,2|2,0:0|0:0,0:0:0:0:
51,89,188963,1,2,0:0:0:0:
51,89,189003,1,2,0:0:0:0:
51,89,189043,5,10,0:0:0:0:
12,302,189203,1,2,0:0:0:0:
186,211,189363,1,2,0:0:0:0:
20,384,189523,53,10,0:0:0:0:
251,263,189683,1,10,0:0:0:0:
316,8,189843,1,2,0:0:0:0:
466,75,190003,37,6,0:0:0:0:
416,83,190083,1,0,0:0:0:0:
367,92,190163,1,2,0:0:0:0:
318,101,190243,1,2,0:0:0:0:
269,109,190323,1,2,0:0:0:0:
512,151,190483,5,8,0:0:0:0:
259,117,190643,1,2,0:0:0:0:
10,82,190803,1,2,0:0:0:0:
204,187,190963,53,2,0:0:0:0:
212,236,191043,1,0,0:0:0:0:
220,285,191123,1,2,0:0:0:0:
228,334,191203,1,2,0:0:0:0:
236,384,191283,1,2,0:0:0:0:
269,109,191443,37,10,0:0:0:0:
44,298,191603,1,2,0:0:0:0:
321,384,191763,1,2,0:0:0:0:
480,203,191923,5,2,0:0:0:0:
488,154,192003,1,0,0:0:0:0:
496,105,192083,1,2,0:0:0:0:
504,56,192163,1,2,0:0:0:0:
512,6,192243,1,2,0:0:0:0:
459,285,192403,53,10,0:0:0:0:
415,34,192563,1,2,0:0:0:0:
165,82,192723,1,2,0:0:0:0:
362,338,192883,38,0,L|394:148,1,150,2|0,0:0|0:0,0:0:0:0:
402,114,193203,1,2,0:0:0:0:
80,329,193363,5,10,0:0:0:0:
467,170,193523,1,2,0:0:0:0:
38,101,193683,1,2,0:0:0:0:
151,375,193843,53,6,0:0:0:0:
215,364,193923,1,2,0:0:0:0:
279,353,194003,1,2,0:0:0:0:
343,342,194083,1,2,0:0:0:0:
407,331,194163,1,2,0:0:0:0:
156,288,194323,37,10,0:0:0:0:
493,341,194483,1,2,0:0:0:0:
368,56,194643,1,2,0:0:0:0:
75,317,194803,5,2,0:0:0:0:
64,253,194883,1,2,0:0:0:0:
53,189,194963,1,2,0:0:0:0:
42,125,195043,1,2,0:0:0:0:
31,61,195123,1,2,0:0:0:0:
151,375,195283,54,0,B|285:351|285:351|284:336|284:336|285:351|285:351|456:323,1,300,14|0,0:0|0:0,0:0:0:0:
493,341,195603,1,2,0:0:0:0:
297,118,195763,38,0,B|322:266|322:266|454:147|454:147|294:90,1,500,2|0,0:0|0:0,0:0:0:0:
230,251,196243,6,0,B|223:214|223:214|235:206|235:206|227:163|227:163|215:164|215:164|205:101|205:101|209:88|209:88|204:102|204:102|158:144|158:144|145:140|145:140|115:166|115:166|117:179|117:179|72:222|72:222|58:224|58:224|72:222|72:222|130:242|130:242|134:256|134:256|167:268|167:268|181:259|181:259|283:296,1,599.999981689454,10|0,0:0|0:0,0:0:0:0:
285,357,196723,53,2,0:0:0:0:
299,366,196803,1,0,0:0:0:0:
295,348,196883,1,2,0:0:0:0:
244,15,197043,1,2,0:0:0:0:
70,306,197203,37,10,0:0:0:0:
512,224,197363,1,2,0:0:0:0:
247,24,197523,1,2,0:0:0:0:
452,49,197683,5,2,0:0:0:0:
480,101,197763,1,2,0:0:0:0:
451,153,197843,1,2,0:0:0:0:
391,153,197923,1,2,0:0:0:0:
358,203,198003,1,2,0:0:0:0:
378,259,198083,1,2,0:0:0:0:
435,274,198163,53,10,0:0:0:0:
411,218,198243,1,2,0:0:0:0:
351,212,198323,1,2,0:0:0:0:
302,247,198403,1,2,0:0:0:0:
299,306,198483,1,2,0:0:0:0:
246,334,198563,1,2,0:0:0:0:
193,304,198643,38,0,L|209:358,5,50,2|2|2|2|2|2,0:0|0:0|0:0|0:0|0:0|0:0,0:0:0:0:
249,187,199123,6,0,P|230:207|226:244,1,50,10|2,0:0|0:0,0:0:0:0:
120,259,199283,2,0,P|105:239|82:228,1,50,2|2,0:0|0:0,0:0:0:0:
105,1,199443,54,0,L|119:48,1,50,2|2,0:0|0:0,0:0:0:0:
36,84,199603,37,2,0:0:0:0:
76,147,199683,1,2,0:0:0:0:
151,150,199763,1,2,0:0:0:0:
208,98,199843,1,2,0:0:0:0:
284,97,199923,1,2,0:0:0:0:
337,151,200003,1,2,0:0:0:0:
325,226,200083,1,10,0:0:0:0:
366,284,200163,1,2,0:0:0:0:
437,291,200243,1,2,0:0:0:0:
488,243,200323,1,2,0:0:0:0:
478,177,200403,1,2,0:0:0:0:
425,133,200483,1,2,0:0:0:0:
359,146,200563,1,2,0:0:0:0:
328,199,200643,1,2,0:0:0:0:
336,261,200723,1,2,0:0:0:0:
299,306,200803,1,2,0:0:0:0:
242,310,200883,1,2,0:0:0:0:
201,270,200963,1,2,0:0:0:0:
203,217,201043,1,10,0:0:0:0:
237,184,201123,1,2,0:0:0:0:
233,141,201203,1,2,0:0:0:0:
203,118,201283,1,2,0:0:0:0:
170,121,201363,1,2,0:0:0:0:
155,132,201443,1,2,0:0:0:0:
149,143,201523,6,0,P|173:213|206:325,1,150,6|2,0:0|0:0,0:0:0:0:
181,371,201843,1,2,0:0:0:0:
181,371,201923,1,2,0:0:0:0:
181,371,202003,54,0,P|150:363|115:359,5,50,10|2|2|2|2|2,0:0|0:0|0:0|0:0|0:0|0:0,0:0:0:0:
270,328,202483,37,2,0:0:0:0:
283,269,202563,1,2,0:0:0:0:
341,254,202643,1,2,0:0:0:0:
388,290,202723,1,2,0:0:0:0:
447,279,202803,1,2,0:0:0:0:
474,225,202883,1,2,0:0:0:0:
443,173,202963,5,10,0:0:0:0:
498,151,203043,1,2,0:0:0:0:
503,91,203123,1,2,0:0:0:0:
451,60,203203,1,2,0:0:0:0:
403,96,203283,1,2,0:0:0:0:
345,79,203363,1,2,0:0:0:0:
326,22,203443,53,6,0:0:0:0:
274,52,203523,1,2,0:0:0:0:
222,21,203603,1,2,0:0:0:0:
166,43,203683,1,2,0:0:0:0:
155,102,203763,1,2,0:0:0:0:
197,144,203843,1,2,0:0:0:0:
256,135,203923,37,10,0:0:0:0:
258,194,204003,1,2,0:0:0:0:
310,222,204083,1,2,0:0:0:0:
366,201,204163,1,2,0:0:0:0:
420,226,204243,1,2,0:0:0:0:
435,284,204323,1,2,0:0:0:0:
402,334,204403,6,0,P|375:243|329:114,1,225.000008583069,14|2,0:0|0:0,0:0:0:0:
429,139,204723,1,2,0:0:0:0:
429,139,204803,1,2,0:0:0:0:
429,139,204883,2,0,P|434:109|442:80,1,50,14|2,0:0|0:0,0:0:0:0:
313,312,205043,54,0,P|284:304|254:299,3,50,14|2|2|2,0:0|0:0|0:0|0:0,0:0:0:0:
211,366,205363,37,14,0:0:0:0:
200,354,205443,1,2,0:0:0:0:
188,346,205523,1,2,0:0:0:0:
174,339,205603,1,2,0:0:0:0:
159,337,205683,1,2,0:0:0:0:
144,337,205763,1,2,0:0:0:0:
130,341,205843,5,14,0:0:0:0:
159,288,205923,1,2,0:0:0:0:
126,237,206003,1,2,0:0:0:0:
66,244,206083,1,2,0:0:0:0:
25,199,206163,1,2,0:0:0:0:
40,141,206243,1,2,0:0:0:0:
97,123,206323,53,14,0:0:0:0:
93,137,206403,1,2,0:0:0:0:
89,152,206483,1,2,0:0:0:0:
86,166,206563,1,2,0:0:0:0:
83,181,206643,1,2,0:0:0:0:
80,196,206723,1,2,0:0:0:0:
78,211,206803,37,14,0:0:0:0:
128,178,206883,1,2,0:0:0:0:
181,206,206963,1,2,0:0:0:0:
185,265,207043,1,2,0:0:0:0:
240,288,207123,1,2,0:0:0:0:
288,253,207203,1,2,0:0:0:0:
277,193,207283,5,14,0:0:0:0:
273,207,207363,1,2,0:0:0:0:
270,222,207443,1,2,0:0:0:0:
266,236,207523,1,2,0:0:0:0:
263,251,207603,1,2,0:0:0:0:
261,266,207683,1,2,0:0:0:0:
258,281,207763,54,0,P|244:250|233:228,2,50,14|2|2,0:0|0:0|0:0,0:0:0:0:
320,363,208003,38,0,P|323:342|329:319,3,37.5,2|2|2|2,0:0|0:0|0:0|0:0,0:0:0:0:
399,286,208243,6,0,P|282:308|87:348,1,300,14|8,0:0|0:0,0:0:0:0:
101,347,208543,1,8,0:0:0:0:
94,349,208603,1,8,0:0:0:0:
6,243,208723,53,8,0:0:0:0:
258,281,208843,1,8,0:0:0:0:
131,124,208963,1,8,0:0:0:0:
193,351,209083,1,8,0:0:0:0:
237,108,209203,70,0,P|221:162|206:216,1,112.500004291535,6|2,0:0|0:0,0:0:0:0:
76,201,209443,2,0,P|96:260|110:317,1,112.500004291535,2|2,0:0|0:0,0:0:0:0:
304,162,209683,5,10,0:0:0:0:
265,21,209803,1,2,0:0:0:0:
173,52,209923,1,2,0:0:0:0:
396,131,210043,1,2,0:0:0:0:
237,108,210163,5,2,0:0:0:0:
233,119,210283,1,2,0:0:0:0:
229,130,210403,1,2,0:0:0:0:
226,141,210523,1,2,0:0:0:0:
217,223,210643,85,10,0:0:0:0:
173,52,210763,1,2,0:0:0:0:
304,162,210883,1,2,0:0:0:0:
142,146,211003,1,2,0:0:0:0:
307,64,211123,6,0,P|365:49|446:32,1,112.500004291535,6|2,0:0|0:0,0:0:0:0:
128,234,211363,6,0,P|70:219|-11:202,1,112.500004291535,2|2,0:0|0:0,0:0:0:0:
142,325,211603,85,10,0:0:0:0:
55,128,211723,1,2,0:0:0:0:
217,223,211843,1,2,0:0:0:0:
42,298,211963,1,2,0:0:0:0:
232,314,212083,5,6,0:0:0:0:
254,317,212163,1,2,0:0:0:0:
276,320,212243,1,2,0:0:0:0:
298,323,212323,1,2,0:0:0:0:
321,326,212403,1,2,0:0:0:0:
343,329,212483,1,2,0:0:0:0:
396,337,212563,5,14,0:0:0:0:
382,319,212643,1,2,0:0:0:0:
362,310,212723,1,2,0:0:0:0:
340,313,212803,1,2,0:0:0:0:
322,327,212883,1,2,0:0:0:0:
314,348,212963,1,2,0:0:0:0:
350,370,213043,86,0,P|402:355|477:340,1,112.500004291535,6|2,0:0|0:0,0:0:0:0:
512,155,213283,2,0,P|489:227|474:287,1,112.500004291535,2|2,0:0|0:0,0:0:0:0:
337,78,213523,5,10,0:0:0:0:
397,272,213643,2,0,P|345:257|280:239,1,112.500004291535,2|2,0:0|0:0,0:0:0:0:
9,272,213883,6,0,P|65:287|126:305,1,112.500004291535,2|2,0:0|0:0,0:0:0:0:
221,332,214123,1,2,0:0:0:0:
161,138,214243,2,0,P|183:201|200:260,1,112.500004291535,2|2,0:0|0:0,0:0:0:0:
226,339,214483,85,10,0:0:0:0:
278,154,214603,1,2,0:0:0:0:
306,252,214723,1,2,0:0:0:0:
129,312,214843,1,2,0:0:0:0:
316,352,214963,5,6,0:0:0:0:
205,226,215083,1,2,0:0:0:0:
410,273,215203,6,0,P|388:228|363:162,1,112.500004291535,2|2,0:0|0:0,0:0:0:0:
166,140,215443,2,0,P|213:144|283:154,1,112.500004291535,10|2,0:0|0:0,0:0:0:0:
401,5,215683,2,0,P|368:46|328:99,1,112.500004291535,2|2,0:0|0:0,0:0:0:0:
205,226,215923,85,10,0:0:0:0:
140,217,216003,1,8,0:0:0:0:
102,265,216083,1,8,0:0:0:0:
119,310,216163,1,2,0:0:0:0:
154,318,216243,1,2,0:0:0:0:
170,301,216323,1,2,0:0:0:0:
168,296,216403,5,10,0:0:0:0:
225,311,216483,1,2,0:0:0:0:
274,285,216563,1,2,0:0:0:0:
297,241,216643,1,2,0:0:0:0:
291,207,216723,1,2,0:0:0:0:
284,190,216803,1,2,0:0:0:0:
278,184,216883,6,0,P|264:241|249:337,1,112.500004291535,6|2,0:0|0:0,0:0:0:0:
49,190,217123,2,0,P|62:132|77:36,1,112.500004291535,2|2,0:0|0:0,0:0:0:0:
217,118,217363,85,10,0:0:0:0:
16,23,217483,1,2,0:0:0:0:
135,163,217603,1,2,0:0:0:0:
159,30,217723,1,2,0:0:0:0:
207,204,217843,5,2,0:0:0:0:
211,215,217963,1,2,0:0:0:0:
215,226,218083,1,2,0:0:0:0:
218,237,218203,1,2,0:0:0:0:
199,319,218323,5,10,0:0:0:0:
289,171,218443,1,2,0:0:0:0:
133,256,218563,1,2,0:0:0:0:
294,269,218683,1,2,0:0:0:0:
135,163,218803,86,0,P|76:148|8:133,1,112.500004291535,2|2,0:0|0:0,0:0:0:0:
290,362,219043,6,0,P|349:347|417:332,1,112.500004291535,2|2,0:0|0:0,0:0:0:0:
512,142,219283,5,10,0:0:0:0:
463,384,219403,1,2,0:0:0:0:
419,252,219523,1,2,0:0:0:0:
500,305,219643,1,2,0:0:0:0:
430,167,219763,85,2,0:0:0:0:
422,145,219843,1,2,0:0:0:0:
415,123,219923,1,2,0:0:0:0:
409,102,220003,1,2,0:0:0:0:
402,80,220083,1,2,0:0:0:0:
396,59,220163,1,2,0:0:0:0:
384,14,220243,5,10,0:0:0:0:
372,32,220323,1,2,0:0:0:0:
373,55,220403,1,2,0:0:0:0:
387,72,220483,1,2,0:0:0:0:
408,78,220563,1,2,0:0:0:0:
429,70,220643,1,2,0:0:0:0:
435,32,220723,6,0,P|375:21|281:10,1,112.500004291535,6|2,0:0|0:0,0:0:0:0:
147,38,220963,2,0,P|184:76|238:68,1,112.500004291535,2|2,0:0|0:0,0:0:0:0:
316,20,221203,85,10,0:0:0:0:
286,203,221323,2,0,P|326:168|314:116,1,112.500004291535,2|2,0:0|0:0,0:0:0:0:
0,105,221563,5,2,0:0:0:0:
214,162,221683,2,0,P|205:217|199:273,1,112.500004291535,2|2,0:0|0:0,0:0:0:0:
45,371,221923,5,2,0:0:0:0:
277,310,222043,1,2,0:0:0:0:
130,185,222163,85,10,0:0:0:0:
177,355,222283,1,2,0:0:0:0:
106,297,222403,1,2,0:0:0:0:
355,339,222523,1,2,0:0:0:0:
52,230,222643,6,0,P|37:175|20:121,1,112.500004291535,6|0,0:0|0:0,0:0:0:0:
110,41,222883,5,10,0:0:0:0:
108,57,222943,1,10,0:0:0:0:
106,73,223003,1,2,0:0:0:0:
104,89,223063,1,2,0:0:0:0:
102,105,223123,86,0,P|92:79|79:48,7,56.2500021457673,2|2|2|2|2|2|2|2,0:0|0:0|0:0|0:0|0:0|0:0|0:0|0:0,0:0:0:0:
166,162,223603,6,0,P|194:166|226:170,7,56.2500021457673,2|2|2|2|2|2|2|2,0:0|0:0|0:0|0:0|0:0|0:0|0:0|0:0,0:0:0:0:
189,75,224083,5,2,0:0:0:0:
201,84,224143,1,2,0:0:0:0:
214,87,224203,1,2,0:0:0:0:
228,86,224263,1,2,0:0:0:0:
240,79,224323,1,2,0:0:0:0:
249,68,224383,1,2,0:0:0:0:
253,54,224443,1,2,0:0:0:0:
252,41,224503,1,2,0:0:0:0:
245,28,224563,54,0,B|202:99|220:232|220:232|310:120|431:76|431:76|375:46|330:11|330:11|336:39,1,618.75002360344,6|0,0:0|0:0,0:0:0:0:
334,33,225381,6,0,P|342:67|354:86,1,37.5,2|0,0:0|0:0,0:0:0:0:
298,135,225517,2,0,P|327:153|349:158,1,37.5
0,257,225653,54,0,B|25:276|14:308|14:308|-8:289|0:257,1,112.5,8|0,0:0|0:0,0:0:0:0:
99,374,225926,38,0,B|138:333|134:284|95:276|74:320|99:374,1,168.750006437302,6|0,0:0|0:0,0:0:0:0:
198,305,226199,6,0,B|194:262|168:222|152:274|118:196|223:165|253:256|197:307,1,225,2|0,0:0|0:0,0:0:0:0:
83,224,226472,54,0,B|124:104|178:178|222:68|222:68|86:75|151:2|16:22|16:22|97:118|-8:113|82:225,1,656.25,6|0,0:0|0:0,0:0:0:0:
0,257,227017,37,2,0:0:0:0:
508,171,227290,5,10,0:0:0:0:
480,44,227426,1,2,0:0:0:0:
452,249,227563,54,0,L|337:272,1,93.75,8|0,0:0|0:0,0:0:0:0:
231,293,227699,2,0,L|116:316,1,75,8|0,0:0|0:0,0:0:0:0:
11,341,227835,38,0,B|73:316|141:358|141:358|149:267|64:229,1,281.250010728836,6|0,0:0|0:0,0:0:0:0:
0,257,228244,5,2,0:0:0:0:
180,212,228381,53,8,0:0:0:0:
150,85,228517,1,2,0:0:0:0:
23,143,228653,38,0,L|136:164,1,93.75,8|0,0:0|0:0,0:0:0:0:
260,189,228790,2,0,L|333:203,1,75,8|0,0:0|0:0,0:0:0:0:
496,231,228926,6,0,B|474:174|502:128|502:128|312:171|309:355|309:355|355:286|436:284|436:284|423:268|419:245,1,618.75002360344,6|0,0:0|0:0,0:0:0:0:
421,254,229744,54,0,P|397:287|387:330,1,75,2|0,0:0|0:0,0:0:0:0:
235,279,229881,38,0,P|206:295|175:294,1,56.2500021457673,2|0,0:0|0:0,0:0:0:0:
52,301,230017,6,0,B|93:227|186:216|186:216|205:69|-1:32|-1:32|88:100|94:174,1,618.75002360344,12|0,0:0|0:0,0:0:0:0:
0,141,230835,54,0,P|17:179|15:217,1,75,2|0,0:0|0:0,0:0:0:0:
166,15,230972,38,0,P|199:42|219:69,1,56.2500021457673
473,0,231108,6,0,P|393:27|318:65,1,168.750006437302,6|0,0:0|0:0,0:0:0:0:
259,120,231381,1,8,0:0:0:0:
259,120,231415,1,8,0:0:0:0:
271,0,231517,1,2,0:0:0:0:
315,193,231653,53,2,0:0:0:0:
435,205,231789,1,2,0:0:0:0:
512,128,231926,1,2,0:0:0:0:
392,116,232062,1,2,0:0:0:0:
115,266,232199,37,2,0:0:0:0:
38,189,232335,1,2,0:0:0:0:
158,177,232472,1,2,0:0:0:0:
235,254,232608,1,2,0:0:0:0:
413,372,232744,5,2,0:0:0:0:
490,295,232880,1,2,0:0:0:0:
370,283,233017,1,2,0:0:0:0:
293,360,233153,1,2,0:0:0:0:
358,66,233290,54,0,B|438:18|530:61|530:61|441:117|430:213|430:213|358:144|257:152|257:152|261:122|283:70,1,618.75002360344,6|0,0:0|0:0,0:0:0:0:
277,88,234108,38,0,P|289:114|296:157,1,56.2500021457673,2|0,0:0|0:0,0:0:0:0:
374,148,234244,2,0,P|364:174|338:210,1,56.2500021457673
19,269,234381,6,0,B|-35:274|14:200|78:264|19:269,1,112.5,12|0,0:0|0:0,0:0:0:0:
93,355,234653,54,0,B|80:327|80:327|98:315|112:284|112:284|107:318|118:338|118:338|94:354,1,168.750006437302,6|0,0:0|0:0,0:0:0:0:
112,184,234926,38,0,B|95:228|147:284|147:284|155:206|112:184,1,225,6|0,0:0|0:0,0:0:0:0:
256,287,235199,6,0,B|295:194|375:141|375:141|373:119|373:119|273:122|181:81|181:81|166:98|166:98|227:175|223:277|223:277|255:287,1,656.25,6|0,0:0|0:0,0:0:0:0:
195,353,235744,53,2,0:0:0:0:
335,327,235881,1,2,0:0:0:0:
5,242,236017,37,12,0:0:0:0:
0,251,236290,6,0,L|101:233,1,93.75,2|0,0:0|0:0,0:0:0:0:
245,207,236426,2,0,L|318:193,1,75,2|0,0:0|0:0,0:0:0:0:
496,158,236563,54,0,B|443:90|331:112|331:112|391:126|401:182,1,281.250010728836,6|0,0:0|0:0,0:0:0:0:
451,236,236972,37,2,0:0:0:0:
507,21,237108,1,12,0:0:0:0:
512,12,237381,6,0,P|470:30|410:32,1,93.75,2|0,0:0|0:0,0:0:0:0:
318,193,237517,54,0,P|280:189|245:176,1,75,2|0,0:0|0:0,0:0:0:0:
56,239,237653,38,0,B|-2:200|-11:144|-11:144|216:94|216:94|119:175|142:268|142:268|169:235|240:234,1,618.75002360344,6|0,0:0|0:0,0:0:0:0:
186,331,238472,6,0,P|194:286|206:239,1,93.75,2|0,0:0|0:0,0:0:0:0:
295,111,238608,54,0,P|319:87|356:60,1,75,2|0,0:0|0:0,0:0:0:0:
512,12,238744,38,0,B|463:-17|383:-13|383:-13|524:101|495:234|495:234|454:165|365:182|365:182|371:149|398:112,1,618.75002360344,12|0,0:0|0:0,0:0:0:0:
389,133,239563,6,0,P|411:178|427:227,1,93.75,2|0,0:0|0:0,0:0:0:0:
217,258,239699,54,0,P|203:293|186:326,1,75,2|0,0:0|0:0,0:0:0:0:
52,107,239835,38,0,P|17:120|-19:130,1,56.2500021457673,6|0,0:0|0:0,0:0:0:0:
0,45,239972,1,8,0:0:0:0:
10,207,240108,5,10,0:0:0:0:
10,201,240176,1,10,0:0:0:0:
15,204,240244,2,0,P|52:192|84:179,1,75,2|2,0:0|0:0,0:0:0:0:
213,88,240381,53,8,0:0:0:0:
271,102,240449,1,8,0:0:0:0:
329,116,240517,1,8,0:0:0:0:
387,131,240585,1,8,0:0:0:0:
445,145,240653,38,0,L|412:58,1,75,2|2,0:0|0:0,0:0:0:0:
343,254,240790,6,0,L|430:221,1,75,10|2,0:0|0:0,0:0:0:0:
502,72,240926,54,0,L|469:-15,3,75,2|2|2|2,0:0|0:0|0:0|0:0,0:0:0:0:
345,35,241199,37,8,0:0:0:0:
310,26,241267,1,8,0:0:0:0:
275,18,241335,1,8,0:0:0:0:
240,9,241403,1,8,0:0:0:0:
205,0,241472,5,2,0:0:0:0:
221,57,241563,1,2,0:0:0:0:
237,113,241653,1,2,0:0:0:0:
267,191,241744,53,2,0:0:0:0:
254,239,241835,1,2,0:0:0:0:
239,286,241925,1,2,0:0:0:0:
272,364,242017,69,6,0:0:0:0:
495,2,242563,6,0,P|445:28|430:87,1,112.5
353,53,242835,2,0,P|351:108|394:150,1,112.5
512,80,243108,6,0,P|387:99|242:143,1,262.5,2|0,0:0|0:0,0:0:0:0:
116,213,243653,86,0,B|50:183|111:44|232:157|210:240|169:268,1,262.5
144,335,244199,6,0,P|164:211|195:61,1,262.5,2|0,0:0|0:0,0:0:0:0:
268,48,244744,6,0,B|294:64|247:98|207:174|299:245|359:149|306:87|250:74|268:48,1,262.5
373,79,245290,86,0,B|481:30|406:-83|293:-8|373:79,1,262.5,2|0,0:0|0:0,0:0:0:0:
381,163,245835,6,0,P|354:211|336:273,1,112.5
261,238,246108,6,0,P|235:286|281:311,1,112.5
240,384,246381,86,0,P|293:356|372:337,1,112.5
485,377,246653,6,0,P|449:333|404:298,1,112.5
337,263,246926,6,0,B|295:201|312:138|312:138|354:189|337:263,1,262.5,2|0,0:0|0:0,0:0:0:0:
253,280,247472,86,0,P|192:260|89:243,1,130.500003982544
119,249,247744,6,0,P|56:239|60:179,1,130.500003982544
134,169,248017,6,0,B|151:140|170:133|170:133|159:84|159:32|159:32|142:81|115:123|115:123|132:136|134:169,1,304.500009292603,2|0,0:0|0:0,0:0:0:0:
206,207,248563,86,0,P|160:271|151:341,1,148.499999546814
229,330,248835,6,0,P|293:318|251:262,1,148.499999546814
273,114,249108,6,0,B|280:127|290:131|290:131|284:155|284:180|284:180|276:157|263:136|263:136|272:129|273:114,1,148.499999546814,2|0,0:0|0:0,0:0:0:0:
358,217,249381,86,0,P|363:160|386:50,1,148.499999546814
381,71,249653,6,0,B|425:76|433:-17|336:7|320:58|347:81,1,168.750006437302
446,134,249926,6,0,P|363:161|286:188,1,168.750006437302
294,273,250199,86,0,P|212:246|128:226,1,168.750006437302
94,158,250472,5,0,0:0:0:0:
104,154,250540,1,0,0:0:0:0:
114,150,250608,1,0,0:0:0:0:
124,146,250676,1,0,0:0:0:0:
133,144,250744,6,0,B|97:97|53:95|53:95|184:38|271:108|271:108|216:122|206:177,1,412.5,2|0,0:0|0:0,0:0:0:0:
286,187,251563,85,2,0:0:0:0:
288,195,251835,6,0,B|388:249|474:147|474:147|423:178|366:187|380:142|328:149|291:197,1,412.5,2|0,0:0|0:0,0:0:0:0:
407,91,252653,5,0,0:0:0:0:
410,81,252926,1,0,0:0:0:0:
512,322,253472,86,0,P|379:347|235:392,1,262.5
331,276,254017,6,0,B|314:300|314:300|355:309|391:360|391:360|402:298|435:270|435:270|400:257,1,262.5,2|0,0:0|0:0,0:0:0:0:
353,196,254563,6,0,B|241:162|311:26|432:114|353:196,1,262.5
447,191,255108,85,0,0:0:0:0:
451,186,255176,1,0,0:0:0:0:
193,262,255653,6,0,B|198:212|228:165|247:226|286:135|164:99|130:205|195:264,1,262.5
304,364,256199,6,0,B|244:300|250:225|311:212|343:280|304:364,1,262.5,2|0,0:0|0:0,0:0:0:0:
390,347,256744,86,0,P|253:321|119:305,1,262.5
9,339,257290,6,0,P|41:293|76:249,1,112.5,2|0,0:0|0:0,0:0:0:0:
108,128,257563,6,0,P|133:181|152:231,1,112.5
134,312,257835,86,0,P|189:316|245:325,1,112.5
235,238,258108,5,0,0:0:0:0:
240,246,258381,6,0,B|293:275|260:353|287:360|287:360|303:338|222:302|240:245,1,262.5,2|0,0:0|0:0,0:0:0:0:
332,99,258926,86,0,P|382:96|383:152,1,112.5
324,211,259199,5,0,0:0:0:0:
317,207,259267,1,0,0:0:0:0:
313,201,259335,1,0,0:0:0:0:
311,194,259403,1,0,0:0:0:0:
311,187,259472,6,0,B|281:170|245:160|245:160|345:176|463:229,1,288.750008811951,2|0,0:0|0:0,0:0:0:0:
458,229,260017,86,0,P|410:253|353:290,1,112.5
356,289,260290,5,2,0:0:0:0:
22,89,260563,6,0,B|-12:4|226:82|123:237|44:215|31:168|89:144,1,262.5,2|0,0:0|0:0,0:0:0:0:
70,157,261108,86,0,P|112:131|178:112,1,112.5
182,195,261381,6,0,P|236:192|229:125,1,112.5
253,53,261653,6,0,P|203:179|149:342,1,278.999988931275,2|0,0:0|0:0,0:0:0:0:
86,269,262199,86,0,B|34:297|-33:225|68:133|274:282|131:471|75:326|163:316,1,304.500009292603,2|0,0:0|0:0,0:0:0:0:
12,337,262744,6,0,P|154:296|364:252,1,346.499998942566,2|0,0:0|0:0,0:0:0:0:
359,178,263290,6,0,B|315:178|316:86|407:120|418:172|399:197,1,168.750006437302,2|0,0:0|0:0,0:0:0:0:
442,288,263563,85,2,0:0:0:0:
436,287,263631,1,0,0:0:0:0:
430,286,263699,1,0,0:0:0:0:
426,282,263767,1,0,0:0:0:0:
422,278,263835,6,0,P|507:156|438:25,1,311.250004511833,2|0,0:0|0:0,0:0:0:0:
130,111,264244,6,0,P|133:246|296:313,1,311.250004511833,2|0,0:0|0:0,0:0:0:0:
292,64,264653,86,0,B|307:33|307:33|288:19|273:-14|273:-14|278:22|265:44|265:44|290:62,1,186.7500027071,2|0,0:0|0:0,0:0:0:0:
347,122,264926,6,0,B|396:141|396:204|396:204|333:235|349:296|349:296|333:235|263:240|263:240|231:184|272:136,1,435.750006316567,2|0,0:0|0:0,0:0:0:0:
426,280,265472,6,0,L|439:330,1,52.5
512,356,266017,86,0,P|346:326|86:308,1,393.750015020371,2|0,0:0|0:0,0:0:0:0:
173,120,266563,6,0,B|178:187|99:268|101:173|24:248|30:322,1,262.5,2|0,0:0|0:0,0:0:0:0:
24,104,267108,6,0,P|47:139|97:130,1,90
68,32,267381,86,0,P|99:29|115:57,1,67.4999979400635
173,120,267653,6,0,P|205:100|231:102,1,56.25
240,176,267926,6,0,P|218:190|200:191,1,45
324,177,268199,86,0,B|345:123|283:43|283:43|281:2|564:83|500:420|411:327|397:227|333:211|333:211|267:201|165:242|177:352|177:352|220:373|220:373|240:342|309:320|358:335|358:335|336:310|308:284,1,1125,2|0,0:0|0:0,0:0:0:0:
316,294,269290,6,0,P|260:282|209:278,1,105
153,328,269835,6,0,P|116:306|151:257,1,105
194,204,270381,86,0,B|207:155|323:93|139:45|207:155|194:204,1,225,2|0,0:0|0:0,0:0:0:0:
288,213,271472,6,0,B|352:198|341:444|223:227|288:213,1,225,2|0,0:0|0:0,0:0:0:0:
233,151,272563,38,0,B|190:101|190:101|214:38,1,131.25,2|0,0:0|0:0,0:0:0:0:
291,24,272869,6,0,B|334:74|334:74|310:137,1,131.25
288,213,273176,102,0,B|299:265|299:265|306:268|306:268|321:330,1,112.5
407,286,273449,6,0,B|424:344|424:344|404:340|404:340|388:287,1,131.25
319,326,273756,102,0,L|199:299,1,112.5,2|0,0:0|0:0,0:0:0:0:
168,367,274028,6,0,B|145:361|145:361|118:269,1,112.5
40,265,274301,102,0,B|19:289|19:289|-10:183|-10:183|26:201,1,168.750006437302
150,145,274608,6,0,B|170:120|170:120|200:226|200:226|163:208,1,168.750006437302
98,202,274881,102,0,B|110:136|110:136|105:135|105:135|110:136|110:136|127:49,1,153.000000933838,2|0,0:0|0:0,0:0:0:0:
49,21,275153,6,0,L|27:133,1,112.5
127,52,275426,102,0,B|206:38|206:38|219:59|219:59|312:42,1,183.749994392395,2|0,0:0|0:0,0:0:0:0:
385,0,275972,5,2,0:0:0:0:
383,12,276040,1,2,0:0:0:0:
381,24,276108,101,8,0:0:0:0:
425,53,276176,1,8,0:0:0:0:
440,108,276244,1,2,0:0:0:0:
408,149,276313,1,2,0:0:0:0:
369,158,276381,2,0,L|356:89,1,56.2500021457673,8|2,0:0|0:0,0:0:0:0:
157,154,276517,5,2,0:0:0:0:
105,186,276585,1,2,0:0:0:0:
95,228,276653,1,2,0:0:0:0:
121,257,276722,1,2,0:0:0:0:
151,260,276790,1,2,0:0:0:0:
169,245,276858,1,2,0:0:0:0:
175,234,276926,6,0,B|100:174|100:174|396:255,1,382.500007295609,6|0,0:0|0:0,0:0:0:0:
457,272,277199,5,2,0:0:0:0:
506,48,277335,2,0,L|474:194,1,150,8|2,0:0|0:0,0:0:0:0:
338,74,277608,53,8,0:0:0:0:
410,341,277744,2,0,L|237:378,1,150,2|8,0:0|0:0,0:0:0:0:
95,298,278017,37,2,0:0:0:0:
384,246,278153,2,0,L|258:164,1,150,8|2,0:0|0:0,0:0:0:0:
110,77,278426,1,8,0:0:0:0:
55,212,278563,5,6,0:0:0:0:
406,159,278699,1,8,0:0:0:0:
186,121,278835,1,2,0:0:0:0:
149,0,278972,1,8,0:0:0:0:
165,350,279108,54,0,L|190:202,1,150,2|8,0:0|0:0,0:0:0:0:
8,283,279381,37,2,0:0:0:0:
270,246,279517,2,0,L|399:154,1,150,8|2,0:0|0:0,0:0:0:0:
291,37,279790,5,8,0:0:0:0:
335,303,279926,2,0,L|491:330,1,150,2|8,0:0|0:0,0:0:0:0:
473,161,280199,53,6,0:0:0:0:
250,327,280335,1,8,0:0:0:0:
302,40,280472,1,2,0:0:0:0:
246,341,280608,1,8,0:0:0:0:
109,76,280744,37,2,0:0:0:0:
243,355,280881,1,8,0:0:0:0:
0,279,281017,1,2,0:0:0:0:
240,369,281153,1,8,0:0:0:0:
119,208,281290,6,0,B|51:152|51:152|304:232,1,337.500012874604,6|0,0:0|0:0,0:0:0:0:
294,230,281563,54,0,L|192:241,1,75,2|0,0:0|0:0,0:0:0:0:
189,12,281699,2,0,L|210:176,1,150,8|2,0:0|0:0,0:0:0:0:
121,82,281972,37,8,0:0:0:0:
431,179,282108,2,0,L|285:133,1,150,2|8,0:0|0:0,0:0:0:0:
149,294,282381,5,8,0:0:0:0:
118,349,282449,1,8,0:0:0:0:
75,365,282517,1,8,0:0:0:0:
40,356,282585,1,8,0:0:0:0:
28,341,282653,2,0,L|103:323,3,75,2|2|2|2,0:0|0:0|0:0|0:0,0:0:0:0:
3,257,282926,53,2,0:0:0:0:
360,376,283063,1,2,0:0:0:0:
431,179,283199,1,2,0:0:0:0:
315,236,283335,1,2,0:0:0:0:
482,28,283472,37,8,0:0:0:0:
376,292,283608,1,8,0:0:0:0:
505,209,283744,5,8,0:0:0:0:
299,317,283881,1,8,0:0:0:0:
360,376,284017,53,8,0:0:0:0:
221,333,284153,1,2,0:0:0:0:
103,252,284290,37,8,0:0:0:0:
80,196,284358,1,8,0:0:0:0:
58,140,284426,1,8,0:0:0:0:
36,84,284494,1,8,0:0:0:0:
14,28,284563,6,0,B|83:47|83:47|61:219|61:219|189:174,1,337.500012874604,6|0,0:0|0:0,0:0:0:0:
179,113,284835,54,0,B|158:51|158:51|280:86|280:86|214:251,1,337.500012874604,6|0,0:0|0:0,0:0:0:0:
222,227,285108,38,0,L|305:197,1,75,2|0,0:0|0:0,0:0:0:0:
349,54,285244,2,0,L|309:159,1,75,2|0,0:0|0:0,0:0:0:0:
357,337,285381,6,0,L|331:266,1,75,2|0,0:0|0:0,0:0:0:0:
236,1,285517,2,0,L|266:84,1,75,2|0,0:0|0:0,0:0:0:0:
422,142,285653,54,0,L|94:255,1,337.500012874604,6|0,0:0|0:0,0:0:0:0:
97,258,285926,38,0,L|266:278,1,150,8|8,0:0|0:0,0:0:0:0:
236,1,286199,5,8,0:0:0:0:
327,258,286335,1,8,0:0:0:0:
86,342,286472,1,8,0:0:0:0:
128,183,286608,1,8,0:0:0:0:
317,32,286744,54,0,L|278:176,1,150,8|8,0:0|0:0,0:0:0:0:
41,184,287017,37,8,0:0:0:0:
327,258,287153,1,8,0:0:0:0:
201,149,287290,5,2,0:0:0:0:
197,133,287358,1,2,0:0:0:0:
193,118,287426,1,2,0:0:0:0:
189,102,287494,1,2,0:0:0:0:
179,65,287563,53,14,0:0:0:0:
512,87,287835,37,8,0:0:0:0:
435,384,287972,1,8,0:0:0:0:
242,280,288108,1,8,0:0:0:0:
457,232,288244,2,0,L|417:56,1,150,8|8,0:0|0:0,0:0:0:0:
285,24,288517,5,8,0:0:0:0:
360,337,288653,2,0,L|184:377,1,150,8|8,0:0|0:0,0:0:0:0:
85,327,288926,53,8,0:0:0:0:
35,332,288994,1,8,0:0:0:0:
10,319,289063,1,2,0:0:0:0:
0,300,289131,1,2,0:0:0:0:
6,288,289199,38,0,L|83:306,3,75,2|2|2|2,0:0|0:0|0:0|0:0,0:0:0:0:
197,257,289472,5,2,0:0:0:0:
164,240,289540,1,2,0:0:0:0:
155,212,289608,1,2,0:0:0:0:
162,190,289677,1,2,0:0:0:0:
178,175,289745,1,2,0:0:0:0:
183,162,289813,1,2,0:0:0:0:
178,148,289881,1,2,0:0:0:0:
172,143,289949,1,2,0:0:0:0:
166,141,290017,54,0,B|57:117|57:117|182:395,1,360,6|0,0:0|0:0,0:0:0:0:
165,352,290290,37,8,0:0:0:0:
230,79,290426,1,8,0:0:0:0:
369,360,290563,1,8,0:0:0:0:
93,294,290699,1,8,0:0:0:0:
275,165,290835,6,0,L|243:311,1,150,8|8,0:0|0:0,0:0:0:0:
24,349,291108,53,8,0:0:0:0:
328,278,291244,2,0,L|348:184,1,75,2|2,0:0|0:0,0:0:0:0:
165,254,291381,37,8,0:0:0:0:
129,206,291449,1,8,0:0:0:0:
131,147,291517,1,8,0:0:0:0:
170,103,291585,1,8,0:0:0:0:
229,95,291653,5,2,0:0:0:0:
122,384,291790,1,2,0:0:0:0:
0,263,291926,1,2,0:0:0:0:
272,23,292199,53,8,0:0:0:0:
324,280,292335,1,8,0:0:0:0:
215,180,292472,37,8,0:0:0:0:
399,302,292608,1,8,0:0:0:0:
249,323,292744,5,2,0:0:0:0:
205,314,292813,1,2,0:0:0:0:
163,306,292881,1,2,0:0:0:0:
472,246,293017,53,2,0:0:0:0:
480,202,293086,1,2,0:0:0:0:
488,160,293154,1,10,0:0:0:0:
203,182,293290,37,6,0:0:0:0:
143,169,293359,1,10,0:0:0:0:
84,156,293427,1,10,0:0:0:0:
391,209,293563,5,6,0:0:0:0:
403,149,293632,1,10,0:0:0:0:
413,90,293700,1,10,0:0:0:0:
337,340,293835,54,0,L|323:267,1,75,2|2,0:0|0:0,0:0:0:0:
298,123,293972,2,0,L|282:203,1,75,2|2,0:0|0:0,0:0:0:0:
109,305,294108,38,0,L|257:334,1,150,2|2,0:0|0:0,0:0:0:0:
433,371,294381,85,6,0:0:0:0:
488,356,294450,1,10,0:0:0:0:
512,303,294517,1,2,0:0:0:0:
488,251,294585,1,10,0:0:0:0:
433,235,294653,1,2,0:0:0:0:
409,253,294722,1,10,0:0:0:0:
411,280,294790,1,2,0:0:0:0:
426,291,294858,1,10,0:0:0:0:
436,288,294926,6,0,L|471:111,1,150,2|2,0:0|0:0,0:0:0:0:
65,59,295199,2,0,L|100:236,1,150,2|2,0:0|0:0,0:0:0:0:
281,192,295472,101,2,0:0:0:0:
311,210,295540,1,10,0:0:0:0:
318,246,295608,1,2,0:0:0:0:
303,280,295676,1,10,0:0:0:0:
268,294,295745,5,2,0:0:0:0:
262,290,295813,1,10,0:0:0:0:
261,283,295881,1,2,0:0:0:0:
268,276,295949,1,10,0:0:0:0:
274,279,296017,101,2,0:0:0:0:
283,292,296086,1,10,0:0:0:0:
278,318,296154,1,2,0:0:0:0:
251,336,296222,1,10,0:0:0:0:
209,329,296290,1,2,0:0:0:0:
182,286,296358,1,10,0:0:0:0:
130,276,296426,1,2,0:0:0:0:
91,310,296495,1,10,0:0:0:0:
80,353,296563,5,6,0:0:0:0:
86,363,296631,1,10,0:0:0:0:
75,362,296699,2,0,L|40:186,1,150,2|2,0:0|0:0,0:0:0:0:
14,62,296972,1,2,0:0:0:0:
148,287,297108,101,2,0:0:0:0:
185,294,297177,1,10,0:0:0:0:
221,301,297245,1,2,0:0:0:0:
258,309,297313,1,10,0:0:0:0:
295,316,297381,1,2,0:0:0:0:
332,323,297449,1,10,0:0:0:0:
368,331,297517,1,2,0:0:0:0:
243,8,297653,5,2,0:0:0:0:
236,5,297721,1,10,0:0:0:0:
240,0,297789,2,0,L|265:102,1,75,2|10,0:0|0:0,0:0:0:0:
169,63,297926,101,2,0:0:0:0:
162,60,297994,1,10,0:0:0:0:
166,55,298062,2,0,L|191:157,1,75,2|10,0:0|0:0,0:0:0:0:
268,161,298199,5,2,0:0:0:0:
275,158,298267,1,10,0:0:0:0:
271,153,298335,2,0,L|245:255,1,75,2|10,0:0|0:0,0:0:0:0:
167,216,298472,101,2,0:0:0:0:
174,213,298540,1,10,0:0:0:0:
170,208,298608,2,0,L|144:310,1,75,2|10,0:0|0:0,0:0:0:0:
337,244,298744,5,2,0:0:0:0:
386,215,298813,1,10,0:0:0:0:
441,235,298880,1,2,0:0:0:0:
461,289,298948,1,10,0:0:0:0:
433,339,299016,1,2,0:0:0:0:
398,338,299085,1,10,0:0:0:0:
385,321,299153,1,2,0:0:0:0:
389,305,299221,1,10,0:0:0:0:
398,300,299290,102,0,L|438:128,1,172.500003290176,2|2,0:0|0:0,0:0:0:0:
48,53,299563,2,0,L|87:222,1,150,2|2,0:0|0:0,0:0:0:0:
100,307,299835,5,2,0:0:0:0:
135,343,299903,1,10,0:0:0:0:
188,342,299972,1,2,0:0:0:0:
214,295,300040,1,10,0:0:0:0:
197,245,300108,1,2,0:0:0:0:
164,223,300176,1,10,0:0:0:0:
165,183,300244,1,2,0:0:0:0:
194,166,300313,1,10,0:0:0:0:
206,170,300381,101,2,0:0:0:0:
207,162,300450,1,10,0:0:0:0:
213,167,300518,1,2,0:0:0:0:
447,233,300653,5,2,0:0:0:0:
448,225,300722,1,10,0:0:0:0:
454,230,300790,1,2,0:0:0:0:
273,103,300926,102,0,L|364:125,1,75,10|2,0:0|0:0,0:0:0:0:
367,207,301063,2,0,L|275:184,1,75,10|2,0:0|0:0,0:0:0:0:
482,148,301199,6,0,L|499:75,1,75,10|2,0:0|0:0,0:0:0:0:
438,9,301336,2,0,L|416:101,1,75,10|2,0:0|0:0,0:0:0:0:
434,332,301472,102,0,L|359:2,1,337.500012874604,14|0,0:0|0:0,0:0:0:0:
359,2,301744,6,0,B|252:73|285:199|285:199|298:132|369:124,1,337.500012874604,14|0,0:0|0:0,0:0:0:0:
367,207,302017,101,8,0:0:0:0:
340,250,302085,1,8,0:0:0:0:
346,274,302153,1,8,0:0:0:0:
361,284,302222,1,8,0:0:0:0:
371,287,302290,6,0,L|296:271,1,75,2|2,0:0|0:0,0:0:0:0:
321,354,302426,2,0,L|246:338,1,75,2|2,0:0|0:0,0:0:0:0:
267,135,302563,101,2,0:0:0:0:
274,132,302631,1,2,0:0:0:0:
270,127,302699,2,0,L|244:229,1,75,2|2,0:0|0:0,0:0:0:0:
176,160,302835,5,2,0:0:0:0:
183,157,302903,1,2,0:0:0:0:
179,152,302971,2,0,L|153:254,1,75,2|2,0:0|0:0,0:0:0:0:
179,302,303108,101,6,0:0:0:0:
0,252,303244,1,0,0:0:0:0:
253,349,303381,5,2,0:0:0:0:
289,338,303449,1,10,0:0:0:0:
325,328,303517,1,2,0:0:0:0:
361,318,303585,1,10,0:0:0:0:
397,307,303653,102,0,L|445:136,1,150,2|2,0:0|0:0,0:0:0:0:
118,83,303926,2,0,L|77:227,1,150,2|2,0:0|0:0,0:0:0:0:
38,384,304199,5,2,0:0:0:0:
23,342,304267,1,10,0:0:0:0:
53,309,304335,1,2,0:0:0:0:
97,319,304403,1,10,0:0:0:0:
107,338,304472,1,2,0:0:0:0:
99,352,304540,1,10,0:0:0:0:
90,354,304608,1,2,0:0:0:0:
186,145,304744,101,2,0:0:0:0:
171,187,304812,1,10,0:0:0:0:
201,220,304880,1,2,0:0:0:0:
245,210,304948,1,10,0:0:0:0:
255,191,305017,1,2,0:0:0:0:
247,177,305085,1,10,0:0:0:0:
238,175,305153,1,2,0:0:0:0:
405,317,305290,6,0,L|260:357,1,150,6|2,0:0|0:0,0:0:0:0:
341,68,305563,2,0,L|485:27,1,150,2|2,0:0|0:0,0:0:0:0:
370,239,305835,101,2,0:0:0:0:
261,96,305972,1,2,0:0:0:0:
225,85,306040,1,10,0:0:0:0:
189,75,306108,1,2,0:0:0:0:
153,65,306176,1,10,0:0:0:0:
117,54,306244,1,2,0:0:0:0:
311,174,306381,5,2,0:0:0:0:
273,175,306449,1,10,0:0:0:0:
250,204,306517,1,2,0:0:0:0:
247,241,306585,1,10,0:0:0:0:
272,269,306654,101,2,0:0:0:0:
280,269,306722,1,10,0:0:0:0:
285,262,306790,1,2,0:0:0:0:
282,254,306858,1,10,0:0:0:0:
274,253,306926,5,2,0:0:0:0:
298,273,306995,1,10,0:0:0:0:
294,299,307063,1,2,0:0:0:0:
268,318,307131,1,10,0:0:0:0:
225,313,307199,1,2,0:0:0:0:
195,274,307267,1,10,0:0:0:0:
143,267,307335,1,2,0:0:0:0:
106,305,307404,1,10,0:0:0:0:
112,356,307472,102,0,L|71:212,1,150,6|2,0:0|0:0,0:0:0:0:
23,50,307744,1,2,0:0:0:0:
152,181,307881,5,2,0:0:0:0:
162,144,307949,1,10,0:0:0:0:
172,108,308017,1,2,0:0:0:0:
182,72,308085,1,10,0:0:0:0:
193,36,308153,1,2,0:0:0:0:
190,261,308290,102,0,L|334:220,1,150,2|2,0:0|0:0,0:0:0:0:
430,154,308563,5,2,0:0:0:0:
433,161,308631,1,10,0:0:0:0:
438,157,308699,2,0,L|336:132,1,75,2|10,0:0|0:0,0:0:0:0:
271,86,308835,101,2,0:0:0:0:
264,83,308903,1,10,0:0:0:0:
268,78,308971,2,0,L|293:180,1,75,2|10,0:0|0:0,0:0:0:0:
198,249,309108,5,2,0:0:0:0:
30,301,309244,1,2,0:0:0:0:
272,289,309381,101,2,0:0:0:0:
308,300,309449,1,2,0:0:0:0:
344,310,309517,1,2,0:0:0:0:
380,320,309585,1,2,0:0:0:0:
416,331,309653,6,0,L|389:251,1,75,10|2,0:0|0:0,0:0:0:0:
456,215,309790,2,0,L|483:295,1,75,10|2,0:0|0:0,0:0:0:0:
268,174,309926,102,0,L|348:201,1,75,10|2,0:0|0:0,0:0:0:0:
384,134,310063,2,0,L|304:107,1,75,10|2,0:0|0:0,0:0:0:0:
316,384,310199,6,0,L|431:56,1,337.500012874604,14|0,0:0|0:0,0:0:0:0:
431,57,310472,102,0,B|532:165|446:262|446:262|386:242|347:303,1,348.750002660751,14|0,0:0|0:0,0:0:0:0:
421,336,310744,6,0,L|341:309,1,75,2|2,0:0|0:0,0:0:0:0:
309,381,310881,2,0,L|229:354,1,75,2|2,0:0|0:0,0:0:0:0:
112,263,311017,102,0,L|88:334,1,75,2|2,0:0|0:0,0:0:0:0:
151,384,311154,2,0,L|174:312,1,75,2|2,0:0|0:0,0:0:0:0:
332,234,311290,6,0,L|-17:349,1,337.500012874604,2|0,0:0|0:0,0:0:0:0:
4,343,311563,101,2,0:0:0:0:
15,307,311631,1,2,0:0:0:0:
27,271,311699,1,2,0:0:0:0:
39,236,311767,1,2,0:0:0:0:
51,200,311835,22,0,B|5:258|5:258|230:184,1,281.25,6|0,0:0|0:0,0:0:0:0:
210,190,312108,6,0,L|113:163,1,75,2|2,0:0|0:0,0:0:0:0:
0,134,312244,1,8,0:0:0:0:
324,75,312381,54,0,L|286:220,1,150,2|8,0:0|0:0,0:0:0:0:
487,174,312653,1,2,0:0:0:0:
487,174,312722,1,2,0:0:0:0:
487,174,312790,1,8,0:0:0:0:
247,19,312926,38,0,L|189:241,1,225.000008583069,2|8,0:0|0:0,0:0:0:0:
459,370,313199,6,0,L|236:312,1,225.000008583069,2|8,0:0|0:0,0:0:0:0:
2,55,313472,53,6,0:0:0:0:
75,340,313608,1,8,0:0:0:0:
326,72,313744,37,6,0:0:0:0:
286,225,313880,1,8,0:0:0:0:
18,194,314017,6,0,B|135:165|135:165|158:180|158:180|299:143,1,281.25,6|0,0:0|0:0,0:0:0:0:
294,145,314290,2,0,L|184:116,1,93.75,2|2,0:0|0:0,0:0:0:0:
116,248,314426,1,8,0:0:0:0:
104,90,314563,53,2,0:0:0:0:
383,166,314699,2,0,L|424:20,1,150,8|2,0:0|0:0,0:0:0:0:
247,48,314972,1,8,0:0:0:0:
512,0,315108,38,0,L|452:223,1,225.000008583069,6|8,0:0|0:0,0:0:0:0:
203,121,315381,6,0,L|262:344,1,225.000008583069,2|8,0:0|0:0,0:0:0:0:
381,176,315653,53,6,0:0:0:0:
341,322,315790,1,8,0:0:0:0:
263,45,315926,37,6,0:0:0:0:
338,311,316063,1,8,0:0:0:0:
25,161,316199,6,0,B|149:194|149:194|157:220|157:220|282:258,1,281.25,6|0,0:0|0:0,0:0:0:0:
281,257,316472,2,0,L|255:162,1,75,2|2,0:0|0:0,0:0:0:0:
0,243,316608,1,8,0:0:0:0:
45,82,316744,53,2,0:0:0:0:
94,268,316881,1,8,0:0:0:0:
125,62,317017,38,0,L|137:13,2,50,2|2|2,0:0|0:0|0:0,0:0:0:0:
103,139,317153,1,8,0:0:0:0:
307,115,317290,6,0,L|453:76,1,150,2|8,0:0|0:0,0:0:0:0:
374,372,317563,2,0,L|228:333,1,150,2|8,0:0|0:0,0:0:0:0:
234,76,317835,53,6,0:0:0:0:
283,265,317972,1,8,0:0:0:0:
432,115,318108,37,6,0:0:0:0:
367,359,318245,1,8,0:0:0:0:
468,192,318381,6,0,L|446:274,1,75,2|2,0:0|0:0,0:0:0:0:
367,280,318517,2,0,L|389:198,1,75,10|2,0:0|0:0,0:0:0:0:
227,69,318653,54,0,L|249:151,1,75,2|2,0:0|0:0,0:0:0:0:
328,157,318789,2,0,L|306:75,1,75,10|2,0:0|0:0,0:0:0:0:
176,236,318926,38,0,B|314:199|314:199|331:204|331:204|507:153,1,337.500012874604,2|0,0:0|0:0,0:0:0:0:
507,152,319199,6,0,B|548:70|427:32|375:132|433:236|433:236|417:207|356:191,1,337.500012874604,2|0,0:0|0:0,0:0:0:0:
367,280,319472,53,0,0:0:0:0:
307,279,319540,1,8,0:0:0:0:
291,315,319608,1,8,0:0:0:0:
307,333,319676,1,8,0:0:0:0:
314,329,319744,38,0,L|232:307,1,75,2|2,0:0|0:0,0:0:0:0:
18,250,319881,2,0,L|90:269,1,75,2|2,0:0|0:0,0:0:0:0:
61,351,320017,5,8,0:0:0:0:
118,368,320085,1,8,0:0:0:0:
178,384,320153,2,0,L|150:284,1,75,2|2,0:0|0:0,0:0:0:0:
195,229,320290,53,2,0:0:0:0:
202,232,320358,1,2,0:0:0:0:
198,237,320426,2,0,L|170:137,1,75,2|2,0:0|0:0,0:0:0:0:
130,0,320563,1,6,0:0:0:0:
259,149,320699,38,0,L|26:83,1,187.5,8|2,0:0|0:0,0:0:0:0:
69,95,320903,1,2,0:0:0:0:
59,92,320972,1,8,0:0:0:0:
252,60,321108,5,2,0:0:0:0:
301,226,321244,2,0,L|487:173,1,150,8|2,0:0|0:0,0:0:0:0:
454,182,321449,1,2,0:0:0:0:
464,178,321517,1,8,0:0:0:0:
224,315,321653,54,0,L|159:86,1,225.000008583069,2|8,0:0|0:0,0:0:0:0:
385,244,321926,38,0,L|450:15,1,225.000008583069,2|8,0:0|0:0,0:0:0:0:
259,149,322199,5,6,0:0:0:0:
85,101,322335,1,8,0:0:0:0:
336,111,322472,53,6,0:0:0:0:
61,186,322608,1,8,0:0:0:0:
366,36,322744,38,0,B|408:95|408:95|142:15,1,281.25,6|0,0:0|0:0,0:0:0:0:
200,31,323017,2,0,L|290:7,1,75,2|2,0:0|0:0,0:0:0:0:
213,217,323153,1,8,0:0:0:0:
483,75,323290,5,2,0:0:0:0:
256,140,323426,1,8,0:0:0:0:
445,198,323563,54,0,L|468:121,2,50,2|2|2,0:0|0:0|0:0,0:0:0:0:
424,274,323699,1,8,0:0:0:0:
276,19,323835,38,0,L|339:235,1,225.000008583069,6|8,0:0|0:0,0:0:0:0:
89,374,324108,6,0,L|305:311,1,225.000008583069,2|8,0:0|0:0,0:0:0:0:
390,120,324381,53,6,0:0:0:0:
333,384,324518,1,8,0:0:0:0:
175,113,324653,37,6,0:0:0:0:
219,278,324789,1,8,0:0:0:0:
114,63,324926,6,0,B|43:104|43:104|240:162,1,281.25,6|0,0:0|0:0,0:0:0:0:
243,165,325199,2,0,L|163:214,1,89.9999972534181,2|2,0:0|0:0,0:0:0:0:
222,43,325335,1,8,0:0:0:0:
72,252,325472,53,2,0:0:0:0:
6,32,325608,1,8,0:0:0:0:
137,294,325744,38,0,L|114:371,2,50,2|2|2,0:0|0:0|0:0,0:0:0:0:
158,218,325880,1,8,0:0:0:0:
430,234,326017,6,0,L|214:297,1,225.000008583069,6|8,0:0|0:0,0:0:0:0:
9,36,326290,54,0,L|72:252,1,225.000008583069,6|8,0:0|0:0,0:0:0:0:
53,381,326563,37,6,0:0:0:0:
121,144,326699,1,8,0:0:0:0:
276,265,326835,5,6,0:0:0:0:
205,18,326971,1,8,0:0:0:0:
207,165,327108,54,0,L|177:62,1,75,2|2,0:0|0:0,0:0:0:0:
276,122,327244,2,0,L|306:225,1,75,10|2,0:0|0:0,0:0:0:0:
150,248,327381,38,0,L|180:351,1,75,2|2,0:0|0:0,0:0:0:0:
81,293,327517,2,0,L|51:190,1,75,10|2,0:0|0:0,0:0:0:0:
33,133,327653,6,0,L|357:229,1,337.500012874604,2|0,0:0|0:0,0:0:0:0:
442,253,327926,53,8,0:0:0:0:
425,195,327994,1,8,0:0:0:0:
408,138,328062,1,8,0:0:0:0:
391,80,328130,1,8,0:0:0:0:
375,23,328199,38,0,B|492:-12|492:-12|409:277,1,337.500012874604,6|0,0:0|0:0,0:0:0:0:
512,187,328472,6,0,B|386:149|386:149|374:107|374:107|171:44,1,346.499993126679,6|0,0:0|0:0,0:0:0:0:
204,56,328744,54,0,L|230:141,1,75,2|0,0:0|0:0,0:0:0:0:
303,131,328881,2,0,L|324:202,1,75,2|0,0:0|0:0,0:0:0:0:
174,225,329017,38,0,L|245:203,1,75,2|0,0:0|0:0,0:0:0:0:
423,255,329153,2,0,L|351:276,1,75,2|0,0:0|0:0,0:0:0:0:
90,251,329290,5,2,0:0:0:0:
93,242,329358,1,2,0:0:0:0:
85,246,329426,2,0,L|275:302,1,187.5,8|8,0:0|0:0,0:0:0:0:
195,60,329699,2,0,L|51:17,1,150,8|8,0:0|0:0,0:0:0:0:
12,181,329972,53,8,0:0:0:0:
267,103,330108,1,8,0:0:0:0:
116,59,330244,1,8,0:0:0:0:
196,140,330381,37,8,0:0:0:0:
485,49,330517,1,8,0:0:0:0:
313,171,330653,1,8,0:0:0:0:
266,22,330790,1,8,0:0:0:0:
382,235,330926,5,2,0:0:0:0:
376,251,330994,1,2,0:0:0:0:
372,266,331062,1,2,0:0:0:0:
367,281,331130,1,2,0:0:0:0:
356,318,331199,53,14,0:0:0:0:
146,298,331472,37,8,0:0:0:0:
414,384,331608,1,8,0:0:0:0:
322,171,331744,1,8,0:0:0:0:
284,270,331881,1,8,0:0:0:0:
102,366,332017,5,8,0:0:0:0:
10,153,332153,1,8,0:0:0:0:
235,205,332290,2,0,L|278:349,1,150,8|8,0:0|0:0,0:0:0:0:
147,197,332563,53,2,0:0:0:0:
157,161,332631,1,2,0:0:0:0:
168,125,332699,1,2,0:0:0:0:
179,89,332767,1,2,0:0:0:0:
189,53,332835,38,0,L|215:140,1,75,2|2,0:0|0:0,0:0:0:0:
27,70,332972,2,0,L|114:96,1,75,2|2,0:0|0:0,0:0:0:0:
297,75,333108,5,2,0:0:0:0:
300,114,333176,1,2,0:0:0:0:
324,132,333244,1,2,0:0:0:0:
346,129,333313,1,2,0:0:0:0:
363,115,333381,1,2,0:0:0:0:
376,111,333449,1,2,0:0:0:0:
390,118,333517,1,2,0:0:0:0:
394,124,333585,1,2,0:0:0:0:
392,131,333654,54,0,B|449:74|449:74|154:154,1,360,6|0,0:0|0:0,0:0:0:0:
170,150,333926,38,0,L|251:174,1,75,8|0,0:0|0:0,0:0:0:0:
389,210,334063,2,0,L|346:354,1,150,8|8,0:0|0:0,0:0:0:0:
196,361,334335,5,8,0:0:0:0:
447,286,334472,2,0,L|490:142,1,150,8|8,0:0|0:0,0:0:0:0:
313,190,334744,53,8,0:0:0:0:
51,118,334881,1,8,0:0:0:0:
115,326,335017,1,8,0:0:0:0:
248,287,335153,1,8,0:0:0:0:
126,84,335290,37,2,0:0:0:0:
132,68,335358,1,2,0:0:0:0:
136,53,335426,1,2,0:0:0:0:
141,38,335494,1,2,0:0:0:0:
152,1,335563,5,14,0:0:0:0:
512,384,335835,53,8,0:0:0:0:
421,85,335971,1,8,0:0:0:0:
483,140,336108,37,8,0:0:0:0:
278,31,336244,1,8,0:0:0:0:
487,43,336381,5,8,0:0:0:0:
340,84,336517,1,8,0:0:0:0:
155,141,336653,53,8,0:0:0:0:
97,123,336721,1,8,0:0:0:0:
40,106,336790,2,0,L|71:212,1,75,8|8,0:0|0:0,0:0:0:0:
224,283,336926,37,14,0:0:0:0:
281,266,336994,1,8,0:0:0:0:
338,249,337062,1,8,0:0:0:0:
396,232,337130,1,8,0:0:0:0:
453,215,337199,6,0,B|491:282|491:282|154:180,1,360,6|0,0:0|0:0,0:0:0:0:
210,196,337472,54,0,L|297:168,1,75,2|0,0:0|0:0,0:0:0:0:
406,134,337608,2,0,L|334:111,1,75,2|0,0:0|0:0,0:0:0:0:
238,27,337744,38,0,L|260:98,1,75,2|0,0:0|0:0,0:0:0:0:
331,273,337881,2,0,L|353:201,1,75,2|0,0:0|0:0,0:0:0:0:
146,254,338017,85,2,0:0:0:0:
97,283,338086,1,10,0:0:0:0:
42,263,338153,1,2,0:0:0:0:
22,209,338221,1,10,0:0:0:0:
50,159,338289,1,2,0:0:0:0:
101,146,338358,1,10,0:0:0:0:
131,103,338426,1,2,0:0:0:0:
118,52,338494,1,10,0:0:0:0:
67,35,338563,5,2,0:0:0:0:
78,86,338631,1,10,0:0:0:0:
122,113,338699,1,2,0:0:0:0:
174,112,338767,1,10,0:0:0:0:
211,74,338835,1,2,0:0:0:0:
262,81,338903,1,10,0:0:0:0:
286,128,338972,1,2,0:0:0:0:
269,177,339040,1,10,0:0:0:0:
218,190,339108,101,2,0:0:0:0:
241,160,339176,1,10,0:0:0:0:
278,160,339244,1,2,0:0:0:0:
297,177,339313,1,10,0:0:0:0:
309,185,339381,1,2,0:0:0:0:
313,204,339449,1,10,0:0:0:0:
339,208,339517,1,2,0:0:0:0:
349,203,339585,1,10,0:0:0:0:
355,196,339653,6,0,L|264:168,1,75,2|10,0:0|0:0,0:0:0:0:
51,101,339790,2,0,L|79:192,1,75,2|10,0:0|0:0,0:0:0:0:
187,150,339926,101,2,0:0:0:0:
206,204,339994,1,10,0:0:0:0:
224,261,340062,1,2,0:0:0:0:
240,319,340130,1,10,0:0:0:0:
258,378,340199,6,0,B|216:375|216:375|123:75,1,337.500012874604,6|0,0:0|0:0,0:0:0:0:
97,21,340472,102,0,B|97:-16|97:-16|119:17,1,75,2|10,0:0|0:0,0:0:0:0:
0,228,340608,2,0,L|149:272,1,150,2|2,0:0|0:0,0:0:0:0:
205,65,340881,5,2,0:0:0:0:
390,8,341017,1,2,0:0:0:0:
389,0,341086,1,10,0:0:0:0:
383,5,341154,1,2,0:0:0:0:
409,224,341290,101,2,0:0:0:0:
407,282,341358,1,10,0:0:0:0:
353,306,341426,1,2,0:0:0:0:
301,289,341495,1,10,0:0:0:0:
287,253,341563,1,2,0:0:0:0:
266,241,341631,1,10,0:0:0:0:
248,246,341699,1,2,0:0:0:0:
242,260,341767,1,10,0:0:0:0:
246,276,341835,5,2,0:0:0:0:
282,268,341903,1,10,0:0:0:0:
306,285,341971,1,2,0:0:0:0:
316,305,342040,1,10,0:0:0:0:
310,324,342108,1,2,0:0:0:0:
315,341,342176,1,10,0:0:0:0:
326,348,342244,1,2,0:0:0:0:
336,344,342312,1,10,0:0:0:0:
332,335,342381,102,0,B|394:250|394:250|149:320,1,360,6|0,0:0|0:0,0:0:0:0:
139,323,342653,6,0,L|166:228,1,75,2|10,0:0|0:0,0:0:0:0:
199,124,342790,2,0,L|246:278,1,150,2|2,0:0|0:0,0:0:0:0:
175,0,343063,101,2,0:0:0:0:
121,180,343199,1,2,0:0:0:0:
122,172,343267,1,10,0:0:0:0:
128,177,343336,1,2,0:0:0:0:
245,53,343472,5,2,0:0:0:0:
317,304,343608,1,2,0:0:0:0:
323,300,343676,1,10,0:0:0:0:
324,307,343744,2,0,L|471:265,1,150,2|2,0:0|0:0,0:0:0:0:
316,108,344017,102,0,L|288:200,1,75,2|10,0:0|0:0,0:0:0:0:
247,353,344153,2,0,L|154:325,1,75,2|10,0:0|0:0,0:0:0:0:
104,280,344290,5,2,0:0:0:0:
88,226,344358,1,10,0:0:0:0:
72,172,344426,1,2,0:0:0:0:
56,118,344494,1,10,0:0:0:0:
40,64,344562,101,2,0:0:0:0:
385,158,344699,1,2,0:0:0:0:
313,33,344835,5,2,0:0:0:0:
458,289,344972,1,2,0:0:0:0:
459,205,345108,101,2,0:0:0:0:
414,362,345245,1,2,0:0:0:0:
455,194,345381,6,0,L|499:45,1,150,2|2,0:0|0:0,0:0:0:0:
163,84,345653,101,10,0:0:0:0:
105,68,345721,1,8,0:0:0:0:
47,51,345790,2,0,L|68:122,1,75,8|8,0:0|0:0,0:0:0:0:
269,191,345926,1,10,0:0:0:0:
327,175,345994,1,8,0:0:0:0:
385,158,346063,2,0,L|363:229,1,75,8|8,0:0|0:0,0:0:0:0:
14,184,346199,6,0,L|86:206,1,75,2|0,0:0|0:0,0:0:0:0:
292,271,346335,2,0,L|313:343,1,75,2|0,0:0|0:0,0:0:0:0:
418,63,346472,102,0,L|346:85,1,75,2|0,0:0|0:0,0:0:0:0:
245,384,346608,2,0,L|202:240,1,150,6|0,0:0|0:0,0:0:0:0:
