osu file format v14

[General]
AudioFilename: audio.mp3
AudioLeadIn: 0
PreviewTime: 213397
Countdown: 0
SampleSet: Normal
StackLeniency: 0.7
Mode: 0
LetterboxInBreaks: 0
WidescreenStoryboard: 1

[Editor]
Bookmarks: 218731
DistanceSpacing: 1.2
BeatDivisor: 4
GridSize: 4
TimelineZoom: 1

[Metadata]
Title:Acid Wolfpack
TitleUnicode:Acid Wolfpack
Artist:Coyote Kisses
ArtistUnicode:Coyote Kisses
Creator:RikiH_
Version:Aggressive
Source:
Tags:Dubstep Electronic EDM Marathon
BeatmapID:1365117
BeatmapSetID:476719

[Difficulty]
HPDrainRate:6
CircleSize:4
OverallDifficulty:8
ApproachRate:9.5
SliderMultiplier:2
SliderTickRate:1

[Events]
//Background and Video events
0,0,"fg.jpg",0,0
//Break Periods
//Storyboard Layer 0 (Background)
//Storyboard Layer 1 (Fail)
//Storyboard Layer 2 (Pass)
//Storyboard Layer 3 (Foreground)
//Storyboard Sound Samples

[TimingPoints]
21398,333.333333333333,4,1,1,50,1,0
48064,-200,4,2,1,50,0,0
50564,-200,4,2,1,5,0,0
50731,-200,4,2,1,50,0,0
53231,-200,4,2,1,5,0,0
53397,-200,4,2,1,50,0,0
55897,-200,4,2,1,5,0,0
56064,-200,4,2,1,50,0,0
58731,-100,4,1,1,40,0,0
64064,-66.6666666666667,4,1,1,70,0,1
69897,-100,4,1,1,70,0,1
70397,-66.6666666666667,4,1,1,70,0,1
70897,-100,4,1,1,70,0,1
71397,-66.6666666666667,4,1,1,70,0,1
74064,-200,4,1,1,70,0,0
74314,-200,4,2,1,5,0,0
74397,-200,4,1,1,70,0,0
74647,-200,4,2,1,5,0,0
74731,-66.6666666666667,4,1,1,70,0,1
87397,-200,4,1,1,70,0,0
87731,-200,4,2,1,5,0,0
88064,-66.6666666666667,4,1,1,70,0,1
88564,-100,4,1,1,70,0,1
89064,-66.6666666666667,4,1,1,70,0,1
89564,-100,4,1,1,70,0,1
90064,-66.6666666666667,4,1,1,70,0,1
95397,-200,4,1,1,70,0,0
95647,-200,4,2,1,5,0,0
95731,-200,4,1,1,70,0,0
95814,-200,4,2,1,5,0,0
95897,-200,4,1,1,70,0,0
95981,-200,4,2,1,5,0,0
96064,-66.6666666666667,4,1,1,70,0,1
106731,-100,4,1,1,40,0,0
122064,-200,4,1,1,40,0,0
122397,-400,4,1,1,40,0,0
122731,-100,4,1,1,40,0,0
127397,-200,4,1,1,40,0,0
127731,-50,4,1,1,40,0,0
127772,-50,4,2,1,5,0,0
128064,-66.6666666666667,4,1,1,70,0,1
138064,-200,4,1,1,70,0,0
138731,-66.6666666666667,4,1,1,70,0,1
149397,-200,4,2,1,50,0,0
202731,-133.333333333333,4,1,1,35,0,0
208064,-100,4,1,1,45,0,0
213064,-80,4,2,1,50,0,0
213397,-66.6666666666667,4,1,1,70,0,1
218397,-200,4,1,1,70,0,0
218731,-66.6666666666667,4,1,1,70,0,1
219231,-57.1428571428571,4,1,1,70,0,1
219731,-66.6666666666667,4,1,1,70,0,1
220231,-57.1428571428571,4,1,1,70,0,1
220731,-66.6666666666667,4,1,1,70,0,1
223397,-200,4,1,1,70,0,0
223647,-200,4,2,1,5,0,0
223731,-200,4,1,1,70,0,0
223981,-200,4,2,1,5,0,0
224064,-66.6666666666667,4,1,1,70,0,1
238731,-200,4,1,1,50,0,0
240064,-66.6666666666667,4,1,1,70,0,1
240564,-57.1428571428571,4,1,1,70,0,1
241064,-66.6666666666667,4,1,1,70,0,1
241564,-57.1428571428571,4,1,1,70,0,1
242064,-66.6666666666667,4,1,1,70,0,1
244731,-200,4,1,1,70,0,0
244981,-200,4,2,1,5,0,0
245064,-200,4,1,1,70,0,0
245314,-200,4,2,1,5,0,0
245397,-66.6666666666667,4,1,1,70,0,1
254731,-200,4,1,1,70,0,0
256064,-66.6666666666667,4,1,1,70,0,1
258064,-200,4,1,1,70,0,0
258397,-200,4,2,1,5,0,0
258731,-66.6666666666667,4,1,1,70,0,1
259231,-100,4,1,1,70,0,1
259731,-66.6666666666667,4,1,1,70,0,1
260231,-100,4,1,1,70,0,1
260731,-66.6666666666667,4,1,1,70,0,1
266064,-200,4,1,1,70,0,0
266314,-200,4,2,1,5,0,0
266397,-200,4,1,1,70,0,0
266481,-200,4,2,1,5,0,0
266564,-200,4,1,1,70,0,0
266647,-200,4,2,1,5,0,0
266731,-66.6666666666667,4,1,1,70,0,1
276397,-200,4,1,1,70,0,0
277314,-200,4,2,1,5,0,0
277397,-100,4,1,1,40,0,1
277481,-100,4,1,1,40,0,0
298064,-200,4,1,1,50,0,0
298564,-200,4,2,1,5,0,0
298731,-200,4,2,1,15,0,0
320064,-50,4,2,1,15,0,0
324064,-200,4,2,1,10,0,0
325397,-200,4,2,1,9,0,0
326731,-200,4,2,1,8,0,0
328064,-200,4,2,1,7,0,0
329397,-200,4,2,1,6,0,0
330731,-200,4,2,1,5,0,0

[Colours]
Combo1 : 171,31,224
Combo2 : 75,166,239
Combo3 : 34,149,103
Combo4 : 9,168,160

[HitObjects]
22,73,21398,6,0,P|88:40|150:53,1,133.333333333333,4|0,0:0|0:0,0:0:0:0:
230,123,21731,2,0,P|294:131|352:100,1,133.333333333333,0|0,0:0|0:0,0:0:0:0:
437,25,22064,2,0,L|465:175,1,133.333333333333,8|0,0:0|0:0,0:0:0:0:
340,339,22398,2,0,L|368:189,1,133.333333333333,0|0,0:0|0:0,0:0:0:0:
258,247,22731,6,0,P|193:273|115:257,1,133.333333333333,2|0,0:0|0:0,0:0:0:0:
115,152,23064,2,0,P|180:126|258:142,1,133.333333333333,0|0,0:0|0:0,0:0:0:0:
346,90,23397,2,0,L|486:78,1,133.333333333333,8|0,0:0|0:0,0:0:0:0:
253,26,23731,2,0,L|113:14,1,133.333333333333,0|0,0:0|0:0,0:0:0:0:
43,97,24064,6,0,P|22:164|39:227,1,133.333333333333,4|0,0:0|0:0,0:0:0:0:
127,293,24397,2,0,L|272:284,1,133.333333333333,0|0,0:0|0:0,0:0:0:0:
368,251,24731,2,0,P|434:262|484:320,1,133.333333333333,8|0,0:0|0:0,0:0:0:0:
384,369,25064,1,0,0:0:0:0:
286,167,25286,1,0,0:0:0:0:
358,81,25397,6,0,P|432:68|494:78,1,133.333333333333,2|0,0:0|0:0,0:0:0:0:
233,61,25731,2,0,P|159:48|97:58,1,133.333333333333
38,150,26064,2,0,L|48:289,1,133.333333333333,8|0,0:0|0:0,0:0:0:0:
150,333,26397,2,0,L|159:200,1,133.333333333333,0|0,0:0|0:0,0:0:0:0:
240,120,26731,6,0,P|297:165|363:167,1,133.333333333333,4|0,0:0|0:0,0:0:0:0:
405,67,27064,2,0,P|348:22|282:20,1,133.333333333333,0|0,0:0|0:0,0:0:0:0:
332,205,27397,2,0,P|358:272|415:307,1,133.333333333333,8|0,0:0|0:0,0:0:0:0:
502,242,27731,2,0,P|475:174|418:139,1,133.333333333333,0|0,0:0|0:0,0:0:0:0:
302,156,28064,6,0,P|234:214|186:218,1,133.333333333333,2|0,0:0|0:0,0:0:0:0:
89,169,28397,2,0,L|70:36,1,133.333333333333,0|0,0:0|0:0,0:0:0:0:
180,11,28731,2,0,P|253:34|328:30,1,133.333333333333,8|0,0:0|0:0,0:0:0:0:
409,85,29064,2,0,B|422:160|422:160|402:226,1,133.333333333333,0|0,0:0|0:0,0:0:0:0:
351,316,29397,6,0,B|404:354|404:354|460:314,1,133.333333333333,4|0,0:0|0:0,0:0:0:0:
296,227,29731,2,0,P|217:220|155:235,1,133.333333333333,0|0,0:0|0:0,0:0:0:0:
74,162,30064,2,0,P|145:128|192:84,1,133.333333333333,8|0,0:0|0:0,0:0:0:0:
286,39,30397,1,0,0:0:0:0:
60,16,30620,1,0,0:0:0:0:
39,127,30731,6,0,B|50:184|50:184|25:279,1,133.333333333333,2|0,0:0|0:0,0:0:0:0:
115,332,31064,2,0,B|104:275|104:275|129:180,1,133.333333333333,0|0,0:0|0:0,0:0:0:0:
204,122,31397,2,0,P|285:97|341:106,1,133.333333333333,8|0,0:0|0:0,0:0:0:0:
419,174,31731,2,0,L|430:309,1,133.333333333333,0|0,0:0|0:0,0:0:0:0:
320,326,32064,6,0,B|287:297|287:297|280:199,1,133.333333333333,4|0,0:0|0:0,0:0:0:0:
204,122,32397,2,0,B|171:93|171:93|164:-5,1,133.333333333333,0|0,0:0|0:0,0:0:0:0:
77,76,32731,2,0,B|82:147|82:147|42:204,1,133.333333333333,8|0,0:0|0:0,0:0:0:0:
89,302,33064,2,0,P|170:286|224:248,1,133.333333333333,0|0,0:0|0:0,0:0:0:0:
308,321,33397,6,0,P|386:347|451:341,1,133.333333333333,2|0,0:0|0:0,0:0:0:0:
314,213,33731,2,0,B|337:181|337:181|329:85,1,133.333333333333,0|0,0:0|0:0,0:0:0:0:
231,30,34064,2,0,B|208:62|208:62|216:158,1,133.333333333333,8|0,0:0|0:0,0:0:0:0:
216,269,34397,2,0,P|165:324|88:330,1,133.333333333333,0|0,0:0|0:0,0:0:0:0:
36,247,34731,6,0,L|22:108,1,133.333333333333,4|0,0:0|0:0,0:0:0:0:
136,14,35064,2,0,L|122:146,1,133.333333333333,0|0,0:0|0:0,0:0:0:0:
200,230,35397,2,0,P|268:244|332:221,1,133.333333333333,8|0,0:0|0:0,0:0:0:0:
413,151,35731,1,0,0:0:0:0:
221,29,35953,1,0,0:0:0:0:
114,67,36064,6,0,P|79:131|89:190,1,133.333333333333,2|0,0:0|0:0,0:0:0:0:
170,267,36397,2,0,L|309:257,1,133.333333333333,0|0,0:0|0:0,0:0:0:0:
382,176,36731,2,0,P|417:244|404:309,1,133.333333333333,8|0,0:0|0:0,0:0:0:0:
480,142,37064,2,0,L|469:9,1,133.333333333333,0|0,0:0|0:0,0:0:0:0:
370,67,37397,6,0,P|304:85|225:64,1,133.333333333333,4|0,0:0|0:0,0:0:0:0:
137,28,37731,2,0,L|103:169,1,133.333333333333,0|0,0:0|0:0,0:0:0:0:
246,314,38064,2,0,L|215:185,1,133.333333333333,8|0,0:0|0:0,0:0:0:0:
357,340,38397,2,0,P|448:315|478:277,1,133.333333333333,0|0,0:0|0:0,0:0:0:0:
475,174,38731,6,0,P|444:108|454:42,1,133.333333333333,2|0,0:0|0:0,0:0:0:0:
343,13,39064,2,0,P|310:77|252:115,1,133.333333333333,0|0,0:0|0:0,0:0:0:0:
171,183,39397,2,0,B|150:225|150:225|160:325,1,133.333333333333,8|0,0:0|0:0,0:0:0:0:
271,348,39731,2,0,B|292:306|292:306|282:206,1,133.333333333333,0|0,0:0|0:0,0:0:0:0:
171,183,40064,6,0,P|108:148|89:80,1,133.333333333333,4|0,0:0|0:0,0:0:0:0:
172,16,40397,2,0,P|235:51|254:119,1,133.333333333333,0|0,0:0|0:0,0:0:0:0:
283,220,40731,2,0,P|310:288|383:326,1,133.333333333333,8|0,0:0|0:0,0:0:0:0:
394,214,41064,1,0,0:0:0:0:
189,337,41286,1,0,0:0:0:0:
84,291,41397,6,0,L|53:156,1,133.333333333333,2|0,0:0|0:0,0:0:0:0:
152,217,41731,2,0,L|192:84,1,133.333333333333,0|0,0:0|0:0,0:0:0:0:
252,185,42064,2,0,L|353:90,1,133.333333333333,8|0,0:0|0:0,0:0:0:0:
351,208,42397,2,0,L|486:177,1,133.333333333333,0|0,0:0|0:0,0:0:0:0:
419,272,42731,6,0,B|353:287|353:287|314:346,1,133.333333333333,4|0,0:0|0:0,0:0:0:0:
250,250,43064,2,0,B|213:195|213:195|147:180,1,133.333333333333,0|0,0:0|0:0,0:0:0:0:
78,89,43397,2,0,P|129:41|199:26,1,133.333333333333,8|0,0:0|0:0,0:0:0:0:
287,82,43731,2,0,L|426:73,1,133.333333333333
479,169,44064,6,0,P|499:238|480:304,1,133.333333333333,2|0,0:0|0:0,0:0:0:0:
391,362,44397,2,0,P|325:339|260:352,1,133.333333333333,0|0,0:0|0:0,0:0:0:0:
171,284,44731,2,0,L|163:148,1,133.333333333333,8|0,0:0|0:0,0:0:0:0:
274,69,45064,2,0,L|266:202,1,133.333333333333,0|0,0:0|0:0,0:0:0:0:
364,260,45397,6,0,P|434:266|495:232,1,133.333333333333,4|0,0:0|0:0,0:0:0:0:
490,124,45731,2,0,P|420:118|359:152,1,133.333333333333,0|0,0:0|0:0,0:0:0:0:
266,202,46064,6,0,B|205:166|109:178|109:178|116:194|158:208,1,200,8|0,0:0|0:0,0:0:0:0:
275,98,46564,2,0,P|210:82|172:78,1,100,8|0,0:0|0:0,0:0:0:0:
404,332,47064,6,0,P|368:284|363:193,1,133.333333333333,8|0,0:0|0:0,0:0:0:0:
177,196,47397,2,0,P|236:188|317:229,1,133.333333333333,8|0,0:0|0:0,0:0:0:0:
407,69,47731,2,0,P|383:124|307:174,1,133.333333333333,8|0,0:0|0:0,0:0:0:0:
241,92,48064,6,0,B|204:64|135:58|85:75|85:75|65:93|41:93|26:80|23:54|30:36|52:33|72:38|83:52|85:76|85:76|55:127|57:181|57:181|81:229|88:275|80:311|80:311|67:337|37:342|11:315|25:278|67:278|80:311|80:311|110:338|145:329,1,750,4|0,0:0|0:0,0:0:0:0:
216,364,50731,6,0,B|268:360|314:344|314:344|366:348|414:364|414:364|466:331|510:293|525:238|522:180|498:130|462:102|419:84|361:86|316:114|299:160|297:200|312:242|356:256,1,750,4|0,0:0|0:0,0:0:0:0:
281,201,53397,6,0,B|288:162|297:137|311:118|332:100|359:86|388:80|423:82|448:89|473:105|497:125|497:125|494:68|452:22|452:22|415:14|383:12|348:18|315:26|283:45|260:64|240:90|226:115|217:139|209:169|206:196|208:217,1,750,4|0,0:0|0:0,0:0:0:0:
249,277,56064,6,0,B|330:228|305:126|241:62|115:99|104:191|134:245|134:245|114:301|85:327|85:327|32:275|16:218|26:168|37:144|37:144|17:113|21:77,1,750,4|0,0:0|0:0,0:0:0:0:
74,18,58731,5,6,0:0:0:0:
87,32,58814,1,0,0:0:0:0:
104,42,58897,1,0,0:0:0:0:
122,49,58981,1,0,0:0:0:0:
141,53,59064,1,0,0:0:0:0:
160,52,59147,1,0,0:0:0:0:
179,45,59231,1,0,0:0:0:0:
196,36,59314,1,0,0:0:0:0:
211,23,59397,5,2,0:0:0:0:
208,53,59481,1,0,0:0:0:0:
205,82,59564,1,0,0:0:0:0:
202,111,59647,1,0,0:0:0:0:
199,141,59731,1,0,0:0:0:0:
197,170,59814,1,0,0:0:0:0:
195,199,59897,1,0,0:0:0:0:
193,229,59981,1,0,0:0:0:0:
175,275,60064,5,2,0:0:0:0:
207,305,60147,1,0,0:0:0:0:
251,313,60231,1,0,0:0:0:0:
291,293,60314,1,0,0:0:0:0:
335,309,60397,5,2,0:0:0:0:
365,277,60481,1,0,0:0:0:0:
373,233,60564,1,0,0:0:0:0:
353,193,60647,1,0,0:0:0:0:
371,147,60731,5,2,0:0:0:0:
339,117,60814,1,0,0:0:0:0:
295,109,60898,1,0,0:0:0:0:
255,129,60981,1,0,0:0:0:0:
211,113,61064,5,2,0:0:0:0:
181,145,61148,1,0,0:0:0:0:
173,189,61231,1,0,0:0:0:0:
193,229,61314,1,0,0:0:0:0:
175,275,61397,6,0,P|170:297|159:326,1,50,2|0,0:0|0:0,0:0:0:0:
335,309,61564,2,0,P|357:314|386:325,1,50,2|0,0:0|0:0,0:0:0:0:
371,147,61731,2,0,P|376:125|387:96,1,50,2|0,0:0|0:0,0:0:0:0:
211,113,61897,2,0,P|189:108|160:97,1,50,2|0,0:0|0:0,0:0:0:0:
175,275,62064,5,2,0:0:0:0:
177,329,62147,1,2,0:0:0:0:
216,368,62231,1,2,0:0:0:0:
269,380,62314,1,2,0:0:0:0:
323,371,62397,5,2,0:0:0:0:
307,312,62481,1,2,0:0:0:0:
325,255,62564,1,2,0:0:0:0:
375,222,62647,1,2,0:0:0:0:
433,236,62731,5,2,0:0:0:0:
294,165,64064,6,0,B|216:174|172:196|172:196|94:241|39:190|47:135|83:90|116:85|161:103|186:133|172:196|172:196|187:227|196:259|196:259|229:243|285:240,1,600.000022888185,4|8,0:0|0:0,0:0:0:0:
363,273,64842,2,0,P|400:257|466:263,1,100.000003814697
472,359,65064,2,0,P|435:375|369:369,1,100.000003814697,2|0,0:0|0:0,0:0:0:0:
281,341,65286,1,0,0:0:0:0:
266,242,65397,1,2,0:0:0:0:
308,36,65620,5,0,0:0:0:0:
321,29,65675,1,0,0:0:0:0:
334,22,65731,2,0,L|445:32,2,100.000003814697,0|0|0,0:0|0:0|0:0,0:0:0:0:
227,40,66064,2,0,L|-5:73,1,225.000008583069,8|0,0:0|0:0,0:0:0:0:
55,12,66397,2,0,B|92:47|89:94|66:123|66:123|86:158|75:210|75:210|62:201|62:176,1,200.000007629395,0|0,0:0|0:0,0:0:0:0:
17,278,66731,6,0,B|77:314|158:306|185:220|178:191|178:191|150:243|190:304|252:315|293:303|293:303|297:311|297:311|297:300|297:300|326:269|372:264|372:264|375:258|375:258|377:265|377:265|392:291|438:318,1,600.000022888185,2|8,0:0|0:0,0:0:0:0:
503,355,67509,1,0,0:0:0:0:
503,255,67620,1,0,0:0:0:0:
442,175,67731,5,0,0:0:0:0:
448,137,67842,1,0,0:0:0:0:
454,98,67953,1,0,0:0:0:0:
378,32,68064,5,0,0:0:0:0:
279,49,68175,1,0,0:0:0:0:
342,126,68286,1,0,0:0:0:0:
279,49,68397,6,0,B|212:24|163:62|163:62|142:30|81:23|63:40,1,225.000008583069,2|0,0:0|0:0,0:0:0:0:
32,105,68731,6,0,B|69:172|69:172|222:194,1,225.000008583069,4|0,0:2|0:0,0:0:0:0:
180,259,69064,2,0,B|217:192|217:192|370:170,1,225.000008583069,4|0,0:2|0:0,0:0:0:0:
437,155,69397,6,0,L|133:107,1,300.000011444092,4|0,0:0|0:0,0:0:0:0:
279,49,69897,6,0,B|258:211|258:211|306:218,1,200,8|0,0:0|0:0,0:0:0:0:
437,320,70397,6,0,L|133:272,1,300.000011444092,8|0,0:0|0:0,0:0:0:0:
309,383,70897,6,0,B|330:221|330:221|282:214,1,200,8|0,0:0|0:0,0:0:0:0:
164,139,71397,6,0,P|83:160|47:223,1,150.000005722046,8|0,0:0|0:0,0:0:0:0:
87,68,71731,2,0,P|79:191|173:240,1,225.000008583069,8|0,0:0|0:0,0:0:0:0:
221,191,72064,6,0,B|295:183|295:183|338:218|378:208|378:208|415:204|445:224|445:224|507:183,2,300.000011444092,2|2|8,0:0|0:0|0:0,0:0:0:0:
359,127,72897,2,0,B|337:210|378:274|378:274|368:298|371:350|403:376|448:380,1,300.000011444092,2|8,0:0|0:0,0:0:0:0:
221,191,73397,2,0,P|146:202|95:255,1,150.000005722046,2|0,0:0|0:0,0:0:0:0:
246,267,73731,2,0,B|192:103|192:103|214:53,1,225.000008583069,8|0,0:0|0:0,0:0:0:0:
224,32,74064,6,0,P|256:49|301:39,1,75,2|0,0:0|0:0,0:0:0:0:
308,23,74397,2,0,P|340:40|385:30,1,75,2|0,0:0|0:0,0:0:0:0:
394,18,74731,6,0,B|374:98|374:98|428:235|428:235|412:318,1,300.000011444092,4|0,0:0|0:0,0:0:0:0:
401,378,75147,1,0,0:0:0:0:
401,378,75231,1,0,0:0:0:0:
289,278,75397,2,0,B|254:275|222:263|222:263|220:256|220:256|214:262|214:262|185:251|149:252|149:252|145:259|145:259|140:254|140:254|94:250|71:276|57:315|89:345,1,300.000011444092,8|0,0:0|0:0,0:0:0:0:
6,174,75897,1,0,0:0:0:0:
100,59,76064,6,0,P|145:43|204:34,1,100.000003814697,2|0,0:0|0:0,0:0:0:0:
297,47,76286,1,0,0:0:0:0:
178,141,76397,6,0,P|224:149|280:171,1,100.000003814697,2|0,0:0|0:0,0:0:0:0:
354,229,76620,1,0,0:0:0:0:
197,246,76731,5,2,0:0:0:0:
406,85,76953,1,0,0:0:0:0:
419,75,77009,1,0,0:0:0:0:
432,66,77064,6,0,B|497:25|497:25|468:100,1,150.000005722046,8|0,0:0|0:0,0:0:0:0:
369,205,77397,5,8,0:0:0:0:
221,177,77564,1,0,0:0:0:0:
320,64,77731,5,2,0:0:0:0:
268,318,77897,1,0,0:0:0:0:
392,211,78064,5,8,0:0:0:0:
201,173,78231,1,0,0:0:0:0:
324,41,78397,5,2,0:0:0:0:
265,335,78564,1,0,0:0:0:0:
459,125,78731,5,8,0:0:0:0:
170,71,78897,1,0,0:0:0:0:
261,356,79064,5,2,0:0:0:0:
332,32,79231,1,0,0:0:0:0:
332,32,79314,1,0,0:0:0:0:
332,32,79397,6,0,P|298:107|364:238,1,225.000008583069,8|0,0:0|0:0,0:0:0:0:
428,223,79731,2,0,P|462:148|396:17,1,225.000008583069,8|0,0:0|0:0,0:0:0:0:
332,32,80064,6,0,B|276:102|183:49|114:9|37:74,1,300.000011444092,4|0,0:0|0:0,0:0:0:0:
19,134,80481,1,0,0:0:0:0:
19,134,80564,1,0,0:0:0:0:
66,276,80731,2,0,L|221:269,1,150.000005722046,8|0,0:0|0:0,0:0:0:0:
268,214,80981,2,0,L|423:221,1,150.000005722046,2|0,0:0|0:0,0:0:0:0:
481,261,81231,1,2,0:0:0:0:
387,144,81397,5,2,0:0:0:0:
345,293,81564,2,0,P|324:315|275:342,1,75.0000028610231,0|0,0:0|0:0,0:0:0:0:
259,243,81731,2,0,P|228:243|174:228,1,75.0000028610231,8|0,0:0|0:0,0:0:0:0:
234,149,81897,2,0,P|212:127|185:79,1,75.0000028610231,0|0,0:0|0:0,0:0:0:0:
284,61,82064,6,0,P|368:27|296:133,1,300.000011444092,2|2,0:0|0:0,0:0:0:0:
475,167,82564,1,2,0:0:0:0:
344,88,82731,5,8,0:0:0:0:
296,260,82897,1,2,0:0:0:0:
231,147,83064,5,0,0:0:0:0:
403,195,83231,1,2,0:0:0:0:
261,69,83397,5,8,0:0:0:0:
380,277,83564,1,2,0:0:0:0:
425,111,83731,5,0,0:0:0:0:
211,232,83897,1,2,0:0:0:0:
362,26,84064,6,0,P|443:7|492:192,1,300.000011444092,2|8,0:0|0:0,0:0:0:0:
360,197,84564,1,0,0:0:0:0:
274,317,84731,2,0,P|193:336|144:151,1,300.000011444092,2|8,0:0|0:0,0:0:0:0:
126,169,85397,6,0,P|107:120|66:88,1,100.000003814697,0|0,0:0|0:0,0:0:0:0:
29,182,85620,1,2,0:0:0:0:
184,240,85731,6,0,P|235:248|284:228,1,100.000003814697,2|0,0:0|0:0,0:0:0:0:
221,149,85953,1,0,0:0:0:0:
95,254,86064,6,0,P|62:294|54:346,1,100.000003814697,2|0,0:0|0:0,0:0:0:0:
155,331,86286,1,0,0:0:0:0:
126,169,86397,6,0,B|126:78|92:51|92:51|79:107|102:149,1,225.000008583069,2|0,0:0|0:0,0:0:0:0:
158,97,86731,1,2,0:0:0:0:
327,2,86953,1,0,0:0:0:0:
335,15,87009,1,0,0:0:0:0:
347,23,87064,2,0,P|393:31|448:12,2,100.000003814697
292,79,87397,6,0,L|286:197,1,100,2|0,0:0|0:0,0:0:0:0:
286,178,88064,6,0,B|280:252|280:252|275:256|275:256|279:262|279:262|270:309|248:336|210:339|210:339|180:320|145:313|114:330|114:331,1,300.000011444092,4|0,0:0|0:0,0:0:0:0:
310,252,88564,6,0,P|360:200|295:102,1,200,8|0,0:0|0:0,0:0:0:0:
341,324,89064,6,0,B|388:301|426:261|436:206|436:206|467:200|496:179|508:151|510:108|496:77,1,300.000011444092,8|0,0:0|0:0,0:0:0:0:
276,38,89564,6,0,P|297:96|426:120,1,200,8|0,0:0|0:0,0:0:0:0:
270,120,90064,6,0,L|115:134,1,150.000005722046,8|0,0:0|0:0,0:0:0:0:
8,33,90397,1,8,0:0:0:0:
71,205,90620,1,0,0:0:0:0:
86,206,90675,1,0,0:0:0:0:
100,210,90731,6,0,B|138:218|165:255|165:255|189:289|188:359|160:383|92:384|54:330|70:285|85:269|123:260|165:255|165:255|229:277|282:264|303:238,1,525.000020027161,2|0,0:0|0:0,0:0:0:0:
371,241,91397,2,0,P|437:208|477:145,1,150.000005722046,8|0,0:0|0:0,0:0:0:0:
433,83,91647,2,0,P|366:115|326:178,1,150.000005722046,0|0,0:0|0:0,0:0:0:0:
297,245,91897,1,2,0:0:0:0:
242,105,92064,6,0,B|223:69|197:40|197:40|145:4|94:2|61:19|70:85|86:112|134:133|167:110|197:41|197:41|232:20|278:15|309:20|350:45,1,525.000020027161,2|0,0:0|0:0,0:0:0:0:
389,73,92731,2,0,P|435:129|426:202,1,150.000005722046,8|0,0:0|0:0,0:0:0:0:
358,233,92981,2,0,P|311:176|320:103,1,150.000005722046,2|0,0:0|0:0,0:0:0:0:
326,32,93231,1,2,0:0:0:0:
300,179,93397,6,0,P|223:208|174:82,1,225.000008583069,2|0,0:0|0:0,0:0:0:0:
236,131,93731,2,0,P|221:205|341:254,1,225.000008583069,2|0,0:0|0:0,0:0:0:0:
375,189,94064,1,8,0:0:0:0:
480,296,94231,2,0,B|414:312|353:281|338:254|338:254|303:310|228:327|201:311,1,300.000011444092,2|8,0:0|0:0,0:0:0:0:
20,327,94731,2,0,P|84:279|161:272,1,150.000005722046,2|0,0:0|0:0,0:0:0:0:
62,129,95064,2,0,P|171:144|221:247,1,225.000008583069,8|0,0:0|0:0,0:0:0:0:
216,314,95397,6,0,P|221:341|241:309,1,75,2|0,0:0|0:0,0:0:0:0:
296,258,95731,2,0,L|300:231,1,25,2|0,0:0|0:0,0:0:0:0:
353,181,95897,2,0,L|357:154,1,25,2|0,0:0|0:0,0:0:0:0:
416,108,96064,6,0,B|448:73|458:31|458:31|454:26|454:20|454:20|455:14|462:9|462:9|465:13|465:21|465:21|463:28|458:31|458:31|485:77|491:119|491:119|474:158|440:182,1,300.000011444092,4|0,0:0|0:0,0:0:0:0:
410,237,96481,1,0,0:0:0:0:
410,237,96564,1,0,0:0:0:0:
281,159,96731,2,0,B|246:148|205:144|205:144|201:150|201:150|198:144|198:144|159:151|124:144|124:144|121:139|121:139|118:144|118:144|84:151|64:188|68:222|96:237|102:239,1,300.000011444092,8|0,0:0|0:0,0:0:0:0:
235,301,97231,1,0,0:0:0:0:
281,159,97397,6,0,P|273:119|286:59,1,100.000003814697,2|0,0:0|0:0,0:0:0:0:
375,17,97620,1,0,0:0:0:0:
451,80,97731,6,0,P|459:120|446:180,1,100.000003814697,2|0,0:0|0:0,0:0:0:0:
357,222,97953,1,0,0:0:0:0:
281,159,98064,6,0,B|237:132|211:124|211:124|175:169|112:176|65:140,1,225.000008583069,8|0,0:0|0:0,0:0:0:0:
132,70,98397,2,0,B|141:37|141:37|133:-2,1,75.0000028610231,2|0,0:0|0:0,0:0:0:0:
36,232,98564,2,0,B|45:265|45:265|37:304,1,75.0000028610231,2|0,0:0|0:0,0:0:0:0:
132,70,98731,5,8,0:0:0:0:
194,342,98897,1,0,0:0:0:0:
308,170,99064,5,2,0:0:0:0:
36,232,99231,1,0,0:0:0:0:
308,170,99397,6,0,B|370:175|454:146|454:146|493:127|514:82|512:43|490:17|463:-2|422:-2|386:11|367:40|370:75|374:108|401:135|454:146|454:146|452:189|469:215|469:215|425:237|383:242|383:242|334:268|318:313|328:353|372:375|434:366|461:333|448:279|410:247|383:242|383:242|330:249|286:253|241:229,1,1125.00004291535,8|0,0:0|0:0,0:0:0:0:
231,164,100731,2,0,P|146:172|86:291,1,225.000008583069,8|0,0:0|0:0,0:0:0:0:
170,299,101064,2,0,B|168:275|168:275|157:261|157:261|154:241|154:241|143:230|143:230|138:207|138:207|125:193|125:193|120:172|120:172|106:156|106:156|104:136|104:136|94:124|94:124|86:98,1,225.000008583069,8|0,0:0|0:0,0:0:0:0:
27,53,101397,6,0,B|46:78|87:99|87:99|148:64|199:60|199:60|225:74|255:82|284:82|325:67,1,300.000011444092,4|0,0:0|0:0,0:0:0:0:
360,29,101814,1,0,0:0:0:0:
360,29,101897,1,0,0:0:0:0:
498,88,102064,6,0,P|480:137|495:237,1,150.000005722046,8|0,0:0|0:0,0:0:0:0:
437,180,102314,2,0,P|350:166|290:200,1,150.000005722046,2|0,0:0|0:0,0:0:0:0:
270,263,102564,1,2,0:0:0:0:
283,113,102731,5,2,0:0:0:0:
148,32,102897,2,0,P|115:20|71:28,1,75.0000028610231,8|0,0:0|0:0,0:0:0:0:
186,101,103064,2,0,P|212:78|227:36,1,75.0000028610231,2|0,0:0|0:0,0:0:0:0:
106,99,103231,2,0,P|112:133|141:167,1,75.0000028610231,2|0,0:0|0:0,0:0:0:0:
148,32,103397,6,0,B|115:15|75:25|75:25|37:46|26:91|26:91|28:145|50:193|91:231,1,300.000011444092,8|2,0:0|0:0,0:0:0:0:
209,291,103897,1,0,0:0:0:0:
213,140,104064,5,8,0:0:0:0:
78,366,104231,1,2,0:0:0:0:
78,217,104397,5,0,0:0:0:0:
209,291,104564,1,2,0:0:0:0:
222,127,104731,5,8,0:0:0:0:
69,380,104897,1,2,0:0:0:0:
65,206,105064,5,0,0:0:0:0:
223,302,105231,1,2,0:0:0:0:
109,100,105397,5,8,0:0:0:0:
297,213,105564,1,2,0:0:0:0:
33,132,105731,5,0,0:0:0:0:
302,295,105897,1,2,0:0:0:0:
109,100,106064,6,0,B|88:64|50:54|50:54|91:64|150:49|186:5,1,225.000008583069,8|0,0:0|0:0,0:0:0:0:
252,37,106397,2,0,B|274:30|331:32|331:32|358:45|390:53|434:37|434:37|420:50|415:78,1,225.000008583069,8|0,0:0|0:0,0:0:0:0:
409,146,106731,6,0,P|336:152|203:134,1,200,4|8,0:0|0:0,0:0:0:0:
219,148,107397,2,0,P|146:154|13:136,1,200,0|8,0:0|0:0,0:0:0:0:
93,68,107897,2,0,B|150:142|100:218|53:233|53:233|77:273|65:327|45:364,1,300,0|8,0:0|0:0,0:0:0:0:
46,324,108731,2,0,P|122:311|255:307,1,200,0|8,0:0|0:0,0:0:0:0:
257,315,109397,6,0,P|235:257|275:117,1,200,2|8,0:0|0:0,0:0:0:0:
347,68,109897,1,2,0:0:0:0:
420,136,110064,2,0,P|442:194|402:334,1,200,0|8,0:0|0:0,0:0:0:0:
313,350,110564,2,0,B|284:334|194:317|145:320|110:333|110:333|145:304|182:296|215:297,1,300,0|8,0:0|0:0,0:0:0:0:
279,245,111231,2,0,B|290:246|327:238|362:209|362:209|327:222|278:225|188:208|159:192,1,300,2|0,0:0|0:0,0:0:0:0:
149,201,112064,6,0,P|189:158|169:20,1,200,2|8,0:0|0:0,0:0:0:0:
185,35,112731,2,0,L|396:27,1,200,0|8,0:0|0:0,0:0:0:0:
457,96,113231,2,0,B|490:195|490:195|448:284|448:284|405:174,1,300,0|8,0:0|0:0,0:0:0:0:
401,187,114064,2,0,B|453:328|453:328|402:289,1,200,0|8,0:0|0:0,0:0:0:0:
406,290,114731,6,0,P|350:317|239:244,1,200,2|8,0:0|0:0,0:0:0:0:
197,161,115231,2,0,P|125:97|32:122,1,200,2|8,0:0|0:0,0:0:0:0:
212,39,115731,2,0,L|335:31,1,100,8|0,0:0|0:0,0:0:0:0:
409,56,116064,5,8,0:0:0:0:
479,127,116231,1,2,0:0:0:0:
479,127,116314,1,2,0:0:0:0:
479,127,116397,1,8,0:0:0:0:
413,203,116564,1,2,0:0:0:0:
431,301,116731,2,0,L|439:359,1,50,8|0,0:0|0:0,0:0:0:0:
401,192,116897,2,0,L|393:134,1,50,8|0,0:0|0:0,0:0:0:0:
385,333,117064,5,8,0:0:0:0:
345,362,117147,1,8,0:0:0:0:
296,374,117231,1,8,0:0:0:0:
246,368,117314,1,8,0:0:0:0:
204,340,117397,6,0,B|170:297|170:297|195:151,1,200,12|2,0:0|0:0,0:0:0:0:
280,101,117897,1,2,0:0:0:0:
365,48,118064,2,0,B|399:91|399:91|374:237,1,200,8|2,0:0|0:0,0:0:0:0:
289,287,118564,1,2,0:0:0:0:
204,340,118731,6,0,B|157:369|157:369|11:352,1,200,2|2,0:0|0:0,0:0:0:0:
51,259,119231,1,2,0:0:0:0:
90,167,119397,2,0,B|110:120|110:120|95:20|95:20|69:86,1,200,8|8,0:0|0:0,0:0:0:0:
70,77,120064,6,0,B|223:47|223:47|270:73,1,200,4|2,0:0|0:0,0:0:0:0:
348,117,120564,1,2,0:0:0:0:
435,166,120731,2,0,B|476:193|476:193|516:344,1,200,8|2,0:0|0:0,0:0:0:0:
443,82,121397,6,0,B|457:129|457:129|376:261,1,200,2|2,0:0|0:0,0:0:0:0:
371,248,122064,6,0,L|288:240,1,75,2|0,0:0|0:0,0:0:0:0:
261,255,122397,6,0,L|220:252,1,37.5
186,265,122731,6,0,B|85:257|85:257|45:160,1,200,4|2,0:0|0:0,0:0:0:0:
43,65,123231,1,2,0:0:0:0:
139,41,123397,2,0,B|240:49|240:49|280:146,1,200,8|2,0:0|0:0,0:0:0:0:
282,241,123897,1,2,0:0:0:0:
369,290,124064,6,0,B|417:307|417:307|466:288,1,100,2|2,0:0|0:0,0:0:0:0:
507,199,124397,2,0,B|496:49|496:49|479:108,1,200,8|2,0:0|0:0,0:0:0:0:
411,167,124897,1,2,0:0:0:0:
411,167,125064,1,2,0:0:0:0:
286,323,125397,6,0,B|262:278|262:278|278:177|278:177|256:126,1,200,2|2,0:0|0:0,0:0:0:0:
288,128,126064,2,0,B|264:173|264:173|280:274|280:274|258:325,1,200,8|2,0:0|0:0,0:0:0:0:
174,365,126564,1,8,0:0:0:0:
174,264,126731,5,2,0:0:0:0:
135,172,126897,2,0,L|148:72,1,100,2|0,0:0|0:0,0:0:0:0:
75,2,127231,1,2,0:0:0:0:
163,62,127397,6,0,L|247:57,1,75,2|0,0:0|0:0,0:0:0:0:
253,67,127731,6,0,L|261:121,1,50
359,26,128064,6,0,B|372:102|372:102|403:147|403:147|409:167|409:167|449:220|449:220|463:311,1,300.000011444092,4|2,0:0|0:0,0:0:0:0:
501,364,128481,1,0,0:0:0:0:
501,364,128564,1,0,0:0:0:0:
485,214,128731,2,0,B|463:128|463:128|430:77|430:77|460:16|460:16|486:42|495:82|487:103,1,300.000011444092,8|0,0:0|0:0,0:0:0:0:
377,190,129231,1,0,0:0:0:0:
339,45,129397,6,0,P|262:17|184:24,1,150.000005722046,2|0,0:0|0:0,0:0:0:0:
233,165,129731,2,0,P|310:193|388:186,1,150.000005722046,8|0,0:0|0:0,0:0:0:0:
195,20,130064,6,0,B|151:49|115:84|102:140|102:140|93:143|93:143|100:147|100:147|103:184|114:205|114:205|130:239|114:288,1,300.000011444092,8|2,0:0|0:0,0:0:0:0:
17,378,130564,1,0,0:0:0:0:
188,315,130731,5,8,0:0:0:0:
232,110,130897,1,0,0:0:0:0:
353,243,131064,5,2,0:0:0:0:
148,199,131231,1,0,0:0:0:0:
293,334,131397,5,8,0:0:0:0:
337,129,131564,1,0,0:0:0:0:
458,262,131731,5,2,0:0:0:0:
253,218,131897,1,0,0:0:0:0:
446,153,132064,5,8,0:0:0:0:
232,110,132231,1,0,0:0:0:0:
470,159,132397,5,2,0:0:0:0:
210,104,132564,1,0,0:0:0:0:
498,166,132731,5,8,0:0:0:0:
498,166,133064,1,0,0:0:0:0:
498,166,133397,6,0,B|421:150|421:150|417:153|417:153|415:148|415:148|390:112|356:100|356:100|345:106|316:117|290:117|248:104|228:87,1,300.000011444092,4|2,0:0|0:0,0:0:0:0:
193,21,133814,1,0,0:0:0:0:
193,21,133897,1,0,0:0:0:0:
58,87,134064,2,0,P|21:159|29:235,1,150.000005722046,8|0,0:0|0:0,0:0:0:0:
72,285,134314,2,0,P|148:269|225:296,1,150.000005722046,0|0,0:0|0:0,0:0:0:0:
268,343,134564,1,2,0:0:0:0:
387,251,134731,6,0,B|436:236|472:253|472:253|494:313|458:365|458:365|405:371|370:338,1,300.000011444092,2|8,0:0|0:0,0:0:0:0:
466,160,135231,1,0,0:0:0:0:
466,160,135314,1,0,0:0:0:0:
466,160,135397,2,0,B|499:125|493:72|493:72|441:36|381:58|381:58|364:94|379:143,1,300.000011444092,2|8,0:0|0:0,0:0:0:0:
426,304,135897,1,0,0:0:0:0:
278,258,136064,5,8,0:0:0:0:
84,282,136231,1,0,0:0:0:0:
197,373,136397,5,2,0:0:0:0:
170,172,136564,1,0,0:0:0:0:
289,352,136731,5,8,0:0:0:0:
80,190,136897,1,0,0:0:0:0:
102,374,137064,5,2,0:0:0:0:
262,163,137231,1,0,0:0:0:0:
452,362,137397,5,8,0:0:0:0:
461,333,137481,1,8,0:0:0:0:
458,304,137564,1,8,0:0:0:0:
441,279,137647,1,8,0:0:0:0:
414,267,137731,2,0,P|385:258|321:346,1,150.000005722046,8|8,0:0|0:0,0:0:0:0:
459,200,138064,6,0,P|483:161|488:130,1,75,2|0,0:0|0:0,0:0:0:0:
471,113,138397,2,0,P|471:67|459:38,1,75,2|0,0:0|0:0,0:0:0:0:
444,28,138731,6,0,B|412:17|368:18|368:18|347:35|319:46|319:46|314:57|314:57|302:55|302:55|267:66|237:86|237:86|202:85|157:72,1,300.000011444092,4|0,0:0|0:0,0:0:0:0:
121,18,139147,1,0,0:0:0:0:
121,18,139231,1,0,0:0:0:0:
155,163,139397,2,0,B|174:188|177:225|177:225|142:255|106:249|106:249|79:221|78:179|78:179|101:153|149:147,1,300.000011444092,8|2,0:0|0:0,0:0:0:0:
293,185,139897,1,0,0:0:0:0:
256,330,140064,6,0,B|277:260|277:260|328:264|358:229,1,150.000005722046,2|0,0:0|0:0,0:0:0:0:
331,40,140397,2,0,B|310:110|310:110|259:106|229:141,1,150.000005722046,2|2,0:0|0:0,0:0:0:0:
256,330,140731,2,0,B|346:342|404:287|404:287|410:286|410:286|408:279|408:279|443:220|397:175|357:162,1,300.000011444092,8|2,0:0|0:0,0:0:0:0:
238,131,141231,1,0,0:0:0:0:
160,258,141397,5,8,0:0:0:0:
147,68,141564,1,2,0:0:0:0:
164,278,141731,5,0,0:0:0:0:
143,47,141897,1,2,0:0:0:0:
62,170,142064,5,8,0:0:0:0:
252,157,142231,1,2,0:0:0:0:
42,174,142398,5,0,0:0:0:0:
273,153,142564,1,2,0:0:0:0:
170,307,142731,5,8,0:0:0:0:
382,300,142897,1,2,0:0:0:0:
149,307,143064,5,2,0:0:0:0:
403,300,143231,1,0,0:0:0:0:
127,308,143397,5,8,0:0:0:0:
127,308,143731,1,8,0:0:0:0:
127,308,144064,6,0,B|161:344|212:349|266:314|266:314|270:306|270:306|274:314|274:314|299:346|359:355|395:337|407:310,1,300.000011444092,4|2,0:0|0:0,0:0:0:0:
342,253,144481,1,0,0:0:0:0:
342,253,144564,1,0,0:0:0:0:
481,309,144731,2,0,L|487:154,1,150.000005722046,8|0,0:0|0:0,0:0:0:0:
408,44,144981,2,0,L|402:199,1,150.000005722046,0|0,0:0|0:0,0:0:0:0:
342,253,145231,1,2,0:0:0:0:
238,145,145397,6,0,B|225:128|221:93|245:76|245:76|273:94|266:149|244:224|216:240|216:240|183:233|145:249,1,300.000011444092,2|8,0:0|0:0,0:0:0:0:
76,354,145897,1,0,0:0:0:0:
21,214,146064,2,0,B|1:182|-13:129|13:63|13:63|72:29|144:39|165:57,1,300.000011444092,2|0,0:0|0:0,0:0:0:0:
249,162,146564,1,0,0:0:0:0:
376,82,146731,5,8,0:0:0:0:
407,324,146897,1,0,0:0:0:0:
475,188,147064,5,2,0:0:0:0:
233,219,147230,1,0,0:0:0:0:
136,82,147397,5,8,0:0:0:0:
105,324,147563,1,0,0:0:0:0:
37,188,147730,5,2,0:0:0:0:
279,219,147896,1,0,0:0:0:0:
184,57,148064,5,8,0:0:0:0:
368,85,148231,1,0,0:0:0:0:
151,52,148397,5,2,0:0:0:0:
396,89,148564,1,0,0:0:0:0:
117,46,148731,5,8,0:0:0:0:
426,95,148897,1,8,0:0:0:0:
73,324,149064,1,8,0:0:0:0:
382,373,149231,1,8,0:0:0:0:
117,46,149397,6,0,P|105:135|72:204,1,150,4|2,0:1|0:0,0:0:0:0:
193,89,150397,1,0,0:0:0:0:
193,89,150564,1,0,0:0:0:0:
193,89,150731,2,0,P|227:172|233:248,1,150,0|2,0:0|0:0,0:0:0:0:
286,90,151731,5,0,0:0:0:0:
286,90,151897,1,0,0:0:0:0:
286,90,152064,2,0,P|357:144|400:207,1,150,0|2,0:0|0:0,0:0:0:0:
366,44,153064,1,0,0:0:0:0:
366,44,153231,1,0,0:0:0:0:
366,44,153397,2,0,P|455:55|524:88,1,150,0|2,0:0|0:0,0:0:0:0:
475,225,154397,5,0,0:0:0:0:
475,225,154564,1,0,0:0:0:0:
475,225,154731,2,0,L|314:233,1,150,0|2,0:0|0:0,0:0:0:0:
222,342,155731,1,0,0:0:0:0:
222,342,155897,1,0,0:0:0:0:
222,342,156064,2,0,L|72:349,1,150,0|2,0:0|0:0,0:0:0:0:
31,205,157064,5,0,0:0:0:0:
31,205,157231,1,0,0:0:0:0:
31,205,157397,2,0,L|192:197,1,150,0|2,0:0|0:0,0:0:0:0:
284,88,158397,1,0,0:0:0:0:
284,88,158564,1,0,0:0:0:0:
284,88,158731,2,0,L|433:80,1,150,0|2,0:0|0:0,0:0:0:0:
494,217,159731,1,0,0:0:0:0:
494,217,159897,1,0,0:0:0:0:
494,217,160064,6,0,P|463:278|468:328,2,100,2|0|12,0:0|0:0|0:0,0:0:0:0:
463,121,161064,2,0,B|419:109|388:116|388:116|346:125|297:102,1,150,0|0,0:0|0:0,0:0:0:0:
282,71,161731,2,0,L|175:78,1,100,0|12,0:0|0:0,0:0:0:0:
82,85,162397,1,0,0:0:0:0:
140,166,162731,6,0,P|157:223|146:277,1,100,2|0,0:0|0:0,0:0:0:0:
115,297,163231,2,0,L|121:358,1,50,0|12,0:0|0:0,0:0:0:0:
33,296,163731,2,0,B|21:197|21:197|35:137,1,150,0|0,0:0|0:0,0:0:0:0:
61,107,164397,2,0,P|95:116|163:108,1,100,0|12,0:0|0:0,0:0:0:0:
233,42,165064,1,0,0:0:0:0:
331,26,165397,6,0,P|380:44|436:38,2,100,2|0|12,0:0|0:0|0:0,0:0:0:0:
233,42,166397,2,0,P|207:91|242:194,1,150,0|0,0:0|0:0,0:0:0:0:
264,213,167064,2,0,L|371:208,1,100,0|12,0:0|0:0,0:0:0:0:
447,263,167731,1,0,0:0:0:0:
362,316,168064,6,0,L|260:309,1,100,2|0,0:0|0:0,0:0:0:0:
216,328,168564,2,0,L|160:330,1,50,0|12,0:0|0:0,0:0:0:0:
71,297,169064,2,0,P|43:246|54:138,1,150,0|0,0:0|0:0,0:0:0:0:
84,124,169731,2,0,P|106:74|107:22,2,100,0|12|0,0:0|0:0|0:0,0:0:0:0:
152,197,170731,6,0,P|208:208|255:186,2,100,2|0|12,0:0|0:0|0:0,0:0:0:0:
61,240,171731,2,0,B|82:285|82:285|185:315,1,150,0|0,0:0|0:0,0:0:0:0:
226,326,172397,2,0,L|341:320,1,100,0|12,0:0|0:0,0:0:0:0:
425,313,173064,1,0,0:0:0:0:
365,233,173397,6,0,P|349:184|359:131,1,100,2|0,0:0|0:0,0:0:0:0:
395,106,173897,2,0,P|404:84|410:51,1,50,0|12,0:0|0:0,0:0:0:0:
318,16,174397,2,0,P|265:40|168:34,1,150,0|0,0:0|0:0,0:0:0:0:
128,16,175064,2,0,P|100:50|87:119,1,100,0|12,0:0|0:0,0:0:0:0:
99,202,175731,1,0,0:0:0:0:
157,282,176064,6,0,P|103:306|61:295,2,100,2|0|12,0:0|0:0|0:0,0:0:0:0:
219,203,177064,2,0,P|207:275|270:330,1,150,0|0,0:0|0:0,0:0:0:0:
304,342,177731,2,0,P|357:335|411:357,1,100,0|12,0:0|0:0,0:0:0:0:
498,365,178397,1,0,0:0:0:0:
458,273,178731,6,0,B|471:202|471:202|455:165,1,100,2|0,0:0|0:0,0:0:0:0:
431,135,179231,2,0,L|402:90,1,50,0|12,0:0|0:0,0:0:0:0:
352,7,179731,2,0,P|299:51|211:51,1,150,0|0,0:0|0:0,0:0:0:0:
176,31,180397,2,0,P|118:18|74:28,2,100,0|12|0,0:0|0:0|0:0,0:0:0:0:
122,115,181397,6,0,L|127:219,2,100,2|0|12,0:0|0:0|0:0,0:0:0:0:
37,169,182397,2,0,B|43:264|43:264|67:293|96:304,1,150,0|0,0:0|0:0,0:0:0:0:
132,313,183064,2,0,P|185:308|243:314,1,100,0|12,0:0|0:0,0:0:0:0:
328,338,183731,1,0,0:0:0:0:
296,243,184064,6,0,P|281:205|284:140,1,100,2|0,0:0|0:0,0:0:0:0:
309,104,184564,2,0,L|362:98,1,50,0|12,0:0|0:0,0:0:0:0:
448,143,185064,2,0,B|475:185|475:185|467:297,1,150,0|0,0:0|0:0,0:0:0:0:
462,334,185731,2,0,P|416:347|364:342,1,100,0|12,0:0|0:0,0:0:0:0:
276,295,186397,1,0,0:0:0:0:
191,348,186731,6,0,L|82:355,2,100,2|0|12,0:0|0:0|0:0,0:0:0:0:
124,272,187731,2,0,B|73:275|73:275|44:226|54:166,1,150,0|0,0:0|0:0,0:0:0:0:
76,136,188397,2,0,P|87:81|69:35,2,100,0|12|0,0:0|0:0|0:0,0:0:0:0:
157,194,189397,6,0,L|266:187,1,100,2|0,0:0|0:0,0:0:0:0:
301,165,189897,2,0,P|312:133|310:110,1,50,0|12,0:0|0:0,0:0:0:0:
295,18,190397,2,0,P|336:83|415:97,1,150,0|0,0:0|0:0,0:0:0:0:
450,81,191064,2,0,P|478:141|473:189,1,100,0|12,0:0|0:0,0:0:0:0:
430,262,191731,1,0,0:0:0:0:
373,179,192064,6,0,P|323:143|278:135,2,100,2|0|12,0:0|0:0|0:0,0:0:0:0:
430,262,193064,2,0,P|388:312|299:319,1,150,0|0,0:0|0:0,0:0:0:0:
259,306,193731,2,0,P|206:296|158:309,1,100,0|12,0:0|0:0,0:0:0:0:
68,342,194397,1,0,0:0:0:0:
82,242,194731,6,0,L|75:140,2,100,2|0|12,0:0|0:0|0:0,0:0:0:0:
152,312,195731,1,0,0:0:0:0:
191,281,195897,2,0,P|254:268|303:277,1,100,12|0,0:0|0:0,0:0:0:0:
332,296,196397,2,0,P|379:313|419:309,1,75,12|0,0:0|0:0,0:0:0:0:
425,299,196731,2,0,L|436:222,1,75,12|0,0:0|0:0,0:0:0:0:
458,215,197064,2,0,P|450:183|455:133,1,75,12|0,0:0|0:0,0:0:0:0:
467,121,197397,6,0,P|424:66|346:33,2,150,4|0|0,0:0|0:0|0:0,0:0:0:0:
414,206,198731,2,0,L|407:358,2,150,4|0|0,0:0|0:0|0:0,0:0:0:0:
335,143,200064,6,0,B|298:109|298:109|252:144|197:133,2,150,4|0|0,0:0|0:0|0:0,0:0:0:0:
274,222,201397,2,0,P|246:276|262:368,2,150,4|0|0,0:0|0:0|0:0,0:0:0:0:
388,124,202731,6,0,P|334:135|266:109,1,112.500004291535,2|0,0:0|0:0,0:0:0:0:
253,91,203064,1,0,0:0:0:0:
169,26,203231,2,0,B|81:49|54:114|54:114|72:162|117:184,1,225.000008583069,2|0,0:0|0:0,0:0:0:0:
273,287,204064,6,0,L|392:282,1,112.500004291535,2|0,0:0|0:0,0:0:0:0:
423,280,204397,1,0,0:0:0:0:
463,182,204564,2,0,B|314:188|314:188|283:148|289:100,1,225.000008583069,2|0,0:0|0:0,0:0:0:0:
477,26,205397,6,0,L|319:31,1,150.000005722046,2|0,0:0|0:0,0:0:0:0:
223,50,205897,2,0,B|73:55|73:55|61:92|77:132,1,225.000008583069,2|0,0:0|0:0,0:0:0:0:
173,316,206731,6,0,P|228:296|321:314,1,150.000005722046,2|0,0:0|0:0,0:0:0:0:
410,264,207231,2,0,P|346:221|188:209,1,225.000008583069,2|0,0:0|0:0,0:0:0:0:
191,212,208064,6,0,P|230:162|200:22,1,200,4|2,0:0|0:0,0:0:0:0:
94,111,208564,2,0,B|304:141|304:141|305:192|274:235,1,300,2|2,0:0|0:0,0:0:0:0:
357,341,209231,1,2,0:0:0:0:
432,224,209397,5,2,0:0:0:0:
436,204,209481,1,0,0:0:0:0:
446,186,209564,1,0,0:0:0:0:
461,173,209647,1,0,0:0:0:0:
479,165,209731,5,2,0:0:0:0:
457,144,209814,1,0,0:0:0:0:
427,138,209897,1,0,0:0:0:0:
397,142,209981,1,0,0:0:0:0:
364,165,210064,5,2,0:0:0:0:
328,182,210147,1,0,0:0:0:0:
288,187,210231,1,0,0:0:0:0:
248,181,210314,1,0,0:0:0:0:
217,141,210397,5,2,0:0:0:0:
182,104,210481,1,0,0:0:0:0:
136,83,210564,1,0,0:0:0:0:
86,77,210647,1,0,0:0:0:0:
37,89,210731,5,2,0:0:0:0:
21,146,210814,1,0,0:0:0:0:
28,205,210897,1,0,0:0:0:0:
61,255,210981,1,0,0:0:0:0:
116,276,211064,1,2,0:0:0:0:
175,272,211147,1,0,0:0:0:0:
226,241,211231,1,0,0:0:0:0:
254,188,211314,1,0,0:0:0:0:
289,139,211397,5,2,0:0:0:0:
341,108,211481,1,0,0:0:0:0:
400,108,211564,1,0,0:0:0:0:
452,136,211647,1,0,0:0:0:0:
480,189,211731,1,2,0:0:0:0:
484,248,211814,1,2,0:0:0:0:
464,304,211897,1,2,0:0:0:0:
418,344,211981,1,2,0:0:0:0:
359,356,212064,6,0,P|297:335|248:337,1,100,8|0,0:0|0:0,0:0:0:0:
362,236,212397,2,0,P|328:180|289:150,1,100,8|0,0:0|0:0,0:0:0:0:
162,175,212731,6,0,P|116:162|166:169,1,150,8|0,0:0|0:0,0:0:0:0:
161,187,213064,6,0,P|109:147|166:183,1,187.5,8|0,0:0|0:0,0:0:0:0:
156,203,213397,6,0,B|151:229|118:264|118:264|65:247|22:209|14:160|26:113|43:71|80:40|124:31|164:38|194:55|223:74|237:102|249:135,1,525.000020027161,4|0,0:0|0:0,0:0:0:0:
232,203,214064,2,0,B|216:271|164:321|164:321|206:342|268:322|268:322|306:315|348:338,1,300.000011444092,8|2,0:0|0:0,0:0:0:0:
337,333,214731,6,0,B|305:266|305:266|354:120,1,225.000008583069,2|0,0:0|0:0,0:0:0:0:
349,47,215064,2,0,B|306:108|306:108|156:138,1,225.000008583069,2|0,0:0|0:0,0:0:0:0:
97,179,215397,2,0,B|171:184|171:184|272:300,1,225.000008583069,2|0,0:0|0:0,0:0:0:0:
337,333,215731,1,2,0:0:0:0:
444,233,215842,2,0,L|498:240,2,50.0000019073487
424,86,216064,6,0,B|399:68|399:68|388:63|388:63|359:62|332:76|310:92|302:97|294:102|268:109|250:114|232:115|218:115|199:115|182:109|177:104|177:104|167:60,1,300.000011444092,4|8,0:0|0:0,0:0:0:0:
157,53,216731,2,0,B|170:132|170:132|166:229|166:229|189:271|221:278|230:254|226:241|226:241|185:220|124:229|87:254|87:254|101:293|120:322|165:342,1,525.000020027161,8|0,0:0|0:0,0:0:0:0:
228,335,217397,6,0,B|301:350|301:350|375:323|401:238,1,225.000008583069,2|0,0:0|0:0,0:0:0:0:
393,167,217731,2,0,B|369:96|369:96|309:45|222:65,1,225.000008583069,2|0,0:0|0:0,0:0:0:0:
166,107,218064,2,0,B|116:162|116:162|102:240|163:305,1,225.000008583069,2|0,0:0|0:0,0:0:0:0:
228,335,218397,6,0,L|309:331,1,75,4|0,0:2|0:0,0:0:0:0:
374,302,218731,6,0,B|427:284|488:300|488:300|508:238|497:180|497:180|492:176|492:176|497:173|497:173|508:124|490:105,1,300.000011444092,4|0,0:0|0:0,0:0:0:0:
312,58,219231,6,0,B|297:71|297:71|306:112|292:148|292:148|296:156|296:156|248:205|251:276|300:333|365:332|379:292,1,350.00000333786,8|0,0:0|0:0,0:0:0:0:
397,38,219731,6,0,B|311:59|311:59|251:33|203:34|203:34|179:62|137:63|124:61|116:52|113:41|113:29|122:21|130:19|144:26,1,300.000011444092,8|0,0:0|0:0,0:0:0:0:
111,263,220231,6,0,B|161:246|186:196|181:128|181:128|129:139|85:120|85:120|113:79|118:37,1,350.00000333786,8|0,0:0|0:0,0:0:0:0:
66,197,220731,6,0,B|87:267|87:267|68:348,2,150.000005722046,8|0|8,0:0|0:0|0:0,0:0:0:0:
170,335,221286,1,0,0:0:0:0:
185,340,221342,1,0,0:0:0:0:
199,345,221397,6,0,B|270:367|270:367|426:336|426:336|496:360,2,300.000011444092,2|2|8,0:0|0:0|0:0,0:0:0:0:
287,222,222231,2,0,B|436:192|436:192|459:130|459:130|465:127|465:127|462:121|462:121|484:50,1,300.000011444092,2|8,0:0|0:0,0:0:0:0:
335,85,222731,2,0,L|182:113,1,150.000005722046,2|0,0:0|0:0,0:0:0:0:
76,10,223064,2,0,L|51:243,1,225.000008583069,8|0,0:0|0:0,0:0:0:0:
91,298,223397,6,0,B|104:320|104:320|157:330,1,75,2|0,0:0|0:0,0:0:0:0:
179,323,223731,2,0,B|201:310|201:310|211:257,1,75,2|0,0:0|0:0,0:0:0:0:
211,187,224064,6,0,B|221:134|210:78|210:78|194:33|165:13|132:13|108:32|95:66|103:93|125:118|155:117|192:110|210:78|210:78|243:46|291:35|326:39|363:59,1,525.000020027161,4|0,0:0|0:0,0:0:0:0:
411,14,224731,2,0,B|428:38|421:80|404:100|404:100|429:122|447:155|447:155|439:162|439:162|457:191|465:238|448:297|449:298,1,300.000011444092,8|2,0:0|0:0,0:0:0:0:
155,336,225397,5,2,0:0:0:0:
155,336,225564,2,0,P|197:280|86:314,1,300.000011444092,0|0,0:0|0:0,0:0:0:0:
271,278,226064,2,0,P|247:200|122:142,1,225.000008583069,8|0,0:0|0:0,0:0:0:0:
54,169,226397,1,2,0:0:0:0:
192,104,226509,2,0,L|247:98,2,50.0000019073487
54,169,226731,6,0,B|32:192|-1:195|-1:195|43:226|88:211|88:211|123:233|185:237|246:208,1,300.000011444092,4|2,0:0|0:0,0:0:0:0:
239,198,227397,2,0,B|272:168|326:158|326:158|400:121|439:158|442:204|406:258|359:258|312:207|326:158|326:158|377:120|393:73|365:23|352:4,1,525.000020027161,8|0,0:0|0:0,0:0:0:0:
291,75,228064,6,0,P|377:118|453:17,1,225.000008583069,2|0,0:0|0:0,0:0:0:0:
366,32,228397,2,0,P|280:-11|204:90,1,225.000008583069,2|0,0:0|0:0,0:0:0:0:
240,146,228731,2,0,P|175:95|177:230,1,300.000011444092,8|4,0:0|0:2,0:0:0:0:
173,229,229397,6,0,B|326:224|326:224|369:273|369:273|467:271,1,300.000011444092,4|0,0:0|0:0,0:0:0:0:
510,224,229814,1,0,0:0:0:0:
510,224,229897,1,0,0:0:0:0:
473,78,230064,2,0,P|394:69|318:43,1,150.000005722046,8|0,0:0|0:0,0:0:0:0:
253,28,230314,2,0,P|174:37|98:63,1,150.000005722046,2|0,0:0|0:0,0:0:0:0:
47,105,230564,1,2,0:0:0:0:
123,234,230731,6,0,P|212:224|358:152,1,225.000008583069,8|0,0:0|0:0,0:0:0:0:
358,98,231064,2,0,P|370:77|379:24,1,75.0000028610231,2|0,0:0|0:0,0:0:0:0:
406,189,231231,2,0,P|443:191|477:205,1,75.0000028610231,2|0,0:0|0:0,0:0:0:0:
334,169,231397,2,0,B|264:160|167:191|123:235|123:235|79:217|64:177,1,300.000011444092,8|2,0:0|0:0,0:0:0:0:
123,48,231897,1,0,0:0:0:0:
270,79,232064,5,8,0:0:0:0:
299,336,232231,1,0,0:0:0:0:
461,189,232397,5,2,0:0:0:0:
204,218,232564,1,0,0:0:0:0:
266,52,232731,5,8,0:0:0:0:
304,362,232897,1,0,0:0:0:0:
487,185,233064,5,2,0:0:0:0:
177,223,233231,1,0,0:0:0:0:
262,18,233397,6,0,P|252:57|225:99,1,75.0000028610231,8|0,0:0|0:0,0:0:0:0:
306,148,233564,2,0,P|273:171|225:186,1,75.0000028610231,8|0,0:0|0:0,0:0:0:0:
264,276,233731,2,0,P|223:272|177:253,1,75.0000028610231,8|0,0:0|0:0,0:0:0:0:
154,351,233897,2,0,P|125:322|102:278,1,75.0000028610231,8|0,0:0|0:0,0:0:0:0:
59,38,234064,2,0,P|143:104|123:209,1,225.000008583069,8|0,0:0|0:0,0:0:0:0:
107,292,234397,2,0,L|356:261,1,225.000008583069,2|0,0:0|0:0,0:0:0:0:
392,223,234731,6,0,B|400:252|388:287|372:299|372:299|353:272|329:224|365:161|365:161|397:109|397:65|374:33|374:33|351:54|349:83|368:128,1,450.000017166138,4|2,0:0|0:0,0:0:0:0:
273,232,235397,2,0,B|271:202|285:159|285:159|237:153|215:102|227:44|268:16|326:22|341:51,1,300.000011444092,8|2,0:0|0:0,0:0:0:0:
334,42,236064,5,0,0:0:0:0:
112,60,236231,1,0,0:0:0:0:
357,37,236397,1,0,0:0:0:0:
86,64,236564,1,0,0:0:0:0:
384,31,236731,2,0,B|415:21|459:21|459:21|488:52|496:97|496:97|501:105|501:105|496:113|496:113|494:182|424:203,1,300.000011444092,8|0,0:0|0:0,0:0:0:0:
326,308,237175,2,0,P|322:332|328:372,2,50.0000019073487
195,236,237397,6,0,B|155:244|122:274|122:274|117:302|96:335|96:335|132:341|151:357|151:357|198:359|239:325,1,300.000011444092,4|2,0:0|0:0,0:0:0:0:
302,204,237897,1,2,0:0:0:0:
268,57,238064,2,0,B|308:65|341:95|341:95|346:123|367:156|367:156|331:162|312:178|312:178|265:180|224:146,1,300.000011444092,8|0,0:0|0:0,0:0:0:0:
228,149,238731,6,0,P|198:127|129:113,2,100,2|2|0,0:0|0:0|0:0,0:0:0:0:
247,194,239564,1,0,0:0:0:0:
285,225,239731,1,4,0:2:0:0:
333,234,239897,1,0,0:0:0:0:
381,220,240064,6,0,B|411:197|450:182|450:182|455:186|455:186|493:169|506:108|497:38|497:38|472:27|437:28,1,300.000011444092,4|0,0:0|0:0,0:0:0:0:
381,220,240564,6,0,B|375:236|375:255|375:255|370:258|370:258|370:285|359:309|359:309|297:353|221:320|221:320|145:280|82:326,1,350.00000333786,8|0,0:0|0:0,0:0:0:0:
92,38,241064,6,0,B|71:78|67:113|67:113|56:123|56:123|51:168|70:203|70:203|87:211|87:211|108:234|127:278|109:325,1,300.000011444092,8|0,0:0|0:0,0:0:0:0:
324,174,241564,6,0,B|379:161|399:93|357:43|357:43|361:30|361:30|348:41|348:41|289:23|231:78|255:145,1,350.00000333786,8|0,0:0|0:0,0:0:0:0:
365,318,242064,6,0,L|517:306,2,150.000005722046,8|0|8,0:0|0:0|0:0,0:0:0:0:
158,250,242620,1,0,0:0:0:0:
163,265,242675,1,0,0:0:0:0:
167,279,242731,6,0,B|194:342|194:342|34:355|34:355|59:281,2,300.000011444092,4|2|8,0:0|0:0|0:0,0:0:0:0:
97,145,243564,2,0,B|121:230|210:264|276:239|276:239|299:267|356:273,1,300.000011444092,2|8,0:0|0:0,0:0:0:0:
457,364,244064,2,0,P|485:296|477:214,1,150.000005722046,2|0,0:0|0:0,0:0:0:0:
507,73,244397,2,0,B|358:90|358:90|290:46,1,225.000008583069,8|0,0:0|0:0,0:0:0:0:
332,117,244731,6,0,P|339:143|333:195,1,75,2|0,0:0|0:0,0:0:0:0:
323,206,245064,2,0,P|297:213|245:207,1,75,2|0,0:0|0:0,0:0:0:0:
186,167,245397,6,0,B|155:148|134:104|134:104|141:98|141:98|132:96|132:96|141:41|92:11|35:24|15:81|51:125,1,300.000011444092,4|0,0:0|0:0,0:0:0:0:
88,175,245814,1,0,0:0:0:0:
88,175,245897,1,0,0:0:0:0:
33,314,246064,2,0,B|50:352|43:380|43:380|73:344|126:331|126:331|159:352|214:358|261:327,1,300.000011444092,8|2,0:0|0:0,0:0:0:0:
192,194,246564,1,0,0:0:0:0:
339,224,246731,6,0,P|402:222|461:175,1,100.000003814697,2|0,0:0|0:0,0:0:0:0:
373,125,246953,1,0,0:0:0:0:
322,39,247064,6,0,P|266:9|193:19,1,100.000003814697,2|0,0:0|0:0,0:0:0:0:
154,74,247286,1,2,0:0:0:0:
247,107,247397,5,0,0:0:0:0:
20,260,247620,1,0,0:0:0:0:
29,273,247675,1,0,0:0:0:0:
38,285,247731,2,0,B|90:338|90:338|196:321,1,150.000005722046,8|0,0:0|0:0,0:0:0:0:
341,304,248064,5,8,0:0:0:0:
391,94,248231,1,0,0:0:0:0:
117,260,248397,5,0,0:0:0:0:
172,50,248564,1,2,0:0:0:0:
352,317,248731,5,8,0:0:0:0:
165,36,248897,1,0,0:0:0:0:
103,269,249064,5,0,0:0:0:0:
402,82,249231,1,2,0:0:0:0:
159,24,249397,5,8,0:0:0:0:
362,328,249564,1,2,0:0:0:0:
409,71,249731,1,0,0:0:0:0:
94,279,249897,1,0,0:0:0:0:
94,279,249981,1,0,0:0:0:0:
94,279,250064,1,8,0:0:0:0:
94,279,250397,1,8,0:0:0:0:
94,279,250731,6,0,B|21:266|21:266|12:113|12:113|95:127,1,300.000011444092,4|0,0:0|0:0,0:0:0:0:
158,137,251147,1,0,0:0:0:0:
158,137,251231,1,0,0:0:0:0:
284,57,251397,2,0,B|362:40|362:40|434:78,1,150.000005722046,8|0,0:0|0:0,0:0:0:0:
417,148,251647,2,0,B|339:165|339:165|267:127,1,150.000005722046,2|0,0:0|0:0,0:0:0:0:
215,87,251897,1,2,0:0:0:0:
82,15,252064,6,0,B|38:80|65:160|65:160|30:238|86:315,1,300.000011444092,2|8,0:0|0:0,0:0:0:0:
213,364,252564,1,0,0:0:0:0:
205,213,252731,2,0,B|236:190|258:159|258:159|298:160|334:171|334:171|350:137|379:113|379:113|414:126|463:125,1,300.000011444092,8|8,0:0|0:0,0:0:0:0:
296,78,253231,1,0,0:0:0:0:
151,101,253397,5,8,0:0:0:0:
163,298,253564,1,0,0:0:0:0:
116,81,253731,5,2,0:0:0:0:
128,318,253897,1,0,0:0:0:0:
222,71,254064,5,8,0:0:0:0:
210,356,254231,1,0,0:0:0:0:
257,51,254397,5,2,0:0:0:0:
245,376,254564,1,0,0:0:0:0:
299,59,254731,6,0,P|332:38|406:29,1,100,2|0,0:0|0:0,0:0:0:0:
434,53,255231,1,2,0:0:0:0:
419,100,255397,2,0,P|386:121|312:130,1,100,2|2,0:0|0:0,0:0:0:0:
326,131,256064,6,0,P|305:103|233:68,1,100.000003814697,4|0,0:0|0:0,0:0:0:0:
236,170,256286,1,0,0:0:0:0:
404,193,256397,6,0,P|438:188|505:143,1,100.000003814697,2|0,0:0|0:0,0:0:0:0:
415,96,256620,1,0,0:0:0:0:
311,235,256731,6,0,P|297:267|302:347,1,100.000003814697,8|0,0:0|0:0,0:0:0:0:
390,293,256953,1,0,0:0:0:0:
326,131,257064,6,0,B|300:71|247:50|247:50|190:80|172:140,1,225.000008583069,8|0,0:0|0:0,0:0:0:0:
250,147,257397,1,2,0:0:0:0:
91,1,257620,1,0,0:0:0:0:
88,16,257675,1,0,0:0:0:0:
86,30,257731,2,0,L|69:135,2,100.000003814697,2|0|0,0:0|0:0|0:0,0:0:0:0:
121,193,258064,6,0,P|81:214|20:195,1,100,2|2,0:0|0:0,0:0:0:0:
274,26,258731,6,0,P|388:20|489:177,1,300.000011444092,4|0,0:0|0:0,0:0:0:0:
295,153,259231,6,0,P|369:115|365:198,1,200,8|0,0:0|0:0,0:0:0:0:
22,225,259731,6,0,P|94:349|237:358,1,300.000011444092,8|0,0:0|0:0,0:0:0:0:
146,186,260231,6,0,P|142:268|216:230,1,200,8|0,0:0|0:0,0:0:0:0:
256,85,260731,6,0,B|300:24|300:24|383:14,2,150.000005722046,8|0|8,0:0|0:0|0:0,0:0:0:0:
45,0,261286,1,0,0:0:0:0:
57,9,261342,1,0,0:0:0:0:
67,19,261397,6,0,B|90:46|112:106|112:106|125:143|123:189|105:206|72:211|39:197|17:172|10:137|15:113|68:91|112:106|112:106|131:149|165:187|258:175,1,525.000020027161,4|0,0:0|0:0,0:0:0:0:
279,220,262064,2,0,P|370:206|445:211,1,150.000005722046,8|0,0:0|0:0,0:0:0:0:
492,247,262314,2,0,P|465:173|466:90,1,150.000005722046,2|0,0:0|0:0,0:0:0:0:
506,40,262564,1,2,0:0:0:0:
365,94,262731,6,0,B|306:107|235:90|235:90|204:71|194:46|203:17|220:-4|255:-5|276:-1|294:17|305:57|287:76|271:91|235:90|235:90|179:103|150:161|150:172|150:172|182:186|192:241,1,525.000020027161,8|0,0:0|0:0,0:0:0:0:
239,168,263397,2,0,P|322:175|395:166,1,150.000005722046,8|0,0:0|0:0,0:0:0:0:
441,114,263647,2,0,P|421:192|421:270,1,150.000005722046,2|0,0:0|0:0,0:0:0:0:
466,320,263897,1,2,0:0:0:0:
318,289,264064,6,0,B|242:278|242:278|179:304|179:304|178:311|178:311|172:307|172:307|112:334|112:334|37:325,2,300.000011444092,2|2|8,0:0|0:0|0:0,0:0:0:0:
466,320,264897,2,0,B|499:248|485:169|485:169|448:129|446:53|484:4,1,300.000011444092,2|8,0:0|0:0,0:0:0:0:
344,118,265397,2,0,P|268:148|198:121,1,150.000005722046,2|0,0:0|0:0,0:0:0:0:
115,6,265731,2,0,B|96:79|96:79|43:131|43:131|24:213,1,225.000008583069,8|0,0:0|0:0,0:0:0:0:
51,276,266064,6,0,P|59:312|90:343,1,75,2|0,0:0|0:0,0:0:0:0:
128,277,266397,2,0,L|158:273,1,25,2|0,0:0|0:0,0:0:0:0:
224,300,266564,2,0,L|254:296,1,25,2|0,0:0|0:0,0:0:0:0:
320,328,266731,6,0,B|357:331|394:322|394:322|404:282|421:254|421:254|430:250|430:250|425:242|425:242|445:180|431:102,1,300.000011444092,4|0,0:0|0:0,0:0:0:0:
480,50,267147,1,0,0:0:0:0:
480,50,267231,1,0,0:0:0:0:
360,139,267397,2,0,B|325:159|287:161|287:161|286:157|286:157|231:167|194:135|194:135|194:138|194:138|130:120|112:57,1,300.000011444092,8|2,0:0|0:0,0:0:0:0:
260,59,267897,1,2,0:0:0:0:
194,247,268064,6,0,P|148:279|96:279,1,100.000003814697,2|0,0:0|0:0,0:0:0:0:
18,231,268286,1,0,0:0:0:0:
50,136,268397,6,0,P|96:104|148:104,1,100.000003814697,2|0,0:0|0:0,0:0:0:0:
226,152,268620,1,0,0:0:0:0:
296,223,268731,6,0,B|326:246|359:259|359:259|390:238|435:240|435:240|461:209|468:173,1,225.000008583069,8|0,0:0|0:0,0:0:0:0:
439,105,269064,2,0,P|441:67|432:25,1,75.0000028610231,2|0,0:0|0:0,0:0:0:0:
365,74,269231,2,0,P|347:40|318:8,1,75.0000028610231,2|0,0:0|0:0,0:0:0:0:
281,82,269397,5,8,0:0:0:0:
48,109,269564,1,0,0:0:0:0:
293,113,269731,5,2,0:0:0:0:
42,135,269897,1,0,0:0:0:0:
305,146,270064,6,0,B|366:157|417:155|468:150|468:150|476:148|476:148|473:157|473:157|490:196|483:255|483:255|399:273|302:251|302:251|266:264|227:301|252:361|312:384|384:342|361:267|302:251|302:251|235:235|181:242|181:242|154:295|80:296|47:257|53:184|100:151|163:173|168:217,1,1125.00004291535,8|0,0:0|0:0,0:0:0:0:
190,269,271397,2,0,P|116:302|72:179,1,225.000008583069,8|0,0:0|0:0,0:0:0:0:
113,139,271731,2,0,B|125:124|125:124|144:120|144:120|155:108|155:108|171:105|171:105|181:95|181:95|197:91|197:91|206:80|206:80|220:77|220:77|230:67|230:67|246:62|246:62|254:53|254:53|269:49|269:49|278:39|278:39|291:35|291:35|302:29,1,225.000008583069,8|0,0:0|0:0,0:0:0:0:
367,63,272064,6,0,B|394:89|412:126|412:126|419:128|419:128|388:163|384:231|456:286|529:240,1,300.000011444092,4|0,0:0|0:0,0:0:0:0:
477,178,272481,1,0,0:0:0:0:
477,178,272564,1,0,0:0:0:0:
350,259,272731,2,0,B|270:287|209:226,1,150.000005722046,8|0,0:0|0:0,0:0:0:0:
198,154,272981,2,0,B|226:234|165:295,1,150.000005722046,2|0,0:0|0:0,0:0:0:0:
101,328,273231,1,2,0:0:0:0:
51,187,273397,1,2,0:0:0:0:
198,154,273564,6,0,L|278:139,1,75.0000028610231,8|0,0:0|0:0,0:0:0:0:
374,57,273731,2,0,L|349:127,1,75.0000028610231,2|0,0:0|0:0,0:0:0:0:
369,260,273897,2,0,L|320:203,1,75.0000028610231,8|0,0:0|0:0,0:0:0:0:
197,154,274064,6,0,B|149:95|149:95|76:84|76:84|62:45|26:22|26:22|12:62|28:106,1,300.000011444092,8|2,0:0|0:0,0:0:0:0:
68,247,274564,1,0,0:0:0:0:
222,298,274731,5,8,0:0:0:0:
186,8,274897,1,0,0:0:0:0:
267,302,275064,5,2,0:0:0:0:
231,12,275231,1,0,0:0:0:0:
312,305,275397,5,8,0:0:0:0:
276,15,275564,1,0,0:0:0:0:
357,309,275731,5,2,0:0:0:0:
321,19,275897,1,0,0:0:0:0:
402,313,276064,5,8,0:0:0:0:
366,23,276231,1,0,0:0:0:0:
446,317,276397,6,0,B|481:287|487:229|487:229|405:216|423:122|475:108|512:142,1,275,8|0,0:0|0:0,0:0:0:0:
469,115,277397,6,0,P|419:107|373:89,1,100,4|0,0:0|0:0,0:0:0:0:
287,151,277731,2,0,L|186:155,1,100,2|0,0:0|0:0,0:0:0:0:
102,101,278064,1,8,0:0:0:0:
102,101,278397,1,8,0:0:0:0:
102,101,278731,6,0,B|86:120|86:120|98:213,1,100,2|0,0:0|0:0,0:0:0:0:
159,271,279064,2,0,P|210:288|266:286,1,100,2|0,0:0|0:0,0:0:0:0:
342,236,279397,1,8,0:0:0:0:
342,236,279731,1,8,0:0:0:0:
342,236,280064,6,0,L|358:338,1,100,2|0,0:0|0:0,0:0:0:0:
428,56,280397,2,0,L|412:158,1,100,2|0,0:0|0:0,0:0:0:0:
334,9,280731,1,8,0:0:0:0:
334,9,281064,1,8,0:0:0:0:
334,9,281397,6,0,P|287:38|235:44,1,100,2|0,0:0|0:0,0:0:0:0:
146,17,281731,1,2,0:0:0:0:
167,114,281897,1,0,0:0:0:0:
167,114,281981,1,0,0:0:0:0:
167,114,282064,2,0,B|174:163|174:163|133:254|133:254|143:317,1,200,8|8,0:0|0:0,0:0:0:0:
56,122,282731,5,4,0:0:0:0:
121,47,282897,1,0,0:0:0:0:
166,25,282981,1,0,0:0:0:0:
215,22,283064,1,0,0:0:0:0:
263,34,283147,1,0,0:0:0:0:
301,66,283231,1,2,0:0:0:0:
330,161,283397,2,0,B|324:214|324:214|341:259|341:259|325:307|325:307|341:360,1,200,8|0,0:0|0:0,0:0:0:0:
429,310,283897,1,0,0:0:0:0:
459,214,284064,6,0,L|455:111,1,100,2|0,0:0|0:0,0:0:0:0:
411,23,284397,1,0,0:0:0:0:
326,76,284564,1,2,0:0:0:0:
229,50,284731,2,0,B|206:38|206:38|145:50|145:50|137:43|137:43|65:57,1,150,8|0,0:0|0:0,0:0:0:0:
32,105,285064,2,0,B|20:128|20:128|32:189|32:189|25:197|25:197|39:269,1,150,8|0,0:0|0:0,0:0:0:0:
50,322,285397,5,2,0:0:0:0:
143,357,285564,1,0,0:0:0:0:
192,351,285647,1,0,0:0:0:0:
242,345,285731,1,0,0:0:0:0:
291,339,285814,1,0,0:0:0:0:
340,333,285897,1,2,0:0:0:0:
410,261,286064,1,8,0:0:0:0:
312,237,286231,2,0,B|166:256|166:256|212:224,1,200,2|4,0:0|0:2,0:0:0:0:
280,154,286731,5,2,0:0:0:0:
183,41,286897,1,0,0:0:0:0:
79,218,287064,1,8,0:0:0:0:
290,50,287231,1,0,0:0:0:0:
80,301,287397,1,2,0:0:0:0:
361,181,287564,1,0,0:0:0:0:
105,17,287731,1,8,0:0:0:0:
105,17,288064,6,0,P|81:69|95:122,1,100,4|0,0:0|0:0,0:0:0:0:
168,168,288397,2,0,L|281:161,1,100,2|0,0:0|0:0,0:0:0:0:
351,106,288731,2,0,B|451:100|451:100|486:145|492:202,1,200,8|8,0:0|0:0,0:0:0:0:
490,190,289397,6,0,L|383:199,1,100,2|0,0:0|0:0,0:0:0:0:
303,249,289731,2,0,P|267:289|203:306,1,100,2|0,0:0|0:0,0:0:0:0:
208,206,290064,2,0,B|184:162|184:162|214:68|214:68|192:14,1,200,8|8,0:0|0:0,0:0:0:0:
194,20,290731,6,0,P|142:51|96:51,1,100,2|0,0:0|0:0,0:0:0:0:
26,116,291064,2,0,L|34:221,1,100,2|0,0:0|0:0,0:0:0:0:
98,292,291397,2,0,P|155:268|257:350,1,200,8|8,0:0|0:0,0:0:0:0:
255,343,292064,6,0,L|361:335,1,100,2|0,0:0|0:0,0:0:0:0:
436,277,292397,1,2,0:0:0:0:
347,230,292564,1,0,0:0:0:0:
347,230,292647,1,0,0:0:0:0:
347,230,292731,2,0,P|332:179|417:71,1,200,8|8,0:0|0:0,0:0:0:0:
414,71,293397,5,4,0:0:0:0:
483,142,293564,1,0,0:0:0:0:
488,191,293647,1,0,0:0:0:0:
475,239,293731,1,0,0:0:0:0:
440,275,293814,1,0,0:0:0:0:
391,288,293897,1,2,0:0:0:0:
302,241,294064,2,0,B|255:221|255:221|258:226|258:226|227:216|207:216|207:216|210:221|210:221|183:216|166:219|166:219|171:222|171:222|145:222|123:233,1,200,8|8,0:0|0:0,0:0:0:0:
69,301,294564,1,0,0:0:0:0:
36,206,294731,6,0,L|26:100,1,100,2|0,0:0|0:0,0:0:0:0:
103,42,295064,2,0,P|168:27|211:37,1,100,2|0,0:0|0:0,0:0:0:0:
277,95,295397,2,0,B|290:103|290:103|321:107|321:107|343:98|377:93|377:93|425:101,1,150,8|0,0:0|0:0,0:0:0:0:
475,151,295731,2,0,B|467:164|467:164|463:195|463:195|472:217|477:251|477:251|469:299,1,150,8|0,0:0|0:0,0:0:0:0:
417,349,296064,5,2,0:0:0:0:
333,292,296231,1,0,0:0:0:0:
297,257,296314,1,0,0:0:0:0:
287,208,296397,1,0,0:0:0:0:
302,159,296481,1,0,0:0:0:0:
343,130,296564,1,2,0:0:0:0:
424,71,296731,1,8,0:0:0:0:
334,27,296897,2,0,B|287:9|287:9|183:38|117:26,1,200,2|4,0:0|0:2,0:0:0:0:
54,81,297397,5,8,0:0:0:0:
39,243,297564,1,0,0:0:0:0:
136,317,297731,1,2,0:0:0:0:
212,300,297897,1,0,0:0:0:0:
230,275,298064,6,0,P|272:259|363:306,1,150,2|0,0:0|0:0,0:0:0:0:
346,271,298731,6,0,P|371:236|379:176,1,100,6|0,0:0|0:0,0:0:0:0:
351,138,299231,1,0,0:0:0:0:
303,152,299397,2,0,P|278:187|270:247,1,100,8|0,0:0|0:0,0:0:0:0:
246,286,299897,1,0,0:0:0:0:
201,309,300064,2,0,P|168:318|145:316,1,50,2|0,0:0|0:0,0:0:0:0:
110,290,300397,2,0,L|106:233,1,50,2|0,0:0|0:0,0:0:0:0:
132,197,300731,2,0,L|126:94,1,100,8|0,0:0|0:0,0:0:0:0:
151,54,301231,1,0,0:0:0:0:
197,36,301397,6,0,L|248:42,1,50,2|0,0:0|0:0,0:0:0:0:
325,91,301731,2,0,L|274:85,1,50,2|0,0:0|0:0,0:0:0:0:
200,124,302064,2,0,L|251:130,1,50,10|0,0:0|0:0,0:0:0:0:
328,179,302397,2,0,L|277:173,1,50,2|0,0:0|0:0,0:0:0:0:
208,214,302731,2,0,L|259:220,1,50,2|0,0:0|0:0,0:0:0:0:
336,269,303064,2,0,L|285:263,1,50,2|0,0:0|0:0,0:0:0:0:
271,283,303314,1,0,0:0:0:0:
258,299,303397,2,0,B|206:293|206:293|164:324,1,100,8|8,0:0|0:0,0:0:0:0:
168,321,304064,6,0,L|158:217,1,100,6|0,0:0|0:0,0:0:0:0:
120,188,304564,1,0,0:0:0:0:
82,155,304731,2,0,L|76:75,2,75,10|0|0,0:0|0:0|0:0,0:0:0:0:
120,188,305397,6,0,P|173:205|215:198,1,100,2|8,0:0|0:0,0:0:0:0:
253,164,305897,1,0,0:0:0:0:
298,184,306064,2,0,P|347:177|393:193,1,100,8|0,0:0|0:0,0:0:0:0:
425,232,306564,1,0,0:0:0:0:
441,279,306731,6,0,L|435:334,1,50,2|0,0:0|0:0,0:0:0:0:
364,288,307064,2,0,L|358:343,1,50,2|0,0:0|0:0,0:0:0:0:
287,299,307397,2,0,L|281:354,1,50,10|0,0:0|0:0,0:0:0:0:
210,308,307731,2,0,L|204:363,1,50,2|0,0:0|0:0,0:0:0:0:
134,312,308064,2,0,L|128:367,1,50,2|0,0:0|0:0,0:0:0:0:
57,321,308397,2,0,L|51:376,1,50,2|0,0:0|0:0,0:0:0:0:
88,250,308731,1,8,0:0:0:0:
88,250,309064,1,8,0:0:0:0:
88,250,309397,6,0,B|84:151|84:151|130:189,1,150,4|0,0:0|0:0,0:0:0:0:
161,216,310064,2,0,P|199:237|268:242,1,100,8|0,0:0|0:0,0:0:0:0:
343,196,310731,5,2,0:0:0:0:
386,171,310897,2,0,P|438:160|497:175,1,100,0|0,0:0|0:0,0:0:0:0:
450,131,311397,2,0,P|411:100|354:102,1,100,8|0,0:0|0:0,0:0:0:0:
270,59,312064,6,0,L|218:64,1,50,2|0,0:0|0:0,0:0:0:0:
178,35,312397,1,2,0:0:0:0:
129,24,312564,1,0,0:0:0:0:
82,43,312731,2,0,P|59:96|66:144,1,100,8|0,0:0|0:0,0:0:0:0:
114,222,313397,6,0,L|183:219,1,50,2|2,0:0|0:0,0:0:0:0:
214,216,313731,1,0,0:0:0:0:
305,112,313897,1,0,0:0:0:0:
305,112,313981,1,0,0:0:0:0:
305,112,314064,2,0,P|358:89|411:94,1,100,8|8,0:0|0:0,0:0:0:0:
482,147,314731,5,2,0:0:0:0:
448,184,314897,2,0,P|427:233|442:288,1,100,0|0,0:0|0:0,0:0:0:0:
465,317,315397,2,0,L|364:329,1,100,8|0,0:0|0:0,0:0:0:0:
316,336,315897,1,0,0:0:0:0:
270,316,316064,6,0,L|205:320,1,50,2|0,0:0|0:0,0:0:0:0:
170,321,316397,2,0,P|114:331|75:375,1,100,8|8,0:0|0:0,0:0:0:0:
70,310,316897,1,0,0:0:0:0:
57,261,317064,1,0,0:0:0:0:
101,171,317397,6,0,P|134:156|159:155,1,50,2|0,0:0|0:0,0:0:0:0:
196,166,317731,2,0,P|220:161|242:149,1,50,2|0,0:0|0:0,0:0:0:0:
273,110,318064,2,0,P|326:89|379:87,1,100,8|0,0:0|0:0,0:0:0:0:
415,102,318564,1,0,0:0:0:0:
440,144,318731,6,0,L|445:198,1,50,2|0,0:0|0:0,0:0:0:0:
408,228,319064,2,0,L|413:282,1,50,2|2,0:0|0:0,0:0:0:0:
374,309,319397,1,8,0:0:0:0:
288,360,319731,1,8,0:0:0:0:
231,265,320064,6,2,P|178:215|204:282,1,200,2|2,0:0|0:0,0:0:0:0:
256,192,320314,12,0,330731,0:0:0:0:
