osu file format v14

[General]
AudioFilename: audio.mp3
AudioLeadIn: 0
PreviewTime: 36340
Countdown: 0
SampleSet: Normal
StackLeniency: 0.7
Mode: 0
LetterboxInBreaks: 0
WidescreenStoryboard: 1

[Editor]
Bookmarks: 55320
DistanceSpacing: 1.3
BeatDivisor: 4
GridSize: 32
TimelineZoom: 2

[Metadata]
Title:Death to Squishies
TitleUnicode:Death to Squishies
Artist:Courtney Gears
ArtistUnicode:Courtney Gears
Creator:isopaharuntikka
Version:Hard
Source:Ratchet & Clank 3
Tags:sony insomniac games RikiH_ david bergeaud
BeatmapID:977229
BeatmapSetID:455946

[Difficulty]
HPDrainRate:4
CircleSize:4
OverallDifficulty:7
ApproachRate:8
SliderMultiplier:1.4
SliderTickRate:2

[Events]
//Background and Video events
0,0,"obani_draco_by_martingust-d9w9vki.jpg",0,0
//Break Periods
//Storyboard Layer 0 (Background)
//Storyboard Layer 1 (Fail)
//Storyboard Layer 2 (Pass)
//Storyboard Layer 3 (Foreground)
//Storyboard Sound Samples

[TimingPoints]
3896,489.795918367347,4,1,1,60,1,0
3896,-100,4,1,0,60,0,0
4018,-100,4,1,1,60,0,0
15528,-100,4,1,0,35,0,0
15773,-100,4,1,1,60,0,0
21406,-100,4,1,0,45,0,0
21651,-100,4,1,1,60,0,0
22140,-100,4,1,0,35,0,0
22385,-100,4,1,1,60,0,0
24589,-100,4,1,1,60,0,0
24834,-100,4,1,1,60,0,0
36218,489.795918367347,4,1,1,60,1,1
36340,-100,4,1,1,60,0,1
41973,-100,4,1,0,45,0,1
42218,-100,4,1,1,60,0,1
42952,-100,4,1,0,35,0,1
43197,-100,4,1,1,60,0,1
51769,-100,4,1,0,60,0,1
52013,-100,4,1,1,60,0,0

[HitObjects]
188,124,467,5,8,0:0:0:0:
103,158,712,1,8,0:0:0:0:
320,256,1936,5,8,0:0:0:0:
404,288,2181,1,8,0:0:0:0:
361,110,2671,5,8,0:0:0:0:
436,160,2916,1,12,0:0:0:0:
111,325,3896,5,8,0:0:0:0:
74,242,4140,1,8,0:0:0:0:
116,161,4385,2,4,P|166:183|211:176,1,70
264,146,4875,5,8,0:0:0:0:
208,74,5119,1,8,0:0:0:0:
117,62,5365,2,4,L|42:128,1,70
110,187,5855,5,8,0:0:0:0:
161,261,6099,1,8,0:0:0:0:
230,320,6344,2,4,L|326:320,1,70
385,287,6834,5,8,0:0:0:0:
318,224,7078,1,8,0:0:0:0:
236,182,7324,2,4,P|207:142|224:112,1,70
290,79,7814,5,8,0:0:0:0:
374,46,8058,1,8,0:0:0:0:
442,106,8304,2,4,L|349:141,1,70
315,198,8793,5,8,0:0:0:0:
298,108,9037,1,8,0:0:0:0:
210,80,9283,2,4,P|207:134|227:155,1,70
234,234,9773,5,8,0:0:0:0:
149,200,10017,1,8,0:0:0:0:
138,290,10263,2,4,P|168:333|199:331,1,70
270,316,10753,5,8,0:0:0:0:
316,237,10997,1,8,0:0:0:0:
277,154,11242,2,4,L|260:61,1,70
185,39,11732,6,2,L|185:193,1,140
96,224,12467,1,8,0:0:0:0:
124,310,12712,1,8,0:0:0:0:
215,311,12957,1,4,0:0:0:0:
305,318,13202,5,8,0:0:0:0:
396,319,13447,1,2,0:0:0:0:
437,238,13691,1,8,0:0:0:0:
444,147,13936,1,4,0:0:0:0:
423,58,14181,5,8,0:0:0:0:
334,79,14426,1,2,0:0:0:0:
242,79,14671,1,8,0:0:0:0:
157,46,14916,1,4,0:0:0:0:
103,119,15161,5,8,0:0:0:0:
121,208,15406,1,2,0:0:0:0:
194,155,15650,1,8,0:0:0:0:
254,223,15895,1,4,0:0:0:0:
316,156,16140,5,8,0:0:0:0:
383,217,16385,1,2,0:0:0:0:
324,286,16630,1,8,0:0:0:0:
264,355,16875,1,2,0:0:0:0:
199,290,17120,1,4,0:0:0:0:
194,199,17365,5,8,0:0:0:0:
255,132,17609,1,2,0:0:0:0:
323,192,17854,1,8,0:0:0:0:
269,265,18099,1,4,0:0:0:0:
256,192,18344,12,14,19569,0:0:0:0:
207,65,19814,5,8,0:0:0:0:
128,127,20059,1,8,0:0:0:0:
138,217,20304,2,4,L|206:290,1,70
220,186,20793,5,8,0:0:0:0:
151,129,21038,1,8,0:0:0:0:
238,103,21283,2,4,P|279:123|312:120,1,70
283,211,21773,5,8,0:0:0:0:
200,250,22018,1,8,0:0:0:0:
243,329,22263,2,4,L|332:298,1,70
353,238,22753,5,8,0:0:0:0:
292,169,22998,1,8,0:0:0:0:
311,80,23242,2,4,P|253:86|224:111,1,70
156,66,23732,5,8,0:0:0:0:
90,129,23977,1,8,0:0:0:0:
64,216,24222,2,4,L|160:216,1,70
190,287,24712,5,8,0:0:0:0:
256,224,24957,1,8,0:0:0:0:
318,290,25202,1,4,0:0:0:0:
64,64,25447,6,2,L|160:160,1,105
171,169,25936,2,2,L|257:259,1,105
278,274,26426,2,2,L|377:189,1,105
395,179,26916,2,2,L|491:83,1,105
378,97,27528,6,0,L|156:253,1,245
256,283,28630,5,8,0:0:0:0:
341,252,28875,1,8,0:0:0:0:
375,167,29120,2,4,L|313:99,1,70
255,59,29610,5,8,0:0:0:0:
181,113,29855,1,8,0:0:0:0:
140,194,30100,2,4,L|236:194,1,70
271,126,30589,5,8,0:0:0:0:
345,178,30834,1,8,0:0:0:0:
402,248,31079,2,4,P|390:298|348:313,1,70
287,288,31569,5,8,0:0:0:0:
219,226,31814,1,8,0:0:0:0:
241,137,32059,2,2,L|264:62,1,70
170,68,32549,1,8,0:0:0:0:
99,127,32793,2,4,L|141:183,1,70
146,274,33283,5,8,0:0:0:0:
236,278,33528,1,8,0:0:0:0:
372,157,34018,5,8,0:0:0:0:
300,100,34263,1,8,0:0:0:0:
367,269,34753,5,8,0:0:0:0:
436,328,34998,1,4,0:0:0:0:
256,192,35242,12,14,36218,0:0:0:0:
256,192,36462,5,8,0:0:0:0:
167,123,36707,1,8,0:0:0:0:
104,216,36952,2,4,L|157:282,1,70
257,247,37442,5,8,0:0:0:0:
360,203,37687,1,8,0:0:0:0:
269,136,37932,2,4,L|197:71,1,70
191,198,38422,5,8,0:0:0:0:
290,250,38667,1,8,0:0:0:0:
193,305,38911,2,4,P|148:312|122:296,1,70
104,191,39401,5,8,0:0:0:0:
180,109,39646,1,8,0:0:0:0:
291,99,39891,2,4,L|387:99,1,70
322,204,40381,5,8,0:0:0:0:
387,295,40626,1,8,0:0:0:0:
449,202,40871,2,4,P|435:157|411:132,1,70
341,61,41360,5,8,0:0:0:0:
240,109,41605,1,2,0:0:0:0:
137,63,41850,1,8,0:0:0:0:
134,175,42095,1,2,0:0:0:0:
321,297,42585,1,8,0:0:0:0:
379,80,43075,1,2,0:0:0:0:
223,240,43564,1,8,0:0:0:0:
442,193,44054,1,4,0:0:0:0:
411,92,44299,5,8,0:0:0:0:
308,69,44544,1,8,0:0:0:0:
207,100,44789,2,4,L|276:168,1,70
352,224,45279,5,8,0:0:0:0:
311,328,45524,1,8,0:0:0:0:
212,273,45769,2,4,P|157:269|138:249,1,70
192,158,46258,5,8,0:0:0:0:
241,57,46503,1,8,0:0:0:0:
332,121,46748,2,4,P|386:138|393:169,1,70
305,220,47238,5,8,0:0:0:0:
218,290,47483,1,8,0:0:0:0:
159,194,47728,2,4,L|255:194,1,70
320,195,48218,5,0,0:0:0:0:
268,120,48462,1,0,0:0:0:0:
347,76,48707,1,0,0:0:0:0:
403,147,48952,1,0,0:0:0:0:
464,214,49197,1,0,0:0:0:0:
396,275,49442,1,0,0:0:0:0:
319,324,49687,1,0,0:0:0:0:
281,241,49932,1,0,0:0:0:0:
147,117,50422,5,4,0:0:0:0:
328,115,50911,1,4,0:0:0:0:
326,297,51401,1,4,0:0:0:0:
143,296,51891,1,4,0:0:0:0:
256,192,52381,12,14,55320,0:0:0:0:
