osu file format v14

[General]
AudioFilename: audio.mp3
AudioLeadIn: 0
PreviewTime: 47346
Countdown: 0
SampleSet: Soft
StackLeniency: 0.7
Mode: 1
LetterboxInBreaks: 0
WidescreenStoryboard: 0

[Editor]
DistanceSpacing: 1.3
BeatDivisor: 3
GridSize: 32
TimelineZoom: 1.7

[Metadata]
Title:Kaite wa Keshite no "I Love You"
TitleUnicode:書いては消しての “I Love You”
Artist:Country Girls
ArtistUnicode:カントリー・ガールズ
Creator:Karee Pan
Version:Oni
Source:
Tags:Hello!Project, ハロプロ,Yamaki Risa, Morito Chisaki, Ozeki Mai, Yanagawa Nanami, Funaki Musubu
BeatmapID:1552723
BeatmapSetID:735590

[Difficulty]
HPDrainRate:5
CircleSize:5
OverallDifficulty:6
ApproachRate:5
SliderMultiplier:1.4
SliderTickRate:1

[Events]
//Background and Video events
0,0,"61HWoVsrkUL._SS500.jpg",0,0
//Break Periods
//Storyboard Layer 0 (Background)
//Storyboard Layer 1 (Fail)
//Storyboard Layer 2 (Pass)
//Storyboard Layer 3 (Foreground)
//Storyboard Sound Samples

[TimingPoints]
1632,285.714285714286,4,2,0,80,1,0
47346,-100,4,2,0,80,0,1
65632,-100,4,2,0,80,0,0

[HitObjects]
256,192,1631,5,0,0:0:0:0:
254,187,1822,1,0,0:0:0:0:
256,192,1917,1,0,0:0:0:0:
256,192,2203,1,0,0:0:0:0:
256,192,2489,1,8,0:0:0:0:
256,192,2679,1,0,0:0:0:0:
256,192,2965,1,0,0:0:0:0:
256,192,3060,1,8,0:0:0:0:
256,192,3346,1,0,0:0:0:0:
256,192,3536,1,0,0:0:0:0:
256,192,3632,1,8,0:0:0:0:
256,192,3917,1,0,0:0:0:0:
231,170,4108,1,0,0:0:0:0:
231,170,4203,1,0,0:0:0:0:
256,192,4489,1,0,0:0:0:0:
256,192,4774,1,8,0:0:0:0:
256,192,4965,1,0,0:0:0:0:
256,192,5251,1,0,0:0:0:0:
256,192,5346,1,8,0:0:0:0:
256,192,5536,1,0,0:0:0:0:
256,192,5632,1,8,0:0:0:0:
256,192,5822,1,8,0:0:0:0:
256,192,5917,1,8,0:0:0:0:
256,192,6203,1,0,0:0:0:0:
234,170,6393,1,0,0:0:0:0:
256,192,6489,1,8,0:0:0:0:
256,192,6774,1,0,0:0:0:0:
256,192,7060,1,8,0:0:0:0:
255,197,7251,1,0,0:0:0:0:
256,192,7536,1,0,0:0:0:0:
256,192,7632,1,8,0:0:0:0:
256,192,7917,1,0,0:0:0:0:
256,192,8108,1,8,0:0:0:0:
256,192,8203,1,8,0:0:0:0:
256,192,8489,1,12,0:0:0:0:
256,192,8774,1,12,0:0:0:0:
256,192,9060,1,4,0:0:0:0:
256,192,9251,1,4,0:0:0:0:
256,192,9536,1,12,0:0:0:0:
256,192,9822,1,0,0:0:0:0:
256,192,9917,1,0,0:0:0:0:
231,189,10108,1,0,0:0:0:0:
256,192,10203,1,8,0:0:0:0:
254,198,10393,1,0,0:0:0:0:
256,192,10489,1,8,0:0:0:0:
256,192,10774,1,4,0:0:0:0:
254,198,12108,1,8,0:0:0:0:
254,198,12489,1,8,0:0:0:0:
254,198,12774,1,8,0:0:0:0:
254,198,13060,1,4,0:0:0:0:
254,198,13632,1,12,0:0:0:0:
254,198,14108,1,4,0:0:0:0:
254,198,14393,1,0,0:0:0:0:
224,192,14679,1,0,0:0:0:0:
254,198,14774,1,0,0:0:0:0:
245,194,15060,1,12,0:0:0:0:
245,194,15346,1,12,0:0:0:0:
265,235,15632,1,8,0:0:0:0:
265,235,15917,1,0,0:0:0:0:
256,192,16108,1,0,0:0:0:0:
265,235,16203,1,8,0:0:0:0:
160,170,16393,1,0,0:0:0:0:
192,224,16679,1,0,0:0:0:0:
264,209,16774,5,8,0:0:0:0:
269,217,16965,1,8,0:0:0:0:
248,209,17060,1,0,0:0:0:0:
264,209,17346,1,8,0:0:0:0:
264,209,17632,1,0,0:0:0:0:
288,224,17917,1,8,0:0:0:0:
308,208,18203,1,0,0:0:0:0:
308,208,18489,1,8,0:0:0:0:
224,224,18679,1,0,0:0:0:0:
258,221,18774,1,8,0:0:0:0:
256,224,18965,1,0,0:0:0:0:
258,221,19060,1,8,0:0:0:0:
258,221,19251,1,8,0:0:0:0:
258,221,19346,1,8,0:0:0:0:
264,209,19536,1,8,0:0:0:0:
264,209,19632,1,8,0:0:0:0:
264,209,19917,1,4,0:0:0:0:
256,192,20393,1,0,0:0:0:0:
264,209,20489,1,8,0:0:0:0:
264,209,20774,1,8,0:0:0:0:
264,214,21060,1,0,0:0:0:0:
279,198,21346,1,8,0:0:0:0:
264,209,21632,1,0,0:0:0:0:
275,216,21822,1,8,0:0:0:0:
264,209,21917,1,0,0:0:0:0:
264,209,22203,1,12,0:0:0:0:
255,209,22489,1,8,0:0:0:0:
264,209,22774,1,4,0:0:0:0:
264,209,23060,1,0,0:0:0:0:
264,209,23251,1,12,0:0:0:0:
261,220,23536,1,8,0:0:0:0:
254,196,23822,1,8,0:0:0:0:
254,196,23917,1,8,0:0:0:0:
256,224,24108,1,0,0:0:0:0:
264,209,24203,1,8,0:0:0:0:
264,209,24489,1,0,0:0:0:0:
254,232,24774,1,8,0:0:0:0:
254,232,25060,1,0,0:0:0:0:
254,232,25346,1,8,0:0:0:0:
254,232,25536,1,0,0:0:0:0:
256,224,25822,1,0,0:0:0:0:
254,232,25917,1,8,0:0:0:0:
234,235,26108,1,8,0:0:0:0:
254,232,26203,1,8,0:0:0:0:
254,232,26489,1,8,0:0:0:0:
254,232,26774,1,4,0:0:0:0:
256,224,27060,1,0,0:0:0:0:
254,232,27346,1,0,0:0:0:0:
254,232,27632,1,8,0:0:0:0:
254,232,27822,1,0,0:0:0:0:
254,232,28108,1,0,0:0:0:0:
256,224,28203,1,8,0:0:0:0:
254,232,28393,1,8,0:0:0:0:
254,232,28489,1,0,0:0:0:0:
254,232,28774,1,0,0:0:0:0:
254,232,29060,1,8,0:0:0:0:
277,229,29251,1,0,0:0:0:0:
277,229,29346,1,8,0:0:0:0:
277,229,29632,1,0,0:0:0:0:
277,229,29822,1,0,0:0:0:0:
277,229,29917,1,8,0:0:0:0:
277,229,30203,1,0,0:0:0:0:
246,186,30393,1,8,0:0:0:0:
100,182,30489,1,0,0:0:0:0:
249,190,30774,1,8,0:0:0:0:
256,233,31060,1,0,0:0:0:0:
256,233,31346,1,0,0:0:0:0:
256,233,31632,1,8,0:0:0:0:
256,233,31917,1,8,0:0:0:0:
224,192,32203,1,8,0:0:0:0:
256,233,32489,1,0,0:0:0:0:
224,256,32679,1,8,0:0:0:0:
258,210,32774,1,0,0:0:0:0:
256,224,33060,1,8,0:0:0:0:
261,233,33346,1,0,0:0:0:0:
266,233,33632,1,8,0:0:0:0:
266,233,33822,1,0,0:0:0:0:
263,234,33917,1,8,0:0:0:0:
266,233,34203,1,0,0:0:0:0:
266,233,34393,1,0,0:0:0:0:
266,233,34489,1,8,0:0:0:0:
271,230,34774,1,0,0:0:0:0:
263,234,34965,1,8,0:0:0:0:
277,255,35060,1,0,0:0:0:0:
274,230,35346,1,8,0:0:0:0:
280,211,35632,1,0,0:0:0:0:
280,211,35917,1,8,0:0:0:0:
280,211,36203,1,8,0:0:0:0:
280,211,36489,1,0,0:0:0:0:
280,211,36774,1,0,0:0:0:0:
280,211,37060,1,8,0:0:0:0:
280,211,37251,1,0,0:0:0:0:
256,224,37346,1,8,0:0:0:0:
280,211,37632,1,8,0:0:0:0:
278,234,37822,1,8,0:0:0:0:
256,224,37917,1,8,0:0:0:0:
278,234,38108,1,8,0:0:0:0:
256,224,38203,1,0,0:0:0:0:
288,224,38393,1,0,0:0:0:0:
288,224,38489,1,8,0:0:0:0:
288,224,38774,1,0,0:0:0:0:
288,224,38965,1,0,0:0:0:0:
288,224,39060,1,8,0:0:0:0:
288,224,39346,1,0,0:0:0:0:
247,241,39536,1,8,0:0:0:0:
288,224,39632,1,0,0:0:0:0:
288,224,39822,1,8,0:0:0:0:
288,224,40203,1,0,0:0:0:0:
254,240,40489,1,8,0:0:0:0:
288,224,40774,1,8,0:0:0:0:
258,210,41060,1,0,0:0:0:0:
320,224,41346,1,0,0:0:0:0:
288,224,41536,1,8,0:0:0:0:
288,224,41822,1,8,0:0:0:0:
288,224,41917,1,0,0:0:0:0:
288,224,42203,1,8,0:0:0:0:
288,224,42298,1,8,0:0:0:0:
256,224,42393,1,8,0:0:0:0:
288,224,42489,1,0,0:0:0:0:
288,256,42679,1,8,0:0:0:0:
288,224,42774,1,0,0:0:0:0:
288,224,43060,1,0,0:0:0:0:
288,224,43346,1,8,0:0:0:0:
288,224,43632,1,0,0:0:0:0:
288,224,43917,1,8,0:0:0:0:
288,224,44108,1,0,0:0:0:0:
96,192,44203,1,8,0:0:0:0:
288,224,44298,1,8,0:0:0:0:
288,224,44393,1,8,0:0:0:0:
281,201,44489,1,8,0:0:0:0:
281,201,44584,1,8,0:0:0:0:
288,224,44679,1,8,0:0:0:0:
288,224,44774,1,8,0:0:0:0:
281,201,44870,1,8,0:0:0:0:
288,224,44965,1,8,0:0:0:0:
288,224,45060,1,0,0:0:0:0:
192,192,45917,1,8,0:0:0:0:
219,192,46108,1,0,0:0:0:0:
192,192,46203,1,8,0:0:0:0:
192,192,46393,1,0,0:0:0:0:
192,192,46489,1,8,0:0:0:0:
192,192,46679,1,8,0:0:0:0:
192,192,46774,1,0,0:0:0:0:
192,192,47060,1,0,0:0:0:0:
224,224,47346,5,12,0:0:0:0:
224,224,47536,1,8,0:0:0:0:
224,224,47632,1,8,0:0:0:0:
224,224,47822,1,8,0:0:0:0:
224,224,47917,1,0,0:0:0:0:
224,224,48203,1,0,0:0:0:0:
224,224,48393,1,8,0:0:0:0:
224,224,48679,1,0,0:0:0:0:
224,224,48774,1,12,0:0:0:0:
224,224,49060,1,12,0:0:0:0:
192,256,49251,1,0,0:0:0:0:
224,224,49346,1,8,0:0:0:0:
224,224,49632,1,8,0:0:0:0:
224,224,49917,1,8,0:0:0:0:
224,224,50203,1,0,0:0:0:0:
224,192,50489,1,0,0:0:0:0:
224,192,50679,1,8,0:0:0:0:
224,192,50965,1,0,0:0:0:0:
224,192,51060,1,12,0:0:0:0:
224,192,51346,1,12,0:0:0:0:
204,200,51536,1,0,0:0:0:0:
224,192,51632,1,8,0:0:0:0:
224,192,51917,1,8,0:0:0:0:
224,192,52203,1,8,0:0:0:0:
224,192,52489,1,0,0:0:0:0:
224,192,52774,1,0,0:0:0:0:
224,192,52965,1,8,0:0:0:0:
189,189,53060,1,0,0:0:0:0:
224,192,53251,1,0,0:0:0:0:
256,224,53346,1,8,0:0:0:0:
224,192,53632,1,0,0:0:0:0:
224,192,53917,1,0,0:0:0:0:
224,192,54203,1,8,0:0:0:0:
224,192,54489,1,0,0:0:0:0:
256,224,54679,1,8,0:0:0:0:
256,224,54965,1,8,0:0:0:0:
236,191,55251,1,0,0:0:0:0:
256,224,55346,1,8,0:0:0:0:
192,192,55536,1,0,0:0:0:0:
192,192,55632,1,8,0:0:0:0:
192,192,55727,1,8,0:0:0:0:
192,192,55822,1,8,0:0:0:0:
192,192,55917,1,8,0:0:0:0:
256,224,56108,1,8,0:0:0:0:
256,224,56203,1,0,0:0:0:0:
256,224,56489,1,8,0:0:0:0:
224,256,56774,1,4,0:0:0:0:
224,256,57060,1,4,0:0:0:0:
256,224,57346,1,8,0:0:0:0:
256,224,57441,1,8,0:0:0:0:
256,224,57536,1,0,0:0:0:0:
256,224,57632,1,0,0:0:0:0:
256,224,57822,1,0,0:0:0:0:
256,224,57917,1,12,0:0:0:0:
256,224,58203,1,12,0:0:0:0:
256,224,58489,1,8,0:0:0:0:
256,224,58774,1,8,0:0:0:0:
256,224,59060,1,8,0:0:0:0:
253,233,59251,1,8,0:0:0:0:
256,224,59346,1,0,0:0:0:0:
256,224,59632,1,0,0:0:0:0:
224,224,59822,1,0,0:0:0:0:
224,224,59917,1,8,0:0:0:0:
224,224,60108,1,0,0:0:0:0:
224,224,60203,1,8,0:0:0:0:
224,224,60393,1,8,0:0:0:0:
224,224,60489,1,0,0:0:0:0:
224,224,60774,1,8,0:0:0:0:
224,224,61060,1,8,0:0:0:0:
224,224,61251,1,8,0:0:0:0:
224,224,61346,1,0,0:0:0:0:
224,224,61536,1,8,0:0:0:0:
224,224,61632,1,0,0:0:0:0:
224,224,61822,1,0,0:0:0:0:
224,224,61917,1,8,0:0:0:0:
224,224,62203,1,8,0:0:0:0:
224,224,62489,1,8,0:0:0:0:
224,224,62774,1,8,0:0:0:0:
224,224,63060,1,8,0:0:0:0:
224,224,63346,1,0,0:0:0:0:
224,224,63632,1,0,0:0:0:0:
224,224,63917,1,0,0:0:0:0:
224,224,64203,1,0,0:0:0:0:
224,224,64489,1,8,0:0:0:0:
224,224,64679,1,8,0:0:0:0:
224,224,64774,1,0,0:0:0:0:
224,224,64965,1,8,0:0:0:0:
224,224,65060,1,0,0:0:0:0:
224,224,65251,1,8,0:0:0:0:
224,224,65346,1,0,0:0:0:0:
224,224,65632,1,0,0:0:0:0:
224,224,65917,1,0,0:0:0:0:
224,224,66108,1,8,0:0:0:0:
224,224,66203,1,0,0:0:0:0:
224,224,66393,1,0,0:0:0:0:
224,224,66489,1,8,0:0:0:0:
224,224,66679,1,8,0:0:0:0:
224,224,66965,1,0,0:0:0:0:
224,224,67060,1,12,0:0:0:0:
224,224,67346,1,4,0:0:0:0:
224,224,67917,1,0,0:0:0:0:
224,224,68108,1,8,0:0:0:0:
192,224,68203,1,0,0:0:0:0:
224,224,68393,1,8,0:0:0:0:
224,224,68489,1,0,0:0:0:0:
224,224,68679,1,0,0:0:0:0:
224,224,68774,1,8,0:0:0:0:
224,224,68965,1,8,0:0:0:0:
224,224,69251,1,0,0:0:0:0:
224,224,69346,1,12,0:0:0:0:
224,224,69632,1,4,0:0:0:0:
224,224,70203,1,0,0:0:0:0:
224,224,70489,1,0,0:0:0:0:
224,224,70679,1,8,0:0:0:0:
224,224,70774,1,0,0:0:0:0:
224,224,70965,1,0,0:0:0:0:
224,224,71060,1,8,0:0:0:0:
224,224,71251,1,8,0:0:0:0:
224,224,71536,1,0,0:0:0:0:
224,224,71632,1,12,0:0:0:0:
224,224,71917,1,4,0:0:0:0:
224,224,72203,1,0,0:0:0:0:
224,224,72489,1,12,0:0:0:0:
224,224,73060,1,12,0:0:0:0:
224,224,73346,1,0,0:0:0:0:
224,224,73536,1,0,0:0:0:0:
224,224,73822,1,12,0:0:0:0:
224,224,73917,1,12,0:0:0:0:
224,224,74203,1,12,0:0:0:0:
