osu file format v14

[General]
AudioFilename: audio.mp3
AudioLeadIn: 0
PreviewTime: 47346
Countdown: 0
SampleSet: Soft
StackLeniency: 0.7
Mode: 1
LetterboxInBreaks: 0
WidescreenStoryboard: 1

[Editor]
DistanceSpacing: 1.3
BeatDivisor: 3
GridSize: 32
TimelineZoom: 1.7

[Metadata]
Title:Kaite wa Keshite no "I Love You"
TitleUnicode:書いては消しての “I Love You”
Artist:Country Girls
ArtistUnicode:カントリー・ガールズ
Creator:Karee Pan
Version:Futsuu
Source:
Tags:Hello!Project, ハロプロ,Yamaki Risa, Morito Chisaki, Ozeki Mai, Yanagawa Nanami, Funaki Musubu
BeatmapID:1552720
BeatmapSetID:735590

[Difficulty]
HPDrainRate:7
CircleSize:5
OverallDifficulty:4
ApproachRate:5
SliderMultiplier:1.4
SliderTickRate:1

[Events]
//Background and Video events
0,0,"61HWoVsrkUL._SS500.jpg",0,0
//Break Periods
//Storyboard Layer 0 (Background)
//Storyboard Layer 1 (Fail)
//Storyboard Layer 2 (Pass)
//Storyboard Layer 3 (Foreground)
//Storyboard Sound Samples

[TimingPoints]
1632,285.714285714286,4,2,0,80,1,0
47346,-100,4,2,0,80,0,1
65632,-100,4,2,0,80,0,0

[HitObjects]
256,192,1632,5,0,0:0:0:0:
256,192,2203,1,0,0:0:0:0:
256,192,2679,1,0,0:0:0:0:
256,192,3060,1,8,0:0:0:0:
256,192,3346,1,0,0:0:0:0:
224,192,3917,1,0,0:0:0:0:
224,192,4489,1,0,0:0:0:0:
224,192,4965,1,0,0:0:0:0:
224,192,5346,1,8,0:0:0:0:
224,192,5632,1,0,0:0:0:0:
256,192,6203,1,0,0:0:0:0:
229,177,6489,1,8,0:0:0:0:
256,192,6774,1,0,0:0:0:0:
256,192,7251,1,0,0:0:0:0:
256,192,7632,1,8,0:0:0:0:
256,192,7917,1,0,0:0:0:0:
256,192,8489,1,12,0:0:0:0:
256,192,9060,1,4,0:0:0:0:
256,192,9536,1,12,0:0:0:0:
251,194,10489,1,8,0:0:0:0:
256,192,10774,1,4,0:0:0:0:
256,192,12108,1,8,0:0:0:0:
256,192,12489,1,8,0:0:0:0:
256,192,12774,1,8,0:0:0:0:
256,192,13060,1,4,0:0:0:0:
256,192,13632,1,12,0:0:0:0:
256,192,14108,1,4,0:0:0:0:
230,198,14774,1,0,0:0:0:0:
230,198,15060,1,0,0:0:0:0:
224,192,15346,1,12,0:0:0:0:
128,160,15632,1,0,0:0:0:0:
224,192,15917,1,0,0:0:0:0:
224,192,16489,1,8,0:0:0:0:
256,192,17060,1,0,0:0:0:0:
256,192,17632,1,8,0:0:0:0:
226,144,17917,1,0,0:0:0:0:
224,192,18203,1,0,0:0:0:0:
224,192,18774,1,8,0:0:0:0:
192,192,19346,1,8,0:0:0:0:
256,192,19917,1,4,0:0:0:0:
256,192,20489,1,8,0:0:0:0:
256,192,21060,1,8,0:0:0:0:
256,192,21632,1,0,0:0:0:0:
256,192,22203,1,12,0:0:0:0:
192,192,22774,1,4,0:0:0:0:
224,192,23251,1,12,0:0:0:0:
192,192,23917,1,0,0:0:0:0:
256,192,24203,5,0,0:0:0:0:
192,192,24489,1,8,0:0:0:0:
256,192,25060,1,8,0:0:0:0:
256,192,25632,1,0,0:0:0:0:
256,192,25917,1,8,0:0:0:0:
64,160,26203,1,0,0:0:0:0:
289,199,26489,1,8,0:0:0:0:
256,192,26774,1,8,0:0:0:0:
194,149,27346,1,8,0:0:0:0:
127,135,27917,1,0,0:0:0:0:
256,192,29060,1,0,0:0:0:0:
256,192,29632,1,0,0:0:0:0:
256,192,30203,1,0,0:0:0:0:
256,192,30489,1,8,0:0:0:0:
256,192,30774,1,8,0:0:0:0:
256,192,31346,1,0,0:0:0:0:
256,192,31917,1,8,0:0:0:0:
256,192,32489,1,0,0:0:0:0:
256,192,32774,1,8,0:0:0:0:
256,192,33060,1,8,0:0:0:0:
318,105,33346,1,0,0:0:0:0:
256,192,33632,1,0,0:0:0:0:
256,192,34203,1,8,0:0:0:0:
256,192,34774,1,0,0:0:0:0:
256,192,35060,1,8,0:0:0:0:
256,192,35346,1,8,0:0:0:0:
256,192,35917,1,8,0:0:0:0:
256,192,36489,1,8,0:0:0:0:
256,192,37060,1,0,0:0:0:0:
256,192,37346,1,8,0:0:0:0:
256,192,37632,1,8,0:0:0:0:
256,192,37917,1,8,0:0:0:0:
256,192,38203,1,0,0:0:0:0:
256,192,38774,1,0,0:0:0:0:
256,224,39346,1,8,0:0:0:0:
256,192,39632,1,0,0:0:0:0:
256,224,39917,1,8,0:0:0:0:
256,224,40489,1,8,0:0:0:0:
256,224,41060,1,8,0:0:0:0:
256,224,41632,1,0,0:0:0:0:
256,224,42203,1,8,0:0:0:0:
256,224,42774,1,0,0:0:0:0:
224,224,43060,1,0,0:0:0:0:
256,192,43346,1,8,0:0:0:0:
263,154,43632,1,8,0:0:0:0:
256,192,43917,1,0,0:0:0:0:
256,192,44489,1,8,0:0:0:0:
224,172,44774,1,8,0:0:0:0:
256,192,45060,1,0,0:0:0:0:
256,192,46203,1,8,0:0:0:0:
254,182,46774,1,0,0:0:0:0:
258,182,47060,1,0,0:0:0:0:
224,192,47346,1,8,0:0:0:0:
228,201,47632,1,8,0:0:0:0:
224,192,47917,1,0,0:0:0:0:
224,192,48393,1,8,0:0:0:0:
224,192,48774,1,12,0:0:0:0:
224,192,49060,1,12,0:0:0:0:
224,192,49632,1,8,0:0:0:0:
236,211,49917,1,8,0:0:0:0:
224,192,50203,1,0,0:0:0:0:
192,192,50679,1,8,0:0:0:0:
224,192,51060,1,12,0:0:0:0:
224,192,51346,1,12,0:0:0:0:
256,192,51917,1,0,0:0:0:0:
256,192,52489,1,0,0:0:0:0:
256,192,52965,1,8,0:0:0:0:
224,224,53346,1,8,0:0:0:0:
256,192,53632,1,0,0:0:0:0:
256,192,54203,1,0,0:0:0:0:
256,192,54489,1,0,0:0:0:0:
256,192,54774,1,8,0:0:0:0:
256,192,55251,1,0,0:0:0:0:
256,192,56489,1,8,0:0:0:0:
235,220,56774,1,4,0:0:0:0:
256,192,57060,1,4,0:0:0:0:
256,192,57536,1,8,0:0:0:0:
256,192,57917,1,12,0:0:0:0:
256,192,58203,1,12,0:0:0:0:
256,192,58774,1,0,0:0:0:0:
256,192,59251,1,0,0:0:0:0:
32,128,59632,1,0,0:0:0:0:
256,192,59917,1,8,0:0:0:0:
256,192,60489,1,0,0:0:0:0:
256,192,61060,1,8,0:0:0:0:
251,200,61346,1,0,0:0:0:0:
256,192,61632,1,8,0:0:0:0:
256,192,62203,1,8,0:0:0:0:
256,192,62489,1,8,0:0:0:0:
256,192,62774,1,8,0:0:0:0:
256,192,63346,1,0,0:0:0:0:
251,200,63632,1,0,0:0:0:0:
256,192,63917,1,0,0:0:0:0:
256,192,64489,1,8,0:0:0:0:
256,192,64774,1,8,0:0:0:0:
256,192,65060,1,0,0:0:0:0:
256,192,65346,1,0,0:0:0:0:
256,192,65632,1,0,0:0:0:0:
256,192,66203,1,0,0:0:0:0:
249,159,66489,1,0,0:0:0:0:
256,192,66679,1,8,0:0:0:0:
256,192,67060,1,12,0:0:0:0:
256,192,67346,1,4,0:0:0:0:
256,192,67917,1,0,0:0:0:0:
256,192,68489,1,0,0:0:0:0:
266,201,68774,1,0,0:0:0:0:
256,192,68965,1,8,0:0:0:0:
256,192,69346,1,12,0:0:0:0:
256,192,69632,1,4,0:0:0:0:
256,192,70203,1,0,0:0:0:0:
256,192,70774,1,0,0:0:0:0:
248,193,71060,1,0,0:0:0:0:
256,192,71251,1,8,0:0:0:0:
256,192,71632,1,12,0:0:0:0:
256,192,71917,1,4,0:0:0:0:
256,192,72489,1,12,0:0:0:0:
256,192,73060,1,12,0:0:0:0:
256,192,73822,1,12,0:0:0:0:
256,192,74203,1,12,0:0:0:0:
