osu file format v14

[General]
AudioFilename: audio.ogg
AudioLeadIn: 0
PreviewTime: 279037
Countdown: 0
SampleSet: Drum
StackLeniency: 0.4
Mode: 0
LetterboxInBreaks: 0
WidescreenStoryboard: 1

[Editor]
Bookmarks: 28977,43377,73077,101877,123477,207181,221581,243181,264709,307694,336351,355157
DistanceSpacing: 1.05
BeatDivisor: 8
GridSize: 32
TimelineZoom: 2.5

[Metadata]
Title:Summit
TitleUnicode:Summit
Artist:Countless Skies
ArtistUnicode:Countless Skies
Creator:iamtickrate
Version:Advent of the Mutilatedness
Source:
Tags:glow progressive melodic death melodeath english metal
BeatmapID:3601894
BeatmapSetID:1759859

[Difficulty]
HPDrainRate:5
CircleSize:4.3
OverallDifficulty:9.3
ApproachRate:9.6
SliderMultiplier:2
SliderTickRate:1

[Events]
//Background and Video events
0,0,"bg.jpg",0,0
//Break Periods
//Storyboard Layer 0 (Background)
//Storyboard Layer 1 (Fail)
//Storyboard Layer 2 (Pass)
//Storyboard Layer 3 (Foreground)
//Storyboard Layer 4 (Overlay)
//Storyboard Sound Samples

[TimingPoints]
180,300,3,3,1,60,1,0
180,-133.333333333333,3,2,2,60,0,0
3778,-200,3,3,1,60,0,0
7305,-200,3,3,1,5,0,0
7380,-200,3,3,1,60,0,0
11805,-200,3,3,1,5,0,0
11880,-200,3,3,1,60,0,0
12780,-100,3,3,1,60,0,0
13230,-100,3,3,2,60,0,0
13530,-100,3,3,1,60,0,0
13680,-100,3,3,3,60,0,0
13830,-100,3,3,1,60,0,0
13980,-100,3,3,4,60,0,0
14130,-100,3,3,1,60,0,0
14280,-200,3,3,4,60,0,0
14580,-83.3333333333333,3,3,1,60,0,0
14730,-83.3333333333333,3,3,3,60,0,0
14880,-100,3,3,2,60,0,0
15180,-100,3,3,3,60,0,0
15330,-100,3,3,1,60,0,0
15705,-100,3,3,1,5,0,0
15780,-100,3,3,3,60,0,0
16080,-100,3,3,4,60,0,0
16380,-100,3,3,1,60,0,0
16605,-100,3,3,1,5,0,0
16680,-100,3,3,2,60,0,0
16980,-100,3,3,3,60,0,0
17130,-100,3,3,1,60,0,0
17505,-100,3,3,1,5,0,0
17580,-100,3,3,3,60,0,0
17880,-100,3,3,4,60,0,0
18180,-100,3,3,1,60,0,0
18405,-100,3,3,1,5,0,0
18480,-100,3,3,2,60,0,0
18780,-100,3,3,3,60,0,0
18930,-100,3,3,1,60,0,0
19305,-100,3,3,1,5,0,0
19380,-100,3,3,3,60,0,0
19680,-100,3,3,4,60,0,0
19980,-100,3,3,1,60,0,0
20205,-100,3,3,1,5,0,0
20280,-100,3,3,2,60,0,0
20580,-100,3,3,3,60,0,0
20730,-100,3,3,1,60,0,0
21105,-100,3,3,1,5,0,0
21180,-100,3,3,3,60,0,0
21480,-100,3,3,4,60,0,0
21780,-83.3333333333333,3,3,1,60,0,0
22080,-100,3,3,2,60,0,0
22380,-100,3,3,3,60,0,0
22530,-100,3,3,1,60,0,0
22905,-100,3,3,1,5,0,0
22980,-100,3,3,3,60,0,0
23280,-100,3,3,4,60,0,0
23580,-100,3,3,1,60,0,0
23805,-100,3,3,1,5,0,0
23880,-100,3,3,2,60,0,0
24180,-100,3,3,3,60,0,0
24330,-100,3,3,1,60,0,0
24705,-100,3,3,1,5,0,0
24780,-100,3,3,3,60,0,0
25080,-100,3,3,4,60,0,0
25380,-100,3,3,1,60,0,0
25605,-100,3,3,1,5,0,0
25680,-100,3,3,2,60,0,0
25980,-100,3,3,3,60,0,0
26130,-100,3,3,1,60,0,0
26505,-100,3,3,1,5,0,0
26580,-100,3,3,3,60,0,0
26880,-100,3,3,4,60,0,0
27180,-100,3,3,1,60,0,0
27405,-100,3,3,1,5,0,0
27480,-100,3,3,2,60,0,0
27780,-100,3,3,3,60,0,0
27930,-100,3,3,1,60,0,0
28305,-100,3,3,1,5,0,0
28380,-100,3,3,3,60,0,0
28680,-100,3,3,4,60,0,0
28980,-100,3,3,1,60,0,0
29280,-100,3,3,2,60,0,0
29580,-100,3,3,3,60,0,0
29730,-100,3,3,1,60,0,0
30180,-100,3,3,3,60,0,0
30480,-100,3,3,4,60,0,0
30780,-100,3,3,1,60,0,0
31080,-100,3,3,2,60,0,0
31380,-100,3,3,3,60,0,0
31530,-100,3,3,1,60,0,0
31980,-100,3,3,3,60,0,0
32280,-100,3,3,4,60,0,0
32580,-100,3,3,1,60,0,0
32805,-100,3,3,1,5,0,0
32880,-100,3,3,2,60,0,0
33180,-100,3,3,3,60,0,0
33330,-100,3,3,1,60,0,0
33780,-100,3,3,3,60,0,0
34080,-100,3,3,4,60,0,0
34380,-100,3,3,1,60,0,0
34605,-100,3,3,1,5,0,0
34680,-100,3,3,2,60,0,0
34980,-100,3,3,3,60,0,0
35130,-100,3,3,1,60,0,0
35580,-100,3,3,3,60,0,0
35880,-100,3,3,4,60,0,0
36180,-100,3,3,1,60,0,0
36480,-100,3,3,2,60,0,0
36780,-100,3,3,3,60,0,0
36930,-100,3,3,1,60,0,0
37380,-100,3,3,3,60,0,0
37680,-100,3,3,4,60,0,0
37980,-100,3,3,1,60,0,0
38280,-100,3,3,2,60,0,0
38580,-100,3,3,3,60,0,0
38730,-100,3,3,1,60,0,0
39180,-100,3,3,3,60,0,0
39480,-100,3,3,4,60,0,0
39580,-100,3,3,1,60,0,0
40005,-100,3,3,1,5,0,0
40080,-100,3,3,2,60,0,0
40380,-100,3,3,3,60,0,0
40530,-100,3,3,1,60,0,0
40980,-100,3,3,3,60,0,0
41280,-100,3,3,4,60,0,0
41580,-100,3,3,1,60,0,0
43380,-71.4285714285714,3,3,1,60,0,1
43530,-71.4285714285714,3,3,1,45,0,1
43680,-71.4285714285714,3,3,1,60,0,1
43980,-71.4285714285714,3,3,1,45,0,1
44130,-71.4285714285714,3,3,1,60,0,1
44505,-83.3333333333333,3,3,1,5,0,1
44580,-83.3333333333333,3,3,1,60,0,1
44805,-83.3333333333333,3,3,1,5,0,1
44880,-200,3,3,1,60,0,1
45105,-83.3333333333333,3,3,1,5,0,1
45180,-71.4285714285714,3,3,1,60,0,1
45405,-83.3333333333333,3,3,1,5,0,1
45480,-71.4285714285714,3,3,1,60,0,1
45630,-83.3333333333333,3,3,1,60,0,1
45855,-83.3333333333333,3,3,1,5,0,1
45930,-83.3333333333333,3,3,1,60,0,1
46080,-100,3,3,1,60,0,1
46305,-83.3333333333333,3,3,1,5,0,1
46380,-100,3,3,1,60,0,1
46980,-83.3333333333333,3,3,1,60,0,1
47205,-83.3333333333333,3,3,1,5,0,1
47280,-83.3333333333333,3,3,1,60,0,1
47655,-83.3333333333333,3,3,1,5,0,1
47730,-83.3333333333333,3,3,1,60,0,1
47880,-71.4285714285714,3,3,1,60,0,1
48180,-83.3333333333333,3,3,1,60,0,1
48480,-133.333333333333,3,3,1,60,0,1
48780,-83.3333333333333,3,3,1,60,0,1
50280,-71.4285714285714,3,3,1,60,0,1
50580,-71.4285714285714,3,3,1,60,0,1
50730,-71.4285714285714,3,3,1,45,0,1
50880,-71.4285714285714,3,3,1,60,0,1
51180,-71.4285714285714,3,3,1,45,0,1
51330,-71.4285714285714,3,3,1,60,0,1
51705,-83.3333333333333,3,3,1,5,0,1
51780,-83.3333333333333,3,3,1,60,0,1
52005,-83.3333333333333,3,3,1,5,0,1
52080,-200,3,3,1,60,0,1
52305,-83.3333333333333,3,3,1,5,0,1
52380,-71.4285714285714,3,3,1,60,0,1
52605,-83.3333333333333,3,3,1,5,0,1
52680,-71.4285714285714,3,3,1,60,0,1
52830,-83.3333333333333,3,3,1,60,0,1
53055,-83.3333333333333,3,3,1,5,0,1
53130,-83.3333333333333,3,3,1,60,0,1
53280,-100,3,3,1,60,0,1
53505,-83.3333333333333,3,3,1,5,0,1
53580,-100,3,3,1,60,0,1
54180,-83.3333333333333,3,3,1,60,0,1
54405,-83.3333333333333,3,3,1,5,0,1
54480,-83.3333333333333,3,3,1,60,0,1
54855,-83.3333333333333,3,3,1,5,0,1
54930,-83.3333333333333,3,3,1,60,0,1
55080,-71.4285714285714,3,3,1,60,0,1
55380,-83.3333333333333,3,3,1,60,0,1
55680,-133.333333333333,3,3,1,60,0,1
55980,-83.3333333333333,3,3,1,60,0,1
57930,-71.4285714285714,3,3,1,45,0,1
58080,-71.4285714285714,3,3,1,60,0,1
58380,-71.4285714285714,3,3,1,45,0,1
58530,-71.4285714285714,3,3,1,60,0,1
58680,-62.5,3,3,1,60,0,1
58905,-83.3333333333333,3,3,1,5,0,1
58980,-71.4285714285714,3,3,1,60,0,1
59205,-83.3333333333333,3,3,1,5,0,1
59280,-133.333333333333,3,3,1,60,0,1
59505,-83.3333333333333,3,3,1,5,0,1
59580,-62.5,3,3,1,60,0,1
59805,-83.3333333333333,3,3,1,5,0,1
59880,-62.5,3,3,1,60,0,1
60030,-71.4285714285714,3,3,1,60,0,1
60255,-83.3333333333333,3,3,1,5,0,1
60330,-71.4285714285714,3,3,1,60,0,1
60480,-83.3333333333333,3,3,1,60,0,1
60705,-83.3333333333333,3,3,1,5,0,1
60780,-83.3333333333333,3,3,1,60,0,1
61380,-71.4285714285714,3,3,1,60,0,1
61605,-83.3333333333333,3,3,1,5,0,1
61680,-71.4285714285714,3,3,1,60,0,1
62055,-83.3333333333333,3,3,1,5,0,1
62130,-71.4285714285714,3,3,1,60,0,1
62280,-62.5,3,3,1,60,0,1
62580,-71.4285714285714,3,3,1,60,0,1
62880,-83.3333333333333,3,3,1,60,0,1
63180,-71.4285714285714,3,3,1,60,0,1
64680,-62.5,3,3,1,60,0,1
65130,-71.4285714285714,3,3,1,45,0,1
65280,-71.4285714285714,3,3,1,60,0,1
65580,-71.4285714285714,3,3,1,45,0,1
65730,-71.4285714285714,3,3,1,60,0,1
65880,-62.5,3,3,1,60,0,1
66105,-83.3333333333333,3,3,1,5,0,1
66180,-71.4285714285714,3,3,1,60,0,1
66405,-83.3333333333333,3,3,1,5,0,1
66480,-133.333333333333,3,3,1,60,0,1
66705,-133.333333333333,3,3,2,60,0,1
66780,-62.5,3,3,1,60,0,1
67005,-83.3333333333333,3,3,1,5,0,1
67080,-62.5,3,3,1,60,0,1
67230,-71.4285714285714,3,3,1,60,0,1
67455,-83.3333333333333,3,3,1,5,0,1
67530,-71.4285714285714,3,3,1,60,0,1
67680,-83.3333333333333,3,3,1,60,0,1
67905,-83.3333333333333,3,3,1,5,0,1
67980,-83.3333333333333,3,3,1,60,0,1
68580,-58.8235294117647,3,3,1,60,0,1
68805,-83.3333333333333,3,3,1,5,0,1
68880,-58.8235294117647,3,3,1,60,0,1
69255,-83.3333333333333,3,3,1,5,0,1
69330,-58.8235294117647,3,3,1,60,0,1
69480,-62.5,3,3,1,60,0,1
69780,-71.4285714285714,3,3,1,60,0,1
70080,-83.3333333333333,3,3,1,60,0,1
70380,-71.4285714285714,3,3,1,60,0,1
71580,-100,3,3,2,60,0,1
71880,-100,3,3,3,60,0,1
72030,-100,3,3,4,60,0,1
72180,-100,3,3,4,60,0,0
73080,-100,3,3,1,60,0,1
73155,-100,3,3,1,60,0,0
86580,-40,3,3,1,60,0,0
86805,-40,3,3,1,60,0,0
86880,-100,3,3,1,60,0,0
87180,-100,3,3,3,60,0,0
87480,-100,3,3,1,60,0,1
87555,-100,3,3,1,60,0,0
100980,-40,3,3,1,60,0,0
101205,-40,3,3,1,5,0,0
101280,-100,3,3,3,60,0,0
101580,-100,3,3,1,60,0,0
101880,-200,3,3,1,60,0,0
101955,-200,3,3,1,5,0,0
102030,-200,3,3,1,60,0,0
102255,-200,3,3,1,5,0,0
102330,-200,3,3,1,60,0,0
102555,-200,3,3,1,5,0,0
102630,-200,3,3,1,60,0,0
102705,-200,3,3,1,5,0,0
102780,-33.3333333333333,3,3,1,60,0,0
103005,-33.3333333333333,3,3,1,5,0,0
103080,-33.3333333333333,3,3,1,60,0,0
103305,-33.3333333333333,3,3,1,5,0,0
103380,-33.3333333333333,3,3,1,60,0,0
103605,-33.3333333333333,3,3,1,5,0,0
103680,-200,3,3,1,60,0,0
103755,-200,3,3,1,5,0,0
103830,-200,3,3,1,60,0,0
104055,-200,3,3,1,5,0,0
104130,-200,3,3,1,60,0,0
104355,-200,3,3,1,5,0,0
104430,-200,3,3,1,60,0,0
104505,-200,3,3,1,5,0,0
104580,-33.3333333333333,3,3,1,60,0,0
104805,-33.3333333333333,3,3,1,5,0,0
104880,-33.3333333333333,3,3,1,60,0,0
105105,-33.3333333333333,3,3,1,5,0,0
105180,-33.3333333333333,3,3,1,60,0,0
105405,-33.3333333333333,3,3,1,5,0,0
105480,-200,3,3,1,60,0,0
105555,-200,3,3,1,5,0,0
105630,-200,3,3,1,60,0,0
105855,-200,3,3,1,5,0,0
105930,-200,3,3,1,60,0,0
106155,-200,3,3,1,5,0,0
106230,-200,3,3,1,60,0,0
106305,-200,3,3,1,5,0,0
106380,-57.1428571428571,3,3,1,60,0,0
106605,-57.1428571428571,3,3,1,5,0,0
106680,-57.1428571428571,3,3,1,60,0,0
106905,-57.1428571428571,3,3,1,5,0,0
106980,-57.1428571428571,3,3,1,60,0,0
107205,-57.1428571428571,3,3,1,5,0,0
107280,-100,3,3,1,60,0,0
107730,-100,3,3,2,60,0,0
108030,-100,3,3,1,60,0,0
108180,-100,3,3,3,60,0,0
108330,-100,3,3,1,60,0,0
108480,-100,3,3,4,60,0,0
108630,-100,3,3,1,60,0,0
108780,-100,3,3,4,60,0,0
109080,-100,3,3,1,60,0,0
109980,-71.4285714285714,3,3,1,60,0,0
110205,-100,3,3,1,5,0,0
110280,-100,3,3,1,60,0,0
110430,-100,3,3,2,60,0,0
110580,-100,3,3,3,60,0,0
110880,-100,3,3,1,60,0,0
111780,-71.4285714285714,3,3,1,60,0,0
112005,-100,3,3,1,5,0,0
112080,-100,3,3,3,60,0,0
112380,-100,3,3,4,60,0,0
112680,-100,3,3,1,60,0,0
113580,-71.4285714285714,3,3,1,60,0,0
113805,-100,3,3,1,5,0,0
113880,-100,3,3,2,60,0,0
114180,-100,3,3,3,60,0,0
114480,-100,3,3,1,60,0,0
115380,-71.4285714285714,3,3,1,60,0,0
115605,-100,3,3,1,5,0,0
115680,-100,3,3,3,60,0,0
115980,-100,3,3,4,60,0,0
116280,-100,3,3,1,60,0,0
117180,-71.4285714285714,3,3,1,60,0,0
117405,-100,3,3,1,5,0,0
117480,-100,3,3,2,60,0,0
117780,-100,3,3,3,60,0,0
118080,-100,3,3,1,60,0,0
118980,-71.4285714285714,3,3,1,60,0,0
119205,-100,3,3,1,5,0,0
119280,-100,3,3,3,60,0,0
119580,-100,3,3,4,60,0,0
119880,-100,3,3,1,60,0,0
120780,-71.4285714285714,3,3,1,60,0,0
121005,-100,3,3,1,5,0,0
121080,-100,3,3,2,60,0,0
121380,-100,3,3,3,60,0,0
121680,-100,3,3,1,60,0,0
122580,-71.4285714285714,3,3,1,60,0,0
122805,-100,3,3,1,5,0,0
122880,-100,3,3,3,60,0,0
123180,-100,3,3,4,60,0,0
123405,-100,3,3,1,60,0,0
123480,-200,3,3,1,60,0,0
123555,-200,3,3,1,5,0,0
123630,-200,3,3,1,60,0,0
123855,-200,3,3,1,5,0,0
123930,-200,3,3,1,60,0,0
124155,-200,3,3,1,5,0,0
124230,-200,3,3,1,60,0,0
124305,-200,3,3,1,5,0,0
124380,-50,3,3,1,60,0,0
125280,-200,3,3,1,60,0,0
125355,-200,3,3,1,5,0,0
125430,-200,3,3,1,60,0,0
125655,-200,3,3,1,5,0,0
125730,-200,3,3,1,60,0,0
125955,-200,3,3,1,5,0,0
126030,-200,3,3,1,60,0,0
126105,-200,3,3,1,5,0,0
126180,-50,3,3,1,60,0,0
127080,-200,3,3,1,60,0,0
127155,-200,3,3,1,5,0,0
127230,-200,3,3,1,60,0,0
127455,-200,3,3,1,5,0,0
127530,-200,3,3,1,60,0,0
127755,-200,3,3,1,5,0,0
127830,-200,3,3,1,60,0,0
127905,-200,3,3,1,5,0,0
127980,-50,3,3,1,60,0,0
128880,-200,3,3,1,60,0,0
128955,-200,3,3,1,5,0,0
129030,-200,3,3,1,60,0,0
129255,-200,3,3,1,5,0,0
129330,-200,3,3,1,60,0,0
129555,-200,3,3,1,5,0,0
129630,-200,3,3,1,60,0,0
129705,-200,3,3,1,5,0,0
129780,-33.3333333333333,3,3,1,60,0,0
130005,-33.3333333333333,3,3,1,5,0,0
130080,-33.3333333333333,3,3,1,60,0,0
130305,-33.3333333333333,3,3,1,5,0,0
130380,-33.3333333333333,3,3,1,60,0,0
130605,-33.3333333333333,3,3,1,5,0,0
130680,-200,3,3,1,60,0,0
130755,-200,3,3,1,5,0,0
130830,-200,3,3,1,60,0,0
131055,-200,3,3,1,5,0,0
131130,-200,3,3,1,60,0,0
131355,-200,3,3,1,5,0,0
131430,-200,3,3,1,60,0,0
131505,-200,3,3,1,5,0,0
131580,-33.3333333333333,3,3,1,60,0,0
131805,-33.3333333333333,3,3,1,5,0,0
131880,-33.3333333333333,3,3,1,60,0,0
132105,-33.3333333333333,3,3,1,5,0,0
132180,-33.3333333333333,3,3,1,60,0,0
132405,-33.3333333333333,3,3,1,5,0,0
132480,-100,3,3,1,60,0,0
132930,-100,3,3,2,60,0,0
133230,-100,3,3,1,60,0,0
133380,-100,3,3,3,60,0,0
133530,-100,3,3,1,60,0,0
134280,-71.4285714285714,3,3,1,60,0,1
134430,-71.4285714285714,3,3,1,45,0,1
134580,-71.4285714285714,3,3,1,60,0,1
134880,-71.4285714285714,3,3,1,45,0,1
135030,-71.4285714285714,3,3,1,60,0,1
135405,-83.3333333333333,3,3,1,5,0,1
135480,-83.3333333333333,3,3,1,60,0,1
135705,-83.3333333333333,3,3,1,5,0,1
135780,-200,3,3,1,60,0,1
136005,-83.3333333333333,3,3,1,5,0,1
136080,-71.4285714285714,3,3,1,60,0,1
136305,-83.3333333333333,3,3,1,5,0,1
136380,-71.4285714285714,3,3,1,60,0,1
136530,-83.3333333333333,3,3,1,60,0,1
136755,-83.3333333333333,3,3,1,5,0,1
136830,-83.3333333333333,3,3,1,60,0,1
136980,-100,3,3,1,60,0,1
137205,-83.3333333333333,3,3,1,5,0,1
137280,-100,3,3,1,60,0,1
137880,-83.3333333333333,3,3,1,60,0,1
138105,-83.3333333333333,3,3,1,5,0,1
138180,-83.3333333333333,3,3,1,60,0,1
138555,-83.3333333333333,3,3,1,5,0,1
138630,-83.3333333333333,3,3,1,60,0,1
138780,-71.4285714285714,3,3,1,60,0,1
139080,-83.3333333333333,3,3,1,60,0,1
139380,-133.333333333333,3,3,1,60,0,1
139680,-83.3333333333333,3,3,1,60,0,1
141180,-71.4285714285714,3,3,1,60,0,1
141480,-71.4285714285714,3,3,1,60,0,1
141630,-71.4285714285714,3,3,1,45,0,1
141780,-71.4285714285714,3,3,1,60,0,1
142080,-71.4285714285714,3,3,1,45,0,1
142230,-71.4285714285714,3,3,1,60,0,1
142605,-83.3333333333333,3,3,1,5,0,1
142680,-83.3333333333333,3,3,1,60,0,1
142905,-83.3333333333333,3,3,1,5,0,1
142980,-200,3,3,1,60,0,1
143205,-83.3333333333333,3,3,1,5,0,1
143280,-71.4285714285714,3,3,1,60,0,1
143505,-83.3333333333333,3,3,1,5,0,1
143580,-71.4285714285714,3,3,1,60,0,1
143730,-83.3333333333333,3,3,1,60,0,1
143955,-83.3333333333333,3,3,1,5,0,1
144030,-83.3333333333333,3,3,1,60,0,1
144180,-100,3,3,1,60,0,1
144405,-83.3333333333333,3,3,1,5,0,1
144480,-100,3,3,1,60,0,1
145080,-83.3333333333333,3,3,1,60,0,1
145305,-83.3333333333333,3,3,1,5,0,1
145380,-83.3333333333333,3,3,1,60,0,1
145755,-83.3333333333333,3,3,1,5,0,1
145830,-83.3333333333333,3,3,1,60,0,1
145980,-71.4285714285714,3,3,1,60,0,1
146280,-83.3333333333333,3,3,1,60,0,1
146580,-133.333333333333,3,3,1,60,0,1
146880,-83.3333333333333,3,3,1,60,0,1
148830,-71.4285714285714,3,3,1,45,0,1
148980,-71.4285714285714,3,3,1,60,0,1
149280,-71.4285714285714,3,3,1,45,0,1
149430,-71.4285714285714,3,3,1,60,0,1
149580,-62.5,3,3,1,60,0,1
149805,-83.3333333333333,3,3,1,5,0,1
149880,-71.4285714285714,3,3,1,60,0,1
150105,-83.3333333333333,3,3,1,5,0,1
150180,-133.333333333333,3,3,1,60,0,1
150405,-83.3333333333333,3,3,1,5,0,1
150480,-62.5,3,3,1,60,0,1
150705,-83.3333333333333,3,3,1,5,0,1
150780,-62.5,3,3,1,60,0,1
150930,-71.4285714285714,3,3,1,60,0,1
151155,-71.4285714285714,3,3,1,5,0,1
151230,-71.4285714285714,3,3,1,60,0,1
151380,-83.3333333333333,3,3,1,60,0,1
151605,-83.3333333333333,3,3,1,5,0,1
151680,-83.3333333333333,3,3,1,60,0,1
152280,-71.4285714285714,3,3,1,60,0,1
152505,-83.3333333333333,3,3,1,5,0,1
152580,-71.4285714285714,3,3,1,60,0,1
152955,-83.3333333333333,3,3,1,5,0,1
153030,-71.4285714285714,3,3,1,60,0,1
153180,-62.5,3,3,1,60,0,1
153480,-71.4285714285714,3,3,1,60,0,1
153780,-83.3333333333333,3,3,1,60,0,1
154080,-71.4285714285714,3,3,1,60,0,1
155580,-62.5,3,3,1,60,0,1
156030,-71.4285714285714,3,3,1,45,0,1
156180,-71.4285714285714,3,3,1,60,0,1
156480,-71.4285714285714,3,3,1,45,0,1
156630,-71.4285714285714,3,3,1,60,0,1
156780,-62.5,3,3,1,60,0,1
157005,-83.3333333333333,3,3,1,5,0,1
157080,-71.4285714285714,3,3,1,60,0,1
157305,-83.3333333333333,3,3,1,5,0,1
157380,-133.333333333333,3,3,1,60,0,1
157605,-83.3333333333333,3,3,1,5,0,1
157680,-62.5,3,3,1,60,0,1
157905,-83.3333333333333,3,3,1,5,0,1
157980,-62.5,3,3,1,60,0,1
158130,-71.4285714285714,3,3,1,60,0,1
158355,-83.3333333333333,3,3,1,5,0,1
158430,-71.4285714285714,3,3,1,60,0,1
158580,-83.3333333333333,3,3,1,60,0,1
158805,-83.3333333333333,3,3,1,5,0,1
158880,-83.3333333333333,3,3,1,60,0,1
159480,-58.8235294117647,3,3,1,60,0,1
159705,-58.8235294117647,3,3,1,5,0,1
159780,-58.8235294117647,3,3,1,60,0,1
160155,-58.8235294117647,3,3,1,5,0,1
160230,-58.8235294117647,3,3,1,60,0,1
160380,-62.5,3,3,1,60,0,1
160680,-71.4285714285714,3,3,1,60,0,1
160980,-83.3333333333333,3,3,1,60,0,1
161280,-71.4285714285714,3,3,1,60,0,1
162480,-100,3,3,2,60,0,1
162780,-100,3,3,3,60,0,1
163080,-100,3,3,1,60,0,0
176580,-40,3,3,1,60,0,0
176805,-40,3,3,1,5,0,0
176880,-100,3,3,1,60,0,0
177180,-100,3,3,3,60,0,0
177480,-100,3,3,1,60,0,1
177555,-100,3,3,1,60,0,0
190980,-40,3,3,1,60,0,0
191205,-40,3,3,1,5,0,0
191280,-100,3,3,3,60,0,0
191580,-100,3,3,1,60,0,0
191880,-100,3,3,1,60,0,0
192780,-133.333333333333,3,2,1,60,0,0
221580,-111.111111111111,3,2,1,60,0,0
235980,-100,3,2,1,60,0,0
236205,-100,3,2,1,5,0,0
236280,-100,3,2,1,60,0,0
237105,-100,3,2,1,5,0,0
237180,-100,3,2,1,60,0,0
238905,-100,3,2,1,5,0,0
238980,-100,3,2,1,60,0,0
239830,-100,3,2,1,5,0,0
239880,-100,3,2,1,60,0,0
240705,-100,3,2,1,5,0,0
240780,-100,3,2,1,60,0,0
241605,-100,3,2,1,5,0,0
241680,-100,3,2,1,60,0,0
242505,-100,3,2,1,5,0,0
242580,-100,3,2,1,60,0,0
243330,-100,3,3,1,20,0,0
243480,-100,3,3,1,30,0,0
243630,-100,3,3,1,40,0,0
243780,-100,3,3,1,50,0,0
243930,-100,3,3,1,60,0,0
244230,-100,3,3,1,20,0,0
244380,-100,3,3,1,30,0,0
244530,-100,3,3,1,40,0,0
244680,-100,3,3,1,50,0,0
244830,-100,3,3,1,60,0,0
245130,-100,3,3,1,20,0,0
245280,-100,3,3,1,30,0,0
245430,-100,3,3,1,40,0,0
245580,-100,3,3,1,50,0,0
245730,-100,3,3,1,60,0,0
246030,-100,3,3,1,20,0,0
246180,-100,3,3,1,30,0,0
246330,-100,3,3,1,40,0,0
246480,-100,3,3,1,50,0,0
246630,-100,3,3,1,60,0,0
246780,-100,3,3,5,60,0,0
246855,-100,3,3,1,30,0,0
247080,-100,3,3,5,60,0,0
247155,-100,3,3,1,30,0,0
247380,-100,3,3,5,60,0,0
247455,-100,3,3,1,30,0,0
247680,-100,3,3,5,60,0,0
247755,-100,3,3,1,40,0,0
247980,-100,3,3,5,60,0,0
248055,-100,3,3,1,40,0,0
248280,-100,3,3,5,60,0,0
248355,-100,3,3,1,40,0,0
248580,-100,3,3,5,60,0,0
248655,-100,3,3,1,50,0,0
248880,-100,3,3,5,60,0,0
248955,-100,3,3,1,55,0,0
249180,-100,3,3,5,60,0,0
249255,-100,3,3,1,60,0,0
249480,-100,3,3,1,80,0,0
249630,-100,3,3,2,60,0,0
249780,-100,3,3,3,60,0,0
249930,-100,3,3,1,60,0,0
250230,-100,3,3,4,60,0,0
250380,447.761194029851,4,3,1,60,1,0
250380,-133.333333333333,4,3,1,60,0,0
252096,-133.333333333333,4,3,1,5,0,0
252171,-133.333333333333,4,3,1,60,0,0
255678,-133.333333333333,4,3,1,5,0,0
255753,-133.333333333333,4,3,1,60,0,0
259260,-133.333333333333,4,3,1,5,0,0
259335,-133.333333333333,4,3,1,60,0,0
261499,-133.333333333333,4,3,1,5,0,0
261574,-133.333333333333,4,3,1,60,0,0
263141,-66.6666666666667,4,3,2,60,0,0
263588,-80,4,3,3,60,0,0
264148,-71.4285714285714,4,3,3,60,0,0
264260,-80,4,3,1,60,0,0
264484,-80,4,3,4,60,0,0
264708,-57.1428571428571,4,3,1,60,0,0
271872,-66.6666666666667,4,3,1,60,0,0
277245,-50,4,3,1,60,0,0
277357,-66.6666666666667,4,3,1,5,0,0
277469,-66.6666666666667,4,3,1,60,0,0
278029,-66.6666666666667,4,3,2,60,0,0
278141,-100,4,3,2,60,0,0
278365,-100,4,3,3,60,0,0
278588,-100,4,3,4,60,0,0
279036,-50,4,3,1,60,0,1
292469,-50,4,3,1,60,0,0
292917,-50,4,3,2,60,0,0
293141,-50,4,3,1,60,0,0
293365,-50,4,3,1,60,0,1
306797,-50,4,3,1,60,0,0
307021,-50,4,3,2,60,0,0
307245,-50,4,3,3,60,0,0
307469,-100,4,3,4,60,0,0
307693,-50,4,3,1,60,0,0
309036,-50,4,3,1,60,0,0
309484,-100,4,3,1,60,0,0
309708,-50,4,3,1,60,0,0
315305,-100,4,3,1,60,0,0
315529,-50,4,3,1,60,0,0
316648,-100,4,3,1,60,0,0
318439,-50,4,3,1,60,0,0
318887,-100,4,3,1,60,0,0
319111,-50,4,3,1,60,0,0
321574,-50,4,3,2,60,0,0
321797,-50,4,3,1,60,0,0
323812,-100,4,3,1,60,0,0
324036,-50,4,3,1,60,0,0
329633,-100,4,3,1,60,0,0
329857,-50,4,3,1,60,0,0
330977,-100,4,3,1,60,0,0
332320,-50,4,3,1,60,0,0
333215,-100,4,3,1,60,0,0
333439,-50,4,3,1,60,0,0
336350,-200,4,3,1,60,0,0
338066,-200,4,3,1,5,0,0
338141,-200,4,3,1,60,0,0
341648,-200,4,3,1,5,0,0
341723,-200,4,3,1,60,0,0
345230,-200,4,3,1,5,0,0
345305,-200,4,3,1,60,0,0
355156,-200,4,2,1,5,0,0

[Colours]
Combo1 : 181,130,124
Combo2 : 213,167,49
Combo3 : 184,87,68
Combo4 : 148,106,138
Combo5 : 110,168,175
Combo6 : 187,187,187
Combo7 : 41,127,136
Combo8 : 130,112,112

[HitObjects]
92,325,180,6,0,L|109:244,2,75.0000028610231
190,263,630,2,0,L|173:182,2,75.0000028610231
32,164,1080,6,0,L|109:153,1,75.0000028610231,2|0,0:0|0:0,0:0:0:0:
195,83,1380,2,0,L|118:72,1,75.0000028610231,2|0,0:0|0:0,0:0:0:0:
40,33,1680,1,2,0:0:0:0:
38,14,1830,1,0,0:0:0:0:
193,7,1980,6,0,P|214:57|213:91,2,75.0000028610231
286,137,2430,2,0,P|307:87|306:53,2,75.0000028610231
390,12,2880,6,0,L|488:-1,1,75.0000028610231,2|0,0:0|0:0,0:0:0:0:
463,112,3180,2,0,L|365:99,1,75.0000028610231,2|0,0:0|0:0,0:0:0:0:
409,203,3480,1,2,0:0:0:0:
430,199,3630,1,0,0:0:0:0:
416,334,3780,6,0,B|348:391|269:339|275:264|275:264|262:281|262:281|238:135|70:158|54:313|161:346|161:346|151:295|181:265|181:265|134:201|36:177|36:177|147:118|104:15|104:15|21:29|16:105,1,1175,4|0,0:0|0:0,0:0:0:0:
22,104,7380,5,10,0:0:0:0:
212,53,7530,1,10,0:0:0:0:
238,130,7680,5,10,0:0:0:0:
428,181,7830,1,10,0:0:0:0:
487,118,7980,5,10,0:0:0:0:
297,169,8130,1,10,0:0:0:0:
297,169,9180,5,10,0:0:0:0:
409,7,9330,1,10,0:0:0:0:
462,96,9480,5,10,0:0:0:0:
350,258,9630,1,10,0:0:0:0:
454,252,9780,5,10,0:0:0:0:
342,90,9930,1,10,0:0:0:0:
342,90,10980,6,0,B|388:110|390:165|328:205|275:161|272:126|272:126|269:126|269:126|239:78|187:93,1,275,4|0,0:0|0:0,0:0:0:0:
143,27,11880,5,4,0:1:0:0:
143,27,12781,5,8,0:0:0:0:
137,76,12856,1,8,0:0:0:0:
131,125,12931,1,8,0:0:0:0:
126,174,13006,1,8,0:0:0:0:
121,223,13081,2,0,L|48:207,1,50
0,93,13230,5,8,0:0:0:0:
7,74,13305,1,8,0:0:0:0:
24,64,13380,1,8,0:0:0:0:
44,63,13455,1,8,0:0:0:0:
59,75,13530,2,0,P|65:96|45:128,1,50
24,207,13680,5,8,0:0:0:0:
30,215,13755,1,8,0:0:0:0:
33,224,13830,2,0,P|22:251|17:278,1,50
96,299,13980,5,8,0:0:0:0:
101,299,14055,1,8,0:0:0:0:
105,299,14130,2,0,P|122:322|143:339,1,50
187,274,14280,6,0,L|191:257,1,12.5,8|8,0:0|0:0,0:0:0:0:
187,274,14580,6,0,B|214:254|258:306|222:334|281:359,1,119.999996337891,4|8,0:2|0:0,0:0:0:0:
366,380,14880,1,8,0:0:0:0:
401,312,15030,1,8,0:0:0:0:
321,251,15180,1,8,0:0:0:0:
328,282,15330,1,0,0:0:0:0:
497,240,15480,6,0,B|479:223|471:198|471:198|353:175,1,150,12|0,0:0|0:0,0:0:0:0:
346,179,15780,1,8,0:0:0:0:
316,118,15930,1,8,0:0:0:0:
401,66,16080,1,8,0:0:0:0:
404,49,16230,1,8,0:0:0:0:
295,18,16380,6,0,L|246:191,1,150,4|0,0:2|0:0,0:0:0:0:
261,186,16680,1,8,0:0:0:0:
191,211,16830,1,8,0:0:0:0:
143,123,16980,1,8,0:0:0:0:
169,105,17130,1,0,0:0:0:0:
43,124,17280,6,0,B|100:115|119:178|119:178|106:202|120:235,1,150,12|0,0:0|0:0,0:0:0:0:
126,236,17580,1,8,0:0:0:0:
89,294,17730,1,8,0:0:0:0:
163,340,17880,1,8,0:0:0:0:
166,361,18030,1,8,0:0:0:0:
89,384,18180,6,0,P|166:368|248:358,1,150,4|0,0:2|0:0,0:0:0:0:
243,334,18480,1,8,0:0:0:0:
318,356,18630,1,8,0:0:0:0:
401,310,18780,1,8,0:0:0:0:
422,324,18930,1,0,0:0:0:0:
341,250,19080,6,0,B|299:237|301:180|301:180|289:149|255:143,1,150,12|0,0:0|0:0,0:0:0:0:
238,145,19380,1,8,0:0:0:0:
256,74,19530,1,8,0:0:0:0:
349,109,19680,1,8,0:0:0:0:
353,126,19830,1,8,0:0:0:0:
446,144,19980,6,0,P|475:87|412:21,1,150,4|0,0:2|0:0,0:0:0:0:
408,38,20280,1,8,0:0:0:0:
340,5,20430,1,8,0:0:0:0:
280,68,20580,1,8,0:0:0:0:
247,78,20730,1,0,0:0:0:0:
176,8,20880,6,0,B|145:11|130:43|130:43|161:87|170:153,1,150,12|0,0:0|0:0,0:0:0:0:
174,139,21180,1,8,0:0:0:0:
110,167,21330,1,8,0:0:0:0:
180,224,21480,1,8,0:0:0:0:
199,229,21630,1,8,0:0:0:0:
52,309,21780,6,0,B|26:268|131:233|122:313,1,119.999996337891,4|0,0:2|0:0,0:0:0:0:
193,369,22080,1,8,0:0:0:0:
116,381,22230,1,8,0:0:0:0:
197,300,22380,1,8,0:0:0:0:
227,308,22530,1,0,0:0:0:0:
308,357,22680,6,0,B|330:347|330:347|366:249|366:249|420:221,1,150,12|0,0:0|0:0,0:0:0:0:
397,242,22980,1,8,0:0:0:0:
431,177,23130,1,8,0:0:0:0:
334,126,23280,1,8,0:0:0:0:
334,143,23430,1,8,0:0:0:0:
418,97,23580,6,0,L|250:58,1,150,4|0,0:2|0:0,0:0:0:0:
268,40,23880,1,8,0:0:0:0:
218,103,24030,1,8,0:0:0:0:
161,26,24180,1,8,0:0:0:0:
151,5,24330,1,0,0:0:0:0:
67,89,24480,6,0,B|95:76|121:90|121:90|164:206,1,150,12|0,0:0|0:0,0:0:0:0:
153,192,24780,1,8,0:0:0:0:
218,223,24930,1,8,0:0:0:0:
123,279,25080,1,8,0:0:0:0:
104,283,25230,1,8,0:0:0:0:
168,374,25380,6,0,P|193:322|299:303,1,150,4|0,0:2|0:0,0:0:0:0:
289,316,25680,1,8,0:0:0:0:
361,292,25830,1,8,0:0:0:0:
406,361,25980,1,8,0:0:0:0:
434,368,26130,1,0,0:0:0:0:
469,276,26280,6,0,B|475:219|431:186|431:186|476:183|498:128,1,150,12|0,3:0|3:0,3:0:0:0:
487,169,26580,1,8,0:0:0:0:
511,103,26730,1,8,0:0:0:0:
418,102,26880,1,8,0:0:0:0:
423,112,27030,1,8,0:0:0:0:
481,4,27180,6,0,P|393:17|320:47,1,150,4|0,0:2|0:0,0:0:0:0:
311,34,27480,1,8,0:0:0:0:
335,106,27630,1,8,0:0:0:0:
266,151,27780,1,8,0:0:0:0:
259,179,27930,1,0,0:0:0:0:
145,101,28080,6,0,B|160:68|160:68|182:197,1,150,12|0,0:0|0:0,0:0:0:0:
189,202,28380,1,8,0:0:0:0:
128,232,28530,1,8,0:0:0:0:
76,147,28680,1,8,0:0:0:0:
59,144,28830,1,8,0:0:0:0:
15,260,28980,5,4,0:2:0:0:
15,260,29130,1,0,0:0:0:0:
139,315,29280,5,8,0:0:0:0:
81,376,29430,1,8,0:0:0:0:
150,308,29580,2,0,P|226:327|265:341,1,100,8|0,0:0|0:0,0:0:0:0:
488,222,29880,5,12,0:0:0:0:
387,384,30030,1,0,0:0:0:0:
335,263,30180,5,8,0:0:0:0:
401,288,30330,1,8,0:0:0:0:
326,260,30480,2,0,B|318:210|318:210|367:160,1,100,8|8,0:0|0:0,0:0:0:0:
213,248,30780,5,4,0:2:0:0:
213,248,30930,1,0,0:0:0:0:
216,115,31080,5,8,0:0:0:0:
138,136,31230,1,8,0:0:0:0:
232,99,31380,2,0,P|251:144|270:203,1,100,8|0,0:0|0:0,0:0:0:0:
121,2,31680,5,12,0:0:0:0:
310,62,31830,1,0,0:0:0:0:
138,136,31980,5,8,0:0:0:0:
156,66,32130,1,8,0:0:0:0:
136,148,32280,2,0,B|86:155|86:155|85:161|85:161|27:169,1,100,8|8,0:0|0:0,0:0:0:0:
21,315,32580,6,0,B|2:292|27:265|27:265|68:289|135:308,1,150,4|0,0:2|0:0,0:0:0:0:
128,298,32880,1,8,0:0:0:0:
85,369,33030,1,8,0:0:0:0:
195,358,33180,2,0,P|209:307|236:259,1,100,8|0,0:0|0:0,0:0:0:0:
344,132,33480,5,12,0:0:0:0:
171,207,33630,1,0,0:0:0:0:
315,294,33780,5,8,0:0:0:0:
296,223,33930,1,8,0:0:0:0:
319,303,34080,2,0,B|368:312|368:312|417:279,1,100,8|8,0:0|0:0,0:0:0:0:
480,123,34380,6,0,B|456:115|443:97|443:97|307:144,1,150,4|0,0:2|0:0,0:0:0:0:
325,150,34680,1,8,0:0:0:0:
261,88,34830,1,8,0:0:0:0:
366,24,34980,2,0,L|268:9,1,100,8|0,0:0|0:0,0:0:0:0:
235,157,35280,5,12,0:0:0:0:
470,33,35430,1,0,0:0:0:0:
261,88,35580,5,8,0:0:0:0:
332,111,35730,1,8,0:0:0:0:
267,8,35880,5,8,0:0:0:0:
258,10,35955,1,0,0:0:0:0:
249,12,36030,1,8,0:0:0:0:
164,133,36180,5,4,0:2:0:0:
164,133,36330,1,0,0:0:0:0:
64,31,36480,5,8,0:0:0:0:
151,5,36630,1,8,0:0:0:0:
52,39,36780,2,0,L|64:152,1,100,8|0,0:0|0:0,0:0:0:0:
136,377,37080,5,12,0:0:0:0:
2,232,37230,1,0,0:0:0:0:
172,264,37380,5,8,0:0:0:0:
105,286,37530,1,8,0:0:0:0:
186,264,37680,2,0,P|239:280|290:305,1,100,8|8,0:0|0:0,0:0:0:0:
477,215,37980,5,4,0:2:0:0:
477,215,38130,1,0,0:0:0:0:
362,274,38280,5,8,0:0:0:0:
343,178,38430,1,8,0:0:0:0:
369,287,38580,2,0,B|375:312|375:312|355:393,1,100,8|0,0:0|0:0,0:0:0:0:
262,211,38880,5,12,0:0:0:0:
446,299,39030,1,0,0:0:0:0:
391,120,39180,5,8,0:0:0:0:
343,178,39330,1,8,0:0:0:0:
400,110,39480,6,0,B|435:121|435:121|474:148,2,66.6666666666667,8|0|0,0:0|2:0|2:0,0:0:0:0:
348,46,39780,6,0,B|324:49|324:49|264:135|264:135|204:148,1,150,4|0,0:2|0:0,0:0:0:0:
228,133,40080,1,8,0:0:0:0:
262,211,40230,1,8,0:0:0:0:
149,168,40380,2,0,L|169:54,1,100,8|0,0:0|0:0,0:0:0:0:
26,16,40680,5,12,0:0:0:0:
194,0,40830,1,0,0:0:0:0:
70,135,40980,5,8,0:0:0:0:
95,66,41130,1,0,0:0:0:0:
69,148,41280,2,0,P|70:192|114:241,1,100,8|8,0:0|0:0,0:0:0:0:
279,303,41580,5,12,0:0:0:0:
74,339,41730,2,0,B|53:314|53:314|145:333,1,100
357,363,42030,5,12,0:0:0:0:
207,210,42180,2,0,B|182:189|182:189|201:281,1,100
366,281,42480,5,12,0:0:0:0:
221,369,42630,1,0,0:0:0:0:
323,161,42780,5,8,0:0:0:0:
428,383,42930,1,8,0:0:0:0:
458,213,43080,6,0,B|443:234|444:262|444:262|436:228|379:198,1,100,4|0,3:0|3:0,3:0:0:0:
187,33,43380,5,4,0:3:0:0:
477,100,43530,1,2,2:3:0:0:
295,240,43680,5,0,3:3:0:0:
427,32,43830,1,2,3:3:0:0:
235,98,43980,5,0,2:3:0:0:
334,128,44130,1,2,3:0:0:0:
120,5,44280,6,8,B|77:67|130:139|130:139|177:139|201:185,1,209.999993591309,12|8,0:0|0:0,0:0:0:0:
256,201,44580,2,0,B|273:244|259:289|189:281|189:281|195:253|168:214,1,179.999994506836
107,209,44880,2,0,B|57:225|82:251|113:229|116:202,1,75,0|0,3:0|3:0,0:0:0:0:
272,122,45180,6,0,B|331:111|373:206|337:216|353:254|422:286,1,209.999993591309,4|0,0:2|0:0,0:0:0:0:
410,266,45480,1,0,0:0:0:0:
430,193,45630,2,0,P|369:249|307:331,1,179.999994506836
319,340,45930,1,0,0:0:0:0:
399,94,46080,6,0,B|420:51|467:56|467:56|424:68|413:119,1,150,12|0,0:0|0:0,0:0:0:0:
486,139,46380,1,0,0:0:0:0:
390,108,46530,1,0,0:0:0:0:
323,0,46680,1,0,0:0:0:0:
244,25,46830,1,0,0:0:0:0:
45,148,46980,6,0,B|38:115|5:103|5:103|28:98|76:132|93:194,1,179.999994506836,4|0,0:2|0:0,0:0:0:0:
83,191,47280,1,2,0:0:0:0:
152,257,47430,2,0,B|172:275|172:275|131:320|61:305|61:305|80:263,1,179.999994506836
81,267,47730,1,0,0:0:0:0:
293,128,47880,6,0,P|238:122|177:191,1,139.999995727539,12|0,0:0|0:0,0:0:0:0:
319,227,48180,2,0,P|372:186|432:225,1,119.999996337891
300,329,48480,2,0,P|262:295|219:303,1,75.0000028610231
468,129,48780,6,0,B|494:135|507:157|493:188|493:188|490:157|450:137,1,119.999996337891,4|0,3:2|3:0,3:0:0:0:
386,121,49080,1,0,0:0:0:0:
424,24,49230,2,0,B|390:17|363:38|366:39|369:40|342:66|295:42,1,119.999996337891,0|0,3:0|3:0,3:0:0:0:
399,110,49530,1,0,0:0:0:0:
395,315,49680,6,0,B|425:323|440:352|440:352|428:320|444:277,1,119.999996337891,12|0,0:0|0:0,0:0:0:0:
482,173,49980,1,0,0:0:0:0:
512,322,50130,1,0,0:0:0:0:
260,261,50280,6,0,B|237:221|237:221|351:264,1,139.999995727539,8|0,0:0|0:0,0:0:0:0:
461,95,50580,5,4,0:2:0:0:
375,384,50730,1,2,2:3:0:0:
512,167,50880,5,2,0:3:0:0:
300,329,51030,1,2,0:3:0:0:
384,143,51180,5,2,2:3:0:0:
437,295,51330,1,2,0:3:0:0:
211,112,51480,6,12,B|225:81|236:97|265:73|265:73|220:130|194:205,1,209.999993591309
260,261,51780,2,0,B|237:268|219:286|219:286|136:267|136:267|133:243|108:226,1,179.999994506836
105,147,52080,2,0,B|92:135|92:135|93:128|93:128|139:167,1,75,0|0,3:0|3:0,3:0:0:0:
296,195,52380,6,0,B|334:182|349:145|349:145|413:153|413:153|438:114|469:109,1,209.999993591309,4|0,0:2|0:0,3:0:0:0:
473,129,52680,1,0,0:0:0:0:
378,244,52830,2,0,L|326:24,1,179.999994506836
348,60,53130,1,0,0:0:0:0:
98,26,53280,6,0,B|28:55|28:55|115:47,1,150,12|0,0:0|0:0,0:0:0:0:
179,33,53580,1,0,0:0:0:0:
62,129,53730,1,0,0:0:0:0:
145,215,53880,1,0,0:0:0:0:
239,165,54030,1,0,0:0:0:0:
138,352,54180,6,0,B|123:386|82:383|83:382|83:382|27:333|75:266,1,179.999994506836,4|0,0:2|0:0,0:0:0:0:
78,264,54480,1,0,0:0:0:0:
154,349,54630,2,0,B|207:365|207:365|253:332|253:332|336:322,1,179.999994506836
333,319,54930,1,0,0:0:0:0:
239,165,55080,6,0,P|184:212|219:275,1,139.999995727539,12|0,0:0|0:0,0:0:0:0:
409,224,55380,2,0,P|339:194|292:233,1,119.999996337891
388,365,55680,2,0,P|409:333|399:293,1,75.0000028610231
315,99,55980,6,0,B|286:100|267:84|267:84|274:109|309:127|364:111,1,119.999996337891,4|0,0:2|0:0,0:0:0:0:
418,139,56280,1,0,0:0:0:0:
470,58,56430,2,0,B|474:10|424:-3|424:-3|445:15|439:53,1,119.999996337891,0|0,3:0|0:0,0:0:0:0:
408,119,56730,1,0,0:0:0:0:
218,16,56880,6,0,B|180:3|154:19|154:19|162:62|204:96,1,119.999996337891,12|0,0:0|0:0,0:0:0:0:
244,185,57180,1,0,0:0:0:0:
313,107,57330,1,0,0:0:0:0:
145,161,57480,6,0,B|109:167|92:189|92:189|100:146|67:117,1,119.999996337891,8|0,3:0|0:0,0:0:0:0:
297,29,57780,5,4,0:2:0:0:
14,98,57930,1,2,2:3:0:0:
244,185,58080,5,2,3:3:0:0:
82,15,58230,1,2,3:3:0:0:
149,234,58380,5,2,2:3:0:0:
201,111,58530,1,2,3:0:0:0:
82,279,58680,6,0,B|66:309|66:309|134:362|134:362|212:313|212:313|200:268,1,240,12|0,3:0|3:0,3:0:0:0:
81,133,58980,2,0,B|74:126|74:126|17:168|3:249|3:249|18:215|53:206,1,209.999993591309
163,216,59280,2,0,B|167:188|141:173|141:173|124:215|152:224,1,112.500004291535,0|0,3:0|0:0,0:0:0:0:
220,17,59580,6,0,B|234:15|246:-2|246:-2|276:67|288:179|288:179|296:163|315:144,1,240,4|0,0:2|0:0,0:0:0:0:
304,150,59880,1,0,0:0:0:0:
180,80,60030,2,0,B|220:124|311:73|288:44|324:23|392:48,1,209.999993591309
373,54,60330,1,0,0:0:0:0:
425,318,60480,6,0,B|445:307|469:309|469:309|445:247|370:270|354:309,1,179.999994506836,12|0,0:0|0:0,0:0:0:0:
259,256,60780,1,0,0:0:0:0:
304,150,60930,1,0,0:0:0:0:
360,298,61080,1,0,0:0:0:0:
321,366,61230,1,0,0:0:0:0:
347,211,61380,6,0,B|373:175|373:175|488:214|488:214|515:173,1,209.999993591309,4|0,0:2|0:0,0:0:0:0:
505,166,61680,1,0,0:0:0:0:
435,277,61830,2,0,B|421:180|421:180|433:168|433:168|416:63,1,209.999993591309
425,63,62130,1,0,0:0:0:0:
215,1,62280,6,0,B|153:50|153:50|196:155,1,160,12|0,0:0|0:0,0:0:0:0:
282,249,62580,2,0,B|321:190|321:190|279:122,1,139.999995727539,0|0,3:0|3:0,3:0:0:0:
168,269,62880,2,0,B|148:321|148:321|201:381,1,119.999996337891,0|0,3:0|3:0,3:0:0:0:
382,238,63180,6,0,B|366:208|366:208|258:199,1,139.999995727539,4|0,0:2|0:0,0:0:0:0:
168,269,63480,1,0,0:0:0:0:
69,142,63630,2,0,B|59:124|59:124|75:87|75:87|112:180,1,139.999995727539
171,247,63930,1,0,0:0:0:0:
71,304,64080,6,0,B|54:328|58:373|58:373|63:374|63:374|91:336|79:301,1,139.999995727539,12|0,0:0|0:0,0:0:0:0:
171,247,64380,1,0,0:0:0:0:
40,228,64530,1,0,0:0:0:0:
210,91,64680,6,0,B|192:73|197:47|197:47|155:91|205:160,1,160,8|0,0:0|0:0,0:0:0:0:
354,278,64980,5,4,0:2:0:0:
82,315,65130,1,2,2:3:0:0:
277,131,65280,5,2,3:3:0:0:
190,369,65430,1,2,3:0:0:0:
104,160,65580,5,2,2:3:0:0:
233,297,65730,1,2,3:0:0:0:
391,218,65880,6,0,B|411:194|411:194|490:265|428:349|428:349|388:321,1,240,12|0,0:0|0:0,0:0:0:0:
338,279,66180,2,0,B|302:240|320:178|320:178|337:170|337:170|357:118|430:115,1,209.999993591309
486,115,66480,2,0,B|482:128|450:179|484:112|475:137|463:73,1,75.0000028610231
403,39,66705,1,8,0:0:0:0:
403,39,66780,6,0,B|331:16|287:72|287:72|288:80|288:80|255:149|163:126,1,240,4|0,0:2|0:0,0:0:0:0:
201,125,67080,1,0,0:0:0:0:
263,0,67230,2,0,B|256:31|236:43|236:43|276:67|292:97|292:97|280:140|323:189,1,209.999993591309
301,179,67530,1,0,0:0:0:0:
68,91,67680,6,0,B|29:91|12:67|12:67|69:82|143:49,1,179.999994506836,12|0,3:0|3:0,3:0:0:0:
171,0,67980,1,0,0:0:0:0:
201,103,68130,1,0,0:0:0:0:
94,160,68280,1,0,0:0:0:0:
81,238,68430,1,0,0:0:0:0:
400,329,68580,6,0,B|433:306|425:269|425:269|419:270|419:270|372:245|338:279|338:279|333:269|333:269|317:312|275:322,1,255.000004863739,4|0,0:2|0:0,0:0:0:0:
278,334,68880,1,0,0:0:0:0:
173,244,69030,2,0,B|164:198|196:169|196:169|159:193|155:239|155:239|150:236|150:236|144:271|203:349,1,255.000004863739
179,327,69330,1,0,0:0:0:0:
251,236,69480,6,0,L|58:190,1,160,12|0,0:0|0:0,0:0:0:0:
0,347,69780,2,0,L|155:384,1,139.999995727539
116,288,70080,2,0,L|-6:258,1,119.999996337891
306,158,70380,6,0,B|344:174|345:210|345:210|354:217|354:217|355:267|316:298,1,139.999995727539,4|0,3:2|3:0,3:0:0:0:
216,181,70680,1,0,0:0:0:0:
427,104,70830,2,0,B|364:83|364:83|360:86|360:86|293:65,1,139.999995727539
192,171,71130,1,0,0:0:0:0:
41,52,71280,6,0,B|21:36|43:-19|70:9|70:9|53:48|84:87,1,139.999995727539,12|0,0:0|0:0,0:0:0:0:
165,105,71580,2,0,L|154:56,1,50,8|8,0:0|0:0,0:0:0:0:
70,145,71730,1,8,0:0:0:0:
67,155,71805,1,8,0:0:0:0:
64,165,71880,2,0,L|139:176,1,50,8|8,0:0|0:0,0:0:0:0:
150,243,72030,1,8,0:0:0:0:
160,240,72105,1,8,0:0:0:0:
170,237,72180,5,8,0:0:0:0:
170,237,73080,5,4,0:0:0:0:
134,277,73155,1,8,0:0:0:0:
135,329,73230,1,2,0:2:0:0:
170,370,73305,1,8,0:0:0:0:
221,380,73380,1,2,0:2:0:0:
270,360,73455,1,8,0:0:0:0:
293,312,73530,1,2,0:2:0:0:
286,259,73605,1,8,0:0:0:0:
248,219,73680,1,2,0:2:0:0:
195,210,73755,1,8,0:0:0:0:
156,173,73830,1,2,0:2:0:0:
147,119,73905,1,8,0:0:0:0:
172,72,73980,1,2,0:2:0:0:
217,46,74055,1,8,0:0:0:0:
270,49,74130,1,2,0:2:0:0:
310,82,74205,1,8,0:0:0:0:
321,133,74280,1,2,0:2:0:0:
360,167,74355,1,8,0:0:0:0:
413,177,74430,1,2,0:2:0:0:
459,152,74505,1,8,0:0:0:0:
484,104,74580,1,2,0:2:0:0:
482,51,74655,1,8,0:0:0:0:
447,11,74730,1,2,0:2:0:0:
393,0,74805,1,8,0:0:0:0:
342,15,74880,1,2,0:2:0:0:
315,57,74955,1,8,0:0:0:0:
314,106,75030,1,2,0:2:0:0:
337,144,75105,1,8,0:0:0:0:
375,168,75180,1,2,0:2:0:0:
409,187,75255,1,8,0:0:0:0:
433,219,75330,1,2,0:2:0:0:
438,253,75405,1,8,0:0:0:0:
430,287,75480,1,2,0:2:0:0:
411,310,75555,1,8,0:0:0:0:
383,322,75630,1,2,0:2:0:0:
358,322,75705,1,8,0:0:0:0:
334,312,75780,1,2,0:2:0:0:
321,296,75855,1,8,0:0:0:0:
317,281,75930,1,2,0:2:0:0:
319,271,76005,1,8,0:0:0:0:
322,267,76080,6,0,L|389:278,3,50,2|8|2|8,0:2|0:0|0:2|0:0,0:0:0:0:
246,350,76380,2,0,L|179:361,3,50,2|8|2|8,0:2|0:0|0:2|0:0,0:0:0:0:
141,244,76680,5,2,0:2:0:0:
93,227,76755,1,8,0:0:0:0:
49,237,76830,1,2,0:2:0:0:
22,267,76905,1,8,0:0:0:0:
17,301,76980,1,2,0:2:0:0:
24,329,77055,1,8,0:0:0:0:
39,348,77130,1,2,0:2:0:0:
56,358,77205,1,8,0:0:0:0:
70,359,77280,5,2,0:2:0:0:
106,324,77355,1,8,0:0:0:0:
125,283,77430,1,2,0:2:0:0:
127,243,77505,1,8,0:0:0:0:
121,208,77580,1,2,0:2:0:0:
108,180,77655,1,8,0:0:0:0:
92,160,77730,1,2,0:2:0:0:
74,149,77805,1,8,0:0:0:0:
59,143,77880,5,2,0:2:0:0:
63,195,77955,1,8,0:0:0:0:
101,230,78030,1,2,0:2:0:0:
152,237,78105,1,8,0:0:0:0:
196,209,78180,1,2,0:2:0:0:
213,159,78255,1,8,0:0:0:0:
198,108,78330,1,2,0:2:0:0:
208,56,78405,1,8,0:0:0:0:
245,19,78480,1,2,0:2:0:0:
297,14,78555,1,8,0:0:0:0:
342,39,78630,1,2,0:2:0:0:
362,87,78705,1,8,0:0:0:0:
350,138,78780,1,2,0:2:0:0:
317,168,78855,1,8,0:0:0:0:
272,171,78930,1,2,0:2:0:0:
236,152,79005,1,8,0:0:0:0:
215,117,79080,1,2,0:2:0:0:
194,88,79155,1,8,0:0:0:0:
161,74,79230,1,2,0:2:0:0:
131,74,79305,1,8,0:0:0:0:
105,89,79380,1,2,0:2:0:0:
94,111,79455,1,8,0:0:0:0:
94,131,79530,1,2,0:2:0:0:
99,144,79605,1,8,0:0:0:0:
106,150,79680,5,2,0:2:0:0:
130,144,79755,1,8,0:0:0:0:
154,137,79830,2,0,L|136:59,1,50,2|8,0:2|0:0,0:0:0:0:
53,26,79980,2,0,L|35:104,1,50,2|8,0:2|0:0,0:0:0:0:
215,60,80130,2,0,L|197:-18,1,50,2|0,0:2|0:0,0:0:0:0:
14,212,80280,5,4,0:2:0:0:
15,271,80380,1,0,0:0:0:0:
53,317,80480,1,0,0:0:0:0:
111,328,80580,1,0,0:0:0:0:
164,299,80680,1,0,0:0:0:0:
190,244,80780,1,0,0:0:0:0:
244,218,80880,1,0,0:0:0:0:
296,226,80980,1,0,0:0:0:0:
334,263,81080,1,0,0:0:0:0:
312,331,81180,5,8,0:0:0:0:
273,318,81280,1,0,0:0:0:0:
255,289,81380,1,0,0:0:0:0:
255,262,81480,6,0,P|267:224|300:202,2,66.6666666666667,2|0|0,0:0|0:0|0:0,0:0:0:0:
395,303,81780,2,0,P|407:341|440:363,2,66.6666666666667,2|0|0,0:0|0:0|0:0,0:0:0:0:
402,176,82080,5,0,0:0:0:0:
354,136,82180,1,0,3:0:0:0:
301,109,82280,1,0,3:0:0:0:
249,93,82380,1,0,3:0:0:0:
196,86,82480,1,0,3:0:0:0:
149,91,82580,1,0,3:0:0:0:
103,102,82680,1,0,3:0:0:0:
68,122,82780,1,0,3:0:0:0:
48,148,82880,1,0,3:0:0:0:
6,83,82980,5,8,0:0:0:0:
65,88,83080,1,0,0:0:0:0:
108,130,83180,1,0,0:0:0:0:
113,184,83280,1,0,0:0:0:0:
142,229,83380,1,0,0:0:0:0:
181,253,83480,1,0,0:0:0:0:
220,250,83580,1,0,0:0:0:0:
255,219,83680,1,0,0:0:0:0:
255,165,83780,1,0,0:0:0:0:
195,123,83880,5,12,0:2:0:0:
165,181,83980,1,0,0:0:0:0:
184,244,84080,1,0,0:0:0:0:
241,277,84180,1,0,0:0:0:0:
307,268,84280,1,0,0:0:0:0:
346,213,84380,1,0,0:0:0:0:
351,146,84480,1,0,0:0:0:0:
387,90,84580,1,0,0:0:0:0:
451,73,84680,1,0,0:0:0:0:
512,130,84780,5,12,0:0:0:0:
473,175,84880,1,0,0:0:0:0:
413,185,84980,1,0,0:0:0:0:
353,174,85080,1,0,0:0:0:0:
315,136,85180,1,0,0:0:0:0:
280,94,85280,1,0,0:0:0:0:
232,69,85380,1,0,0:0:0:0:
185,65,85480,1,0,0:0:0:0:
141,82,85580,1,0,0:0:0:0:
170,157,85680,5,8,0:0:0:0:
197,127,85780,1,0,0:0:0:0:
211,90,85880,1,0,0:0:0:0:
225,53,85980,1,0,0:0:0:0:
227,14,86080,1,0,0:0:0:0:
142,15,86180,5,8,3:0:0:0:
122,41,86280,1,0,3:0:0:0:
110,72,86380,1,0,3:0:0:0:
103,104,86480,1,0,3:0:0:0:
39,49,86580,6,1,B|97:39|133:110|91:102|135:188|230:187|256:108|245:96|245:96|232:108|183:35|119:114,1,375,12|0,3:0|3:0,3:0:0:0:
36,124,86880,5,8,0:0:0:0:
28,169,86955,1,8,0:0:0:0:
20,215,87030,1,8,0:0:0:0:
12,261,87105,1,8,0:0:0:0:
0,265,87180,5,8,0:0:0:0:
5,300,87255,1,8,0:0:0:0:
10,335,87330,2,0,L|22:401,1,50,8|8,0:0|0:0,0:0:0:0:
228,369,87480,5,4,0:0:0:0:
276,342,87555,1,8,0:0:0:0:
288,289,87630,1,2,0:2:0:0:
264,240,87705,1,8,0:0:0:0:
213,222,87780,1,2,0:2:0:0:
160,236,87855,1,8,0:0:0:0:
106,228,87930,1,2,0:2:0:0:
69,188,88005,1,8,0:0:0:0:
61,134,88080,1,2,0:2:0:0:
87,86,88155,1,8,0:0:0:0:
139,68,88230,1,2,0:2:0:0:
193,81,88305,1,8,0:0:0:0:
226,126,88380,1,2,0:2:0:0:
272,157,88455,1,8,0:0:0:0:
327,162,88530,1,2,0:2:0:0:
372,130,88605,1,8,0:0:0:0:
387,78,88680,1,2,0:2:0:0:
366,28,88755,1,8,0:0:0:0:
318,2,88830,1,2,0:2:0:0:
264,10,88905,1,8,0:0:0:0:
226,50,88980,1,2,0:2:0:0:
221,105,89055,1,8,0:0:0:0:
253,151,89130,1,2,0:2:0:0:
304,174,89205,1,8,0:0:0:0:
359,167,89280,1,2,0:2:0:0:
408,178,89355,1,8,0:0:0:0:
442,215,89430,1,2,0:2:0:0:
451,260,89505,1,8,0:0:0:0:
440,299,89580,1,2,0:2:0:0:
410,325,89655,1,8,0:0:0:0:
376,332,89730,1,2,0:2:0:0:
343,322,89805,1,8,0:0:0:0:
321,302,89880,1,2,0:2:0:0:
313,274,89955,1,8,0:0:0:0:
319,250,90030,1,2,0:2:0:0:
336,232,90105,1,8,0:0:0:0:
355,226,90180,1,2,0:2:0:0:
375,230,90255,1,8,0:0:0:0:
386,241,90330,1,2,0:2:0:0:
390,251,90405,1,8,0:0:0:0:
388,256,90480,6,0,L|310:242,3,50,2|8|2|8,0:2|0:0|0:2|0:0,0:0:0:0:
463,164,90780,2,0,L|512:155,3,50,2|8|2|8,0:2|0:0|0:2|0:0,0:0:0:0:
411,14,91080,5,2,0:2:0:0:
361,18,91155,1,8,0:0:0:0:
320,37,91230,1,2,0:2:0:0:
293,67,91305,1,8,0:0:0:0:
280,99,91380,1,2,0:2:0:0:
278,128,91455,1,8,0:0:0:0:
283,152,91530,1,2,0:2:0:0:
292,169,91605,1,8,0:0:0:0:
303,179,91680,5,2,0:2:0:0:
305,129,91755,1,8,0:0:0:0:
271,99,91830,1,2,0:2:0:0:
232,89,91905,1,8,0:0:0:0:
199,100,91980,1,2,0:2:0:0:
179,122,92055,1,8,0:0:0:0:
176,146,92130,1,2,0:2:0:0:
180,165,92205,1,8,0:0:0:0:
188,177,92280,5,2,0:2:0:0:
223,137,92355,1,8,0:0:0:0:
215,85,92430,1,2,0:2:0:0:
176,49,92505,1,8,0:0:0:0:
123,47,92580,1,2,0:2:0:0:
81,79,92655,1,8,0:0:0:0:
67,129,92730,1,2,0:2:0:0:
83,178,92805,1,8,0:0:0:0:
125,209,92880,1,2,0:2:0:0:
177,214,92955,1,8,0:0:0:0:
221,242,93030,1,2,0:2:0:0:
234,292,93105,1,8,0:0:0:0:
221,342,93180,1,2,0:2:0:0:
183,375,93255,1,8,0:0:0:0:
133,378,93330,1,2,0:2:0:0:
93,355,93405,1,8,0:0:0:0:
73,314,93480,1,2,0:2:0:0:
77,274,93555,1,8,0:0:0:0:
99,240,93630,1,2,0:2:0:0:
130,224,93705,1,8,0:0:0:0:
165,224,93780,1,2,0:2:0:0:
191,234,93855,1,8,0:0:0:0:
204,255,93930,1,2,0:2:0:0:
207,274,94005,1,8,0:0:0:0:
203,288,94080,5,2,0:2:0:0:
178,281,94155,1,8,0:0:0:0:
153,274,94230,2,0,L|178:197,1,50,2|8,0:2|0:0,0:0:0:0:
260,184,94380,2,0,L|285:261,1,50,2|8,0:2|0:0,0:0:0:0:
348,297,94530,2,0,L|373:220,1,50,2|8,0:2|0:0,0:0:0:0:
450,30,94680,5,4,0:0:0:0:
391,31,94780,1,0,0:0:0:0:
345,69,94880,1,0,0:0:0:0:
334,127,94980,1,0,0:0:0:0:
363,180,95080,1,0,0:0:0:0:
418,206,95180,1,0,0:0:0:0:
444,260,95280,1,0,0:0:0:0:
436,312,95380,1,0,0:0:0:0:
399,350,95480,1,0,0:0:0:0:
331,328,95580,5,8,0:0:0:0:
318,289,95680,1,0,0:0:0:0:
289,271,95780,1,0,0:0:0:0:
258,269,95880,6,0,L|241:366,2,66.6666666666667,2|0|0,0:0|0:0|0:0,0:0:0:0:
168,226,96180,2,0,L|151:129,2,66.6666666666667,2|0|0,0:0|0:0|0:0,0:0:0:0:
100,353,96480,5,0,3:0:0:0:
40,351,96580,1,0,3:0:0:0:
6,301,96680,1,0,3:0:0:0:
14,248,96780,1,0,3:0:0:0:
55,214,96880,1,0,3:0:0:0:
101,211,96980,1,0,3:0:0:0:
139,237,97080,1,0,3:0:0:0:
148,275,97180,1,0,3:0:0:0:
134,312,97280,1,0,3:0:0:0:
76,259,97380,5,12,0:0:0:0:
69,219,97480,1,0,0:0:0:0:
86,183,97580,1,0,0:0:0:0:
143,144,97680,5,4,0:1:0:0:
196,142,97780,1,0,0:0:0:0:
241,169,97880,1,0,0:0:0:0:
308,192,97980,5,4,0:1:0:0:
364,172,98080,1,0,0:0:0:0:
381,114,98180,1,0,0:0:0:0:
342,36,98280,5,12,0:0:0:0:
293,82,98380,1,0,0:0:0:0:
287,148,98480,1,0,0:0:0:0:
336,192,98580,1,0,0:0:0:0:
368,250,98680,1,0,0:0:0:0:
359,316,98780,1,0,0:0:0:0:
307,358,98880,1,0,0:0:0:0:
240,349,98980,1,0,0:0:0:0:
206,291,99080,1,0,0:0:0:0:
266,234,99180,5,8,0:0:0:0:
287,290,99280,1,0,0:0:0:0:
272,348,99380,1,0,0:0:0:0:
217,373,99480,1,0,0:0:0:0:
166,356,99580,1,0,0:0:0:0:
139,309,99680,1,0,0:0:0:0:
96,277,99780,1,0,0:0:0:0:
49,277,99880,1,0,0:0:0:0:
10,303,99980,1,0,0:0:0:0:
59,371,100080,5,8,0:0:0:0:
85,340,100180,1,0,0:0:0:0:
95,301,100280,1,0,0:0:0:0:
94,261,100380,1,0,0:0:0:0:
77,224,100480,1,0,0:0:0:0:
17,171,100580,5,8,3:0:0:0:
5,139,100680,1,0,3:0:0:0:
7,105,100780,1,0,3:0:0:0:
24,76,100880,1,0,3:0:0:0:
74,17,100980,6,0,B|112:51|103:118|103:118|97:125|97:125|149:85|205:103|205:103|217:89|217:89|234:159|302:169,1,375,12|0,0:0|0:0,0:0:0:0:
361,123,101280,5,8,0:0:0:0:
376,121,101355,1,8,0:0:0:0:
391,118,101430,1,8,0:0:0:0:
406,115,101505,1,8,0:0:0:0:
420,86,101580,5,8,0:0:0:0:
430,134,101655,1,8,0:0:0:0:
441,182,101730,1,8,0:0:0:0:
452,230,101805,1,8,0:0:0:0:
470,247,101880,6,0,L|435:242,1,25
388,337,102030,2,0,L|462:329,1,75
356,264,102330,2,0,L|265:255,1,75
288,341,102630,2,0,L|312:337,1,25
334,91,102780,6,0,B|353:51|282:-18|115:120|198:233|198:233|241:152|336:156,1,450.000017166138,12|0,0:2|0:0,0:0:0:0:
360,214,103080,2,0,B|368:231|368:231|440:211|401:125|401:125|355:141|355:141|237:108|237:108|214:81|214:81|109:53,1,450.000017166138,12|0,0:0|0:0,0:0:0:0:
38,117,103380,2,0,B|71:48|2:-20|2:-20|95:35|104:111|104:111|116:128|116:128|100:187|48:217,1,450.000017166138,12|0,0:2|0:0,0:0:0:0:
0,273,103680,6,0,L|10:317,1,25
68,362,103830,2,0,L|82:279,1,75
155,237,104130,2,0,L|169:320,1,75
165,384,104430,2,0,L|140:378,1,25
121,173,104580,6,0,B|167:131|141:63|141:63|207:68|231:112|231:112|286:113|326:174|326:174|252:178|228:242,1,450.000017166138,12|0,0:2|0:0,0:0:0:0:
315,275,104880,2,0,B|287:376|287:376|283:324|257:296|257:296|273:209|273:209|268:204|268:204|291:115|291:115|334:115|358:88,1,450.000017166138,12|0,0:0|0:0,0:0:0:0:
459,88,105180,2,0,B|488:34|454:36|475:-8|475:-8|480:-12|480:-12|413:-17|333:43|351:159|410:104|441:162|433:210|384:245,1,450.000017166138,12|0,0:2|0:0,3:0:0:0:
380,319,105480,6,0,L|417:332,1,25
469,377,105630,2,0,L|487:283,1,75
501,228,105930,2,0,L|483:134,1,75
405,237,106230,2,0,L|381:245,1,25
266,52,106380,6,0,B|272:18|255:0|255:0|327:-26|393:-7|405:84|337:97,1,262.500002503395,4|0,0:2|0:0,0:0:0:0:
286,129,106680,2,0,B|261:37|115:76|159:121|94:161|24:90,1,262.500002503395,4|0,0:2|0:0,0:0:0:0:
94,49,106980,2,0,B|94:2|146:-5|146:-5|100:84|134:207,1,262.500002503395,4|0,0:1|0:0,0:0:0:0:
226,182,107280,5,8,0:0:0:0:
177,188,107355,1,8,0:0:0:0:
128,194,107430,1,8,0:0:0:0:
79,199,107505,1,8,0:0:0:0:
30,204,107580,2,0,L|46:277,1,50
84,384,107730,5,8,0:0:0:0:
69,372,107805,1,8,0:0:0:0:
65,352,107880,1,8,0:0:0:0:
71,333,107955,1,8,0:0:0:0:
87,323,108030,2,0,P|108:324|132:354,1,50
279,377,108180,5,8,0:0:0:0:
271,371,108255,1,8,0:0:0:0:
262,368,108330,2,0,P|235:379|208:384,1,50
187,305,108480,5,8,0:0:0:0:
187,300,108555,1,8,0:0:0:0:
187,296,108630,2,0,P|164:279|147:258,1,50
212,214,108779,6,0,L|242:206,1,25,8|8,0:0|0:0,0:0:0:0:
212,214,109080,5,4,0:1:0:0:
279,285,109230,2,0,P|315:297|382:324,1,100
451,165,109530,2,0,P|415:177|348:204,1,100
454,262,109830,1,0,0:0:0:0:
343,23,109980,6,0,B|326:-11|326:-11|261:36|261:36|304:145,1,209.999993591309,12|0,0:0|0:0,0:0:0:0:
305,125,110280,1,0,0:0:0:0:
230,160,110430,1,8,0:0:0:0:
201,64,110580,1,8,0:0:0:0:
229,73,110730,1,8,0:0:0:0:
129,175,110880,5,4,0:2:0:0:
49,93,111030,2,0,L|23:206,1,100
142,286,111330,2,0,L|116:173,1,100
26,284,111630,1,0,0:0:0:0:
150,379,111780,6,0,B|222:350|222:350|232:295|232:295|321:266,1,209.999993591309,12|0,0:0|0:0,0:0:0:0:
306,280,112080,1,8,0:0:0:0:
372,299,112230,1,8,0:0:0:0:
412,378,112380,1,8,0:0:0:0:
428,372,112530,1,8,0:0:0:0:
509,297,112680,5,4,0:2:0:0:
439,237,112830,2,0,P|399:208|356:229,1,100
430,81,113130,2,0,P|469:52|513:71,1,100
488,169,113430,1,0,0:0:0:0:
346,93,113580,6,0,B|365:54|326:16|326:16|200:36,1,209.999993591309,12|0,0:0|0:0,0:0:0:0:
211,43,113880,1,8,0:0:0:0:
179,122,114030,1,8,0:0:0:0:
104,63,114180,1,8,0:0:0:0:
98,44,114330,1,8,0:0:0:0:
18,116,114480,5,4,0:2:0:0:
101,174,114630,2,0,P|81:247|74:299,1,100
269,219,114930,2,0,P|249:146|242:94,1,100
179,217,115230,1,0,0:0:0:0:
437,300,115380,6,0,B|397:273|297:318|322:338|260:379|219:381,1,209.999993591309,12|0,0:0|0:0,0:0:0:0:
247,363,115680,1,8,0:0:0:0:
201,302,115830,1,8,0:0:0:0:
143,363,115980,1,8,0:0:0:0:
127,369,116130,1,8,0:0:0:0:
56,274,116280,5,4,0:2:0:0:
16,357,116430,2,0,L|114:341,1,100
107,204,116730,2,0,L|8:188,1,100
157,272,117030,1,0,0:0:0:0:
61,105,117180,6,0,B|141:80|192:153|192:153|183:208|211:228,1,209.999993591309,12|0,0:0|0:0,0:0:0:0:
208,215,117480,1,8,0:0:0:0:
268,157,117630,1,8,0:0:0:0:
333,201,117780,1,8,0:0:0:0:
352,195,117930,1,8,0:0:0:0:
399,124,118080,5,4,0:2:0:0:
478,193,118230,2,0,P|490:148|511:94,1,100
367,31,118530,2,0,P|374:77|389:132,1,100
466,19,118830,1,0,0:0:0:0:
295,94,118980,6,0,B|256:98|232:135|232:135|208:59|120:61,1,209.999993591309,12|0,3:0|3:0,3:0:0:0:
126,71,119280,1,8,0:0:0:0:
84,14,119430,1,8,0:0:0:0:
5,48,119580,1,8,0:0:0:0:
0,61,119730,1,8,0:0:0:0:
63,134,119880,5,4,0:2:0:0:
16,209,120030,2,0,P|13:260|54:298,1,100
150,381,120330,2,0,P|135:331|165:284,1,100
105,227,120630,1,0,0:0:0:0:
226,341,120780,6,0,B|283:344|300:297|300:297|364:251|438:303,1,209.999993591309,12|0,0:0|0:0,0:0:0:0:
411,304,121080,1,8,0:0:0:0:
481,346,121230,1,8,0:0:0:0:
497,247,121380,1,8,0:0:0:0:
477,250,121530,1,8,0:0:0:0:
361,199,121680,5,4,0:2:0:0:
401,127,121830,2,0,L|512:148,1,100
390,25,122130,2,0,L|279:46,1,100
477,57,122430,1,0,0:0:0:0:
259,168,122580,6,0,B|224:184|187:160|187:160|207:98|173:19,1,209.999993591309,12|0,0:0|0:0,0:0:0:0:
184,20,122880,1,8,0:0:0:0:
112,0,123030,1,8,0:0:0:0:
36,74,123180,1,8,0:0:0:0:
83,140,123330,1,8,0:0:0:0:
83,140,123405,1,0,0:0:0:0:
83,140,123480,6,0,P|71:155|64:171,1,25,4|0,0:2|0:0,0:0:0:0:
1,190,123630,2,0,P|20:221|31:268,1,75
130,293,123930,2,0,P|111:262|100:215,1,75
63,329,124230,2,0,P|69:339|77:349,1,25
158,173,124380,6,0,B|248:101|333:188|333:188|330:199|330:199|419:286|533:218,2,400,12|0|0,0:2|2:0|2:0,0:0:0:0:
158,173,125280,6,0,P|176:174|195:182,1,25,4|0,0:2|0:0,0:0:0:0:
220,244,125430,2,0,P|249:217|298:217,1,75
302,140,125730,2,0,P|263:138|233:113,1,75
165,100,126030,2,0,P|152:106|140:104,1,25
353,30,126180,6,0,B|411:22|411:22|450:82|441:156|441:156|451:152|451:152|420:197|419:251|419:251|460:274|475:316,2,400,12|0|0,0:2|2:0|2:0,0:0:0:0:
353,30,127080,6,0,L|358:68,1,25,4|0,0:2|0:0,0:0:0:0:
420,104,127230,2,0,L|405:188,1,75
326,202,127530,2,0,L|339:128,1,75
436,28,127830,2,0,L|431:-10,1,25
234,196,127980,6,0,B|201:232|212:299|289:323|289:323|386:296|386:296|393:289|393:289|524:257,2,400,4|0|0,0:2|2:0|2:0,0:0:0:0:
234,196,128880,6,0,P|214:189|202:187,1,25,4|0,0:2|0:0,0:0:0:0:
173,125,129030,2,0,P|141:138|95:171,1,75
61,218,129330,2,0,P|93:231|139:264,1,75
194,286,129630,2,0,P|206:282|217:278,1,25
50,292,129780,6,0,B|70:330|59:380|59:380|145:367|192:305|192:305|187:302|187:302|171:199|171:199|176:190|176:190|158:93,1,450.000017166138,12|0,0:1|0:0,3:0:0:0:
87,38,130080,2,1,B|31:23|30:60|-19:67|-19:67|29:71|42:130|88:117|88:117|86:109|86:109|88:68|142:39|142:39|220:-7|289:37,1,450.000017166138,12|0,0:1|0:0,0:0:0:0:
332,111,130380,2,0,B|357:126|405:108|365:69|453:44|453:44|308:72|308:72|302:77|302:77|142:114,1,450.000017166138,12|0,3:1|0:0,0:0:0:0:
244,161,130680,6,0,L|286:153,1,25,4|0,0:2|0:0,0:0:0:0:
363,190,130830,2,0,L|275:234,1,75
248,281,131130,2,0,L|336:325,1,75
388,293,131430,2,0,L|380:251,1,25
491,76,131580,6,0,B|468:55|451:7|451:7|408:70|410:151|410:151|406:156|406:156|409:218|470:298|470:298|459:248|492:219,1,450.000017166138,12|0,0:1|0:0,0:0:0:0:
484,162,131880,2,0,B|449:147|433:119|433:119|299:103|189:161|189:161|187:149|187:149|145:102|145:102|167:82|216:67,1,450.000017166138,12|0,0:1|0:0,0:0:0:0:
272,0,132180,2,0,B|245:75|299:141|299:141|306:143|306:143|228:172|168:250|168:250|206:313|168:365,1,450.000017166138,12|0,0:1|0:0,0:0:0:0:
74,384,132480,5,8,0:0:0:0:
62,336,132555,1,8,0:0:0:0:
50,288,132630,1,8,0:0:0:0:
38,240,132705,1,8,0:0:0:0:
26,192,132780,2,0,L|3:111,1,50
36,7,132930,5,8,0:0:0:0:
26,25,133005,1,8,0:0:0:0:
27,45,133080,1,8,0:0:0:0:
38,62,133155,1,8,0:0:0:0:
56,71,133230,2,0,P|83:70|109:48,1,50
102,159,133380,5,8,3:0:0:0:
106,157,133455,1,8,3:0:0:0:
111,156,133530,2,0,P|139:162|164:182,1,50,0|0,3:0|3:0,3:0:0:0:
341,112,133680,5,8,0:0:0:0:
287,351,133830,1,8,0:0:0:0:
48,296,133980,1,8,0:0:0:0:
101,57,134130,1,8,0:0:0:0:
298,169,134280,5,4,0:2:0:0:
9,220,134430,1,2,2:3:0:0:
192,87,134580,5,2,0:3:0:0:
136,324,134730,1,2,0:0:0:0:
111,156,134880,5,2,2:3:0:0:
209,258,135030,1,2,0:0:0:0:
342,5,135180,6,0,B|412:15|421:105|421:105|370:137|333:83,1,209.999993591309,12|0,0:0|0:0,0:0:0:0:
285,72,135480,2,0,B|245:119|300:195|316:167|358:192|354:250,1,179.999994506836
422,222,135780,2,0,B|437:193|417:182|417:182|424:198|420:216,1,75
475,324,136080,6,0,B|478:304|504:284|504:284|414:309|312:361,1,209.999993591309,4|0,0:2|0:0,0:0:0:0:
353,353,136380,1,0,0:0:0:0:
273,240,136530,2,0,B|226:256|202:322|251:374|251:374|301:354,1,179.999994506836
275,358,136830,1,0,0:0:0:0:
168,116,136980,6,0,B|164:66|139:58|139:58|113:50|175:78|156:137,1,150,12|0,0:0|0:0,0:0:0:0:
85,117,137280,1,0,0:0:0:0:
182,0,137430,1,0,0:0:0:0:
230,149,137580,1,0,0:0:0:0:
121,191,137730,1,0,0:0:0:0:
24,299,137880,6,0,B|85:314|85:314|92:323|92:323|130:324|130:324|215:343,1,179.999994506836,4|0,0:2|0:0,0:0:0:0:
199,323,138180,1,0,0:0:0:0:
42,381,138330,2,0,B|20:356|20:356|51:178,1,179.999994506836
48,197,138630,1,0,0:0:0:0:
87,0,138780,6,0,P|54:47|33:141,1,139.999995727539,12|0,0:0|0:0,0:0:0:0:
184,175,139080,2,0,P|163:108|167:38,1,119.999996337891
230,0,139380,2,0,P|256:43|294:77,1,75.0000028610231
449,159,139680,6,0,B|436:140|400:128|369:161|369:161|370:184|340:205,1,119.999996337891,4|0,0:2|0:0,0:0:0:0:
294,160,139980,1,0,0:0:0:0:
382,61,140130,2,0,B|397:44|418:45|418:45|381:95|383:139,1,119.999996337891
290,173,140430,1,0,0:0:0:0:
485,329,140580,6,0,B|526:287|526:287|465:247,1,119.999996337891,12|0,0:0|0:0,0:0:0:0:
313,347,140880,1,0,0:0:0:0:
412,312,141030,1,0,0:0:0:0:
225,128,141180,6,0,B|203:125|179:103|179:103|210:132|210:182,1,139.999995727539,8|0,0:0|0:0,0:0:0:0:
243,367,141480,5,4,0:2:0:0:
398,112,141630,1,2,2:3:0:0:
390,384,141780,5,2,0:3:0:0:
301,155,141930,1,2,0:3:0:0:
313,347,142080,5,2,2:3:0:0:
368,235,142230,1,2,0:0:0:0:
73,305,142380,6,0,B|34:321|6:311|6:311|160:268,1,209.999993591309,12|0,0:0|0:0,0:0:0:0:
210,304,142680,2,0,B|242:309|242:309|288:253|229:206|229:206|205:223,1,179.999994506836
153,346,142980,2,0,B|139:380|139:380|152:333,1,75
138,198,143280,6,0,B|86:183|78:126|78:126|83:119|83:119|73:51|9:39,1,209.999993591309,4|0,3:2|0:0,0:0:0:0:
22,54,143580,1,0,0:0:0:0:
4,193,143730,2,0,P|73:152|182:108,1,179.999994506836
166,127,144030,1,0,0:0:0:0:
412,91,144180,6,0,B|392:64|392:64|310:79|310:79|351:129,1,150,12|0,3:0|3:0,3:0:0:0:
339,115,144480,1,0,3:0:0:0:
361,0,144630,1,0,3:0:0:0:
477,136,144780,1,0,3:0:0:0:
410,198,144930,1,0,3:0:0:0:
255,28,145080,6,0,B|243:54|221:73|221:73|272:125|260:208,1,179.999994506836,4|0,0:2|0:0,3:0:0:0:
269,205,145380,1,0,0:0:0:0:
390,325,145530,2,0,B|429:288|429:288|301:320,1,179.999994506836
300,332,145830,1,0,0:0:0:0:
109,247,145980,6,0,P|186:235|209:305,1,139.999995727539,12|0,0:0|0:0,0:0:0:0:
100,346,146280,2,0,P|21:337|17:263,1,119.999996337891
12,154,146580,2,0,P|36:190|22:231,1,75.0000028610231
260,141,146880,6,0,B|246:119|251:98|251:98|156:80,1,119.999996337891,4|0,3:2|3:0,3:0:0:0:
177,191,147180,1,0,0:0:0:0:
264,22,147330,2,0,B|295:25|321:49|321:49|332:81|325:104,1,119.999996337891,0|0,0:0|0:0,3:0:0:0:
183,167,147630,1,0,0:0:0:0:
30,63,147780,6,0,B|28:44|12:9|12:9|35:55|55:77,1,119.999996337891,12|0,0:0|0:0,0:0:0:0:
105,133,148080,1,0,0:0:0:0:
145,13,148230,1,0,0:0:0:0:
24,159,148380,6,0,B|26:196|62:211|62:211|67:218|67:218|104:208|130:224,1,119.999996337891,12|0,3:0|3:0,3:0:0:0:
325,103,148680,5,4,0:2:0:0:
30,63,148830,1,2,2:3:0:0:
234,235,148980,5,2,0:3:0:0:
145,13,149130,1,2,0:0:0:0:
36,231,149280,5,2,2:3:0:0:
105,133,149430,1,2,0:0:0:0:
373,302,149580,6,0,B|392:260|439:265|439:265|375:245|308:329|348:398,1,240,12|0,3:0|0:0,0:0:0:0:
434,341,149880,2,0,B|441:324|457:312|457:312|435:236|400:197|400:197|372:205|314:203,1,209.999993591309,0|0,3:0|0:0,0:0:0:0:
290,237,150180,2,0,B|269:254|282:266|275:284|275:284|275:289|275:289|295:265|286:263|291:229,1,112.500004291535
212,178,150480,6,0,B|321:196|321:196|329:209|329:209|458:231,1,240,4|0,3:2|3:0,3:0:0:0:
450,217,150780,1,0,0:0:0:0:
512,39,150930,2,0,B|446:11|446:11|443:17|443:17|386:61|356:146,1,209.999993591309
370,139,151230,1,0,0:0:0:0:
231,42,151380,6,0,B|298:89|218:115|322:166|291:7|222:33,1,179.999994506836,12|0,3:0|0:0,0:0:0:0:
173,0,151680,1,0,0:0:0:0:
112,107,151830,1,0,0:0:0:0:
212,178,151980,1,0,0:0:0:0:
233,265,152130,1,0,0:0:0:0:
51,168,152280,6,0,B|24:180|24:180|21:209|2:234|2:234|133:176,1,209.999993591309,4|0,0:2|0:0,0:0:0:0:
129,178,152580,1,0,0:0:0:0:
23,83,152730,2,0,L|98:296,1,209.999993591309
90,296,153030,1,0,0:0:0:0:
226,384,153180,6,0,P|206:298|281:278,1,160,12|0,0:0|0:0,0:0:0:0:
356,141,153480,2,0,P|336:227|411:247,1,139.999995727539
464,312,153780,2,0,P|450:254|500:241,1,119.999996337891
481,28,154080,6,0,B|438:61|432:104|432:104|438:78|464:61,1,139.999995727539,4|0,3:2|3:0,3:0:0:0:
506,122,154380,1,0,0:0:0:0:
360,59,154530,2,0,B|314:40|260:91|315:107|245:145|203:132,1,139.999995727539
222,194,154830,1,0,0:0:0:0:
98,45,154980,6,0,B|88:0|41:11|41:11|76:17|92:60,1,139.999995727539,12|0,3:0|3:0,3:0:0:0:
12,89,155280,1,0,0:0:0:0:
184,46,155430,1,0,0:0:0:0:
134,293,155580,6,0,B|123:274|100:267|100:267|80:202|145:171,1,160,8|0,3:0|0:0,0:0:0:0:
306,192,155880,5,4,0:2:0:0:
23,249,156030,1,2,2:3:0:0:
138,100,156180,5,2,0:3:0:0:
213,300,156330,1,2,0:0:0:0:
212,109,156480,5,2,2:3:0:0:
68,182,156630,1,2,0:0:0:0:
254,380,156780,6,0,B|277:307|374:299|374:299|398:342|447:356,1,240,12|0,0:0|0:0,0:0:0:0:
340,382,157080,2,0,B|300:342|288:294|288:294|303:264|303:264|293:222|313:175,1,209.999993591309,0|0,0:0|0:0,3:0:0:0:
397,205,157380,2,0,B|428:215|433:252|433:252|418:225|378:216,1,112.500004291535
273,124,157680,6,0,B|322:145|347:212|347:212|347:140|439:97,1,240,4|0,0:2|3:0,0:0:0:0:
398,107,157980,1,0,0:0:0:0:
505,62,158130,2,0,B|490:24|490:24|270:2,1,209.999993591309
310,20,158430,1,0,0:0:0:0:
97,121,158580,6,0,B|77:112|55:116|55:116|62:87|100:84|100:84|116:117|161:151,1,179.999994506836,12|0,3:0|0:0,0:0:0:0:
99,206,158880,1,0,0:0:0:0:
208,89,159030,1,0,0:0:0:0:
71,0,159180,1,0,0:0:0:0:
4,272,159330,5,0,3:0:0:0:
4,272,159405,1,0,3:0:0:0:
4,272,159480,2,0,B|38:265|61:228|61:228|61:219|61:219|113:220|156:283|156:283|155:288|155:288|187:264|238:265,1,255.000004863739,4|0,3:2|3:0,3:0:0:0:
202,251,159780,1,0,3:0:0:0:
376,380,159930,2,0,B|409:359|409:359|364:334|312:365|312:365|313:372|313:372|262:399|214:354,1,255.000004863739,0|0,3:0|3:0,3:0:0:0:
212,344,160230,1,0,3:0:0:0:
306,261,160380,6,0,L|463:286,1,160,12|0,0:0|0:0,0:0:0:0:
341,42,160680,2,0,L|318:180,1,139.999995727539
512,205,160980,2,0,L|393:186,1,119.999996337891
285,5,161280,6,0,B|321:2|339:31|339:31|343:25|343:25|365:62|413:47,1,139.999995727539,4|0,3:2|3:0,3:0:0:0:
470,116,161580,1,0,0:0:0:0:
317,180,161730,2,0,B|300:154|268:134|268:134|260:138|260:138|236:126|190:137|190:137,1,139.999995727539,0|0,3:0|0:0,0:0:0:0:
364,120,162030,1,0,0:0:0:0:
101,16,162180,6,0,B|83:-8|57:10|57:10|56:28|56:28|39:60|39:60|66:47|88:49,1,139.999995727539,12|0,0:0|0:0,0:0:0:0:
229,64,162480,1,8,0:0:0:0:
227,53,162555,1,8,0:0:0:0:
225,43,162630,2,0,L|152:64,1,50,8|8,0:0|0:0,0:0:0:0:
73,136,162780,1,8,0:0:0:0:
75,131,162855,1,8,0:0:0:0:
76,126,162930,2,0,L|148:147,1,50,8|8,0:0|0:0,0:0:0:0:
228,345,163080,5,4,0:0:0:0:
184,374,163155,1,8,0:0:0:0:
131,368,163230,1,4,0:2:0:0:
92,331,163305,1,8,0:0:0:0:
80,279,163380,1,2,0:2:0:0:
104,231,163455,1,8,0:0:0:0:
149,203,163530,1,2,0:2:0:0:
202,207,163605,1,8,0:0:0:0:
237,246,163680,1,2,0:2:0:0:
247,298,163755,1,8,0:0:0:0:
284,336,163830,1,2,0:2:0:0:
336,344,163905,1,8,0:0:0:0:
384,320,163980,1,2,0:2:0:0:
402,269,164055,1,8,0:0:0:0:
389,216,164130,1,2,0:2:0:0:
346,182,164205,1,8,0:0:0:0:
324,133,164280,1,2,0:2:0:0:
333,80,164355,1,8,0:0:0:0:
368,39,164430,1,2,0:2:0:0:
419,24,164505,1,8,0:0:0:0:
471,34,164580,1,2,0:2:0:0:
507,73,164655,1,8,0:0:0:0:
512,126,164730,1,2,0:2:0:0:
497,177,164805,1,8,0:0:0:0:
455,210,164880,1,2,0:2:0:0:
405,216,164955,1,8,0:0:0:0:
358,198,165030,1,2,0:2:0:0:
329,162,165105,1,8,0:0:0:0:
291,137,165180,1,2,0:2:0:0:
251,129,165255,1,8,0:0:0:0:
211,134,165330,1,2,0:2:0:0:
182,154,165405,1,8,0:0:0:0:
169,186,165480,1,2,0:2:0:0:
170,215,165555,1,8,0:0:0:0:
184,241,165630,1,2,0:2:0:0:
204,255,165705,1,8,0:0:0:0:
228,259,165780,1,2,0:2:0:0:
247,255,165855,1,8,0:0:0:0:
259,246,165930,1,2,0:2:0:0:
265,238,166005,1,8,0:0:0:0:
265,233,166080,2,0,L|205:224,3,50,2|8|2|8,0:2|0:0|0:2|0:0,0:0:0:0:
337,150,166380,2,0,L|397:141,3,50,2|8|2|8,0:2|0:0|0:2|0:0,0:0:0:0:
466,272,166680,5,2,0:2:0:0:
429,236,166755,1,8,0:0:0:0:
385,226,166830,1,2,0:2:0:0:
348,242,166905,1,8,0:0:0:0:
329,271,166980,1,2,0:2:0:0:
324,299,167055,1,8,0:0:0:0:
329,323,167130,1,2,0:2:0:0:
340,339,167205,1,8,0:0:0:0:
353,346,167280,5,2,0:2:0:0:
355,293,167355,1,8,0:0:0:0:
326,258,167430,1,2,0:2:0:0:
287,248,167505,1,8,0:0:0:0:
253,258,167580,1,2,0:2:0:0:
223,257,167655,1,8,0:0:0:0:
200,246,167730,1,2,0:2:0:0:
188,229,167805,1,8,0:0:0:0:
186,214,167880,5,2,0:2:0:0:
229,243,167955,1,8,0:0:0:0:
237,295,168030,1,2,0:2:0:0:
211,341,168105,1,8,0:0:0:0:
161,359,168180,1,2,0:2:0:0:
110,343,168255,1,8,0:0:0:0:
86,295,168330,1,2,0:2:0:0:
87,242,168405,1,8,0:0:0:0:
120,201,168480,1,2,0:2:0:0:
171,186,168555,1,8,0:0:0:0:
204,145,168630,1,2,0:2:0:0:
214,93,168705,1,8,0:0:0:0:
191,44,168780,1,2,0:2:0:0:
152,20,168855,1,8,0:0:0:0:
107,22,168930,1,2,0:2:0:0:
72,42,169005,1,8,0:0:0:0:
56,78,169080,1,2,0:2:0:0:
58,112,169155,1,8,0:0:0:0:
77,140,169230,1,2,0:2:0:0:
104,152,169305,1,8,0:0:0:0:
133,149,169380,1,2,0:2:0:0:
149,138,169455,1,8,0:0:0:0:
154,124,169530,1,2,0:2:0:0:
154,114,169605,1,8,0:0:0:0:
151,109,169680,5,2,0:2:0:0:
126,112,169755,1,8,0:0:0:0:
101,117,169830,2,0,L|115:198,1,50,2|8,0:2|0:0,0:0:0:0:
181,275,169980,2,0,L|195:194,1,50,2|8,0:2|0:0,0:0:0:0:
82,298,170130,2,0,L|96:379,1,50,2|8,0:2|0:0,0:0:0:0:
199,139,170280,5,4,3:0:0:0:
237,93,170380,1,0,3:0:0:0:
295,84,170480,1,0,3:0:0:0:
347,111,170580,1,0,3:0:0:0:
369,168,170680,1,0,3:0:0:0:
354,227,170780,1,0,3:0:0:0:
378,281,170880,1,0,3:0:0:0:
423,308,170980,1,0,3:0:0:0:
476,305,171080,1,0,3:0:0:0:
503,239,171180,5,8,3:0:0:0:
465,223,171280,1,0,3:0:0:0:
432,234,171380,1,0,3:0:0:0:
415,254,171480,6,0,P|427:296|431:342,2,66.6666666666667,2|0|0,3:0|3:0|3:0,3:0:0:0:
306,240,171780,2,0,P|318:198|322:152,2,66.6666666666667,2|0|0,3:0|3:0|3:0,3:0:0:0:
466,66,172080,5,0,3:0:0:0:
409,92,172180,1,0,3:0:0:0:
351,104,172280,1,0,3:0:0:0:
296,106,172380,1,0,3:0:0:0:
243,99,172480,1,0,3:0:0:0:
199,82,172580,1,0,3:0:0:0:
158,60,172680,1,0,3:0:0:0:
129,31,172780,1,0,3:0:0:0:
116,1,172880,1,0,3:0:0:0:
198,3,172980,5,8,3:0:0:0:
193,61,173080,1,0,3:0:0:0:
150,104,173180,1,0,3:0:0:0:
96,109,173280,1,0,3:0:0:0:
51,138,173380,1,0,3:0:0:0:
28,176,173480,1,0,3:0:0:0:
28,216,173580,1,0,3:0:0:0:
51,256,173680,1,0,3:0:0:0:
104,272,173780,1,0,3:0:0:0:
144,197,173880,5,12,3:2:0:0:
201,163,173980,1,0,3:0:0:0:
267,173,174080,1,0,3:0:0:0:
306,228,174180,1,0,3:0:0:0:
311,295,174280,1,0,3:0:0:0:
347,351,174380,1,0,3:0:0:0:
411,368,174480,1,0,3:0:0:0:
470,338,174580,1,0,0:0:0:0:
492,275,174680,1,0,0:0:0:0:
421,225,174780,5,8,3:0:0:0:
369,193,174880,1,0,3:0:0:0:
365,132,174980,1,0,3:0:0:0:
398,90,175080,1,0,3:0:0:0:
450,81,175180,1,0,3:0:0:0:
492,102,175280,1,0,3:0:0:0:
512,143,175380,1,0,3:0:0:0:
501,180,175480,1,0,3:0:0:0:
470,206,175580,1,0,3:0:0:0:
411,137,175680,5,8,0:0:0:0:
380,111,175780,1,0,0:0:0:0:
341,101,175880,1,0,0:0:0:0:
301,102,175980,1,0,0:0:0:0:
264,119,176080,1,0,0:0:0:0:
214,176,176180,5,8,3:0:0:0:
182,188,176280,1,0,3:0:0:0:
148,186,176380,1,0,3:0:0:0:
119,169,176480,1,0,3:0:0:0:
82,99,176580,6,0,B|144:31|144:31|144:18|144:18|164:141|164:141|172:146|172:146|196:304,1,375,12|0,0:0|0:0,0:0:0:0:
132,370,176880,5,8,0:0:0:0:
177,362,176955,1,8,0:0:0:0:
223,354,177030,1,8,0:0:0:0:
269,346,177105,1,8,0:0:0:0:
273,334,177180,5,8,0:0:0:0:
308,339,177255,1,8,0:0:0:0:
343,344,177330,2,0,L|409:356,1,50,8|8,0:0|0:0,0:0:0:0:
507,101,177480,5,4,0:0:0:0:
459,79,177555,1,8,0:0:0:0:
407,89,177630,1,2,0:2:0:0:
373,129,177705,1,8,0:0:0:0:
372,181,177780,1,2,0:2:0:0:
350,228,177855,1,8,0:0:0:0:
301,249,177930,1,2,0:2:0:0:
249,238,178005,1,8,0:0:0:0:
221,193,178080,1,2,0:2:0:0:
225,140,178155,1,8,0:0:0:0:
203,92,178230,1,2,0:2:0:0:
157,66,178305,1,8,0:0:0:0:
104,68,178380,1,2,0:2:0:0:
63,101,178455,1,8,0:0:0:0:
49,151,178530,1,2,0:2:0:0:
64,202,178605,1,8,0:0:0:0:
107,233,178680,1,2,0:2:0:0:
160,238,178755,1,8,0:0:0:0:
208,214,178830,1,2,0:2:0:0:
260,212,178905,1,8,0:0:0:0:
307,234,178980,1,2,0:2:0:0:
328,281,179055,1,8,0:0:0:0:
321,333,179130,1,2,0:2:0:0:
287,373,179205,1,8,0:0:0:0:
235,384,179280,1,2,0:2:0:0:
188,365,179355,1,8,0:0:0:0:
166,325,179430,1,2,0:2:0:0:
169,280,179505,1,8,0:0:0:0:
194,249,179580,1,2,0:2:0:0:
232,237,179655,1,8,0:0:0:0:
266,242,179730,1,2,0:2:0:0:
292,265,179805,1,8,0:0:0:0:
301,293,179880,1,2,0:2:0:0:
294,322,179955,1,8,0:0:0:0:
277,340,180030,1,2,0:2:0:0:
252,345,180105,1,8,0:0:0:0:
232,339,180180,1,2,0:2:0:0:
218,323,180255,1,8,0:0:0:0:
215,308,180330,1,2,0:2:0:0:
218,298,180405,1,8,0:0:0:0:
222,295,180480,2,0,L|299:308,3,50,2|8|2|8,0:2|0:0|0:2|0:0,0:0:0:0:
133,372,180780,2,0,L|56:385,3,50,2|8|2|8,0:2|0:0|0:2|0:0,0:0:0:0:
11,236,181080,5,2,3:2:0:0:
22,187,181155,1,8,3:0:0:0:
60,163,181230,1,2,3:2:0:0:
100,163,181305,1,8,3:0:0:0:
129,182,181380,1,2,3:2:0:0:
143,209,181455,1,8,3:0:0:0:
140,232,181530,1,2,3:2:0:0:
131,250,181605,1,8,3:0:0:0:
120,259,181680,5,2,3:2:0:0:
78,226,181755,1,8,3:0:0:0:
69,181,181830,1,2,3:2:0:0:
87,144,181905,1,8,3:0:0:0:
116,125,181980,1,2,3:2:0:0:
135,101,182055,1,8,3:0:0:0:
141,77,182130,1,2,3:2:0:0:
135,57,182205,1,8,3:0:0:0:
125,45,182280,5,2,3:2:0:0:
82,76,182355,1,8,0:0:0:0:
75,128,182430,1,2,0:2:0:0:
105,170,182505,1,8,0:0:0:0:
155,183,182580,1,2,0:2:0:0:
202,161,182655,1,8,0:0:0:0:
227,115,182730,1,2,0:2:0:0:
269,84,182805,1,8,0:0:0:0:
321,78,182880,1,2,0:2:0:0:
368,100,182955,1,8,0:0:0:0:
391,147,183030,1,2,0:2:0:0:
385,199,183105,1,8,0:0:0:0:
353,240,183180,1,2,0:2:0:0:
303,247,183255,1,8,0:0:0:0:
259,234,183330,1,2,0:2:0:0:
214,233,183405,1,8,0:0:0:0:
177,249,183480,1,2,0:2:0:0:
157,283,183555,1,8,0:0:0:0:
158,317,183630,1,2,0:2:0:0:
176,346,183705,1,8,0:0:0:0:
202,359,183780,1,2,0:2:0:0:
226,361,183855,1,8,0:0:0:0:
243,352,183930,1,2,0:2:0:0:
252,340,184005,1,8,0:0:0:0:
254,330,184080,5,2,0:2:0:0:
229,324,184155,1,8,0:0:0:0:
204,319,184230,2,0,L|189:377,1,50,2|8,0:2|0:0,0:0:0:0:
338,384,184380,2,0,L|325:335,1,50,2|8,0:2|0:0,0:0:0:0:
283,214,184530,2,0,L|268:272,1,50,2|8,0:2|0:0,0:0:0:0:
480,348,184680,5,4,0:0:0:0:
508,294,184780,1,0,0:0:0:0:
499,234,184880,1,0,0:0:0:0:
453,198,184980,1,0,0:0:0:0:
394,195,185080,1,0,0:0:0:0:
344,229,185180,1,0,0:0:0:0:
284,225,185280,1,0,0:0:0:0:
241,193,185380,1,0,0:0:0:0:
227,140,185480,1,0,0:0:0:0:
281,87,185580,5,8,0:0:0:0:
315,106,185680,1,0,0:0:0:0:
327,136,185780,1,0,0:0:0:0:
317,160,185880,6,0,P|282:154|222:159,2,66.6666666666667,2|0|0,0:0|0:0|0:0,0:0:0:0:
266,18,186180,2,0,P|300:12|360:17,2,66.6666666666667,2|0|0,0:0|0:0|0:0,0:0:0:0:
153,132,186480,5,0,3:0:0:0:
97,155,186580,1,0,3:0:0:0:
45,124,186680,1,0,3:0:0:0:
30,73,186780,1,0,3:0:0:0:
53,25,186880,1,0,3:0:0:0:
93,2,186980,1,0,3:0:0:0:
139,10,187080,1,0,3:0:0:0:
163,41,187180,1,0,3:0:0:0:
166,80,187280,1,0,3:0:0:0:
110,141,187380,5,12,0:0:0:0:
103,181,187480,1,0,0:0:0:0:
120,217,187580,1,0,0:0:0:0:
177,256,187680,5,4,0:1:0:0:
230,258,187780,1,0,0:0:0:0:
275,231,187880,1,0,0:0:0:0:
342,208,187980,5,4,0:1:0:0:
398,228,188080,1,0,0:0:0:0:
415,286,188180,1,0,0:0:0:0:
366,350,188280,5,12,0:2:0:0:
303,331,188380,1,0,0:0:0:0:
270,274,188480,1,0,0:0:0:0:
279,208,188580,1,0,0:0:0:0:
334,169,188680,1,0,0:0:0:0:
401,164,188780,1,0,0:0:0:0:
457,128,188880,1,0,0:0:0:0:
474,64,188980,1,0,0:0:0:0:
447,2,189080,1,0,0:0:0:0:
380,57,189180,5,8,3:0:0:0:
327,94,189280,1,0,3:0:0:0:
273,118,189380,1,0,3:0:0:0:
220,130,189480,1,0,3:0:0:0:
166,133,189580,1,0,3:0:0:0:
120,127,189680,1,0,3:0:0:0:
74,111,189780,1,0,3:0:0:0:
41,88,189880,1,0,3:0:0:0:
24,62,189980,1,0,3:0:0:0:
107,31,190080,5,8,3:0:0:0:
124,67,190180,1,0,3:0:0:0:
123,107,190280,1,0,3:0:0:0:
113,145,190380,1,0,3:0:0:0:
86,176,190480,1,0,3:0:0:0:
27,220,190580,5,8,3:0:0:0:
8,250,190680,1,0,3:0:0:0:
5,284,190780,1,0,3:0:0:0:
16,315,190880,1,0,3:0:0:0:
79,363,190980,6,0,B|124:386|160:385|160:385|161:381|161:381|210:358|232:320|232:320|227:315|227:315|250:266|294:242|294:242|298:244|298:244|350:233|390:263,1,375,12|0,0:0|0:0,0:0:0:0:
449,327,191280,5,8,0:0:0:0:
451,306,191355,1,8,0:0:0:0:
456,285,191430,1,8,0:0:0:0:
459,266,191505,1,8,0:0:0:0:
473,254,191580,5,8,0:0:0:0:
465,204,191655,1,8,0:0:0:0:
458,152,191730,1,8,0:0:0:0:
455,103,191805,1,8,0:0:0:0:
433,97,191880,5,8,0:0:0:0:
346,92,192780,6,0,P|413:117|500:168,1,150.000005722046,4|0,3:2|0:0,0:0:0:0:
486,66,193230,1,0,0:0:0:0:
480,59,193380,1,0,0:0:0:0:
344,5,193680,5,0,0:0:0:0:
344,5,193730,2,0,P|281:18|213:37,1,125.000004768372
170,85,194130,1,0,0:0:0:0:
179,89,194280,2,0,P|197:113|205:168,1,75.0000028610231
69,90,194580,6,0,L|83:-1,2,75.0000028610231
109,161,195030,1,0,0:0:0:0:
121,156,195180,1,0,0:0:0:0:
18,264,195480,5,0,3:0:0:0:
18,264,195530,2,0,B|101:276|52:320|138:336,1,125.000004768372,0|0,0:0|0:0,3:0:0:0:
217,349,195930,1,0,0:0:0:0:
210,356,196080,1,0,0:0:0:0:
292,196,196380,5,0,3:0:0:0:
292,196,196430,2,0,P|305:259|324:327,1,125.000004768372
387,363,196830,1,0,0:0:0:0:
394,354,196980,2,0,P|408:319|430:282,1,75.0000028610231
501,127,197280,5,0,0:0:0:0:
501,127,197330,2,0,B|431:146|465:173|383:193,1,125.000004768372
311,103,197730,1,0,0:0:0:0:
311,90,197880,2,0,P|352:100|381:122,1,75.0000028610231
223,139,198180,6,0,L|234:64,1,75.0000028610231
164,29,198480,2,0,L|152:103,1,75.0000028610231
87,137,198780,1,0,0:0:0:0:
15,76,199080,5,0,3:0:0:0:
15,76,199130,2,0,P|35:138|47:207,1,125.000004768372
106,249,199530,1,0,0:0:0:0:
101,259,199680,1,0,0:0:0:0:
26,360,199980,5,0,3:0:0:0:
26,360,200030,2,0,B|98:363|74:327|158:333,1,125.000004768372
202,275,200430,1,0,0:0:0:0:
215,281,200580,1,0,0:0:0:0:
329,358,200880,5,0,0:0:0:0:
329,358,200930,2,0,P|314:315|384:270,1,125.000004768372
421,324,201330,1,0,0:0:0:0:
430,333,201480,2,0,L|508:307,1,75.0000028610231
427,165,201780,6,0,P|447:215|449:254,2,75.0000028610231
357,191,202230,1,0,0:0:0:0:
343,196,202380,1,0,0:0:0:0:
348,54,202680,5,0,3:0:0:0:
348,54,202730,2,0,P|410:74|479:86,1,125.000004768372
509,19,203130,1,0,0:0:0:0:
501,11,203280,1,0,0:0:0:0:
338,72,203580,5,0,3:0:0:0:
338,72,203630,2,0,B|268:91|302:118|220:138,1,125.000004768372
221,58,204030,1,0,0:0:0:0:
223,47,204180,1,0,0:0:0:0:
34,42,204480,5,0,0:0:0:0:
34,42,204530,2,0,P|76:27|122:97,1,125.000004768372
153,149,204930,1,0,0:0:0:0:
160,159,205080,2,0,P|127:182|82:182,1,75.0000028610231
31,260,205380,6,0,L|50:356,1,75.0000028610231
145,364,205680,2,0,L|130:290,1,75.0000028610231
191,232,205980,1,0,0:0:0:0:
195,236,206280,5,0,0:0:0:0:
195,236,206330,2,0,P|259:244|327:262,1,125.000004768372
356,322,206730,1,0,0:0:0:0:
367,318,206880,1,0,0:0:0:0:
508,166,207180,5,0,3:0:0:0:
508,166,207230,1,0,0:0:0:0:
432,217,207480,2,0,L|415:129,2,75.0000028610231
289,77,208080,5,0,0:0:0:0:
289,77,208130,1,0,0:0:0:0:
321,3,208380,2,0,P|363:14|412:32,2,75.0000028610231
227,24,208830,1,0,0:0:0:0:
211,17,208980,6,0,L|114:32,1,75.0000028610231
109,102,209280,2,0,L|12:117,1,75.0000028610231
4,41,209580,1,0,0:0:0:0:
7,44,209880,5,0,3:0:0:0:
7,44,209930,1,0,0:0:0:0:
34,113,210180,2,0,P|29:157|-24:180,2,75.0000028610231
147,218,210780,5,0,3:0:0:0:
147,218,210830,1,0,0:0:0:0:
104,287,211080,2,0,P|68:262|23:288,1,75.0000028610231
4,344,211380,1,0,0:0:0:0:
160,379,211680,5,0,0:0:0:0:
160,379,211730,1,0,0:0:0:0:
225,327,211980,2,0,P|214:285|196:236,2,75.0000028610231
302,374,212430,1,0,0:0:0:0:
318,367,212580,6,0,L|415:382,1,75.0000028610231
507,286,212880,2,0,L|410:301,1,75.0000028610231
361,235,213180,1,0,0:0:0:0:
495,56,213480,5,0,3:0:0:0:
495,56,213530,1,0,0:0:0:0:
419,5,213780,2,0,L|402:93,2,75.0000028610231
465,205,214380,5,0,3:0:0:0:
465,205,214430,1,0,0:0:0:0:
388,156,214680,2,0,L|300:173,2,75.0000028610231
261,19,215280,5,0,0:0:0:0:
261,19,215330,1,0,0:0:0:0:
185,76,215580,2,0,P|162:55|106:58,2,75.0000028610231
235,143,216030,1,0,0:0:0:0:
246,155,216180,6,0,L|228:249,1,75.0000028610231
155,296,216480,2,0,L|137:202,1,75.0000028610231
75,171,216780,1,0,0:0:0:0:
5,374,217080,5,0,3:0:0:0:
5,374,217130,1,0,0:0:0:0:
82,325,217380,2,0,L|170:342,2,75.0000028610231
306,225,217980,5,0,3:0:0:0:
306,225,218030,1,0,0:0:0:0:
257,302,218280,2,0,L|274:390,2,75.0000028610231
495,367,218880,5,0,0:0:0:0:
495,367,218930,1,0,0:0:0:0:
428,310,219180,2,0,P|387:322|355:344,2,75.0000028610231
376,232,219630,1,0,0:0:0:0:
366,218,219780,6,0,P|385:180|424:172,1,75.0000028610231
504,117,220080,2,0,P|485:79|446:71,1,75.0000028610231
373,84,220380,1,0,0:0:0:0:
246,0,220680,5,0,0:0:0:0:
246,0,220730,1,0,0:0:0:0:
180,60,220980,2,0,L|268:86,2,75.0000028610231
103,3,221430,1,0,0:0:0:0:
84,6,221580,6,0,B|56:61|100:86|94:89|155:130|85:193,1,179.999994506836,4|0,3:2|0:0,0:0:0:0:
23,182,222030,1,0,0:0:0:0:
15,262,222180,2,0,P|68:286|108:309,1,89.9999972534181
253,187,222480,6,0,P|196:247|211:350,1,179.999994506836,8|0,0:0|0:0,0:0:0:0:
274,299,222930,1,0,0:0:0:0:
333,354,223080,2,0,L|435:337,1,89.9999972534181
511,200,223380,6,0,B|429:225|429:225|336:155,1,179.999994506836,0|0,3:0|0:0,0:0:0:0:
405,105,223830,1,0,0:0:0:0:
356,40,223980,2,0,L|249:67,1,89.9999972534181,0|0,0:0|3:0,0:0:0:0:
43,80,224280,6,0,B|51:30|51:30|96:176,1,179.999994506836,8|0,0:0|0:0,0:0:0:0:
169,168,224730,1,0,0:0:0:0:
193,245,224880,2,0,L|157:341,1,89.9999972534181
83,244,225180,5,0,0:0:0:0:
83,244,225230,2,0,P|115:244|228:283,1,149.999995422363
386,320,225630,1,0,0:0:0:0:
293,248,225780,1,0,0:0:0:0:
311,383,225930,1,0,0:0:0:0:
441,268,226080,6,0,B|446:208|405:184|391:215|335:167|354:99,1,179.999994506836,8|0,0:0|0:0,0:0:0:0:
434,0,226530,1,0,0:0:0:0:
426,126,226680,1,0,0:0:0:0:
512,39,226830,1,0,0:0:0:0:
340,19,226980,6,0,P|275:9|188:89,1,179.999994506836,0|0,3:0|0:0,0:0:0:0:
187,172,227430,1,0,0:0:0:0:
285,94,227580,1,0,0:0:0:0:
269,227,227730,1,0,3:0:0:0:
84,88,227880,6,0,L|117:264,1,179.999994506836,8|0,0:0|0:0,0:0:0:0:
78,356,228330,1,0,0:0:0:0:
188,304,228480,1,0,0:0:0:0:
46,283,228630,1,0,0:0:0:0:
210,382,228780,5,0,0:0:0:0:
210,382,228830,2,0,B|242:350|286:364|276:381|314:402|357:376,1,149.999995422363
431,382,229230,1,0,0:0:0:0:
476,315,229380,2,0,P|428:293|380:278,1,89.9999972534181
289,166,229680,6,0,B|299:148|323:137|323:137|295:206|282:290,1,179.999994506836,8|0,0:0|0:0,0:0:0:0:
366,258,230130,1,0,0:0:0:0:
412,191,230280,2,0,P|405:150|391:91,1,89.9999972534181
269,0,230580,6,0,P|239:58|125:45,1,179.999994506836,0|0,3:0|0:0,0:0:0:0:
54,54,231030,1,0,0:0:0:0:
15,125,231180,2,0,P|68:146|101:132,1,89.9999972534181,0|0,0:0|3:0,0:0:0:0:
216,228,231480,6,0,B|172:200|172:200|47:246,1,179.999994506836,8|0,0:0|0:0,0:0:0:0:
26,321,231930,1,0,0:0:0:0:
98,368,232080,2,0,L|188:331,1,89.9999972534181
308,181,232380,5,0,3:0:0:0:
308,181,232430,2,0,P|287:257|271:340,1,149.999995422363
420,303,232830,1,0,0:0:0:0:
325,384,232980,1,0,0:0:0:0:
365,253,233130,1,0,0:0:0:0:
480,363,233280,6,0,B|499:305|499:305|486:261|486:261|506:179,1,179.999994506836,8|0,0:0|0:0,0:0:0:0:
382,75,233730,1,0,0:0:0:0:
512,105,233880,1,0,0:0:0:0:
403,188,234030,1,0,0:0:0:0:
360,0,234180,6,0,B|349:106|316:62|292:177,1,179.999994506836,0|0,3:0|0:0,0:0:0:0:
174,226,234630,1,0,0:0:0:0:
306,257,234780,1,0,0:0:0:0:
214,142,234930,1,0,3:0:0:0:
188,308,235080,6,0,P|133:345|31:280,1,179.999994506836,8|0,0:0|0:0,0:0:0:0:
67,139,235530,1,0,0:0:0:0:
115,266,235680,1,0,0:0:0:0:
11,207,235830,1,0,0:0:0:0:
163,83,235980,5,0,3:0:0:0:
163,83,236030,2,0,P|169:121|184:212,1,116.666666666667
178,219,236280,2,0,B|226:235|226:235|273:202,1,100
300,113,236580,1,0,0:0:0:0:
300,113,236730,1,0,0:0:0:0:
456,153,236880,6,0,B|446:111|475:22|562:64|518:125|487:108,1,150,8|0,0:0|0:0,0:0:0:0:
502,116,237180,2,0,L|388:88,1,100
321,20,237480,1,0,0:0:0:0:
321,20,237630,1,0,0:0:0:0:
365,193,237780,6,0,B|398:200|422:236|422:236|419:241|419:241|442:274|474:284,1,150,0|0,3:0|0:0,3:0:0:0:
484,272,238080,2,0,P|425:268|397:313,1,100
465,369,238380,1,0,0:0:0:0:
465,369,238530,1,0,3:0:0:0:
298,229,238680,6,0,B|312:260|312:260|278:390,1,150,8|0,0:0|0:0,0:0:0:0:
290,384,238980,2,0,B|247:373|247:373|242:367|242:367|185:353,1,100,0|0,3:0|0:0,0:0:0:0:
95,370,239280,1,0,0:0:0:0:
95,370,239580,5,0,3:0:0:0:
98,374,239630,2,0,P|92:336|66:238,1,133.333333333333
53,237,239880,2,0,P|78:202|143:198,1,100
182,273,240180,1,0,0:0:0:0:
182,273,240330,1,0,0:0:0:0:
269,96,240480,6,0,B|250:57|182:53|200:82|162:91|109:72,1,150,8|0,3:0|0:0,3:0:0:0:
152,60,240780,2,0,P|181:114|199:162,1,100
285,179,241080,1,0,0:0:0:0:
285,179,241230,1,0,0:0:0:0:
454,68,241380,6,0,P|409:93|425:195,1,150,0|0,3:0|0:0,0:0:0:0:
424,181,241680,2,0,P|471:184|495:246,1,100
415,271,241980,1,0,0:0:0:0:
415,271,242130,1,0,3:0:0:0:
297,380,242280,6,0,B|286:312|286:312|280:304|280:304|269:233,1,150,8|0,0:0|0:0,0:0:0:0:
280,222,242580,2,0,P|229:205|182:248,1,100
147,382,242880,1,0,0:0:0:0:
147,382,243180,5,0,3:0:0:0:
124,383,243330,1,8,3:0:0:0:
94,373,243480,1,8,3:0:0:0:
62,334,243630,1,8,3:0:0:0:
80,271,243780,1,8,3:0:0:0:
154,240,243930,1,8,3:0:0:0:
263,196,244080,5,0,3:0:0:0:
266,217,244230,1,8,3:0:0:0:
252,249,244380,1,8,3:0:0:0:
211,276,244530,1,8,3:0:0:0:
150,252,244680,1,8,3:0:0:0:
125,176,244830,1,8,3:0:0:0:
53,88,244980,5,0,3:0:0:0:
41,105,245130,1,8,3:0:0:0:
39,139,245280,1,8,3:0:0:0:
60,183,245430,1,8,3:0:0:0:
125,191,245580,1,8,3:0:0:0:
183,137,245730,1,8,3:0:0:0:
240,10,245880,5,0,3:0:0:0:
218,8,246030,1,8,3:0:0:0:
190,24,246180,1,8,3:0:0:0:
165,67,246330,1,8,3:0:0:0:
196,125,246480,1,8,3:0:0:0:
275,123,246630,1,8,3:0:0:0:
367,12,246780,5,0,0:0:0:0:
377,13,246855,1,8,0:0:0:0:
386,17,246930,1,8,0:0:0:0:
393,24,247005,1,8,0:0:0:0:
430,61,247080,5,0,0:0:0:0:
425,69,247155,1,8,0:0:0:0:
422,78,247230,1,8,0:0:0:0:
421,87,247305,1,8,0:0:0:0:
391,131,247380,5,0,0:0:0:0:
396,139,247455,1,8,0:0:0:0:
399,148,247530,1,8,0:0:0:0:
400,157,247605,1,8,0:0:0:0:
438,183,247680,5,0,0:0:0:0:
424,184,247755,1,8,0:0:0:0:
410,189,247830,1,8,0:0:0:0:
398,197,247905,1,8,0:0:0:0:
378,239,247980,5,0,0:0:0:0:
365,244,248055,1,8,0:0:0:0:
350,244,248130,1,8,0:0:0:0:
336,243,248205,1,8,0:0:0:0:
303,211,248280,5,0,0:0:0:0:
295,223,248355,1,8,0:0:0:0:
290,236,248430,1,8,0:0:0:0:
291,251,248505,1,8,0:0:0:0:
262,281,248580,5,0,0:0:0:0:
277,301,248655,1,8,0:0:0:0:
288,323,248730,1,8,0:0:0:0:
294,347,248805,1,8,0:0:0:0:
277,382,248880,5,0,0:0:0:0:
303,362,248955,1,8,0:0:0:0:
331,348,249030,1,8,0:0:0:0:
362,340,249105,1,8,0:0:0:0:
378,302,249180,5,0,3:0:0:0:
409,314,249255,1,8,3:0:0:0:
439,321,249330,1,8,3:0:0:0:
472,322,249405,1,8,3:0:0:0:
489,368,249480,5,8,0:0:0:0:
408,205,249630,1,8,0:0:0:0:
298,276,249780,1,8,0:0:0:0:
510,254,249930,5,8,0:0:0:0:
230,181,250080,1,8,0:0:0:0:
314,144,250230,1,8,0:0:0:0:
183,356,250380,6,0,B|106:335|99:271|99:271|84:282|84:282|79:218|29:189|29:189|125:142|237:193|237:193|188:226|183:281,1,575.00002193451,4|0,3:0|3:0,3:0:0:0:
174,273,252171,1,4,0:1:0:0:
145,10,253962,6,0,B|86:7|49:63|49:63|41:63|41:63|78:131|142:158|142:158|187:81|291:51|291:51|295:46|295:46|280:115|315:162,1,575.00002193451,4|0,0:0|0:0,0:0:0:0:
318,166,255753,1,4,0:1:0:0:
505,89,257544,6,0,B|490:11|393:14|393:14|393:24|393:24|361:94|407:163|407:163|421:166|421:166|479:220|451:287|451:287|370:288|351:352,1,575.00002193451,4|0,0:0|0:0,0:0:0:0:
358,356,259335,1,4,0:1:0:0:
358,356,261126,6,0,B|300:364|300:364|301:370|301:370|230:381,1,125.000004768372,4|0,0:0|0:0,0:0:0:0:
230,372,261574,1,4,0:1:0:0:
217,365,262021,1,4,0:1:0:0:
204,358,262469,1,4,0:1:0:0:
191,351,262917,5,4,0:1:0:0:
188,340,263141,2,0,L|201:294,2,37.5000014305115,8|8|8,0:0|0:0|0:0,0:0:0:0:
111,345,263365,2,0,L|131:273,1,75.0000028610231,8|8,0:0|0:0,0:0:0:0:
52,165,263588,6,0,L|60:212,2,31.25,8|8|8,3:0|3:0|3:0,3:0:0:0:
76,151,263812,2,0,L|86:213,1,62.5,8|8,3:0|3:0,3:0:0:0:
162,174,264036,1,8,0:0:0:0:
157,156,264148,1,8,0:0:0:0:
66,49,264260,5,8,0:0:0:0:
179,73,264372,1,8,0:0:0:0:
149,0,264484,5,8,0:0:0:0:
139,2,264596,1,8,0:0:0:0:
183,84,264708,6,0,L|361:48,1,175.00000166893,4|0,0:0|0:0,0:0:0:0:
407,319,265156,2,0,P|439:293|437:251,1,87.500000834465
358,212,265380,2,0,P|324:237|325:280,1,87.500000834465
512,154,265603,6,0,P|414:139|281:127,1,175.00000166893,10|0,3:2|3:0,3:0:0:0:
178,384,266051,2,0,L|152:267,1,87.500000834465,2|0,0:2|0:0,0:0:0:0:
239,237,266275,2,0,L|257:322,1,87.500000834465
27,308,266499,86,1,B|80:308|86:269|84:253|85:238|100:208|141:205|165:218,1,175.00000166893,2|0,3:2|3:0,3:0:0:0:
140,27,266947,2,0,P|96:40|43:41,1,87.500000834465,2|0,0:2|0:0,0:0:0:0:
7,151,267171,2,0,P|48:136|91:133,1,87.500000834465
297,0,267394,6,0,B|277:69|277:69|244:85|244:85|225:164,1,175.00000166893,8|0,0:0|0:0,0:0:0:0:
343,306,267842,2,0,L|238:326,1,87.500000834465,2|0,0:2|0:0,0:0:0:0:
361,181,268066,1,0,3:0:0:0:
361,181,268178,1,0,3:0:0:0:
361,181,268290,6,0,B|458:189|418:250|528:259,1,175.00000166893,2|0,3:2|3:0,3:0:0:0:
475,3,268738,2,0,P|507:34|474:86,1,87.500000834465,2|0,0:2|0:0,0:0:0:0:
399,44,268962,2,0,P|392:85|424:113,1,87.500000834465
507,173,269185,6,0,P|469:229|416:352,1,175.00000166893,8|0,0:0|0:0,0:0:0:0:
216,249,269633,2,0,P|249:233|314:222,1,87.500000834465,2|0,0:2|0:0,0:0:0:0:
243,330,269857,2,0,P|285:321|325:303,1,87.500000834465
340,147,270081,6,0,B|321:121|321:121|120:111,1,175.00000166893,2|0,0:2|0:0,0:0:0:0:
10,70,270529,2,0,B|38:103|38:103|90:106,1,87.500000834465,2|0,3:2|3:0,3:0:0:0:
47,0,270753,2,0,B|91:2|91:2|119:35,1,87.500000834465,0|0,3:0|3:0,3:0:0:0:
129,177,270977,6,0,B|80:176|27:243|76:258|-10:300,1,175.00000166893,8|0,0:0|0:0,0:0:0:0:
143,381,271424,2,0,P|120:347|127:285,1,87.500000834465,2|0,0:2|0:0,0:0:0:0:
219,349,271648,2,0,P|219:305|195:269,1,87.500000834465
282,36,271872,5,4,0:2:0:0:
332,258,272096,1,0,0:0:0:0:
440,58,272320,1,0,0:0:0:0:
226,166,272544,1,0,0:0:0:0:
456,300,272768,5,12,0:2:0:0:
265,237,272991,1,0,0:0:0:0:
486,162,273215,1,0,0:0:0:0:
357,363,273439,1,0,0:0:0:0:
338,86,273663,5,4,0:2:0:0:
456,300,273887,1,0,0:0:0:0:
251,146,274111,1,4,0:2:0:0:
498,234,274335,1,0,0:0:0:0:
195,269,274559,5,12,0:2:0:0:
402,144,274782,1,0,0:0:0:0:
182,69,275006,1,4,0:2:0:0:
368,236,275230,1,0,0:0:0:0:
251,0,275454,5,4,0:0:0:0:
125,266,275678,1,0,0:0:0:0:
330,26,275902,5,4,0:0:0:0:
204,314,276126,1,0,0:0:0:0:
18,88,276350,5,4,0:0:0:0:
310,239,276574,1,0,0:0:0:0:
3,187,276797,5,4,0:0:0:0:
325,345,277021,1,0,0:0:0:0:
408,150,277245,6,0,B|395:187|395:187|399:207|399:207|378:260,1,100,4|0,3:2|3:0,3:0:0:0:
268,301,277469,5,8,3:0:0:0:
325,345,277581,2,0,L|405:323,1,75.0000028610231,8|2,0:0|0:0,0:0:0:0:
260,291,277805,5,8,3:0:0:0:
203,335,277917,1,8,0:0:0:0:
163,323,278029,1,8,0:0:0:0:
158,305,278141,6,0,L|172:243,1,50,8|8,0:0|0:0,0:0:0:0:
181,291,278365,2,0,L|195:229,1,50,8|8,0:0|0:0,0:0:0:0:
74,342,278588,6,0,L|60:280,1,50,8|8,0:0|0:0,0:0:0:0:
62,346,278812,2,0,L|48:284,1,50,8|8,0:0|0:0,0:0:0:0:
23,95,279036,5,4,0:2:0:0:
286,144,279260,1,0,0:0:0:0:
98,0,279484,1,4,0:2:0:0:
192,242,279708,1,0,0:0:0:0:
338,40,279932,5,12,0:2:0:0:
256,310,280156,1,0,0:0:0:0:
179,124,280380,6,0,B|230:95|269:131|267:137|263:146|306:189|363:150,1,200,4|0,0:2|0:0,3:0:0:0:
504,276,280827,2,0,B|470:274|449:236|449:236|407:296|445:373,1,200,4|0,3:2|0:0,0:0:0:0:
338,40,281275,1,4,0:2:0:0:
205,209,281499,1,0,0:0:0:0:
89,55,281723,6,0,B|81:13|38:-6|38:-6|98:9|112:76,1,200,12|0,0:2|0:0,0:0:0:0:
50,298,282171,2,0,B|29:204|29:204|32:198|32:198|3:83,1,200,4|0,0:2|0:0,0:0:0:0:
186,0,282618,5,4,0:2:0:0:
140,277,282842,1,0,0:0:0:0:
364,132,283066,2,0,B|380:109|410:96|410:96|383:58|321:53|284:85,1,200,4|0,0:2|0:0,0:0:0:0:
415,266,283514,5,12,0:2:0:0:
509,16,283738,1,0,0:0:0:0:
274,174,283962,1,4,0:2:0:0:
512,126,284185,1,0,0:0:0:0:
246,1,284409,5,4,0:2:0:0:
332,245,284633,1,0,0:0:0:0:
144,93,284857,1,4,0:2:0:0:
380,0,285081,1,0,0:0:0:0:
195,201,285305,6,0,B|156:219|103:192|89:159|89:159|117:189|159:176,1,200,12|0,0:2|0:0,0:0:0:0:
419,231,285753,2,0,B|428:307|367:348|352:307|315:357|313:390,1,200,4|0,3:2|3:0,3:0:0:0:
286,147,286200,6,0,B|257:90|257:90|402:130,1,200,4|0,0:1|0:0,0:0:0:0:
264,0,286648,1,4,0:2:0:0:
328,238,286872,1,0,0:0:0:0:
69,115,287096,6,0,P|95:24|132:96,1,200,12|0,0:2|0:0,0:0:0:0:
0,177,287544,1,4,0:2:0:0:
208,153,287768,1,0,0:0:0:0:
175,360,287991,6,0,B|152:314|106:325|106:325|89:310|89:310|28:315|9:256,1,200,4|0,3:2|0:0,0:0:0:0:
268,228,288439,2,0,B|246:175|192:162|139:185|139:185|125:220|80:231,1,200,4|0,0:2|0:0,0:0:0:0:
211,59,288887,1,12,0:2:0:0:
270,338,289111,1,0,0:0:0:0:
456,136,289335,6,0,P|388:134|348:176,1,100,4|0,0:2|0:0,0:0:0:0:
371,243,289559,2,0,P|439:245|479:203,1,100,4|0,0:2|0:0,0:0:0:0:
340,64,289782,6,0,L|285:301,1,200,4|0,0:1|0:0,0:0:0:0:
456,136,290230,1,4,0:1:0:0:
403,380,290454,1,0,0:0:0:0:
207,248,290678,5,12,0:1:0:0:
475,332,290902,1,0,0:0:0:0:
135,296,291126,5,4,0:1:0:0:
403,380,291350,1,0,0:0:0:0:
366,27,291574,5,4,0:1:0:0:
312,298,291797,1,0,0:0:0:0:
460,5,292021,5,4,0:1:0:0:
401,290,292245,1,0,0:0:0:0:
194,33,292469,5,12,0:1:0:0:
352,205,292693,1,8,0:0:0:0:
312,141,292805,1,8,0:0:0:0:
243,177,292917,1,8,0:0:0:0:
245,191,293029,1,8,0:0:0:0:
217,260,293141,1,8,0:0:0:0:
142,256,293253,1,8,0:0:0:0:
127,180,293365,5,4,0:2:0:0:
20,338,293588,1,0,0:0:0:0:
203,156,293812,1,4,0:2:0:0:
144,384,294036,1,0,0:0:0:0:
38,150,294260,5,12,0:2:0:0:
217,345,294484,1,0,0:0:0:0:
219,80,294708,6,0,B|146:78|118:149|118:149|124:108|91:87,1,200,4|0,0:2|0:0,0:0:0:0:
306,190,295156,2,0,B|381:206|381:206|422:190|422:190|502:207,1,200,4|0,3:2|3:0,3:0:0:0:
337,44,295603,1,4,0:2:0:0:
430,289,295827,1,0,0:0:0:0:
236,153,296051,6,0,B|274:113|256:58|256:58|276:119|339:122,1,200,12|0,0:2|0:0,0:0:0:0:
215,327,296499,2,0,P|130:280|38:234,1,200,4|0,0:2|0:0,0:0:0:0:
193,139,296947,5,4,0:2:0:0:
138,384,297171,1,0,0:0:0:0:
13,142,297394,2,0,B|63:129|98:168|98:168|116:161|116:161|131:208|182:221,1,200,4|0,0:2|0:0,0:0:0:0:
0,299,297842,5,12,0:2:0:0:
193,139,298066,1,0,0:0:0:0:
0,51,298290,1,4,0:2:0:0:
113,281,298514,1,0,0:0:0:0:
225,4,298738,5,4,0:2:0:0:
13,142,298962,1,0,0:0:0:0:
281,105,299185,1,4,0:2:0:0:
75,0,299409,1,0,0:0:0:0:
262,234,299633,6,0,B|274:179|340:156|383:168|383:168|393:201|449:225,1,200,12|0,0:2|0:0,0:0:0:0:
445,1,300081,2,0,B|398:14|391:82|391:82|375:11|287:-6,1,200,4|0,3:2|3:0,3:0:0:0:
455,359,300529,6,0,P|479:248|522:152,1,200,4|0,0:1|0:0,0:0:0:0:
281,105,300977,1,4,0:2:0:0:
512,22,301200,1,0,0:0:0:0:
353,276,301424,6,0,B|261:242|261:242|261:236|261:236|155:197,1,200,12|0,0:2|0:0,0:0:0:0:
43,31,301872,1,4,0:2:0:0:
113,281,302096,1,0,0:0:0:0:
225,30,302320,6,0,B|188:21|181:-8|181:-8|121:40|140:135,1,200,4|0,0:2|0:0,0:0:0:0:
19,244,302768,2,0,B|17:214|0:192|0:192|69:229|120:289,1,200,4|0,0:2|0:0,0:0:0:0:
325,331,303215,2,0,B|301:361|256:356|256:356|203:283|282:201,1,200,12|0,0:2|0:0,0:0:0:0:
445,39,303663,2,0,B|412:166|412:166|428:125|477:119,1,200,4|0,3:2|0:0,0:0:0:0:
207,160,304111,5,4,0:1:0:0:
512,208,304335,1,0,0:0:0:0:
176,65,304559,5,4,0:1:0:0:
461,122,304782,1,0,0:0:0:0:
403,342,305006,5,12,0:1:0:0:
354,59,305230,1,0,0:0:0:0:
291,276,305454,5,4,0:1:0:0:
244,5,305678,1,0,0:0:0:0:
139,291,305902,5,4,0:1:0:0:
433,215,306126,1,0,0:0:0:0:
67,216,306350,5,4,0:1:0:0:
329,161,306574,1,0,0:0:0:0:
221,360,306797,5,12,0:1:0:0:
186,101,307021,1,8,0:0:0:0:
141,62,307133,1,8,0:0:0:0:
93,81,307245,1,8,0:0:0:0:
80,72,307357,1,8,0:0:0:0:
74,40,307469,2,0,P|97:48|120:76,1,50,8|8,0:0|0:0,0:0:0:0:
104,302,307693,5,4,3:2:0:0:
111,234,307805,1,0,3:0:0:0:
144,175,307917,1,0,3:0:0:0:
194,128,308029,1,0,3:0:0:0:
259,104,308141,1,4,3:2:0:0:
328,105,308253,1,0,3:0:0:0:
388,133,308365,1,0,3:0:0:0:
425,191,308477,1,0,3:0:0:0:
423,258,308588,1,12,3:2:0:0:
396,321,308700,1,0,0:0:0:0:
333,349,308812,1,0,0:0:0:0:
266,329,308924,1,0,0:0:0:0:
246,263,309036,5,4,0:2:0:0:
284,224,309148,1,0,0:0:0:0:
338,219,309260,1,0,0:0:0:0:
376,239,309372,1,0,0:0:0:0:
389,269,309484,2,0,P|393:286|382:329,1,50,4|0,0:2|0:0,0:0:0:0:
234,376,309708,5,0,0:0:0:0:
206,323,309820,1,0,0:0:0:0:
155,304,309932,1,4,0:2:0:0:
111,308,310044,1,0,0:0:0:0:
90,333,310156,5,0,0:0:0:0:
148,329,310268,1,0,0:0:0:0:
175,282,310380,1,12,0:2:0:0:
176,227,310491,1,0,0:0:0:0:
148,193,310603,1,0,0:0:0:0:
115,185,310715,1,0,0:0:0:0:
94,194,310827,5,4,0:2:0:0:
107,141,310939,1,0,0:0:0:0:
82,103,311051,1,0,0:0:0:0:
50,94,311163,1,0,0:0:0:0:
28,99,311275,5,4,0:2:0:0:
62,141,311387,1,0,0:0:0:0:
115,156,311499,1,0,0:0:0:0:
161,126,311611,1,0,0:0:0:0:
208,100,311723,1,4,0:2:0:0:
261,104,311835,1,0,0:0:0:0:
295,146,311947,5,0,0:0:0:0:
248,176,312059,1,0,0:0:0:0:
243,229,312171,1,12,0:2:0:0:
275,272,312282,1,0,0:0:0:0:
328,281,312394,5,0,0:0:0:0:
353,231,312506,1,0,0:0:0:0:
404,210,312618,1,4,0:2:0:0:
457,214,312730,1,0,0:0:0:0:
499,249,312842,5,0,0:0:0:0:
451,275,312954,1,0,0:0:0:0:
398,257,313066,1,4,0:2:0:0:
378,205,313178,1,0,0:0:0:0:
405,157,313290,5,0,0:0:0:0:
453,193,313402,1,0,0:0:0:0:
467,251,313514,1,4,0:2:0:0:
445,307,313626,1,0,0:0:0:0:
394,339,313738,1,0,0:0:0:0:
350,332,313850,1,0,0:0:0:0:
313,308,313962,1,12,0:2:0:0:
280,304,314074,1,0,0:0:0:0:
248,313,314185,1,0,0:0:0:0:
232,329,314297,1,0,0:0:0:0:
229,339,314409,5,4,0:2:0:0:
271,347,314521,1,0,0:0:0:0:
312,331,314633,1,0,0:0:0:0:
325,300,314745,1,0,0:0:0:0:
318,273,314857,5,4,0:2:0:0:
263,270,314969,1,0,0:0:0:0:
207,273,315081,1,0,0:0:0:0:
154,288,315193,1,0,0:0:0:0:
110,319,315305,2,0,P|119:342|124:381,1,50,4|0,0:2|0:0,0:0:0:0:
17,152,315529,5,0,0:0:0:0:
56,157,315641,1,0,0:0:0:0:
92,173,315753,1,12,0:2:0:0:
124,195,315865,1,0,0:0:0:0:
147,227,315977,5,0,0:0:0:0:
159,168,316088,1,0,0:0:0:0:
206,131,316200,1,4,0:2:0:0:
265,140,316312,1,0,0:0:0:0:
306,182,316424,1,0,0:0:0:0:
365,186,316536,1,0,0:0:0:0:
412,148,316648,6,0,L|342:131,1,50,4|0,0:2|0:0,0:0:0:0:
367,53,316872,2,0,L|297:70,1,50
229,248,317096,6,0,L|290:210,1,50,4|0,0:2|0:0,0:0:0:0:
344,262,317320,2,0,L|381:200,1,50
216,40,317544,6,0,L|242:82,1,50,4|0,0:2|0:0,0:0:0:0:
161,124,317768,2,0,L|222:161,1,50
285,314,317991,5,4,0:2:0:0:
313,361,318103,1,0,0:0:0:0:
358,370,318215,1,0,0:0:0:0:
387,354,318327,1,0,0:0:0:0:
399,335,318439,5,4,0:2:0:0:
372,286,318551,1,0,0:0:0:0:
383,232,318663,1,0,0:0:0:0:
427,199,318775,1,0,0:0:0:0:
481,193,318887,2,0,P|465:223|460:245,1,50,4|0,0:2|0:0,0:0:0:0:
361,160,319111,5,0,0:0:0:0:
354,120,319223,1,0,0:0:0:0:
342,81,319335,1,12,0:2:0:0:
320,47,319447,1,0,0:0:0:0:
289,21,319559,5,0,0:0:0:0:
268,77,319671,1,0,0:0:0:0:
293,130,319782,1,4,0:2:0:0:
347,154,319894,1,0,0:0:0:0:
405,139,320006,1,0,0:0:0:0:
436,87,320118,1,0,0:0:0:0:
428,27,320230,5,0,0:0:0:0:
361,49,320342,1,12,0:2:0:0:
342,55,320454,1,0,0:0:0:0:
323,61,320566,1,0,0:0:0:0:
304,67,320678,1,0,0:0:0:0:
246,26,320790,5,12,0:2:0:0:
227,23,320902,1,0,0:0:0:0:
207,19,321014,1,0,0:0:0:0:
142,46,321126,6,0,B|131:5|131:5|108:27|108:27|144:50,1,100,12|0,0:2|0:0,0:0:0:0:
53,131,321349,5,8,3:0:0:0:
120,172,321461,1,8,3:0:0:0:
109,245,321573,1,8,3:0:0:0:
97,246,321685,1,8,3:0:0:0:
55,307,321798,5,8,0:0:0:0:
103,363,321910,1,8,0:0:0:0:
170,335,322021,5,4,0:2:0:0:
166,325,322132,1,0,0:0:0:0:
160,316,322244,1,0,0:0:0:0:
154,309,322356,1,0,0:0:0:0:
146,302,322468,1,4,0:2:0:0:
138,297,322580,1,0,0:0:0:0:
129,291,322692,1,0,0:0:0:0:
119,289,322804,1,0,0:0:0:0:
110,287,322917,1,12,0:2:0:0:
100,285,323028,1,0,0:0:0:0:
89,286,323140,1,0,0:0:0:0:
80,287,323252,1,0,0:0:0:0:
71,292,323365,5,4,0:2:0:0:
108,330,323477,1,0,0:0:0:0:
162,335,323589,1,0,0:0:0:0:
201,316,323701,1,0,0:0:0:0:
213,285,323813,2,0,P|217:267|206:223,1,50,4|0,0:2|0:0,0:0:0:0:
251,83,324036,5,0,0:0:0:0:
279,30,324148,1,0,0:0:0:0:
330,11,324260,1,4,0:2:0:0:
374,15,324372,1,0,0:0:0:0:
395,40,324484,5,0,0:0:0:0:
357,87,324596,1,0,0:0:0:0:
358,142,324708,1,12,0:2:0:0:
400,177,324820,1,0,0:0:0:0:
443,184,324932,1,0,0:0:0:0:
473,169,325044,1,0,0:0:0:0:
483,147,325156,5,4,0:2:0:0:
440,112,325268,1,0,0:0:0:0:
395,119,325380,1,0,0:0:0:0:
373,144,325492,1,0,0:0:0:0:
369,166,325604,5,4,0:2:0:0:
403,208,325715,1,0,0:0:0:0:
400,262,325827,1,0,0:0:0:0:
355,295,325939,1,0,0:0:0:0:
300,286,326051,1,4,0:2:0:0:
246,298,326163,1,0,0:0:0:0:
218,345,326275,5,0,0:0:0:0:
272,350,326387,1,0,0:0:0:0:
318,319,326499,1,12,0:2:0:0:
325,264,326611,1,0,0:0:0:0:
295,217,326723,5,0,0:0:0:0:
258,257,326835,1,0,0:0:0:0:
204,267,326947,1,4,0:2:0:0:
153,245,327059,1,0,0:0:0:0:
124,197,327171,5,0,0:0:0:0:
177,209,327282,1,0,0:0:0:0:
210,252,327394,1,4,0:2:0:0:
205,306,327506,1,0,0:0:0:0:
166,344,327618,5,0,0:0:0:0:
113,315,327730,1,0,0:0:0:0:
94,257,327842,1,4,0:2:0:0:
110,199,327954,1,0,0:0:0:0:
159,164,328066,1,0,0:0:0:0:
187,129,328178,1,0,0:0:0:0:
184,84,328290,1,12,0:2:0:0:
162,56,328402,1,0,0:0:0:0:
128,45,328514,1,0,0:0:0:0:
103,50,328626,1,0,0:0:0:0:
94,55,328738,5,4,0:2:0:0:
120,87,328850,1,0,0:0:0:0:
162,101,328962,1,0,0:0:0:0:
192,86,329074,1,0,0:0:0:0:
204,60,329186,5,4,0:2:0:0:
152,78,329297,1,0,0:0:0:0:
106,108,329409,1,0,0:0:0:0:
76,154,329521,1,0,0:0:0:0:
58,206,329633,2,0,P|52:238|58:277,1,50,4|0,0:2|0:0,0:0:0:0:
191,316,329857,5,0,3:0:0:0:
161,287,329969,1,0,3:0:0:0:
146,249,330081,1,12,3:2:0:0:
144,209,330193,1,0,3:0:0:0:
160,172,330305,5,0,3:0:0:0:
181,228,330417,1,0,0:0:0:0:
237,247,330529,1,4,0:2:0:0:
294,230,330641,1,0,0:0:0:0:
353,237,330753,1,0,0:0:0:0:
387,285,330865,1,0,0:0:0:0:
378,344,330977,6,0,L|308:357,1,50,4|0,0:2|0:0,0:0:0:0:
307,277,331200,2,0,L|237:290,1,50
386,175,331424,6,0,L|454:192,1,50,4|0,0:2|0:0,0:0:0:0:
422,265,331647,2,0,L|490:282,1,50
255,199,331872,6,0,L|323:181,1,50,12|0,0:2|0:0,0:0:0:0:
291,108,332095,2,0,L|359:90,1,50
478,0,332320,5,4,3:2:0:0:
507,42,332432,1,0,3:0:0:0:
498,88,332544,1,0,3:0:0:0:
472,107,332656,1,0,3:0:0:0:
449,110,332768,5,4,3:2:0:0:
418,64,332880,1,0,0:0:0:0:
372,32,332991,1,0,0:0:0:0:
318,17,333103,1,0,0:0:0:0:
264,26,333215,2,0,P|236:35|214:57,1,50,4|0,0:2|0:0,0:0:0:0:
167,147,333439,5,0,0:0:0:0:
129,162,333551,1,0,0:0:0:0:
89,158,333663,1,12,0:2:0:0:
57,133,333775,1,0,0:0:0:0:
43,95,333887,5,0,0:0:0:0:
99,114,333999,1,0,0:0:0:0:
121,169,334111,1,4,0:2:0:0:
97,224,334223,1,0,0:0:0:0:
43,251,334335,1,0,0:0:0:0:
32,310,334447,1,0,0:0:0:0:
64,360,334559,5,4,0:2:0:0:
126,328,334671,1,8,0:0:0:0:
145,332,334783,1,0,0:0:0:0:
165,338,334894,1,0,0:0:0:0:
226,380,335006,5,12,0:2:0:0:
245,376,335118,1,0,0:0:0:0:
264,372,335230,1,0,0:0:0:0:
283,366,335342,1,0,0:0:0:0:
302,360,335454,1,0,0:0:0:0:
342,302,335566,5,12,0:2:0:0:
336,282,335678,1,0,0:0:0:0:
332,262,335790,1,0,0:0:0:0:
282,205,335902,6,0,B|250:199|238:215|238:215|239:221|239:221|256:225|285:202,1,100,12|0,0:2|0:0,0:0:0:0:
338,136,336126,5,8,0:0:0:0:
406,154,336238,1,8,0:0:0:0:
474,173,336350,6,0,B|425:185|381:165|367:127|367:127|372:120|372:120|352:64|283:36|240:61|240:61|274:90|267:140,1,383.333333333333,4|0,0:0|0:0,0:0:0:0:
273,146,338141,1,4,0:1:0:0:
117,3,339932,6,0,B|77:32|26:30|26:30|32:34|32:34|61:102|61:150|61:150|84:163|84:163|76:221|117:296,1,383.333333333333,4|0,3:0|3:0,3:0:0:0:
107,302,341723,1,4,0:1:0:0:
424,352,343514,6,0,B|447:318|498:298|498:298|491:299|491:299|390:277|390:277|357:302|357:302|331:270|331:270|225:252,1,383.333333333333,4|0,0:0|0:0,0:0:0:0:
225,264,345305,1,4,0:1:0:0:
452,71,347096,6,0,B|447:36|467:6|467:6|402:0|334:44|354:127|429:181|494:140|494:140|491:146|491:146|508:198|460:247|460:247|403:209|316:232|365:272|281:291|224:279|224:279|161:275|153:196|169:145|266:125|336:202|276:286|224:279|224:279|167:311|136:343|136:343|134:353|134:353|97:287|41:270|41:270|33:277|33:277|17:215|48:181|48:181|45:170|45:170|105:180|205:142|226:25|176:-34|41:-3|92:97,1,1800,4|0,0:0|0:0,0:0:0:0:
