osu file format v14

[General]
AudioFilename: audio.mp3
AudioLeadIn: 0
PreviewTime: 32400
Countdown: 0
SampleSet: Soft
StackLeniency: 0.6
Mode: 0
LetterboxInBreaks: 0
WidescreenStoryboard: 1

[Editor]
Bookmarks: 11226,20457,35226,43073,49996
DistanceSpacing: 0.4
BeatDivisor: 4
GridSize: 32
TimelineZoom: 2.2

[Metadata]
Title:The Spectacle
TitleUnicode:The Spectacle
Artist:Countess Coloratura (CV: Lena Hall)
ArtistUnicode:Countess Coloratura (CV: Lena Hall)
Creator:-Mercury-
Version:M i X's Hyper
Source:My Little Pony: Friendship is Magic
Tags:mlp fim english pop electronic RaRa Razzle Dazzle Lena Hall Celina Consuela Gabriella Carvajal Daniel Ingram Amy Keating Rogers -Doodle dooe KlaksoncakFish Kimchi Sandwich M_i_X mix
BeatmapID:3140922
BeatmapSetID:1530898

[Difficulty]
HPDrainRate:5.6
CircleSize:4
OverallDifficulty:6
ApproachRate:8
SliderMultiplier:1.7
SliderTickRate:1

[Events]
//Background and Video events
0,0,"countess_coloratura_by_zig_word_d9hzctv.jpg",0,0
//Break Periods
2,33580,34476
//Storyboard Layer 0 (Background)
//Storyboard Layer 1 (Fail)
//Storyboard Layer 2 (Pass)
//Storyboard Layer 3 (Foreground)
//Storyboard Layer 4 (Overlay)
//Storyboard Sound Samples

[TimingPoints]
150,461.538461538462,4,2,1,50,1,0
11226,-83.3333333333333,4,2,1,50,0,0
11630,-83.3333333333333,4,2,1,5,0,0
11688,-83.3333333333333,4,2,1,50,0,0
11861,-83.3333333333333,4,2,1,5,0,0
11919,-83.3333333333333,4,2,1,50,0,0
13476,-83.3333333333333,4,2,1,5,0,0
13534,-83.3333333333333,4,2,1,50,0,0
13707,-83.3333333333333,4,2,1,5,0,0
13765,-83.3333333333333,4,2,1,50,0,0
15323,-83.3333333333333,4,2,1,5,0,0
15380,-83.3333333333333,4,2,1,50,0,0
15553,-83.3333333333333,4,2,1,5,0,0
15611,-83.3333333333333,4,2,1,50,0,0
16765,-83.3333333333333,4,2,1,60,0,0
17400,-83.3333333333333,4,2,1,5,0,0
17457,-83.3333333333333,4,2,1,60,0,0
20457,-71.4285714285714,4,2,1,60,0,0
26400,-71.4285714285714,4,2,1,5,0,0
26457,-71.4285714285714,4,2,1,60,0,0
35226,-62.5,4,2,1,70,0,1
36784,-62.5,4,2,1,5,0,1
36842,-62.5,4,2,1,70,0,1
37476,-62.5,4,2,1,5,0,1
37534,-62.5,4,2,1,70,0,1
40476,-62.5,4,2,1,5,0,1
40534,-62.5,4,2,1,70,0,1
41169,-62.5,4,2,1,5,0,1
41226,-62.5,4,2,1,70,0,1
42784,-62.5,4,2,1,5,0,1
42842,-62.5,4,2,1,70,0,1
44169,-62.5,4,2,1,5,0,1
44226,-62.5,4,2,1,70,0,1
45323,-62.5,4,2,1,5,0,1
45380,-62.5,4,2,1,70,0,1
46938,-62.5,4,2,1,5,0,1
46996,-62.5,4,2,1,70,0,1
47400,-62.5,4,2,1,5,0,1
47457,-62.5,4,2,1,70,0,1
47861,-62.5,4,2,1,5,0,1
47919,-62.5,4,2,1,70,0,1
49707,-62.5,4,2,1,5,0,1
49765,-62.5,4,2,1,70,0,1
49996,-76.9230769230769,4,2,1,60,0,0
55938,-76.9230769230769,4,2,1,5,0,0
55996,-76.9230769230769,4,2,1,60,0,0

[Colours]
Combo1 : 91,204,145
Combo2 : 137,130,181
Combo3 : 90,211,205
Combo4 : 249,64,170

[HitObjects]
97,243,150,6,0,P|91:190|76:111,2,127.5,2|2|2,1:0|1:0|1:0,0:0:0:0:
244,322,1534,1,12,0:0:0:0:
244,322,1996,6,0,P|250:269|265:190,1,127.5,2|2,1:0|1:0,0:0:0:0:
365,64,2688,1,2,1:0:0:0:
365,64,3150,5,0,1:0:0:0:
435,135,3380,1,12,0:0:0:0:
435,135,3842,6,0,P|416:204|413:238,1,85,2|0,1:0|0:0,0:0:0:0:
393,244,4188,2,0,P|412:313|415:347,1,85,2|0,1:0|0:0,0:0:0:0:
438,349,4534,1,2,1:0:0:0:
62,64,5226,1,12,0:0:0:0:
62,64,5688,5,2,1:0:0:0:
157,177,6034,2,0,P|138:227|124:319,1,127.5,2|2,1:0|1:0,0:0:0:0:
403,88,6842,5,0,1:0:0:0:
326,157,7073,2,0,P|315:116|299:77,1,85,12|0,0:0|0:0,0:0:0:0:
426,235,7534,2,0,P|451:195|479:116,2,127.5,2|2|2,1:0|1:0|1:0,0:0:0:0:
169,374,8919,1,12,0:0:0:0:
169,374,9380,6,0,P|150:305|147:271,1,85,2|0,1:0|0:0,0:0:0:0:
127,265,9726,2,0,P|146:196|149:162,1,85,2|0,1:0|0:0,0:0:0:0:
172,160,10072,1,2,1:0:0:0:
0,0,10534,5,0,1:0:0:0:
70,70,10765,2,0,P|118:58|176:51,1,85,12|0,0:0|0:0,0:0:0:0:
344,16,11226,6,0,P|294:17|264:56,1,101.999996887207,2|0,1:0|0:0,0:0:0:0:
231,102,11573,1,2,1:0:0:0:
231,102,11688,6,0,P|261:148|266:197,1,101.999996887207,0|2,0:0|1:0,0:0:0:0:
348,275,12150,1,0,0:0:0:0:
289,361,12380,2,0,P|260:346|229:346,2,50.9999984436036,0|0|12,0:0|0:0|0:0,0:0:0:0:
336,275,12842,1,0,0:0:0:0:
199,266,13073,2,0,P|102:303|68:356,2,152.999995330811,2|2|2,1:0|1:0|1:0,0:0:0:0:
85,91,14226,5,2,1:0:0:0:
13,136,14457,2,0,P|58:175|112:171,1,101.999996887207,12|0,0:0|0:0,0:0:0:0:
158,47,14919,2,0,P|207:36|256:20,1,101.999996887207,2|0,1:0|0:0,0:0:0:0:
306,44,15265,1,2,1:0:0:0:
306,44,15380,2,0,P|343:99|331:139,1,101.999996887207,0|2,0:0|1:0,0:0:0:0:
265,271,15842,1,0,0:0:0:0:
340,279,16073,2,0,P|308:206|200:224,1,203.999993774414
327,376,16765,6,0,P|394:341|476:315,2,152.999995330811,2|2|2,1:0|1:0|1:0,0:0:0:0:
265,271,17688,1,0,0:0:0:0:
164,363,17919,1,0,1:0:0:0:
164,363,18034,1,0,0:0:0:0:
268,74,20457,6,0,P|241:22|184:13,1,118.999996368408,4|0,1:0|0:0,0:0:0:0:
124,57,20803,1,0,0:0:0:0:
124,57,20919,2,0,P|65:43|6:32,1,118.999996368408,8|0,0:1|0:0,0:0:0:0:
178,176,21380,5,2,1:0:0:0:
286,151,21611,1,2,0:0:0:0:
169,192,21842,1,10,0:1:0:0:
61,217,22073,1,2,0:0:0:0:
196,309,22303,6,0,P|249:279|251:219,1,118.999996368408,0|0,1:0|0:0,0:0:0:0:
130,333,22765,2,0,P|213:355|251:375,1,118.999996368408,8|0,0:1|0:0,0:0:0:0:
357,281,23226,6,0,P|381:257|417:248,1,59.4999981842042,2|0,1:0|0:0,0:0:0:0:
463,295,23457,1,2,0:0:0:0:
417,163,23688,6,0,P|449:171|475:198,1,59.4999981842042,10|0,0:1|0:0,0:0:0:0:
475,282,23919,1,2,0:0:0:0:
336,180,24150,6,0,P|318:120|292:55,1,118.999996368408,0|0,1:0|0:0,0:0:0:0:
354,19,24496,1,0,0:0:0:0:
354,19,24611,2,0,P|369:105|322:123,1,118.999996368408,8|0,0:1|0:0,0:0:0:0:
195,196,25073,5,2,1:0:0:0:
84,176,25303,1,2,0:0:0:0:
66,172,25419,1,0,0:0:0:0:
48,168,25534,1,10,0:1:0:0:
186,207,25764,1,2,0:0:0:0:
311,221,25996,6,0,L|168:190,1,118.999996368408,0|0,1:0|0:0,0:0:0:0:
153,133,26342,1,0,0:0:0:0:
153,133,26457,1,10,0:1:0:0:
81,23,26688,1,0,0:0:0:0:
216,21,26919,2,0,P|182:58|167:126,1,118.999996368408,2|2,1:0|0:0,0:0:0:0:
246,250,27380,2,0,P|261:300|270:342,2,79.3333309122722,10|2|2,0:1|0:0|0:0,0:0:0:0:
183,304,27842,6,0,P|278:358|329:263,1,237.999992736817,6|8,1:2|0:1,0:0:0:0:
485,0,28765,6,0,P|459:36|455:77,1,59.4999981842042,2|0,1:0|0:0,0:0:0:0:
494,113,28996,1,2,0:0:0:0:
387,198,29226,2,0,P|372:148|305:95,1,118.999996368408,10|2,0:1|0:0,0:0:0:0:
408,294,29688,6,0,P|468:260|471:183,1,118.999996368408,0|0,1:0|0:0,0:0:0:0:
490,368,30150,2,0,P|422:347|289:323,1,178.499994552612,8|0,0:1|0:0,0:0:0:0:
266,271,30611,1,2,1:0:0:0:
167,350,30842,2,0,P|128:366|94:381,1,59.4999981842042,2|0,0:0|0:0,0:0:0:0:
36,379,31073,2,0,P|32:323|84:303,1,118.999996368408,10|2,0:1|0:0,0:0:0:0:
165,222,31534,6,0,P|184:164|196:105,1,118.999996368408,0|0,1:0|0:0,0:0:0:0:
149,48,31880,1,0,0:0:0:0:
149,48,31996,1,8,0:1:0:0:
373,319,32457,5,2,1:0:0:0:
275,354,32688,1,2,0:0:0:0:
385,331,32919,1,10,0:1:0:0:
483,296,33150,1,2,0:0:0:0:
397,343,33380,1,0,1:0:0:0:
58,78,35226,6,0,B|134:81|103:149|186:138,1,136,4|0,1:0|0:0,0:0:0:0:
248,121,35573,1,0,0:0:0:0:
248,121,35688,2,0,P|227:51|166:86,1,136,8|0,1:0|0:0,0:0:0:0:
47,162,36150,2,0,P|25:227|0:290,1,136,2|2,1:0|0:0,0:0:0:0:
46,355,36496,1,8,0:1:0:0:
46,355,36611,1,2,1:0:0:0:
144,297,36842,1,10,0:1:0:0:
218,384,37073,5,0,1:0:0:0:
250,373,37188,1,0,0:0:0:0:
272,348,37303,1,0,0:0:0:0:
279,315,37419,1,0,0:0:0:0:
268,283,37534,1,8,1:0:0:0:
157,287,37765,1,0,0:0:0:0:
218,167,37996,5,2,1:0:0:0:
340,157,38226,2,0,P|322:191|282:199,1,68,2|8,0:0|0:1,0:0:0:0:
223,180,38457,1,2,1:0:0:0:
367,272,38688,1,10,0:1:0:0:
393,264,38803,1,0,0:0:0:0:
419,257,38919,1,0,1:0:0:0:
269,298,39150,1,0,0:0:0:0:
437,379,39380,6,0,P|456:285|489:166,1,204,8|0,1:0|0:0,0:0:0:0:
484,95,39842,2,0,P|425:91|410:172,1,136,2|2,1:0|0:0,0:0:0:0:
477,171,40188,1,8,0:1:0:0:
477,171,40303,1,2,1:0:0:0:
319,117,40534,1,8,0:1:0:0:
357,0,40765,6,0,P|384:37|377:68,1,68,2|0,1:0|0:0,0:0:0:0:
327,108,40996,1,2,0:0:0:0:
157,75,41226,2,0,P|233:56|292:36,1,136,10|0,1:0|0:0,0:0:0:0:
321,199,41688,6,0,B|242:194|279:154|195:152,1,136,2|0,1:0|0:0,0:0:0:0:
143,203,42034,1,8,0:1:0:0:
143,203,42150,1,2,1:0:0:0:
49,111,42380,1,10,0:1:0:0:
58,85,42496,1,0,0:0:0:0:
68,60,42611,1,0,1:0:0:0:
41,310,43073,6,0,P|22:235|0:164,1,136,10|0,1:0|0:0,0:0:0:0:
89,383,43534,2,0,P|139:344|123:282,1,136,2|0,1:0|0:0,0:0:0:0:
57,314,43880,1,8,0:1:0:0:
57,314,43996,1,2,1:0:0:0:
158,201,44226,2,0,P|123:178|87:179,2,68,8|0|2,0:1|0:0|1:0,0:0:0:0:
200,269,44573,1,0,0:0:0:0:
200,269,44688,1,0,0:0:0:0:
326,384,44919,6,0,P|351:305|401:235,1,136,8|2,1:0|0:0,0:0:0:0:
485,168,45380,2,0,P|452:88|398:92,1,136,2|2,1:0|0:0,0:0:0:0:
359,138,45726,1,8,0:1:0:0:
359,138,45842,2,0,P|313:160|275:169,2,68,2|0|8,1:0|0:0|0:1,0:0:0:0:
339,65,46188,1,0,0:0:0:0:
339,65,46303,1,2,1:0:0:0:
31,57,46765,6,0,B|31:127|68:113|73:193,1,136,10|0,1:0|0:0,0:0:0:0:
125,30,47226,2,0,B|134:99|169:80|185:158,1,136,2|0,1:0|0:0,0:0:0:0:
112,333,47688,6,0,P|151:248|244:269,1,204,2|0,1:0|0:0,0:0:0:0:
288,329,48150,2,0,P|359:339|421:352,2,136,2|2|10,1:0|0:0|1:0,0:0:0:0:
366,180,48842,2,0,P|388:154|421:152,1,68,2|2,0:0|0:0,0:0:0:0:
426,226,49073,1,2,1:0:0:0:
392,219,49188,1,2,0:0:0:0:
358,213,49303,1,2,0:0:0:0:
324,208,49419,1,10,0:1:0:0:
291,204,49534,1,2,1:0:0:0:
210,98,49765,2,0,P|187:123|154:125,1,68,10|0,0:1|0:0,0:0:0:0:
150,51,49996,6,0,P|248:66|380:81,1,220.999989883423,0|8,1:0|1:0,0:0:0:0:
50,115,50919,5,2,1:0:0:0:
35,16,51150,1,2,0:0:0:0:
63,122,51380,1,10,1:0:0:0:
78,221,51611,1,2,0:0:0:0:
3,337,51842,6,0,P|101:322|217:310,1,165.749992412568,0|0,1:0|0:0,0:0:0:0:
181,297,52303,2,0,P|244:347|226:381,1,110.499994941712,8|0,1:0|0:0,0:0:0:0:
276,189,52765,5,2,1:0:0:0:
261,288,52996,1,2,0:0:0:0:
261,173,53226,2,0,P|271:118|280:64,1,110.499994941712,10|2,1:0|0:0,0:0:0:0:
449,60,53688,6,0,P|430:10|378:1,1,110.499994941712,0|0,1:0|0:0,0:0:0:0:
369,103,54150,2,0,P|386:190|396:276,1,165.749992412568,8|0,1:0|0:0,0:0:0:0:
412,280,54611,1,2,1:0:0:0:
329,362,54842,1,2,0:0:0:0:
307,357,54958,1,0,0:0:0:0:
285,354,55073,1,10,1:0:0:0:
189,356,55303,1,2,0:0:0:0:
245,257,55534,5,0,1:0:0:0:
94,27,55996,5,10,1:0:0:0:
106,118,56226,1,0,0:0:0:0:
113,209,56457,2,0,P|163:148|211:152,1,110.499994941712,2|2,1:0|0:0,0:0:0:0:
254,279,56919,2,0,P|225:245|190:240,2,73.6666632944744,10|2|2,1:0|0:0|0:0,0:0:0:0:
239,295,57380,6,0,B|246:192|296:242|304:129,1,165.749992412568,0|0,1:0|0:0,0:0:0:0:
289,128,57842,1,8,0:1:0:0:
485,118,58073,1,2,0:0:0:0:
392,163,58303,2,0,P|404:99|420:45,1,110.499994941712,2|2,1:0|0:0,0:0:0:0:
439,48,58650,1,0,0:0:0:0:
439,48,58765,1,10,1:0:0:0:
488,279,59226,6,0,P|407:258|363:253,1,110.499994941712,0|0,1:0|0:0,0:0:0:0:
362,240,59573,1,0,0:0:0:0:
362,240,59688,1,8,1:0:0:0:
181,343,60150,1,2,1:0:0:0:
79,359,60380,1,2,0:0:0:0:
193,353,60611,2,0,P|270:338|321:331,1,110.499994941712,10|0,1:0|0:0,0:0:0:0:
225,227,61073,6,0,P|150:201|94:257,1,165.749992412568,0|0,1:0|0:0,0:0:0:0:
116,262,61534,2,0,B|133:168|66:198|82:101,1,165.749992412568,8|0,1:0|0:0,0:0:0:0:
100,94,61996,1,2,1:0:0:0:
208,108,62226,1,2,0:0:0:0:
191,124,62342,1,0,0:0:0:0:
172,136,62457,1,10,1:0:0:0:
169,29,62688,1,2,0:0:0:0:
77,2,62919,1,0,1:0:0:0:
