osu file format v14

[General]
AudioFilename: audio.mp3
AudioLeadIn: 0
PreviewTime: 56134
Countdown: 1
SampleSet: Normal
StackLeniency: 0.7
Mode: 0
LetterboxInBreaks: 0
WidescreenStoryboard: 0

[Editor]
DistanceSpacing: 2.2
BeatDivisor: 4
GridSize: 32
TimelineZoom: 1.35

[Metadata]
Title:The real disapperance of Hatsune Miku
TitleUnicode:リアル初音ミクの消失
Artist:Cosmo@Bousou-P
ArtistUnicode:cosMo@暴走P
Creator:Symphoniez
Version:BPM
Source:
Tags:
BeatmapID:1975448
BeatmapSetID:946053

[Difficulty]
HPDrainRate:7
CircleSize:4
OverallDifficulty:7
ApproachRate:10
SliderMultiplier:1.4
SliderTickRate:1

[Events]
//Background and Video events
0,0,"big_1491999665_image.jpg",0,0
//Break Periods
2,28210,29628
//Storyboard Layer 0 (Background)
//Storyboard Layer 1 (Fail)
//Storyboard Layer 2 (Pass)
//Storyboard Layer 3 (Foreground)
//Storyboard Sound Samples

[TimingPoints]
13526.7656531542,258.620689655172,4,1,0,100,1,0
13542,-66.6666666666667,4,1,0,100,0,0
28138,-181.818181818182,4,1,0,100,0,0
34022,-66.6666666666667,4,1,0,100,0,0
35186,-100,4,1,0,100,0,0
35703,-66.6666666666667,4,1,0,100,0,0
38354,-133.333333333333,4,1,0,100,0,0
42169,-100,4,1,0,100,0,0
42427,-66.6666666666667,4,1,0,100,0,0
42880,-133.333333333333,4,1,0,100,0,0
43332,-66.6666666666667,4,1,0,100,0,0
45143,-133.333333333333,4,1,0,100,0,0
50832,-100,4,1,0,100,0,0
52772,-133.333333333333,4,1,0,100,0,0
56457,-100,4,1,0,100,0,0
56651,-66.6666666666667,4,1,0,100,0,0

[Colours]
Combo1 : 215,215,215
Combo2 : 192,192,192

[HitObjects]
110,162,13526,5,0,0:0:0:0:
459,47,13655,1,0,0:0:0:0:
435,320,13785,2,0,P|386:337|324:325,1,105.000004005432
402,162,14044,5,0,0:0:0:0:
53,47,14173,1,0,0:0:0:0:
77,320,14303,2,0,P|126:337|188:325,1,105.000004005432
402,162,14561,2,0,P|406:85|378:61,1,105.000004005432
110,162,14819,2,0,P|106:85|134:61,1,105.000004005432
152,280,15078,5,0,0:0:0:0:
387,32,15207,1,0,0:0:0:0:
368,299,15337,1,0,0:0:0:0:
120,42,15466,1,0,0:0:0:0:
152,280,15595,6,0,P|226:297|253:296,1,52.5000020027161
238,300,15725,1,0,0:0:0:0:
291,297,15789,1,0,0:0:0:0:
350,278,15854,1,0,0:0:0:0:
389,239,15919,1,0,0:0:0:0:
401,185,15983,1,0,0:0:0:0:
359,146,16048,1,0,0:0:0:0:
320,119,16112,1,0,0:0:0:0:
281,79,16177,1,0,0:0:0:0:
287,27,16242,2,0,L|225:40,3,52.5000020027161
211,55,16500,2,0,L|156:109,3,52.5000020027161
134,114,16759,5,0,0:0:0:0:
105,149,16824,1,0,0:0:0:0:
101,186,16888,1,0,0:0:0:0:
106,227,16953,1,0,0:0:0:0:
121,264,17018,1,0,0:0:0:0:
142,298,17082,1,0,0:0:0:0:
171,320,17147,2,0,L|232:288,3,52.5000020027161
231,266,17406,2,0,L|246:213,2,52.5000020027161
459,331,17664,5,0,0:0:0:0:
479,38,17794,1,0,0:0:0:0:
185,24,17923,1,0,0:0:0:0:
467,330,18052,1,0,0:0:0:0:
472,28,18181,1,0,0:0:0:0:
182,29,18311,2,0,P|204:86|243:110,1,105.000004005432
53,331,18569,5,0,0:0:0:0:
33,38,18699,1,0,0:0:0:0:
327,24,18828,1,0,0:0:0:0:
45,330,18957,1,0,0:0:0:0:
40,28,19086,1,0,0:0:0:0:
330,29,19216,2,0,P|308:86|269:110,1,105.000004005432
182,29,19475,2,0,P|204:86|243:110,1,105.000004005432
262,208,19733,2,0,L|263:312,2,105.000004005432
262,176,20250,2,0,L|263:72,2,105.000004005432
262,175,20768,2,0,L|393:175,2,105.000004005432
258,174,21285,2,0,L|123:174,2,105.000004005432
258,174,21672,5,0,0:0:0:0:
288,173,21737,1,0,0:0:0:0:
324,177,21801,1,0,0:0:0:0:
361,173,21802,6,0,L|474:123,1,105.000004005432
353,46,22061,2,0,L|239:32,1,105.000004005432
254,174,22319,5,0,0:0:0:0:
224,173,22384,1,0,0:0:0:0:
188,177,22448,1,0,0:0:0:0:
151,173,22449,6,0,L|38:123,1,105.000004005432
159,46,22708,2,0,L|273:32,1,105.000004005432
263,33,22966,5,0,0:0:0:0:
471,335,23095,1,0,0:0:0:0:
107,333,23225,1,0,0:0:0:0:
299,37,23354,1,0,0:0:0:0:
424,344,23484,1,0,0:0:0:0:
74,317,23612,1,0,0:0:0:0:
263,350,23742,5,0,0:0:0:0:
471,49,23871,1,0,0:0:0:0:
107,51,24001,1,0,0:0:0:0:
299,347,24130,1,0,0:0:0:0:
424,40,24260,1,0,0:0:0:0:
74,67,24388,2,0,P|74:127|105:164,1,105.000004005432
299,347,24647,2,0,P|355:310|370:263,1,105.000004005432
424,40,24906,2,0,P|354:22|315:21,1,105.000004005432
289,21,25164,5,0,0:0:0:0:
248,31,25229,1,0,0:0:0:0:
211,52,25294,1,0,0:0:0:0:
170,75,25358,1,0,0:0:0:0:
131,107,25423,1,0,0:0:0:0:
99,147,25487,1,0,0:0:0:0:
86,192,25552,1,0,0:0:0:0:
106,207,25617,6,0,L|168:232,3,52.5000020027161
200,225,25875,2,0,L|250:202,2,52.5000020027161
275,181,26069,5,0,0:0:0:0:
301,142,26134,1,0,0:0:0:0:
320,100,26198,1,0,0:0:0:0:
336,53,26263,1,0,0:0:0:0:
299,21,26328,1,0,0:0:0:0:
248,9,26392,1,0,0:0:0:0:
207,34,26457,1,0,0:0:0:0:
182,56,26522,1,0,0:0:0:0:
164,91,26587,1,0,0:0:0:0:
484,196,26716,5,0,0:0:0:0:
46,43,26845,1,0,0:0:0:0:
60,344,26975,1,0,0:0:0:0:
489,161,27104,1,0,0:0:0:0:
22,81,27234,1,0,0:0:0:0:
95,342,27363,1,0,0:0:0:0:
28,196,27492,5,0,0:0:0:0:
466,43,27621,1,0,0:0:0:0:
452,344,27751,1,0,0:0:0:0:
23,161,27880,1,0,0:0:0:0:
490,81,28010,1,0,0:0:0:0:
218,38,30078,6,0,P|256:34|308:44,1,70
218,346,30595,2,0,P|256:350|308:340,1,70
256,255,31112,5,0,0:0:0:0:
256,143,31371,1,0,0:0:0:0:
255,96,31630,2,0,L|256:13,1,77.0000023498536
255,288,32147,2,0,L|256:371,1,77.0000023498536
255,96,32632,2,0,L|256:13,1,77.0000023498536
255,96,33095,5,0,0:0:0:0:
165,98,33311,5,0,0:0:0:0:
123,96,33462,1,0,0:0:0:0:
73,98,33591,1,0,0:0:0:0:
160,202,33828,5,0,0:0:0:0:
223,202,33957,1,0,0:0:0:0:
356,85,34087,5,0,0:0:0:0:
356,85,34151,1,0,0:0:0:0:
356,85,34216,2,0,P|288:64|246:67,1,105.000004005432
87,134,34475,1,0,0:0:0:0:
251,341,34604,1,0,0:0:0:0:
429,164,34734,1,0,0:0:0:0:
429,147,34862,1,0,0:0:0:0:
87,165,34991,1,0,0:0:0:0:
276,340,35121,1,0,0:0:0:0:
278,333,35250,2,0,P|341:267|351:224,2,105
86,256,35768,5,0,0:0:0:0:
291,41,35897,1,0,0:0:0:0:
61,69,36026,2,0,L|181:160,1,105.000004005432
426,128,36285,5,0,0:0:0:0:
221,343,36414,1,0,0:0:0:0:
451,315,36543,2,0,L|331:224,1,105.000004005432
86,256,36802,5,0,0:0:0:0:
291,41,36931,1,0,0:0:0:0:
61,69,37060,2,0,L|181:160,1,105.000004005432
454,320,37319,5,0,0:0:0:0:
262,43,37449,1,0,0:0:0:0:
74,328,37578,2,0,P|123:287|161:273,1,105.000004005432
116,128,37966,5,0,0:0:0:0:
116,128,38031,1,0,0:0:0:0:
116,128,38095,1,0,0:0:0:0:
116,128,38160,1,0,0:0:0:0:
116,128,38225,1,0,0:0:0:0:
116,128,38289,1,0,0:0:0:0:
138,145,38354,2,0,P|176:174|202:229,1,105.000004005432
359,122,38871,2,0,P|327:105|274:51,1,105.000004005432
196,39,39388,5,0,0:0:0:0:
112,83,39647,1,0,0:0:0:0:
187,143,39906,1,0,0:0:0:0:
224,172,40035,5,0,0:0:0:0:
224,172,40100,1,0,0:0:0:0:
224,172,40164,2,0,L|263:214,1,52.5000020027161
156,355,40423,2,0,P|118:326|85:271,1,105.000004005432
153,262,40940,2,0,P|185:279|238:333,1,105.000004005432
316,345,41328,5,0,0:0:0:0:
400,301,41587,1,0,0:0:0:0:
325,241,41716,1,0,0:0:0:0:
288,212,41845,5,0,0:0:0:0:
288,212,41910,1,0,0:0:0:0:
288,212,41974,2,0,L|249:170,1,52.5000020027161
184,188,42233,2,0,L|223:123,1,70
446,61,42492,6,0,P|267:21|209:22,1,210.000008010865
59,170,42944,2,0,P|106:246|146:270,1,131.25000500679
256,40,43397,5,0,0:0:0:0:
256,40,43462,1,0,0:0:0:0:
256,40,43526,2,0,P|185:67|165:101,1,105.000004005432
256,344,43785,2,0,P|185:317|165:283,1,105.000004005432
259,35,44044,5,0,0:0:0:0:
51,186,44173,1,0,0:0:0:0:
228,39,44302,1,0,0:0:0:0:
41,231,44430,1,0,0:0:0:0:
41,231,44561,2,0,P|94:268|136:274,1,105.000004005432
228,39,44819,5,0,0:0:0:0:
257,344,44949,1,0,0:0:0:0:
466,195,45207,6,0,L|318:196,1,131.25000500679
316,195,45595,6,0,L|273:194,16,26.2500010013581
255,95,46888,5,0,0:0:0:0:
256,144,47018,1,0,0:0:0:0:
170,61,48181,6,0,P|236:45|241:45,1,52.5000020027161
250,94,48440,2,0,P|311:102|355:113,1,105.000004005432
136,167,48957,5,0,0:0:0:0:
220,139,49087,1,0,0:0:0:0:
246,213,49216,1,0,0:0:0:0:
108,160,49345,1,0,0:0:0:0:
228,113,49475,1,0,0:0:0:0:
285,223,49604,1,0,0:0:0:0:
285,223,49733,6,0,L|327:216,2,26.2500010013581
231,107,49992,2,0,L|249:74,2,26.2500010013581
108,160,50250,2,0,L|81:150,2,26.2500010013581
138,172,50509,2,0,L|241:212,1,105.000004005432
90,200,50897,5,0,0:0:0:0:
245,48,51027,1,0,0:0:0:0:
383,212,51156,1,0,0:0:0:0:
245,48,51285,1,0,0:0:0:0:
90,200,51414,1,0,0:0:0:0:
245,48,51544,1,0,0:0:0:0:
383,212,51673,1,0,0:0:0:0:
292,43,51802,6,0,P|297:91|288:134,1,70
220,43,52061,6,0,P|215:91|224:134,1,70
160,168,52319,5,0,0:0:0:0:
333,173,52449,1,0,0:0:0:0:
160,247,52578,1,0,0:0:0:0:
334,249,52707,1,0,0:0:0:0:
308,105,52837,6,0,P|317:63|279:11,1,105.000004005432
204,105,53354,6,0,P|195:63|233:11,1,105.000004005432
255,145,53871,5,0,0:0:0:0:
255,168,54000,1,0,0:0:0:0:
256,199,54129,1,0,0:0:0:0:
256,227,54259,1,0,0:0:0:0:
257,261,54388,1,0,0:0:0:0:
257,285,54518,2,0,P|256:324|248:343,1,52.5000020027161
86,157,54906,5,0,0:0:0:0:
89,120,55035,1,0,0:0:0:0:
90,81,55164,1,0,0:0:0:0:
458,88,55294,5,0,0:0:0:0:
459,127,55423,1,0,0:0:0:0:
460,167,55552,1,0,0:0:0:0:
256,116,55681,6,0,L|255:47,3,52.5000020027161
71,102,56199,2,0,P|132:160|144:165,1,78.7500030040742
201,190,56457,2,0,P|148:233|121:238,1,70
113,258,56716,2,0,P|235:283|316:257,1,210.000008010865
284,42,57104,5,0,0:0:0:0:
202,191,57233,1,0,0:0:0:0:
178,41,57362,1,0,0:0:0:0:
302,182,57492,1,0,0:0:0:0:
121,113,57621,1,0,0:0:0:0:
349,98,57750,1,0,0:0:0:0:
121,113,57880,5,0,0:0:0:0:
121,113,57944,1,0,0:0:0:0:
121,113,58009,2,0,P|123:180|163:218,1,105.000004005432
219,208,58268,2,0,P|241:155|236:97,1,105.000004005432
390,66,58526,5,0,0:0:0:0:
389,77,58591,1,0,0:0:0:0:
390,99,58656,2,0,P|365:158|315:187,1,105.000004005432
227,150,58914,5,0,0:0:0:0:
70,46,59044,1,0,0:0:0:0:
27,204,59173,1,0,0:0:0:0:
231,112,59302,1,0,0:0:0:0:
43,77,59431,1,0,0:0:0:0:
43,234,59561,2,0,P|91:261|142:261,1,105.000004005432
216,260,59819,2,0,P|271:267|322:279,1,105.000004005432
458,163,60078,5,0,0:0:0:0:
315,17,60207,1,0,0:0:0:0:
241,181,60337,1,0,0:0:0:0:
336,17,60466,1,0,0:0:0:0:
481,188,60595,1,0,0:0:0:0:
315,17,60725,1,0,0:0:0:0:
233,197,60854,2,0,P|176:167|145:131,1,105.000004005432
138,129,61112,5,0,0:0:0:0:
125,120,61177,1,0,0:0:0:0:
113,115,61242,2,0,P|79:70|82:35,1,52.5000020027161
