osu file format v14

[General]
AudioFilename: audio.mp3
AudioLeadIn: 0
PreviewTime: -1
Countdown: 0
SampleSet: Normal
StackLeniency: 0.7
Mode: 3
LetterboxInBreaks: 0
SpecialStyle: 0
WidescreenStoryboard: 0

[Editor]
Bookmarks: 4875,14670,34262,53854,63650
DistanceSpacing: 0.8
BeatDivisor: 4
GridSize: 16
TimelineZoom: 1.7

[Metadata]
Title:Oceanus (Piano Version)
TitleUnicode:Oceanus (Piano Version)
Artist:cosMo@BousouP
ArtistUnicode:cosMo@BousouP
Creator:Toaph Daddy
Version:Riptide
Source:
Tags:
BeatmapID:2176403
BeatmapSetID:1041313

[Difficulty]
HPDrainRate:8
CircleSize:4
OverallDifficulty:8
ApproachRate:5
SliderMultiplier:1.4
SliderTickRate:1

[Events]
//Background and Video events
0,0,"YLI.jpg",0,0
//Break Periods
//Storyboard Layer 0 (Background)
//Storyboard Layer 1 (Fail)
//Storyboard Layer 2 (Pass)
//Storyboard Layer 3 (Foreground)
//Storyboard Layer 4 (Overlay)
//Storyboard Sound Samples

[TimingPoints]
4937,306.122448979592,4,1,0,9,1,0

[HitObjects]
64,192,4898,5,0,0:0:0:0:
320,192,4937,1,0,0:0:0:0:
192,192,5243,1,0,0:0:0:0:
320,192,5549,1,0,0:0:0:0:
448,192,5855,1,0,0:0:0:0:
320,192,6161,1,0,0:0:0:0:
192,192,6467,1,0,0:0:0:0:
320,192,6773,1,0,0:0:0:0:
448,192,7079,1,0,0:0:0:0:
192,192,7347,1,0,0:0:0:0:
320,192,7385,1,0,0:0:0:0:
192,192,7692,1,0,0:0:0:0:
320,192,7998,1,0,0:0:0:0:
448,192,8304,1,0,0:0:0:0:
448,192,8610,1,0,0:0:0:0:
64,192,8610,1,0,0:0:0:0:
320,192,8916,1,0,0:0:0:0:
192,192,9222,1,0,0:0:0:0:
64,192,9528,1,0,0:0:0:0:
64,192,9834,1,0,0:0:0:0:
320,192,9834,1,0,0:0:0:0:
64,192,10141,1,0,0:0:0:0:
320,192,10447,1,0,0:0:0:0:
448,192,10753,1,0,0:0:0:0:
320,192,11059,1,0,0:0:0:0:
192,192,11365,1,0,0:0:0:0:
320,192,11671,1,0,0:0:0:0:
448,192,11977,1,0,0:0:0:0:
448,192,12283,1,0,0:0:0:0:
192,192,12283,1,0,0:0:0:0:
192,192,12590,1,0,0:0:0:0:
320,192,12896,1,0,0:0:0:0:
448,192,13202,1,0,0:0:0:0:
320,192,13508,1,0,0:0:0:0:
64,192,13508,1,0,0:0:0:0:
192,192,13814,1,0,0:0:0:0:
192,192,14120,1,0,0:0:0:0:
64,192,14120,1,0,0:0:0:0:
448,192,14426,1,0,0:0:0:0:
64,192,14732,1,0,0:0:0:0:
192,192,14732,1,0,0:0:0:0:
64,192,14885,1,0,0:0:0:0:
192,192,15039,1,0,0:0:0:0:
320,192,15192,1,0,0:0:0:0:
64,192,15345,1,0,0:0:0:0:
448,192,15498,1,0,0:0:0:0:
64,192,15651,1,0,0:0:0:0:
320,192,15804,1,0,0:0:0:0:
64,192,15957,1,0,0:0:0:0:
448,192,16110,1,0,0:0:0:0:
320,192,16263,1,0,0:0:0:0:
192,192,16416,1,0,0:0:0:0:
64,192,16569,1,0,0:0:0:0:
320,192,16722,1,0,0:0:0:0:
192,192,16875,1,0,0:0:0:0:
448,192,17028,1,0,0:0:0:0:
64,192,17181,1,0,0:0:0:0:
192,192,17334,1,0,0:0:0:0:
320,192,17488,1,0,0:0:0:0:
448,192,17641,1,0,0:0:0:0:
64,192,17641,1,0,0:0:0:0:
64,192,17947,1,0,0:0:0:0:
448,192,18100,1,0,0:0:0:0:
192,192,18253,1,0,0:0:0:0:
320,192,18406,1,0,0:0:0:0:
192,192,18559,1,0,0:0:0:0:
320,192,18712,1,0,0:0:0:0:
448,192,18865,1,0,0:0:0:0:
64,192,19018,1,0,0:0:0:0:
64,192,19171,1,0,0:0:0:0:
448,192,19324,1,0,0:0:0:0:
320,192,19477,1,0,0:0:0:0:
64,192,19630,1,0,0:0:0:0:
192,192,19630,1,0,0:0:0:0:
320,192,19783,1,0,0:0:0:0:
448,192,19822,1,0,0:0:0:0:
320,192,19937,1,0,0:0:0:0:
192,192,20090,1,0,0:0:0:0:
64,192,20243,1,0,0:0:0:0:
320,192,20396,1,0,0:0:0:0:
192,192,20549,1,0,0:0:0:0:
64,192,20702,1,0,0:0:0:0:
448,192,20855,1,0,0:0:0:0:
192,192,21008,1,0,0:0:0:0:
320,192,21161,1,0,0:0:0:0:
64,192,21314,1,0,0:0:0:0:
192,192,21467,1,0,0:0:0:0:
320,192,21620,1,0,0:0:0:0:
448,192,21773,1,0,0:0:0:0:
64,192,21926,1,0,0:0:0:0:
448,192,22079,1,0,0:0:0:0:
192,192,22079,1,0,0:0:0:0:
448,192,22385,1,0,0:0:0:0:
448,192,22539,1,0,0:0:0:0:
64,192,22539,1,0,0:0:0:0:
320,192,22845,1,0,0:0:0:0:
320,192,22998,1,0,0:0:0:0:
64,192,22998,1,0,0:0:0:0:
320,192,23304,1,0,0:0:0:0:
448,192,23457,1,0,0:0:0:0:
64,192,23457,1,0,0:0:0:0:
448,192,23763,1,0,0:0:0:0:
64,192,23763,1,0,0:0:0:0:
192,192,23840,1,0,0:0:0:0:
320,192,23916,1,0,0:0:0:0:
64,192,23993,1,0,0:0:0:0:
448,192,24069,1,0,0:0:0:0:
64,192,24146,1,0,0:0:0:0:
448,192,24222,1,0,0:0:0:0:
192,192,24299,1,0,0:0:0:0:
320,192,24375,1,0,0:0:0:0:
448,192,24452,1,0,0:0:0:0:
448,192,24681,1,0,0:0:0:0:
320,192,24758,1,0,0:0:0:0:
192,192,24834,1,0,0:0:0:0:
448,192,24911,1,0,0:0:0:0:
64,192,24988,1,0,0:0:0:0:
320,192,25064,1,0,0:0:0:0:
192,192,25141,1,0,0:0:0:0:
448,192,25141,1,0,0:0:0:0:
64,192,25294,1,0,0:0:0:0:
320,192,25294,1,0,0:0:0:0:
448,192,25447,1,0,0:0:0:0:
192,192,25447,1,0,0:0:0:0:
192,192,25600,1,0,0:0:0:0:
64,192,25600,1,0,0:0:0:0:
448,192,25753,1,0,0:0:0:0:
64,192,25906,1,0,0:0:0:0:
192,192,25982,1,0,0:0:0:0:
64,192,26059,1,0,0:0:0:0:
320,192,26135,1,0,0:0:0:0:
192,192,26212,1,0,0:0:0:0:
448,192,26289,1,0,0:0:0:0:
320,192,26365,1,0,0:0:0:0:
64,192,26365,1,0,0:0:0:0:
192,192,26518,1,0,0:0:0:0:
320,192,26518,1,0,0:0:0:0:
448,192,26671,1,0,0:0:0:0:
192,192,26671,1,0,0:0:0:0:
320,192,26748,1,0,0:0:0:0:
64,192,26977,1,0,0:0:0:0:
192,192,26977,1,0,0:0:0:0:
64,192,27283,1,0,0:0:0:0:
192,192,27283,1,0,0:0:0:0:
320,192,27437,1,0,0:0:0:0:
64,192,27437,1,0,0:0:0:0:
192,192,27743,1,0,0:0:0:0:
320,192,27743,1,0,0:0:0:0:
192,192,27896,1,0,0:0:0:0:
448,192,27896,1,0,0:0:0:0:
320,192,28049,1,0,0:0:0:0:
448,192,28049,1,0,0:0:0:0:
64,192,28202,1,0,0:0:0:0:
192,192,28202,1,0,0:0:0:0:
192,192,28355,1,0,0:0:0:0:
320,192,28355,1,0,0:0:0:0:
320,192,28508,1,0,0:0:0:0:
448,192,28508,1,0,0:0:0:0:
64,192,28661,1,0,0:0:0:0:
320,192,28661,1,0,0:0:0:0:
64,192,29120,1,0,0:0:0:0:
192,192,29273,1,0,0:0:0:0:
320,192,29426,1,0,0:0:0:0:
448,192,29426,1,0,0:0:0:0:
64,192,29579,1,0,0:0:0:0:
448,192,29732,1,0,0:0:0:0:
192,192,29885,1,0,0:0:0:0:
64,192,30039,1,0,0:0:0:0:
448,192,30039,1,0,0:0:0:0:
192,192,30192,1,0,0:0:0:0:
448,192,30345,1,0,0:0:0:0:
64,192,30498,1,0,0:0:0:0:
448,192,30651,1,0,0:0:0:0:
448,192,30804,1,0,0:0:0:0:
320,192,30880,1,0,0:0:0:0:
448,192,30957,1,0,0:0:0:0:
192,192,31033,1,0,0:0:0:0:
448,192,31110,1,0,0:0:0:0:
320,192,31187,1,0,0:0:0:0:
64,192,31263,1,0,0:0:0:0:
192,192,31263,1,0,0:0:0:0:
64,192,31416,1,0,0:0:0:0:
192,192,31569,1,0,0:0:0:0:
448,192,31722,1,0,0:0:0:0:
320,192,31875,1,0,0:0:0:0:
64,192,32028,1,0,0:0:0:0:
192,192,32181,1,0,0:0:0:0:
320,192,32334,1,0,0:0:0:0:
192,192,32334,1,0,0:0:0:0:
192,192,32641,1,0,0:0:0:0:
192,192,32794,1,0,0:0:0:0:
448,192,32794,1,0,0:0:0:0:
320,192,33100,1,0,0:0:0:0:
448,192,33100,1,0,0:0:0:0:
64,192,33253,1,0,0:0:0:0:
320,192,33406,1,0,0:0:0:0:
448,192,33406,1,0,0:0:0:0:
448,192,33559,1,0,0:0:0:0:
64,192,33559,1,0,0:0:0:0:
320,192,33865,1,0,0:0:0:0:
64,192,34018,1,0,0:0:0:0:
192,192,34171,1,0,0:0:0:0:
320,192,34324,1,0,0:0:0:0:
448,192,34324,1,0,0:0:0:0:
192,192,34937,1,0,0:0:0:0:
320,192,35243,1,0,0:0:0:0:
448,192,35549,1,0,0:0:0:0:
64,192,35549,1,0,0:0:0:0:
64,192,36161,1,0,0:0:0:0:
320,192,36773,1,0,0:0:0:0:
64,192,36773,1,0,0:0:0:0:
448,192,37385,1,0,0:0:0:0:
320,192,37692,1,0,0:0:0:0:
192,192,37998,1,0,0:0:0:0:
320,192,37998,1,0,0:0:0:0:
64,192,38610,1,0,0:0:0:0:
320,192,39222,1,0,0:0:0:0:
448,192,39222,1,0,0:0:0:0:
192,192,39834,1,0,0:0:0:0:
320,192,40141,1,0,0:0:0:0:
64,192,40447,1,0,0:0:0:0:
448,192,40485,1,0,0:0:0:0:
320,192,41059,1,0,0:0:0:0:
192,192,41365,1,0,0:0:0:0:
192,192,41671,1,0,0:0:0:0:
320,192,41671,1,0,0:0:0:0:
64,192,42283,1,0,0:0:0:0:
320,192,42590,1,0,0:0:0:0:
448,192,42896,1,0,0:0:0:0:
192,192,42896,1,0,0:0:0:0:
448,192,43508,1,0,0:0:0:0:
192,192,43814,1,0,0:0:0:0:
320,192,44120,1,0,0:0:0:0:
448,192,44120,1,0,0:0:0:0:
64,192,44426,1,0,0:0:0:0:
320,192,44528,1,0,0:0:0:0:
448,192,44630,1,0,0:0:0:0:
192,192,44732,1,0,0:0:0:0:
320,192,44834,1,0,0:0:0:0:
64,192,44937,1,0,0:0:0:0:
320,192,45039,1,0,0:0:0:0:
192,192,45141,1,0,0:0:0:0:
320,192,45243,1,0,0:0:0:0:
448,192,45345,1,0,0:0:0:0:
64,192,45345,1,0,0:0:0:0:
192,192,45651,1,0,0:0:0:0:
64,192,45957,1,0,0:0:0:0:
192,192,46059,1,0,0:0:0:0:
320,192,46161,1,0,0:0:0:0:
64,192,46263,1,0,0:0:0:0:
448,192,46365,1,0,0:0:0:0:
192,192,46467,1,0,0:0:0:0:
320,192,46569,1,0,0:0:0:0:
64,192,46569,1,0,0:0:0:0:
192,192,46875,1,0,0:0:0:0:
448,192,47181,1,0,0:0:0:0:
64,192,47283,1,0,0:0:0:0:
192,192,47385,1,0,0:0:0:0:
320,192,47488,1,0,0:0:0:0:
64,192,47590,1,0,0:0:0:0:
448,192,47692,1,0,0:0:0:0:
192,192,47794,1,0,0:0:0:0:
320,192,47794,1,0,0:0:0:0:
448,192,48100,1,0,0:0:0:0:
64,192,48406,1,0,0:0:0:0:
192,192,48508,1,0,0:0:0:0:
320,192,48610,1,0,0:0:0:0:
64,192,48712,1,0,0:0:0:0:
448,192,48814,1,0,0:0:0:0:
192,192,48916,1,0,0:0:0:0:
320,192,49018,1,0,0:0:0:0:
448,192,49018,1,0,0:0:0:0:
64,192,49120,1,0,0:0:0:0:
192,192,49222,1,0,0:0:0:0:
320,192,49324,1,0,0:0:0:0:
64,192,49426,1,0,0:0:0:0:
448,192,49528,1,0,0:0:0:0:
64,192,49630,1,0,0:0:0:0:
192,192,49732,1,0,0:0:0:0:
448,192,49834,1,0,0:0:0:0:
192,192,49937,1,0,0:0:0:0:
320,192,50039,1,0,0:0:0:0:
448,192,50141,1,0,0:0:0:0:
320,192,50243,1,0,0:0:0:0:
64,192,50243,1,0,0:0:0:0:
448,192,50549,1,0,0:0:0:0:
192,192,50855,1,0,0:0:0:0:
320,192,50893,1,0,0:0:0:0:
64,192,51161,1,0,0:0:0:0:
192,192,51467,1,0,0:0:0:0:
448,192,51505,1,0,0:0:0:0:
64,192,51773,1,0,0:0:0:0:
192,192,52079,1,0,0:0:0:0:
320,192,52232,1,0,0:0:0:0:
64,192,52385,1,0,0:0:0:0:
192,192,52539,1,0,0:0:0:0:
448,192,52692,1,0,0:0:0:0:
320,192,52768,1,0,0:0:0:0:
192,192,52845,1,0,0:0:0:0:
448,192,52921,1,0,0:0:0:0:
64,192,52998,1,0,0:0:0:0:
320,192,53074,1,0,0:0:0:0:
192,192,53151,1,0,0:0:0:0:
448,192,53227,1,0,0:0:0:0:
64,192,53304,1,0,0:0:0:0:
192,192,53457,1,0,0:0:0:0:
320,192,53610,1,0,0:0:0:0:
192,192,53916,1,0,0:0:0:0:
448,192,53916,1,0,0:0:0:0:
448,192,54069,1,0,0:0:0:0:
64,192,54222,1,0,0:0:0:0:
448,192,54375,1,0,0:0:0:0:
320,192,54528,1,0,0:0:0:0:
192,192,54528,1,0,0:0:0:0:
64,192,54681,1,0,0:0:0:0:
192,192,54834,1,0,0:0:0:0:
448,192,54834,1,0,0:0:0:0:
64,192,54988,1,0,0:0:0:0:
448,192,55141,1,0,0:0:0:0:
320,192,55141,1,0,0:0:0:0:
192,192,55294,1,0,0:0:0:0:
64,192,55447,1,0,0:0:0:0:
192,192,55523,1,0,0:0:0:0:
320,192,55600,1,0,0:0:0:0:
64,192,55676,1,0,0:0:0:0:
448,192,55753,1,0,0:0:0:0:
320,192,55906,1,0,0:0:0:0:
192,192,56059,1,0,0:0:0:0:
448,192,56365,1,0,0:0:0:0:
64,192,56365,1,0,0:0:0:0:
192,192,56518,1,0,0:0:0:0:
64,192,56595,1,0,0:0:0:0:
320,192,56671,1,0,0:0:0:0:
192,192,56824,1,0,0:0:0:0:
448,192,56824,1,0,0:0:0:0:
192,192,56977,1,0,0:0:0:0:
64,192,57054,1,0,0:0:0:0:
448,192,57130,1,0,0:0:0:0:
448,192,57283,1,0,0:0:0:0:
64,192,57283,1,0,0:0:0:0:
192,192,57437,1,0,0:0:0:0:
320,192,57590,1,0,0:0:0:0:
64,192,57590,1,0,0:0:0:0:
64,192,57896,1,0,0:0:0:0:
192,192,57972,1,0,0:0:0:0:
320,192,58049,1,0,0:0:0:0:
448,192,58125,1,0,0:0:0:0:
192,192,58202,1,0,0:0:0:0:
64,192,58202,1,0,0:0:0:0:
64,192,58508,1,0,0:0:0:0:
192,192,58508,1,0,0:0:0:0:
320,192,58661,1,0,0:0:0:0:
64,192,58661,1,0,0:0:0:0:
448,192,58814,1,0,0:0:0:0:
64,192,58814,1,0,0:0:0:0:
320,192,58967,1,0,0:0:0:0:
192,192,59044,1,0,0:0:0:0:
64,192,59120,1,0,0:0:0:0:
192,192,59197,1,0,0:0:0:0:
320,192,59273,1,0,0:0:0:0:
64,192,59350,1,0,0:0:0:0:
192,192,59426,1,0,0:0:0:0:
448,192,59426,1,0,0:0:0:0:
64,192,59579,1,0,0:0:0:0:
320,192,59656,1,0,0:0:0:0:
448,192,59732,1,0,0:0:0:0:
64,192,59809,1,0,0:0:0:0:
320,192,59885,1,0,0:0:0:0:
192,192,59962,1,0,0:0:0:0:
448,192,60039,1,0,0:0:0:0:
320,192,60039,1,0,0:0:0:0:
64,192,60192,1,0,0:0:0:0:
192,192,60268,1,0,0:0:0:0:
448,192,60268,1,0,0:0:0:0:
320,192,60345,1,0,0:0:0:0:
64,192,60498,1,0,0:0:0:0:
448,192,60498,1,0,0:0:0:0:
192,192,60651,1,0,0:0:0:0:
320,192,60804,1,0,0:0:0:0:
64,192,60804,1,0,0:0:0:0:
192,192,60957,1,0,0:0:0:0:
64,192,60957,1,0,0:0:0:0:
64,192,61110,1,0,0:0:0:0:
320,192,61110,1,0,0:0:0:0:
192,192,61263,1,0,0:0:0:0:
320,192,61263,1,0,0:0:0:0:
320,192,61416,1,0,0:0:0:0:
192,192,61493,1,0,0:0:0:0:
64,192,61569,1,0,0:0:0:0:
320,192,61722,1,0,0:0:0:0:
448,192,61799,1,0,0:0:0:0:
64,192,61875,1,0,0:0:0:0:
320,192,61952,1,0,0:0:0:0:
192,192,62028,1,0,0:0:0:0:
320,192,62105,1,0,0:0:0:0:
64,192,62181,1,0,0:0:0:0:
448,192,62258,1,0,0:0:0:0:
64,192,62334,1,0,0:0:0:0:
320,192,62411,1,0,0:0:0:0:
192,192,62488,1,0,0:0:0:0:
64,192,62488,1,0,0:0:0:0:
320,192,62794,1,0,0:0:0:0:
448,192,62832,1,0,0:0:0:0:
320,192,63406,5,0,0:0:0:0:
448,192,63482,1,0,0:0:0:0:
192,192,63559,1,0,0:0:0:0:
320,192,63635,1,0,0:0:0:0:
448,192,63712,1,0,0:0:0:0:
64,192,63712,1,0,0:0:0:0:
320,192,64095,1,0,0:0:0:0:
448,192,64171,1,0,0:0:0:0:
192,192,64248,1,0,0:0:0:0:
320,192,64324,1,0,0:0:0:0:
64,192,64401,1,0,0:0:0:0:
192,192,64477,1,0,0:0:0:0:
320,192,64554,1,0,0:0:0:0:
448,192,64630,1,0,0:0:0:0:
192,192,64707,1,0,0:0:0:0:
64,192,64783,1,0,0:0:0:0:
320,192,64860,1,0,0:0:0:0:
448,192,64937,1,0,0:0:0:0:
192,192,65013,1,0,0:0:0:0:
448,192,65090,1,0,0:0:0:0:
64,192,65166,1,0,0:0:0:0:
320,192,65243,1,0,0:0:0:0:
192,192,65319,1,0,0:0:0:0:
320,192,65396,1,0,0:0:0:0:
64,192,65472,1,0,0:0:0:0:
192,192,65549,1,0,0:0:0:0:
448,192,65625,1,0,0:0:0:0:
192,192,65702,1,0,0:0:0:0:
320,192,65778,1,0,0:0:0:0:
64,192,65855,1,0,0:0:0:0:
448,192,65931,1,0,0:0:0:0:
64,192,66008,1,0,0:0:0:0:
192,192,66084,1,0,0:0:0:0:
448,192,66161,1,0,0:0:0:0:
320,192,66161,1,0,0:0:0:0:
320,192,66314,1,0,0:0:0:0:
192,192,66391,1,0,0:0:0:0:
64,192,66467,1,0,0:0:0:0:
192,192,66620,1,0,0:0:0:0:
320,192,66697,1,0,0:0:0:0:
448,192,66773,1,0,0:0:0:0:
64,192,66773,1,0,0:0:0:0:
192,192,66926,1,0,0:0:0:0:
64,192,66926,1,0,0:0:0:0:
64,192,67079,1,0,0:0:0:0:
448,192,67079,1,0,0:0:0:0:
320,192,67232,1,0,0:0:0:0:
448,192,67232,1,0,0:0:0:0:
64,192,67385,1,0,0:0:0:0:
448,192,67539,1,0,0:0:0:0:
320,192,67615,1,0,0:0:0:0:
192,192,67692,1,0,0:0:0:0:
448,192,67768,1,0,0:0:0:0:
64,192,67845,1,0,0:0:0:0:
320,192,67921,1,0,0:0:0:0:
192,192,67998,1,0,0:0:0:0:
448,192,67998,1,0,0:0:0:0:
320,192,68151,1,0,0:0:0:0:
64,192,68151,1,0,0:0:0:0:
192,192,68304,1,0,0:0:0:0:
448,192,68304,1,0,0:0:0:0:
320,192,68457,1,0,0:0:0:0:
448,192,68457,1,0,0:0:0:0:
64,192,68610,1,0,0:0:0:0:
448,192,68610,1,0,0:0:0:0:
64,192,68763,1,0,0:0:0:0:
192,192,68840,1,0,0:0:0:0:
320,192,68916,1,0,0:0:0:0:
64,192,68993,1,0,0:0:0:0:
448,192,69069,1,0,0:0:0:0:
64,192,69146,1,0,0:0:0:0:
448,192,69222,1,0,0:0:0:0:
192,192,69222,1,0,0:0:0:0:
64,192,69375,1,0,0:0:0:0:
192,192,69452,1,0,0:0:0:0:
448,192,69528,1,0,0:0:0:0:
320,192,69528,1,0,0:0:0:0:
64,192,69681,1,0,0:0:0:0:
192,192,69758,1,0,0:0:0:0:
320,192,69834,1,0,0:0:0:0:
448,192,69834,1,0,0:0:0:0:
448,192,70064,1,0,0:0:0:0:
192,192,70064,1,0,0:0:0:0:
320,192,70141,1,0,0:0:0:0:
320,192,70294,1,0,0:0:0:0:
64,192,70294,1,0,0:0:0:0:
192,192,70447,1,0,0:0:0:0:
64,192,70447,1,0,0:0:0:0:
320,192,70523,1,0,0:0:0:0:
64,192,70600,1,0,0:0:0:0:
192,192,70676,1,0,0:0:0:0:
448,192,70753,1,0,0:0:0:0:
320,192,70982,1,0,0:0:0:0:
64,192,71059,1,0,0:0:0:0:
448,192,71059,1,0,0:0:0:0:
192,192,71135,1,0,0:0:0:0:
64,192,71212,1,0,0:0:0:0:
448,192,71289,1,0,0:0:0:0:
192,192,71365,1,0,0:0:0:0:
320,192,71442,1,0,0:0:0:0:
192,192,71518,1,0,0:0:0:0:
64,192,71595,1,0,0:0:0:0:
320,192,71671,1,0,0:0:0:0:
448,192,71748,1,0,0:0:0:0:
320,192,71824,1,0,0:0:0:0:
192,192,71901,1,0,0:0:0:0:
448,192,71977,1,0,0:0:0:0:
64,192,72054,1,0,0:0:0:0:
448,192,72130,1,0,0:0:0:0:
320,192,72207,1,0,0:0:0:0:
192,192,72283,1,0,0:0:0:0:
64,192,72283,1,0,0:0:0:0:
320,192,72513,1,0,0:0:0:0:
192,192,72513,1,0,0:0:0:0:
448,192,72743,1,0,0:0:0:0:
320,192,72743,1,0,0:0:0:0:
320,192,72896,1,0,0:0:0:0:
192,192,72896,1,0,0:0:0:0:
192,192,73049,1,0,0:0:0:0:
64,192,73049,1,0,0:0:0:0:
448,192,73202,1,0,0:0:0:0:
192,192,73202,1,0,0:0:0:0:
320,192,73355,1,0,0:0:0:0:
64,192,73355,1,0,0:0:0:0:
192,192,73508,1,0,0:0:0:0:
448,192,73508,1,0,0:0:0:0:
64,192,73661,1,0,0:0:0:0:
192,192,73738,1,0,0:0:0:0:
320,192,73814,1,0,0:0:0:0:
192,192,73967,1,0,0:0:0:0:
320,192,74044,1,0,0:0:0:0:
448,192,74120,1,0,0:0:0:0:
64,192,74197,1,0,0:0:0:0:
320,192,74273,1,0,0:0:0:0:
192,192,74350,1,0,0:0:0:0:
64,192,74426,1,0,0:0:0:0:
448,192,74426,1,0,0:0:0:0:
320,192,74656,1,0,0:0:0:0:
448,192,74732,1,0,0:0:0:0:
192,192,74809,1,0,0:0:0:0:
448,192,74885,1,0,0:0:0:0:
64,192,74962,1,0,0:0:0:0:
320,192,75039,1,0,0:0:0:0:
192,192,75115,1,0,0:0:0:0:
320,192,75192,1,0,0:0:0:0:
64,192,75268,1,0,0:0:0:0:
192,192,75345,1,0,0:0:0:0:
448,192,75421,1,0,0:0:0:0:
192,192,75498,1,0,0:0:0:0:
64,192,75574,1,0,0:0:0:0:
320,192,75651,1,0,0:0:0:0:
448,192,75727,1,0,0:0:0:0:
320,192,75804,1,0,0:0:0:0:
64,192,75880,1,0,0:0:0:0:
448,192,75957,1,0,0:0:0:0:
192,192,75957,1,0,0:0:0:0:
64,192,76110,1,0,0:0:0:0:
192,192,76187,1,0,0:0:0:0:
320,192,76263,1,0,0:0:0:0:
64,192,76340,1,0,0:0:0:0:
192,192,76416,1,0,0:0:0:0:
448,192,76493,1,0,0:0:0:0:
64,192,76569,1,0,0:0:0:0:
320,192,76646,1,0,0:0:0:0:
192,192,76646,1,0,0:0:0:0:
192,192,76875,1,0,0:0:0:0:
448,192,76875,1,0,0:0:0:0:
320,192,77105,1,0,0:0:0:0:
448,192,77105,1,0,0:0:0:0:
448,192,77411,1,0,0:0:0:0:
320,192,77488,1,0,0:0:0:0:
192,192,77564,1,0,0:0:0:0:
64,192,77641,1,0,0:0:0:0:
320,192,77717,1,0,0:0:0:0:
192,192,77794,1,0,0:0:0:0:
448,192,77794,1,0,0:0:0:0:
64,192,77947,1,0,0:0:0:0:
320,192,77947,1,0,0:0:0:0:
192,192,78100,1,0,0:0:0:0:
448,192,78100,1,0,0:0:0:0:
320,192,78253,1,0,0:0:0:0:
448,192,78253,1,0,0:0:0:0:
64,192,78406,1,0,0:0:0:0:
448,192,78406,1,0,0:0:0:0:
320,192,78559,1,0,0:0:0:0:
192,192,78635,1,0,0:0:0:0:
64,192,78712,1,0,0:0:0:0:
192,192,78789,1,0,0:0:0:0:
320,192,78865,1,0,0:0:0:0:
64,192,78942,1,0,0:0:0:0:
448,192,79018,1,0,0:0:0:0:
192,192,79018,1,0,0:0:0:0:
192,192,79171,1,0,0:0:0:0:
64,192,79248,1,0,0:0:0:0:
320,192,79324,1,0,0:0:0:0:
448,192,79324,1,0,0:0:0:0:
192,192,79477,1,0,0:0:0:0:
64,192,79554,1,0,0:0:0:0:
320,192,79630,1,0,0:0:0:0:
448,192,79630,1,0,0:0:0:0:
192,192,79860,1,0,0:0:0:0:
448,192,79860,1,0,0:0:0:0:
320,192,79937,1,0,0:0:0:0:
320,192,80090,1,0,0:0:0:0:
192,192,80090,1,0,0:0:0:0:
64,192,80243,1,0,0:0:0:0:
192,192,80243,1,0,0:0:0:0:
320,192,80396,1,0,0:0:0:0:
192,192,80472,1,0,0:0:0:0:
448,192,80549,1,0,0:0:0:0:
64,192,80549,1,0,0:0:0:0:
320,192,80778,1,0,0:0:0:0:
448,192,80855,1,0,0:0:0:0:
64,192,80855,1,0,0:0:0:0:
192,192,80931,1,0,0:0:0:0:
448,192,81008,1,0,0:0:0:0:
192,192,81084,1,0,0:0:0:0:
448,192,81161,1,0,0:0:0:0:
192,192,81238,1,0,0:0:0:0:
448,192,81314,1,0,0:0:0:0:
192,192,81391,1,0,0:0:0:0:
320,192,81467,1,0,0:0:0:0:
448,192,81544,1,0,0:0:0:0:
192,192,81620,1,0,0:0:0:0:
320,192,81697,1,0,0:0:0:0:
64,192,81773,1,0,0:0:0:0:
192,192,81850,1,0,0:0:0:0:
448,192,81926,1,0,0:0:0:0:
64,192,82003,1,0,0:0:0:0:
192,192,82079,1,0,0:0:0:0:
320,192,82079,1,0,0:0:0:0:
448,192,82232,1,0,0:0:0:0:
320,192,82232,1,0,0:0:0:0:
320,192,82385,1,0,0:0:0:0:
192,192,82385,1,0,0:0:0:0:
192,192,82539,1,0,0:0:0:0:
64,192,82539,1,0,0:0:0:0:
64,192,82692,1,0,0:0:0:0:
64,192,82845,1,0,0:0:0:0:
64,192,82998,1,0,0:0:0:0:
192,192,83074,1,0,0:0:0:0:
320,192,83151,1,0,0:0:0:0:
448,192,83227,1,0,0:0:0:0:
64,192,83304,1,0,0:0:0:0:
320,192,83304,1,0,0:0:0:0:
64,192,83610,1,0,0:0:0:0:
192,192,83687,1,0,0:0:0:0:
320,192,83763,1,0,0:0:0:0:
448,192,83840,1,0,0:0:0:0:
320,192,83916,1,0,0:0:0:0:
192,192,83993,1,0,0:0:0:0:
64,192,84069,1,0,0:0:0:0:
448,192,84146,1,0,0:0:0:0:
192,192,84222,1,0,0:0:0:0:
320,192,84299,1,0,0:0:0:0:
64,192,84375,1,0,0:0:0:0:
320,192,84452,1,0,0:0:0:0:
448,192,84528,1,0,0:0:0:0:
64,192,84605,1,0,0:0:0:0:
448,192,84681,1,0,0:0:0:0:
192,192,84758,1,0,0:0:0:0:
320,192,84834,1,0,0:0:0:0:
64,192,84911,1,0,0:0:0:0:
320,192,84988,1,0,0:0:0:0:
448,192,85064,1,0,0:0:0:0:
192,192,85141,1,0,0:0:0:0:
320,192,85217,1,0,0:0:0:0:
192,192,85294,1,0,0:0:0:0:
448,192,85370,1,0,0:0:0:0:
64,192,85447,1,0,0:0:0:0:
192,192,85523,1,0,0:0:0:0:
64,192,85600,1,0,0:0:0:0:
320,192,85676,1,0,0:0:0:0:
448,192,85753,1,0,0:0:0:0:
64,192,85753,1,0,0:0:0:0:
192,192,85906,1,0,0:0:0:0:
320,192,85982,1,0,0:0:0:0:
448,192,86059,1,0,0:0:0:0:
64,192,86212,1,0,0:0:0:0:
192,192,86289,1,0,0:0:0:0:
320,192,86365,1,0,0:0:0:0:
448,192,86365,1,0,0:0:0:0:
192,192,86518,1,0,0:0:0:0:
64,192,86518,1,0,0:0:0:0:
320,192,86671,1,0,0:0:0:0:
448,192,86671,1,0,0:0:0:0:
448,192,86824,1,0,0:0:0:0:
64,192,86824,1,0,0:0:0:0:
192,192,86977,1,0,0:0:0:0:
448,192,87130,1,0,0:0:0:0:
320,192,87207,1,0,0:0:0:0:
192,192,87283,1,0,0:0:0:0:
448,192,87360,1,0,0:0:0:0:
64,192,87437,1,0,0:0:0:0:
448,192,87513,1,0,0:0:0:0:
320,192,87590,1,0,0:0:0:0:
192,192,87590,1,0,0:0:0:0:
192,192,87743,1,0,0:0:0:0:
64,192,87743,1,0,0:0:0:0:
192,192,87896,1,0,0:0:0:0:
320,192,87896,1,0,0:0:0:0:
448,192,88049,1,0,0:0:0:0:
320,192,88049,1,0,0:0:0:0:
64,192,88202,1,0,0:0:0:0:
448,192,88202,1,0,0:0:0:0:
192,192,88355,1,0,0:0:0:0:
64,192,88431,1,0,0:0:0:0:
192,192,88508,1,0,0:0:0:0:
320,192,88584,1,0,0:0:0:0:
448,192,88661,1,0,0:0:0:0:
192,192,88738,1,0,0:0:0:0:
320,192,88814,1,0,0:0:0:0:
64,192,88814,1,0,0:0:0:0:
64,192,88967,1,0,0:0:0:0:
320,192,89044,1,0,0:0:0:0:
448,192,89120,1,0,0:0:0:0:
192,192,89120,1,0,0:0:0:0:
64,192,89273,1,0,0:0:0:0:
320,192,89350,1,0,0:0:0:0:
192,192,89426,1,0,0:0:0:0:
448,192,89426,1,0,0:0:0:0:
320,192,89656,1,0,0:0:0:0:
192,192,89656,1,0,0:0:0:0:
448,192,89732,1,0,0:0:0:0:
320,192,89885,1,0,0:0:0:0:
64,192,89885,1,0,0:0:0:0:
192,192,90039,1,0,0:0:0:0:
64,192,90039,1,0,0:0:0:0:
320,192,90115,1,0,0:0:0:0:
448,192,90192,1,0,0:0:0:0:
192,192,90268,1,0,0:0:0:0:
320,192,90345,1,0,0:0:0:0:
448,192,90345,1,0,0:0:0:0:
192,192,90574,1,0,0:0:0:0:
320,192,90651,1,0,0:0:0:0:
64,192,90651,1,0,0:0:0:0:
448,192,90727,1,0,0:0:0:0:
64,192,90804,1,0,0:0:0:0:
320,192,90880,1,0,0:0:0:0:
192,192,90957,1,0,0:0:0:0:
448,192,91033,1,0,0:0:0:0:
192,192,91110,1,0,0:0:0:0:
64,192,91187,1,0,0:0:0:0:
320,192,91263,1,0,0:0:0:0:
192,192,91340,1,0,0:0:0:0:
320,192,91416,1,0,0:0:0:0:
64,192,91493,1,0,0:0:0:0:
448,192,91569,1,0,0:0:0:0:
320,192,91646,1,0,0:0:0:0:
448,192,91722,1,0,0:0:0:0:
192,192,91799,1,0,0:0:0:0:
64,192,91875,1,0,0:0:0:0:
448,192,91875,1,0,0:0:0:0:
192,192,92105,1,0,0:0:0:0:
448,192,92105,1,0,0:0:0:0:
64,192,92181,1,0,0:0:0:0:
448,192,92334,1,0,0:0:0:0:
320,192,92334,1,0,0:0:0:0:
192,192,92488,1,0,0:0:0:0:
448,192,92488,1,0,0:0:0:0:
64,192,92641,1,0,0:0:0:0:
448,192,92641,1,0,0:0:0:0:
64,192,92794,1,0,0:0:0:0:
320,192,92794,1,0,0:0:0:0:
192,192,92947,1,0,0:0:0:0:
64,192,92947,1,0,0:0:0:0:
320,192,93100,1,0,0:0:0:0:
64,192,93100,1,0,0:0:0:0:
192,192,93253,1,0,0:0:0:0:
320,192,93329,1,0,0:0:0:0:
448,192,93406,1,0,0:0:0:0:
320,192,93482,1,0,0:0:0:0:
192,192,93559,1,0,0:0:0:0:
448,192,93635,1,0,0:0:0:0:
192,192,93712,1,0,0:0:0:0:
64,192,93789,1,0,0:0:0:0:
192,192,93865,1,0,0:0:0:0:
320,192,93942,1,0,0:0:0:0:
448,192,94018,1,0,0:0:0:0:
64,192,94018,1,0,0:0:0:0:
192,192,94248,1,0,0:0:0:0:
320,192,94324,1,0,0:0:0:0:
64,192,94324,1,0,0:0:0:0:
192,192,94401,1,0,0:0:0:0:
320,192,94477,1,0,0:0:0:0:
448,192,94554,1,0,0:0:0:0:
192,192,94630,1,0,0:0:0:0:
320,192,94707,1,0,0:0:0:0:
192,192,94783,1,0,0:0:0:0:
448,192,94860,1,0,0:0:0:0:
64,192,94937,1,0,0:0:0:0:
320,192,95013,1,0,0:0:0:0:
64,192,95090,1,0,0:0:0:0:
448,192,95166,1,0,0:0:0:0:
192,192,95243,1,0,0:0:0:0:
64,192,95319,1,0,0:0:0:0:
192,192,95396,1,0,0:0:0:0:
448,192,95472,1,0,0:0:0:0:
64,192,95549,1,0,0:0:0:0:
320,192,95549,1,0,0:0:0:0:
192,192,95778,1,0,0:0:0:0:
320,192,95855,1,0,0:0:0:0:
64,192,95931,1,0,0:0:0:0:
192,192,96008,1,0,0:0:0:0:
448,192,96084,1,0,0:0:0:0:
64,192,96161,1,0,0:0:0:0:
192,192,96238,1,0,0:0:0:0:
320,192,96238,1,0,0:0:0:0:
448,192,96467,1,0,0:0:0:0:
192,192,96467,1,0,0:0:0:0:
320,192,96697,1,0,0:0:0:0:
448,192,96697,1,0,0:0:0:0:
448,192,97003,1,0,0:0:0:0:
320,192,97079,1,0,0:0:0:0:
192,192,97156,1,0,0:0:0:0:
64,192,97232,1,0,0:0:0:0:
448,192,97309,1,0,0:0:0:0:
64,192,97385,1,0,0:0:0:0:
320,192,97385,1,0,0:0:0:0:
192,192,97539,1,0,0:0:0:0:
64,192,97539,1,0,0:0:0:0:
320,192,97692,1,0,0:0:0:0:
64,192,97692,1,0,0:0:0:0:
192,192,97845,1,0,0:0:0:0:
448,192,97845,1,0,0:0:0:0:
320,192,97998,1,0,0:0:0:0:
448,192,97998,1,0,0:0:0:0:
192,192,98151,1,0,0:0:0:0:
64,192,98227,1,0,0:0:0:0:
192,192,98304,1,0,0:0:0:0:
320,192,98380,1,0,0:0:0:0:
448,192,98457,1,0,0:0:0:0:
64,192,98533,1,0,0:0:0:0:
320,192,98610,1,0,0:0:0:0:
192,192,98610,1,0,0:0:0:0:
64,192,98763,1,0,0:0:0:0:
192,192,98840,1,0,0:0:0:0:
320,192,98916,1,0,0:0:0:0:
448,192,98916,1,0,0:0:0:0:
64,192,99069,1,0,0:0:0:0:
192,192,99146,1,0,0:0:0:0:
320,192,99222,1,0,0:0:0:0:
448,192,99222,1,0,0:0:0:0:
64,192,99375,5,0,0:0:0:0:
192,192,99452,1,0,0:0:0:0:
448,192,99452,1,0,0:0:0:0:
448,192,99605,1,0,0:0:0:0:
320,192,99681,1,0,0:0:0:0:
64,192,99681,1,0,0:0:0:0:
192,192,99834,1,0,0:0:0:0:
64,192,99834,1,0,0:0:0:0:
320,192,99988,1,0,0:0:0:0:
192,192,100064,1,0,0:0:0:0:
448,192,100141,1,0,0:0:0:0:
64,192,100141,1,0,0:0:0:0:
192,192,100370,5,0,0:0:0:0:
64,192,100447,5,0,0:0:0:0:
448,192,100447,1,0,0:0:0:0:
320,192,100523,1,0,0:0:0:0:
64,192,100600,1,0,0:0:0:0:
320,192,100676,1,0,0:0:0:0:
64,192,100753,1,0,0:0:0:0:
320,192,100829,1,0,0:0:0:0:
64,192,100906,1,0,0:0:0:0:
320,192,100982,1,0,0:0:0:0:
448,192,101059,1,0,0:0:0:0:
64,192,101135,1,0,0:0:0:0:
448,192,101212,1,0,0:0:0:0:
192,192,101289,1,0,0:0:0:0:
64,192,101365,1,0,0:0:0:0:
320,192,101442,1,0,0:0:0:0:
64,192,101518,1,0,0:0:0:0:
448,192,101595,1,0,0:0:0:0:
192,192,101671,1,0,0:0:0:0:
320,192,101671,1,0,0:0:0:0:
320,192,101824,1,0,0:0:0:0:
448,192,101824,1,0,0:0:0:0:
320,192,101977,1,0,0:0:0:0:
192,192,101977,1,0,0:0:0:0:
192,192,102130,1,0,0:0:0:0:
64,192,102130,1,0,0:0:0:0:
320,192,102283,1,0,0:0:0:0:
448,192,102437,1,0,0:0:0:0:
192,192,102437,1,0,0:0:0:0:
192,192,102590,1,0,0:0:0:0:
64,192,102590,1,0,0:0:0:0:
448,192,102743,1,0,0:0:0:0:
320,192,102743,1,0,0:0:0:0:
64,192,102896,1,0,0:0:0:0:
320,192,102896,1,0,0:0:0:0:
320,192,103202,1,0,0:0:0:0:
192,192,103278,1,0,0:0:0:0:
64,192,103355,1,0,0:0:0:0:
192,192,103431,1,0,0:0:0:0:
320,192,103508,1,0,0:0:0:0:
64,192,103584,1,0,0:0:0:0:
192,192,103661,1,0,0:0:0:0:
320,192,103738,1,0,0:0:0:0:
448,192,103814,1,0,0:0:0:0:
320,192,103891,1,0,0:0:0:0:
192,192,103967,1,0,0:0:0:0:
64,192,104044,1,0,0:0:0:0:
448,192,104120,1,0,0:0:0:0:
320,192,104197,1,0,0:0:0:0:
192,192,104273,1,0,0:0:0:0:
448,192,104350,1,0,0:0:0:0:
192,192,104426,1,0,0:0:0:0:
448,192,104503,1,0,0:0:0:0:
320,192,104579,1,0,0:0:0:0:
192,192,104656,1,0,0:0:0:0:
448,192,104732,1,0,0:0:0:0:
320,192,104809,1,0,0:0:0:0:
64,192,104885,1,0,0:0:0:0:
192,192,104962,1,0,0:0:0:0:
320,192,105039,1,0,0:0:0:0:
192,192,105115,1,0,0:0:0:0:
64,192,105192,1,0,0:0:0:0:
192,192,105345,1,0,0:0:0:0:
320,192,105421,1,0,0:0:0:0:
448,192,105498,1,0,0:0:0:0:
64,192,105574,1,0,0:0:0:0:
192,192,105651,1,0,0:0:0:0:
320,192,105727,1,0,0:0:0:0:
64,192,105804,1,0,0:0:0:0:
320,192,105880,1,0,0:0:0:0:
448,192,105957,1,0,0:0:0:0:
64,192,106033,1,0,0:0:0:0:
448,192,106110,1,0,0:0:0:0:
64,192,106187,1,0,0:0:0:0:
320,192,106263,1,0,0:0:0:0:
64,192,106340,1,0,0:0:0:0:
192,192,106416,1,0,0:0:0:0:
64,192,106493,1,0,0:0:0:0:
448,192,106569,1,0,0:0:0:0:
192,192,106646,1,0,0:0:0:0:
320,192,106722,1,0,0:0:0:0:
192,192,106799,1,0,0:0:0:0:
64,192,106875,1,0,0:0:0:0:
320,192,106952,1,0,0:0:0:0:
192,192,107028,1,0,0:0:0:0:
64,192,107105,1,0,0:0:0:0:
448,192,107181,1,0,0:0:0:0:
192,192,107258,1,0,0:0:0:0:
320,192,107334,1,0,0:0:0:0:
448,192,107411,1,0,0:0:0:0:
192,192,107488,1,0,0:0:0:0:
320,192,107564,1,0,0:0:0:0:
64,192,107641,1,0,0:0:0:0:
448,192,107717,1,0,0:0:0:0:
320,192,107794,1,0,0:0:0:0:
192,192,107794,1,0,0:0:0:0:
192,192,107947,1,0,0:0:0:0:
64,192,108023,1,0,0:0:0:0:
192,192,108100,1,0,0:0:0:0:
320,192,108176,1,0,0:0:0:0:
64,192,108253,1,0,0:0:0:0:
448,192,108329,1,0,0:0:0:0:
192,192,108406,1,0,0:0:0:0:
320,192,108482,1,0,0:0:0:0:
192,192,108559,1,0,0:0:0:0:
64,192,108635,1,0,0:0:0:0:
320,192,108712,1,0,0:0:0:0:
448,192,108789,1,0,0:0:0:0:
64,192,108865,1,0,0:0:0:0:
192,192,108942,1,0,0:0:0:0:
320,192,109018,1,0,0:0:0:0:
448,192,109018,1,0,0:0:0:0:
64,192,109171,1,0,0:0:0:0:
320,192,109248,1,0,0:0:0:0:
192,192,109324,1,0,0:0:0:0:
448,192,109401,1,0,0:0:0:0:
192,192,109477,1,0,0:0:0:0:
320,192,109554,1,0,0:0:0:0:
64,192,109630,1,0,0:0:0:0:
192,192,109707,1,0,0:0:0:0:
320,192,109783,1,0,0:0:0:0:
448,192,109860,1,0,0:0:0:0:
64,192,109937,1,0,0:0:0:0:
448,192,110013,1,0,0:0:0:0:
64,192,110090,1,0,0:0:0:0:
192,192,110166,1,0,0:0:0:0:
448,192,110243,1,0,0:0:0:0:
320,192,110304,1,0,0:0:0:0:
192,192,110365,1,0,0:0:0:0:
448,192,110426,1,0,0:0:0:0:
320,192,110488,1,0,0:0:0:0:
64,192,110549,1,0,0:0:0:0:
448,192,110610,1,0,0:0:0:0:
192,192,110671,1,0,0:0:0:0:
64,192,110732,1,0,0:0:0:0:
320,192,110794,1,0,0:0:0:0:
192,192,110855,1,0,0:0:0:0:
320,192,110931,1,0,0:0:0:0:
64,192,111008,1,0,0:0:0:0:
448,192,111084,1,0,0:0:0:0:
192,192,111161,1,0,0:0:0:0:
320,192,111238,1,0,0:0:0:0:
64,192,111314,1,0,0:0:0:0:
192,192,111391,1,0,0:0:0:0:
448,192,111467,1,0,0:0:0:0:
192,192,111569,1,0,0:0:0:0:
320,192,111671,1,0,0:0:0:0:
64,192,111773,1,0,0:0:0:0:
192,192,111875,1,0,0:0:0:0:
448,192,111977,1,0,0:0:0:0:
320,192,112079,1,0,0:0:0:0:
192,192,112181,1,0,0:0:0:0:
448,192,112283,1,0,0:0:0:0:
64,192,112385,1,0,0:0:0:0:
320,192,112488,1,0,0:0:0:0:
192,192,112590,1,0,0:0:0:0:
64,192,112692,1,0,0:0:0:0:
448,192,112692,1,0,0:0:0:0:
192,192,112998,1,0,0:0:0:0:
448,192,113304,1,0,0:0:0:0:
64,192,113304,1,0,0:0:0:0:
192,192,113610,1,0,0:0:0:0:
320,192,113916,1,0,0:0:0:0:
64,192,113916,1,0,0:0:0:0:
192,192,114222,1,0,0:0:0:0:
320,192,114528,1,0,0:0:0:0:
64,192,114528,1,0,0:0:0:0:
192,192,114834,1,0,0:0:0:0:
448,192,115141,1,0,0:0:0:0:
64,192,115141,1,0,0:0:0:0:
320,192,115447,1,0,0:0:0:0:
192,192,115753,1,0,0:0:0:0:
448,192,115753,1,0,0:0:0:0:
320,192,116059,1,0,0:0:0:0:
192,192,116365,1,0,0:0:0:0:
64,192,116365,1,0,0:0:0:0:
320,192,116671,1,0,0:0:0:0:
448,192,116977,1,0,0:0:0:0:
64,192,116977,1,0,0:0:0:0:
320,192,117283,1,0,0:0:0:0:
