osu file format v14

[General]
AudioFilename: audio.mp3
AudioLeadIn: 0
PreviewTime: 59732
Countdown: 0
SampleSet: Drum
StackLeniency: 0.7
Mode: 2
LetterboxInBreaks: 0
WidescreenStoryboard: 0

[Editor]
Bookmarks: 307,8955,26252,43550,60847,78144,86793,104090,121388,138618,155915,173213,190510,207807,215915
DistanceSpacing: 1
BeatDivisor: 4
GridSize: 4
TimelineZoom: 2.3

[Metadata]
Title:Superheart
TitleUnicode:Superheart
Artist:Cosmicosmo & Slow Shudder
ArtistUnicode:Cosmicosmo & Slow Shudder
Creator:autofanboy
Version:Pulse
Source:
Tags:alienflybot AFB osu!catch World Cup 2023 CWC2023 Round of 16 RO16 DoubleTime1 DT1 featured artist FA mappers’ guild MPG MG Tiny Waves PALETTES Super Heart feat. ft. Pop English Electronic Instrumental
BeatmapID:4149349
BeatmapSetID:1996486

[Difficulty]
HPDrainRate:5
CircleSize:4.5
OverallDifficulty:8
ApproachRate:8
SliderMultiplier:2.56
SliderTickRate:0.5

[Events]
//Background and Video events
0,0,"Romantic hearts background.jpg",0,0
//Break Periods
//Storyboard Layer 0 (Background)
//Storyboard Layer 1 (Fail)
//Storyboard Layer 2 (Pass)
//Storyboard Layer 3 (Foreground)
//Storyboard Layer 4 (Overlay)
//Storyboard Sound Samples

[TimingPoints]
307,540.540540540541,4,3,1,40,1,0
307,-40.8163265306122,4,3,1,40,0,0
4090,-40.8163265306122,4,3,3,40,0,0
4225,-40.8163265306122,4,3,1,40,0,0
8820,-40.8163265306122,4,3,1,10,0,0
8955,-40.8163265306122,4,3,1,50,0,0
10577,-40.8163265306122,4,3,3,50,0,0
10712,-40.8163265306122,4,3,1,50,0,0
11117,-40.8163265306122,4,3,3,50,0,0
11252,-40.8163265306122,4,3,1,50,0,0
11523,-40.8163265306122,4,3,3,50,0,0
11658,-40.8163265306122,4,3,1,50,0,0
11928,-40.8163265306122,4,3,3,50,0,0
12063,-40.8163265306122,4,3,1,50,0,0
13279,-40.8163265306122,4,3,3,50,0,0
13415,-40.8163265306122,4,3,1,50,0,0
14090,-40.8163265306122,4,3,3,50,0,0
14225,-40.8163265306122,4,3,1,50,0,0
14901,-40.8163265306122,4,3,3,50,0,0
15036,-40.8163265306122,4,3,1,50,0,0
19225,-40.8163265306122,4,3,3,50,0,0
19361,-40.8163265306122,4,3,1,50,0,0
19766,-40.8163265306122,4,3,3,50,0,0
19901,-40.8163265306122,4,3,1,50,0,0
20171,-40.8163265306122,4,3,3,50,0,0
20307,-40.8163265306122,4,3,1,50,0,0
20577,-40.8163265306122,4,3,3,50,0,0
20712,-40.8163265306122,4,3,1,50,0,0
21928,-40.8163265306122,4,3,3,50,0,0
22063,-40.8163265306122,4,3,1,50,0,0
22739,-40.8163265306122,4,3,3,50,0,0
22874,-40.8163265306122,4,3,1,50,0,0
23550,-40.8163265306122,4,3,3,50,0,0
23685,-40.8163265306122,4,3,1,50,0,0
24901,-40.8163265306122,4,3,3,50,0,0
25036,-40.8163265306122,4,3,1,50,0,0
26252,-40.8163265306122,4,3,2,60,0,0
26388,-40.8163265306122,4,3,1,60,0,0
26793,-40.8163265306122,4,3,4,60,0,0
26928,-40.8163265306122,4,3,1,60,0,0
27063,-40.8163265306122,4,3,3,60,0,0
27198,-40.8163265306122,4,3,1,60,0,0
27604,-40.8163265306122,4,3,3,60,0,0
27739,-40.8163265306122,4,3,1,60,0,0
27874,-40.8163265306122,4,3,4,60,0,0
28009,-40.8163265306122,4,3,1,60,0,0
28415,-40.8163265306122,4,3,3,60,0,0
28550,-40.8163265306122,4,3,1,60,0,0
28955,-40.8163265306122,4,3,4,60,0,0
29090,-40.8163265306122,4,3,1,60,0,0
29225,-40.8163265306122,4,3,3,60,0,0
29361,-40.8163265306122,4,3,1,60,0,0
30036,-40.8163265306122,4,3,4,60,0,0
30171,-40.8163265306122,4,3,1,60,0,0
30577,-40.8163265306122,4,3,2,60,0,0
30712,-40.8163265306122,4,3,1,60,0,0
31117,-40.8163265306122,4,3,4,60,0,0
31252,-40.8163265306122,4,3,1,60,0,0
31388,-40.8163265306122,4,3,3,60,0,0
31523,-40.8163265306122,4,3,1,60,0,0
31928,-40.8163265306122,4,3,3,60,0,0
32063,-40.8163265306122,4,3,1,60,0,0
32198,-40.8163265306122,4,3,4,60,0,0
32334,-40.8163265306122,4,3,1,60,0,0
33279,-40.8163265306122,4,3,4,60,0,0
33415,-40.8163265306122,4,3,1,60,0,0
33550,-40.8163265306122,4,3,2,60,0,0
33685,-40.8163265306122,4,3,1,60,0,0
34361,-40.8163265306122,4,3,4,60,0,0
34496,-40.8163265306122,4,3,1,60,0,0
34901,-40.8163265306122,4,3,2,60,0,0
35036,-40.8163265306122,4,3,1,60,0,0
35442,-40.8163265306122,4,3,4,60,0,0
35577,-40.8163265306122,4,3,1,60,0,0
35712,-40.8163265306122,4,3,3,60,0,0
35847,-40.8163265306122,4,3,1,60,0,0
36252,-40.8163265306122,4,3,3,60,0,0
36388,-40.8163265306122,4,3,1,60,0,0
36523,-40.8163265306122,4,3,4,60,0,0
36658,-40.8163265306122,4,3,1,60,0,0
37063,-40.8163265306122,4,3,3,60,0,0
37198,-40.8163265306122,4,3,1,60,0,0
37604,-40.8163265306122,4,3,4,60,0,0
37739,-40.8163265306122,4,3,1,60,0,0
37874,-40.8163265306122,4,3,3,60,0,0
38009,-40.8163265306122,4,3,1,60,0,0
38685,-40.8163265306122,4,3,4,60,0,0
38820,-40.8163265306122,4,3,1,60,0,0
39225,-40.8163265306122,4,3,2,60,0,0
39361,-40.8163265306122,4,3,1,60,0,0
39766,-40.8163265306122,4,3,4,60,0,0
39901,-40.8163265306122,4,3,1,60,0,0
40171,-40.8163265306122,4,3,3,60,0,0
40307,-40.8163265306122,4,3,1,60,0,0
40442,-40.8163265306122,4,3,3,60,0,0
40577,-40.8163265306122,4,3,1,60,0,0
40847,-40.8163265306122,4,3,4,60,0,0
40982,-40.8163265306122,4,3,1,60,0,0
41928,-40.8163265306122,4,3,4,60,0,0
42063,-40.8163265306122,4,3,1,60,0,0
42198,-40.8163265306122,4,3,2,60,0,0
42334,-40.8163265306122,4,3,1,60,0,0
42469,-40.8163265306122,4,3,3,60,0,0
42604,-40.8163265306122,4,3,1,60,0,0
43009,-40.8163265306122,4,3,4,60,0,0
43144,-40.8163265306122,4,3,1,60,0,0
43550,-40.8163265306122,4,3,1,40,0,0
44361,-40.8163265306122,4,3,1,20,0,0
44631,-40.8163265306122,4,3,1,40,0,0
46523,-40.8163265306122,4,3,1,20,0,0
46793,-40.8163265306122,4,3,1,40,0,0
48144,-40.8163265306122,4,3,1,20,0,0
48415,-40.8163265306122,4,3,1,40,0,0
50307,-40.8163265306122,4,3,4,40,0,0
50577,-40.8163265306122,4,3,1,40,0,0
52198,-40.8163265306122,4,3,1,50,0,0
56523,-40.8163265306122,4,3,1,60,0,0
59766,-40.8163265306122,4,3,2,60,0,0
60036,-40.8163265306122,4,3,1,60,0,0
60171,-40.8163265306122,4,3,2,60,0,0
60577,-40.8163265306122,4,3,1,60,0,0
60847,-40.8163265306122,4,3,1,70,0,1
63144,-40.8163265306122,4,3,1,10,0,1
63279,-40.8163265306122,4,3,1,70,0,1
65577,-40.8163265306122,4,3,1,10,0,1
65712,-40.8163265306122,4,3,1,70,0,1
67469,-40.8163265306122,4,3,1,10,0,1
67604,-40.8163265306122,4,3,1,70,0,1
69496,-40.8163265306122,4,3,1,60,0,1
70036,-40.8163265306122,4,3,1,70,0,1
71793,-40.8163265306122,4,3,1,10,0,1
71928,-40.8163265306122,4,3,1,70,0,1
74225,-40.8163265306122,4,3,1,10,0,1
74361,-40.8163265306122,4,3,1,70,0,1
76117,-40.8163265306122,4,3,1,10,0,1
76252,-40.8163265306122,4,3,1,70,0,1
78144,-40.8163265306122,4,3,1,60,0,0
79361,-40.8163265306122,4,3,3,60,0,0
79496,-40.8163265306122,4,3,1,60,0,0
79631,-40.8163265306122,4,3,3,60,0,0
79766,-40.8163265306122,4,3,1,60,0,0
80577,-40.8163265306122,4,3,3,60,0,0
80712,-40.8163265306122,4,3,1,60,0,0
81928,-40.8163265306122,4,3,2,60,0,0
82063,-40.8163265306122,4,3,3,60,0,0
82198,-40.8163265306122,4,3,1,60,0,0
82469,-40.8163265306122,4,3,3,60,0,0
82604,-40.8163265306122,4,3,1,60,0,0
83685,-40.8163265306122,4,3,3,60,0,0
83820,-40.8163265306122,4,3,1,60,0,0
83955,-40.8163265306122,4,3,3,60,0,0
84090,-40.8163265306122,4,3,1,60,0,0
84901,-40.8163265306122,4,3,3,60,0,0
85171,-40.8163265306122,4,3,1,60,0,0
85442,-40.8163265306122,4,3,3,60,0,0
85577,-40.8163265306122,4,3,1,60,0,0
86252,-40.8163265306122,4,3,2,60,0,0
86388,-40.8163265306122,4,3,1,60,0,0
86793,-40.8163265306122,4,3,1,50,0,0
88009,-40.8163265306122,4,3,3,50,0,0
88144,-40.8163265306122,4,3,1,50,0,0
88415,-40.8163265306122,4,3,3,50,0,0
88550,-40.8163265306122,4,3,1,50,0,0
88955,-40.8163265306122,4,3,3,50,0,0
89090,-40.8163265306122,4,3,1,50,0,0
89361,-40.8163265306122,4,3,3,50,0,0
89496,-40.8163265306122,4,3,1,50,0,0
89766,-40.8163265306122,4,3,3,50,0,0
89901,-40.8163265306122,4,3,1,50,0,0
91117,-40.8163265306122,4,3,3,50,0,0
91252,-40.8163265306122,4,3,1,50,0,0
91928,-40.8163265306122,4,3,3,50,0,0
92063,-40.8163265306122,4,3,1,50,0,0
92739,-40.8163265306122,4,3,3,50,0,0
92874,-40.8163265306122,4,3,1,50,0,0
97604,-40.8163265306122,4,3,3,50,0,0
97739,-40.8163265306122,4,3,1,50,0,0
98009,-40.8163265306122,4,3,3,50,0,0
98144,-40.8163265306122,4,3,1,50,0,0
98415,-40.8163265306122,4,3,3,50,0,0
98550,-40.8163265306122,4,3,1,50,0,0
99766,-40.8163265306122,4,3,3,50,0,0
99901,-40.8163265306122,4,3,1,50,0,0
100577,-40.8163265306122,4,3,3,50,0,0
100712,-40.8163265306122,4,3,1,50,0,0
101928,-40.8163265306122,4,3,3,50,0,0
102063,-40.8163265306122,4,3,1,50,0,0
102739,-40.8163265306122,4,3,3,50,0,0
102874,-40.8163265306122,4,3,1,50,0,0
104090,-40.8163265306122,4,3,2,60,0,0
104225,-40.8163265306122,4,3,1,60,0,0
104631,-40.8163265306122,4,3,4,60,0,0
104766,-40.8163265306122,4,3,1,60,0,0
104901,-40.8163265306122,4,3,3,60,0,0
105036,-40.8163265306122,4,3,1,60,0,0
105442,-40.8163265306122,4,3,3,60,0,0
105577,-40.8163265306122,4,3,1,60,0,0
105712,-40.8163265306122,4,3,4,60,0,0
105847,-40.8163265306122,4,3,1,60,0,0
106252,-40.8163265306122,4,3,3,60,0,0
106388,-40.8163265306122,4,3,1,60,0,0
106793,-40.8163265306122,4,3,4,60,0,0
106928,-40.8163265306122,4,3,1,60,0,0
107063,-40.8163265306122,4,3,3,60,0,0
107198,-40.8163265306122,4,3,1,60,0,0
107874,-40.8163265306122,4,3,4,60,0,0
108009,-40.8163265306122,4,3,1,60,0,0
108415,-40.8163265306122,4,3,2,60,0,0
108550,-40.8163265306122,4,3,1,60,0,0
108955,-40.8163265306122,4,3,4,60,0,0
109090,-40.8163265306122,4,3,1,60,0,0
109225,-40.8163265306122,4,3,3,60,0,0
109361,-40.8163265306122,4,3,1,60,0,0
109766,-40.8163265306122,4,3,3,60,0,0
109901,-40.8163265306122,4,3,1,60,0,0
110036,-40.8163265306122,4,3,4,60,0,0
110171,-40.8163265306122,4,3,1,60,0,0
111117,-40.8163265306122,4,3,4,60,0,0
111252,-40.8163265306122,4,3,1,60,0,0
111388,-40.8163265306122,4,3,2,60,0,0
111523,-40.8163265306122,4,3,1,60,0,0
112198,-40.8163265306122,4,3,4,60,0,0
112334,-40.8163265306122,4,3,1,60,0,0
112739,-40.8163265306122,4,3,2,60,0,0
112874,-40.8163265306122,4,3,1,60,0,0
113279,-40.8163265306122,4,3,4,60,0,0
113415,-40.8163265306122,4,3,1,60,0,0
113550,-40.8163265306122,4,3,3,60,0,0
113685,-40.8163265306122,4,3,1,60,0,0
114090,-40.8163265306122,4,3,3,60,0,0
114225,-40.8163265306122,4,3,1,60,0,0
114361,-40.8163265306122,4,3,4,60,0,0
114496,-40.8163265306122,4,3,1,60,0,0
114901,-40.8163265306122,4,3,3,60,0,0
115036,-40.8163265306122,4,3,1,60,0,0
115442,-40.8163265306122,4,3,4,60,0,0
115577,-40.8163265306122,4,3,1,60,0,0
115712,-40.8163265306122,4,3,3,60,0,0
115847,-40.8163265306122,4,3,1,60,0,0
116523,-40.8163265306122,4,3,4,60,0,0
116658,-40.8163265306122,4,3,1,60,0,0
117063,-40.8163265306122,4,3,2,60,0,0
117198,-40.8163265306122,4,3,1,60,0,0
117604,-40.8163265306122,4,3,4,60,0,0
117739,-40.8163265306122,4,3,1,60,0,0
118009,-40.8163265306122,4,3,3,60,0,0
118144,-40.8163265306122,4,3,1,60,0,0
118279,-40.8163265306122,4,3,3,60,0,0
118415,-40.8163265306122,4,3,1,60,0,0
118685,-40.8163265306122,4,3,4,60,0,0
118820,-40.8163265306122,4,3,1,60,0,0
119766,-40.8163265306122,4,3,4,60,0,0
119901,-40.8163265306122,4,3,1,60,0,0
120036,-40.8163265306122,4,3,2,60,0,0
120171,-40.8163265306122,4,3,1,60,0,0
120307,-40.8163265306122,4,3,3,60,0,0
120442,-40.8163265306122,4,3,1,60,0,0
120847,-40.8163265306122,4,3,4,60,0,0
120982,-40.8163265306122,4,3,1,60,0,0
121388,-40.8163265306122,4,3,1,40,0,0
122198,-40.8163265306122,4,3,1,20,0,0
122469,-40.8163265306122,4,3,1,40,0,0
124361,-40.8163265306122,4,3,1,20,0,0
124631,-40.8163265306122,4,3,1,40,0,0
125982,-40.8163265306122,4,3,1,20,0,0
126252,-40.8163265306122,4,3,1,40,0,0
128144,-40.8163265306122,4,3,4,40,0,0
128415,-40.8163265306122,4,3,1,40,0,0
130036,-40.8163265306122,4,3,1,50,0,0
130511,540.540540540541,4,3,1,50,1,0
130511,-40.8163265306122,4,3,1,50,0,0
132132,540.540540540541,4,3,1,50,1,0
132132,-40.8163265306122,4,3,1,50,0,0
134294,-40.8163265306122,4,3,1,60,0,0
137537,-40.8163265306122,4,3,2,60,0,0
137807,-40.8163265306122,4,3,1,60,0,0
137942,-40.8163265306122,4,3,2,60,0,0
138348,-40.8163265306122,4,3,1,60,0,0
138618,-40.8163265306122,4,3,1,70,0,1
140915,-40.8163265306122,4,3,1,10,0,1
141050,-40.8163265306122,4,3,1,70,0,1
143348,-40.8163265306122,4,3,1,10,0,1
143483,-40.8163265306122,4,3,1,70,0,1
145240,-40.8163265306122,4,3,1,10,0,1
145375,-40.8163265306122,4,3,1,70,0,1
147267,-40.8163265306122,4,3,1,60,0,1
147807,-40.8163265306122,4,3,1,70,0,1
149564,-40.8163265306122,4,3,1,10,0,1
149699,-40.8163265306122,4,3,1,70,0,1
151996,-40.8163265306122,4,3,1,10,0,1
152132,-40.8163265306122,4,3,1,70,0,1
153888,-40.8163265306122,4,3,1,10,0,1
154023,-40.8163265306122,4,3,1,70,0,1
155915,-40.8163265306122,4,3,1,50,0,0
164159,-40.8163265306122,4,3,3,50,0,0
164294,-40.8163265306122,4,3,1,50,0,0
164429,-40.8163265306122,4,3,3,50,0,0
164564,-40.8163265306122,4,3,1,60,0,0
166050,-40.8163265306122,4,3,3,60,0,0
166186,-40.8163265306122,4,3,1,60,0,0
166456,-40.8163265306122,4,3,3,60,0,0
166591,-40.8163265306122,4,3,1,60,0,0
168213,-40.8163265306122,4,3,3,60,0,0
168348,-40.8163265306122,4,3,1,60,0,0
168888,-40.8163265306122,4,3,1,70,0,0
169969,-40.8163265306122,4,3,3,70,0,0
170104,-40.8163265306122,4,3,1,70,0,0
170375,-40.8163265306122,4,3,3,70,0,0
170510,-40.8163265306122,4,3,1,70,0,0
170780,-40.8163265306122,4,3,3,70,0,0
170915,-40.8163265306122,4,3,1,70,0,0
173213,-40.8163265306122,4,3,1,80,0,1
175510,-40.8163265306122,4,3,1,10,0,1
175645,-40.8163265306122,4,3,1,80,0,1
177537,-40.8163265306122,4,3,1,40,0,1
178077,-40.8163265306122,4,3,1,80,0,1
179834,-40.8163265306122,4,3,1,10,0,1
179969,-40.8163265306122,4,3,1,80,0,1
181861,-40.8163265306122,4,3,1,60,0,1
182402,-40.8163265306122,4,3,1,80,0,1
184159,-40.8163265306122,4,3,1,10,0,1
184294,-40.8163265306122,4,3,1,80,0,1
186186,-40.8163265306122,4,3,1,40,0,1
186726,-40.8163265306122,4,3,1,80,0,1
188483,-40.8163265306122,4,3,1,10,0,1
188618,-40.8163265306122,4,3,1,80,0,1
190510,-40.8163265306122,4,3,1,60,0,0
191726,-40.8163265306122,4,3,3,60,0,0
191861,-40.8163265306122,4,3,1,60,0,0
194429,-40.8163265306122,4,3,3,60,0,0
194564,-40.8163265306122,4,3,1,60,0,0
194834,-40.8163265306122,4,3,3,60,0,0
194969,-40.8163265306122,4,3,1,60,0,0
196050,-40.8163265306122,4,3,3,60,0,0
196186,-40.8163265306122,4,3,1,60,0,0
196321,-40.8163265306122,4,3,3,60,0,0
196456,-40.8163265306122,4,3,1,60,0,0
198753,-40.8163265306122,4,3,3,60,0,0
198888,-40.8163265306122,4,3,1,60,0,0
199159,-40.8163265306122,4,3,1,50,0,0
207807,-40.8163265306122,4,3,1,40,0,0
208888,-40.8163265306122,4,3,1,35,0,0
209969,-40.8163265306122,4,3,1,30,0,0
211050,-40.8163265306122,4,3,1,25,0,0
212132,-40.8163265306122,4,3,1,20,0,0
213213,-40.8163265306122,4,3,1,15,0,0
214294,-40.8163265306122,4,3,1,10,0,0
215375,-40.8163265306122,4,3,90,5,0,0

[Colours]
Combo1 : 234,148,149
Combo2 : 129,65,65
Combo3 : 239,95,95

[HitObjects]
60,264,307,6,0,L|73:370|73:370|67:263|67:263|58:156|58:156|54:7|54:7,1,470.4,2|2,3:1|3:1,0:0:0:0:
112,70,847,1,2,3:2:0:0:
312,324,1117,2,0,B|289:219|289:219|264:115|264:115|245:9|245:9|188:146|188:146,1,470.4,2|2,3:1|3:1,0:0:0:0:
124,140,1658,2,0,L|188:283|188:283,1,156.8,0|0,0:0|0:0,0:0:0:0:
324,200,1928,2,0,L|325:268|325:268|340:334|340:334|334:266|334:266|328:156|328:156,1,313.6,10|0,3:1|0:0,0:0:0:0:
264,70,2334,1,0,0:0:0:0:
400,4,2469,6,0,B|447:100|447:100|456:207|456:207|431:311|431:311|400:165|400:165,1,470.4,2|2,3:1|3:1,0:0:0:0:
336,150,3009,1,2,3:2:0:0:
136,280,3279,2,0,L|176:380|176:380|231:288|231:288|262:185|262:185|328:51|328:51,1,470.4,2|2,3:1|3:1,0:0:0:0:
264,352,3820,2,0,L|328:209|328:209,1,156.8,0|0,0:0|0:0,0:0:0:0:
464,292,4090,2,0,L|483:357|483:357|474:290|474:290|449:227|449:227|468:119|468:119,1,313.6,10|0,3:1|0:0,0:0:0:0:
404,162,4496,1,0,0:0:0:0:
268,224,4631,6,0,B|215:317|215:317|202:211|202:211|230:108|230:108|268:252|268:252,1,470.4,2|2,3:1|3:1,0:0:0:0:
332,78,5171,1,2,3:2:0:0:
132,332,5442,2,0,B|105:228|105:228|38:144|38:144|28:37|28:37|8:185|8:185,1,470.4,2|2,3:1|3:1,0:0:0:0:
32,152,5982,1,0,0:0:0:0:
96,128,6117,1,0,0:0:0:0:
232,64,6252,2,0,L|200:124|200:124|191:191|191:191|152:247|152:247|104:346|104:346,1,313.6,10|0,3:1|0:0,0:0:0:0:
168,58,6658,1,0,0:0:0:0:
304,184,6793,6,0,B|347:282|347:282|371:177|371:177|426:85|426:85|428:234|428:234,1,470.4,2|2,3:1|3:1,0:0:0:0:
428,0,7334,1,2,3:2:0:0:
228,128,7604,1,2,3:1:0:0:
428,384,7874,6,0,B|420:319|420:319|393:259|393:259|347:211|347:211|333:146|333:146|348:82|348:82|360:17|360:17|369:82|369:82|371:148|371:148|420:192|420:192|423:258|423:258|415:324|415:324|411:258|411:258|411:192|411:192|413:126|413:126|411:60|411:60|428:166|428:166,1,1097.6,0|0,3:3|0:0,0:0:0:0:
228,280,8955,6,0,L|175:373|175:373|157:267|157:267|92:182|92:182|36:44|36:44,1,470.4,4|2,3:2|3:1,0:0:0:0:
172,208,9496,2,0,L|236:351|236:351,1,156.8,10|2,3:2|3:2,0:0:0:0:
108,332,9901,2,0,B|99:225|99:225|102:118|102:118|92:11|92:11|164:141|164:141,1,470.4,2|2,3:2|3:2,0:0:0:0:
364,316,10577,2,0,L|343:381|343:381|293:335|293:335|278:269|278:269|236:168|236:168,1,313.6,10|2,3:1|3:2,0:0:0:0:
364,184,11117,6,0,B|416:278|416:278|444:382|444:382|481:282|481:282|488:133|488:133,1,470.4,2|2,3:1|3:1,0:0:0:0:
352,0,11658,1,8,3:2:0:0:
224,256,11928,2,0,L|268:354|268:354|328:266|328:266|370:167|370:167|416:25|416:25,1,470.4,2|2,3:1|3:1,0:0:0:0:
392,188,12469,1,0,0:0:0:0:
328,164,12604,1,0,0:0:0:0:
192,100,12739,2,0,L|156:158|156:158|149:226|149:226|128:291|128:291|64:380|64:380,1,313.6,10|2,3:1|3:2,0:0:0:0:
264,352,13279,6,0,L|269:284|269:284|276:216|276:216|259:150|259:150|268:41|268:41,1,313.6,2|2,3:1|3:2,0:0:0:0:
204,222,13685,1,2,3:1:0:0:
68,156,13820,2,0,L|68:224|68:224|49:289|49:289|81:349|81:349|64:241|64:241,1,313.6,10|2,3:2|3:1,0:0:0:0:
192,284,14361,2,0,B|199:357|199:357|189:284|189:284|195:211|195:211|185:138|185:138|175:66|175:66|149:134|149:134|114:198|114:198|84:309|84:309,1,627.2,2|10,3:2|3:1,0:0:0:0:
212,232,15171,1,2,3:2:0:0:
412,360,15442,6,0,L|427:294|427:294|416:227|416:227|424:159|424:159|416:50|416:50,1,313.6,2|0,3:1|0:0,0:0:0:0:
280,168,15847,2,0,L|216:311|216:311,1,156.8,2|8,3:1|3:2,0:0:0:0:
344,292,16252,2,0,B|375:189|375:189|388:83|388:83|385:190|385:190|344:333|344:333,1,470.4,2|2,3:1|3:1,0:0:0:0:
144,84,16793,2,0,L|181:141|181:141|208:203|208:203|220:270|220:270|272:367|272:367,1,313.6,2|10,3:2|3:1,0:0:0:0:
472,336,17334,1,2,3:2:0:0:
272,208,17604,6,0,B|222:303|222:303|212:196|212:196|215:89|215:89|272:227|272:227,1,470.4,2|2,3:1|3:1,0:0:0:0:
408,0,18144,2,0,L|410:157|410:157,1,156.8,10|2,3:2|3:2,0:0:0:0:
280,192,18550,2,0,B|286:299|286:299|329:201|329:201|362:99|362:99|404:242|404:242,1,470.4,2|2,3:2|3:2,0:0:0:0:
204,184,19225,2,0,L|173:245|173:245|141:305|141:305|127:371|127:371|76:274|76:274,1,313.6,10|2,3:1|3:2,0:0:0:0:
204,316,19766,6,0,B|244:217|244:217|286:118|286:118|295:11|295:11|328:156|328:156,1,470.4,2|2,3:1|3:1,0:0:0:0:
192,132,20307,1,8,3:2:0:0:
320,260,20577,2,0,L|292:364|292:364|222:283|222:283|207:177|207:177|128:51|128:51,1,470.4,2|2,3:1|3:1,0:0:0:0:
152,192,21117,1,0,0:0:0:0:
216,168,21252,1,0,0:0:0:0:
352,104,21388,2,0,L|373:169|373:169|396:233|396:233|443:282|443:282|480:385|480:385,1,313.6,10|0,3:1|0:0,0:0:0:0:
280,356,21928,5,2,3:1:0:0:
256,296,22063,1,2,3:2:0:0:
280,236,22198,1,2,3:2:0:0:
344,212,22334,1,2,3:1:0:0:
208,148,22469,2,0,L|186:212|186:212|153:271|153:271|119:330|119:330|80:227|80:227,1,313.6,8|2,3:2|3:1,0:0:0:0:
208,16,23009,2,0,L|250:70|250:70|255:138|255:138|280:201|280:201|336:295|336:295,1,313.6,2|2,3:2|3:2,0:0:0:0:
136,268,23550,2,0,L|142:336|142:336|130:269|130:269|121:202|121:202|132:93|132:93,1,313.6,10|2,3:1|3:2,0:0:0:0:
332,268,24090,6,0,B|379:364|379:364|412:262|412:262|452:163|452:163|456:14|456:14,1,470.4,2|2,3:1|3:1,0:0:0:0:
320,84,24631,2,0,L|289:145|289:145|246:197|246:197|239:265|239:265|192:364|192:364,1,313.6,8|2,3:2|3:1,0:0:0:0:
392,336,25171,6,0,B|413:271|413:271|440:209|440:209|433:141|433:141|392:39|392:39,1,313.6,0|2,2:3|3:2,0:0:0:0:
256,168,25577,2,0,L|254:325|254:325,1,156.8,0|10,2:3|3:1,0:0:0:0:
452,360,25982,2,0,L|388:217|388:217,1,156.8,2|0,2:2|2:3,0:0:0:0:
188,292,26252,6,0,B|152:191|152:191|118:89|118:89|131:195|131:195|188:333|188:333,1,470.4,2|2,3:3|3:1,0:0:0:0:
388,212,26793,2,0,L|378:279|378:279|391:346|391:346|374:280|374:280|392:172|392:172,1,313.6,10|2,3:2|3:1,0:0:0:0:
256,148,27198,6,0,L|292:206|292:206|296:274|296:274|351:314|351:314|384:209|384:209,1,313.6,2|2,3:3|3:1,0:0:0:0:
320,80,27604,2,0,L|384:223|384:223,1,156.8,2|0,3:3|0:0,0:0:0:0:
184,12,27874,2,0,L|166:78|166:78|125:132|125:132|112:199|112:199|56:293|56:293,1,313.6,10|0,3:1|0:0,0:0:0:0:
256,264,28415,6,0,B|276:369|276:369|320:271|320:271|301:166|301:166|256:24|256:24,1,470.4,2|2,3:1|3:1,0:0:0:0:
56,184,28955,2,0,L|36:339|36:339,1,156.8,10|0,3:2|0:0,0:0:0:0:
56,184,29225,1,2,3:1:0:0:
188,120,29361,6,0,L|228:175|228:175|248:240|248:240|278:301|278:301|316:198|316:198,1,313.6,2|2,3:3|3:1,0:0:0:0:
292,56,29766,1,2,3:3:0:0:
228,32,29901,1,0,0:0:0:0:
428,160,30036,2,0,L|492:303|492:303,1,156.8,10|2,3:1|3:3,0:0:0:0:
496,284,30442,1,0,0:0:0:0:
292,348,30577,6,0,B|257:247|257:247|215:148|215:148|188:44|188:44|168:192|168:192,1,470.4,2|2,3:3|3:1,0:0:0:0:
368,292,31117,2,0,L|355:359|355:359|367:292|367:292|382:226|382:226|372:117|372:117,1,313.6,10|2,3:2|3:1,0:0:0:0:
236,228,31523,6,0,B|226:295|226:295|219:363|219:363|211:296|211:296|236:189|236:189,1,313.6,2|2,3:3|3:1,0:0:0:0:
300,60,31928,2,0,L|236:203|236:203,1,156.8,2|0,3:3|0:0,0:0:0:0:
36,184,32198,2,0,L|61:247|61:247|109:295|109:295|119:362|119:362|164:262|164:262,1,313.6,10|2,3:1|3:2,0:0:0:0:
364,52,32739,5,2,3:1:0:0:
164,308,33009,2,0,L|162:151|162:151,1,156.8,2|2,3:2|3:1,0:0:0:0:
360,180,33279,2,0,L|375:246|375:246|417:299|417:299|427:366|427:366|488:275|488:275,1,313.6,8|2,3:2|3:2,0:0:0:0:
352,112,33685,6,0,L|332:177|332:177|307:240|307:240|282:303|282:303|224:210|224:210,1,313.6,2|2,3:3|3:1,0:0:0:0:
248,48,34090,1,2,3:3:0:0:
312,24,34225,1,0,0:0:0:0:
112,152,34361,2,0,L|48:295|48:295,1,156.8,10|2,3:1|3:3,0:0:0:0:
112,152,34631,1,2,3:2:0:0:
448,280,34901,6,0,B|422:384|422:384|407:278|407:278|363:180|363:180|324:36|324:36,1,470.4,2|2,3:3|3:1,0:0:0:0:
124,224,35442,2,0,L|139:290|139:290|127:357|127:357|115:290|115:290|120:180|120:180,1,313.6,10|2,3:2|3:1,0:0:0:0:
256,32,35847,6,0,B|265:99|265:99|299:158|299:158|297:226|297:226|256:328|256:328,1,313.6,2|2,3:3|3:1,0:0:0:0:
192,200,36252,2,0,L|128:343|128:343,1,156.8,2|0,3:3|0:0,0:0:0:0:
328,132,36523,2,0,L|374:182|374:182|380:250|380:250|424:302|424:302|456:197|456:197,1,313.6,10|0,3:1|0:0,0:0:0:0:
256,384,37063,6,0,B|214:285|214:285|190:181|190:181|220:78|220:78|256:223|256:223,1,470.4,2|2,3:1|3:1,0:0:0:0:
456,304,37604,2,0,L|476:149|476:149,1,156.8,10|0,3:2|0:0,0:0:0:0:
456,304,37874,1,2,3:1:0:0:
320,240,38009,6,0,L|298:304|298:304|255:356|255:356|228:294|228:294|192:190|192:190,1,313.6,2|2,3:3|3:1,0:0:0:0:
256,172,38415,2,0,L|320:315|320:315,1,156.8,2|0,3:3|0:0,0:0:0:0:
120,104,38685,1,10,3:1:0:0:
56,80,38820,1,2,0:0:0:0:
32,20,38955,1,0,0:0:0:0:
232,276,39225,6,0,B|268:377|268:377|314:280|314:280|334:175|334:175|356:28|356:28,1,470.4,2|2,0:0|3:1,0:0:0:0:
156,92,39766,2,0,L|92:235|92:235,1,156.8,10|2,3:2|3:2,0:0:0:0:
292,344,40171,6,0,L|269:280|269:280|243:217|243:217|190:175|190:175|164:68|164:68,1,313.6,2|2,3:3|3:1,0:0:0:0:
188,280,40577,1,2,3:3:0:0:
252,256,40712,1,2,3:2:0:0:
452,192,40847,2,0,L|457:299|457:299|455:192|455:192|441:86|441:86|458:234|458:234,1,470.4,10|0,3:1|0:0,0:0:0:0:
392,2,41388,5,2,3:1:0:0:
256,68,41523,2,0,L|299:121|299:121|294:189|294:189|336:242|336:242|384:341|384:341,1,313.6,2|2,0:0|3:1,0:0:0:0:
184,136,41928,2,0,L|120:279|120:279,1,156.8,8|2,3:2|0:0,0:0:0:0:
184,204,42198,2,0,L|192:282|192:282|184:360|184:360,2,78.4,2|0|0,3:2|0:0|0:0,0:0:0:0:
48,332,42469,5,2,3:3:0:0:
24,272,42604,1,2,3:1:0:0:
48,212,42739,1,2,3:2:0:0:
112,188,42874,1,0,0:0:0:0:
312,316,43009,2,0,L|376:173|376:173,1,156.8,10|0,3:1|0:0,0:0:0:0:
240,248,43279,1,2,3:2:0:0:
208,247,43347,1,0,0:0:0:0:
176,246,43415,1,0,0:0:0:0:
456,372,43550,6,0,B|459:260|459:260|448:148|448:148|456:36|456:36|441:147|441:147|467:256|467:256|471:368|471:368|462:256|462:256|456:102|456:102,1,940.8,4|0,3:2|0:0,0:0:0:0:
256,116,44631,2,0,L|241:193|241:193|195:257|195:257|155:324|155:324|128:250|128:250|155:188|155:188|185:127|185:127|195:60|195:60|256:151|256:151,2,313.6,2|2|2,3:2|3:2|3:2,0:0:0:0:
56,372,45442,6,0,B|89:304|89:304|103:229|103:229|156:175|156:175|169:100|169:100|201:31|201:31|202:107|202:107|206:183|206:183|223:257|223:257|238:331|238:331|208:261|208:261|194:186|194:186|181:111|181:111|176:35|176:35|151:106|151:106|114:172|114:172|56:274|56:274,1,1254.4,2|0,3:2|0:0,0:0:0:0:
256,308,46793,2,0,B|274:374|274:374|313:318|313:318|308:250|308:250|336:144|336:144,1,313.6,2|2,3:2|3:2,0:0:0:0:
272,160,47198,2,0,L|230:214|230:214|223:282|223:282|207:348|207:348|144:258|144:258,1,313.6,2|2,3:2|3:2,0:0:0:0:
344,284,47739,6,0,B|397:377|397:377|383:271|383:271|388:164|388:164|344:22|344:22,1,470.4,2|0,3:2|0:0,0:0:0:0:
144,268,48415,2,0,L|139:336|139:336|144:268|144:268|153:201|153:201|140:92|140:92,1,313.6,2|2,3:2|3:2,0:0:0:0:
340,12,48955,2,0,B|364:66|364:66|377:123|377:123|425:157|425:157|430:216|430:216|458:267|458:267|443:324|443:324|479:370|479:370|464:313|464:313|439:209|439:209|424:103|424:103|399:207|399:207|340:344|340:344,2,470.4,2|2|2,3:2|3:2|3:2,0:0:0:0:
224,56,50036,5,0,0:0:0:0:
176,172,50307,1,2,3:3:0:0:
224,288,50577,1,0,0:0:0:0:
340,332,50847,1,0,0:0:0:0:
140,204,51117,2,0,B|144:272|144:272|145:340|145:340|176:279|176:279|220:178|220:178,1,313.6,2|2,3:2|3:2,0:0:0:0:
284,56,51523,2,0,L|251:127|251:127|232:203|232:203|185:266|185:266|156:339|156:339|195:283|195:283|218:219|218:219|257:164|257:164|284:58|284:58,2,313.6,2|2|2,3:2|3:2|3:2,0:0:0:0:
84,120,52198,6,0,B|46:220|46:220|35:327|35:327|57:222|57:222|84:76|84:76,1,470.4,0|0,1:3|0:0,0:0:0:0:
220,328,52739,2,0,L|206:261|206:261|159:212|159:212|138:147|138:147|92:47|92:47,1,313.6,2|2,1:2|3:2,0:0:0:0:
292,196,53279,2,0,B|340:292|340:292|385:195|385:195|408:90|408:90|416:239|416:239,1,470.4,2|2,1:2|3:2,0:0:0:0:
280,140,53820,2,0,L|284:208|284:208|288:276|288:276|277:343|277:343|276:233|276:233,1,313.6,0|2,1:3|3:2,0:0:0:0:
476,268,54361,6,0,B|509:370|509:370|495:264|495:264|459:163|459:163|420:19|420:19,1,470.4,0|0,1:3|0:0,0:0:0:0:
284,60,54901,2,0,L|266:126|266:126|234:186|234:186|184:232|184:232|156:338|156:338,1,313.6,0|2,1:3|3:2,0:0:0:0:
356,312,55442,2,0,B|395:368|395:368|372:304|372:304|366:236|366:236|356:127|356:127,1,313.6,2|2,1:2|3:2,0:0:0:0:
292,144,55847,2,0,L|356:287|356:287,1,156.8,2|0,3:2|1:3,0:0:0:0:
220,76,56117,2,0,L|264:128|264:128|290:191|290:191|291:259|291:259|348:353|348:353,1,313.6,2|2,3:2|3:2,0:0:0:0:
148,4,56523,6,0,L|108:59|108:59|78:120|78:120|72:188|72:188|20:285|20:285,1,313.6,0|0,1:3|1:3,0:0:0:0:
220,128,57063,1,0,1:3:0:0:
20,256,57334,1,0,1:3:0:0:
356,384,57604,2,0,B|390:325|390:325|390:257|390:257|371:192|371:192|356:83|356:83,1,313.6,2|2,1:2|1:2,0:0:0:0:
292,216,58009,2,0,L|356:359|356:359,1,156.8,2|0,3:2|1:3,0:0:0:0:
220,148,58279,2,0,L|156:291|156:291,1,156.8,2|2,3:2|1:2,0:0:0:0:
492,272,58685,5,0,1:3:0:0:
476,212,58820,1,0,1:3:0:0:
428,168,58955,1,0,1:3:0:0:
368,152,59090,1,0,1:3:0:0:
168,88,59225,2,0,L|232:231|232:231,1,156.8,0|0,1:3|1:3,0:0:0:0:
432,20,59496,1,0,1:3:0:0:
400,19,59563,1,0,1:3:0:0:
368,18,59631,1,0,1:3:0:0:
88,144,59766,6,0,L|86:301|86:301,1,156.8,8|2,3:1|3:1,0:0:0:0:
284,208,60171,2,0,L|348:351|348:351,1,156.8,8|2,3:1|3:1,0:0:0:0:
284,208,60442,1,8,3:1:0:0:
148,144,60577,1,4,3:1:0:0:
484,272,60847,6,0,B|476:379|476:379|453:274|453:274|424:171|424:171|360:37|360:37,1,470.4,6|0,3:3|0:0,0:0:0:0:
224,88,61388,2,0,L|236:155|236:155|270:214|270:214|313:266|313:266|352:369|352:369,1,313.6,10|2,3:3|3:3,0:0:0:0:
224,340,61928,6,0,B|187:283|187:283|208:218|208:218|196:151|196:151|224:45|224:45,1,313.6,2|0,3:3|0:0,0:0:0:0:
360,172,62334,2,0,L|424:315|424:315,1,156.8,2|8,3:3|3:3,0:0:0:0:
88,296,62739,2,0,L|104:190|104:190|99:83|99:83|99:190|99:190|88:339|88:339,1,470.4,2|0,3:3|0:0,0:0:0:0:
116,44,63279,5,2,3:3:0:0:
180,20,63415,1,2,3:3:0:0:
316,84,63550,1,10,3:3:0:0:
380,60,63685,1,0,0:0:0:0:
404,0,63820,1,2,3:3:0:0:
204,256,64090,6,0,L|184:101|184:101,1,156.8,2|0,2:3|2:3,0:0:0:0:
204,256,64361,1,0,0:0:0:0:
340,320,64496,2,0,L|404:177|404:177,1,156.8,2|8,2:3|2:3,0:0:0:0:
68,60,64901,2,0,B|45:150|45:150|15:238|15:238|12:331|12:331|-10:241|-10:241|11:151|11:151|52:68|52:68|60:160|60:160|128:276|128:276,1,784,2|0,3:3|0:0,0:0:0:0:
328,348,65712,6,0,L|392:205|392:205,1,156.8,10|0,3:3|0:0,0:0:0:0:
328,348,65982,1,2,3:3:0:0:
200,220,66252,6,0,B|212:287|212:287|227:353|227:353|250:289|250:289|280:183|280:183,1,313.6,2|0,3:3|0:0,0:0:0:0:
144,72,66658,2,0,L|80:215|80:215,1,156.8,2|8,3:3|3:3,0:0:0:0:
416,324,67063,2,0,L|425:217|425:217|414:110|414:110|423:3|423:3|416:152|416:152,1,470.4,2|0,3:3|0:0,0:0:0:0:
388,72,67604,5,2,3:3:0:0:
324,48,67739,1,0,0:0:0:0:
188,112,67874,2,0,L|124:255|124:255,1,156.8,10|0,3:3|0:0,0:0:0:0:
188,112,68144,1,2,3:3:0:0:
388,240,68415,6,0,L|408:85|408:85,1,156.8,2|0,2:3|2:3,0:0:0:0:
388,240,68685,1,0,0:0:0:0:
252,304,68820,1,2,2:3:0:0:
228,244,68955,1,8,2:3:0:0:
252,184,69090,1,0,0:0:0:0:
316,160,69225,1,2,3:3:0:0:
116,288,69496,6,0,L|84:134|84:134,1,156.8,2|0,3:2|3:3,0:0:0:0:
116,288,69766,2,0,L|84:134|84:134,1,156.8,0|2,3:3|3:2,0:0:0:0:
296,164,70036,6,0,L|360:307|360:307,1,156.8,10|0,3:3|0:0,0:0:0:0:
296,164,70307,1,2,3:3:0:0:
168,36,70577,6,0,B|154:103|154:103|179:166|179:166|191:233|191:233|248:327|248:327,1,313.6,2|0,3:3|0:0,0:0:0:0:
384,184,70982,2,0,L|386:341|386:341,1,156.8,2|8,3:3|3:3,0:0:0:0:
48,376,71388,2,0,L|43:269|43:269|63:164|63:164|64:57|64:57|48:205|48:205,1,470.4,2|0,3:3|0:0,0:0:0:0:
68,244,71928,6,0,L|48:89|48:89,1,156.8,2|2,3:3|3:3,0:0:0:0:
184,120,72198,2,0,L|248:263|248:263,1,156.8,10|0,3:3|0:0,0:0:0:0:
184,120,72469,1,2,3:3:0:0:
384,248,72739,5,2,2:3:0:0:
360,188,72874,1,0,2:3:0:0:
296,164,73009,1,0,0:0:0:0:
160,100,73144,2,0,L|96:243|96:243,1,156.8,2|8,2:3|2:3,0:0:0:0:
432,352,73550,2,0,B|450:261|450:261|476:172|476:172|511:86|511:86|489:176|489:176|479:268|479:268|449:356|449:356|439:264|439:264|372:148|372:148,1,784,2|0,3:3|0:0,0:0:0:0:
172,192,74361,6,0,L|108:335|108:335,1,156.8,10|0,3:3|0:0,0:0:0:0:
172,192,74631,1,2,3:3:0:0:
300,320,74901,6,0,B|299:252|299:252|283:186|283:186|255:124|255:124|220:20|220:20,1,313.6,2|0,3:3|0:0,0:0:0:0:
84,172,75307,2,0,L|148:315|148:315,1,156.8,2|8,3:3|3:3,0:0:0:0:
484,296,75712,2,0,L|495:189|495:189|477:83|477:83|485:190|485:190|484:339|484:339,1,470.4,2|0,3:3|0:0,0:0:0:0:
464,164,76252,6,0,L|484:319|484:319,1,156.8,2|0,3:3|0:0,0:0:0:0:
348,40,76523,2,0,L|284:183|284:183,1,156.8,10|0,3:3|0:0,0:0:0:0:
348,40,76793,1,2,3:3:0:0:
148,168,77063,5,2,2:3:0:0:
84,192,77198,1,0,2:3:0:0:
60,252,77334,1,0,0:0:0:0:
196,316,77469,2,0,L|260:173|260:173,1,156.8,2|8,2:3|2:3,0:0:0:0:
124,248,77739,2,0,L|60:105|60:105,1,156.8,0|2,0:0|3:3,0:0:0:0:
396,372,78144,6,0,B|432:271|432:271|455:166|455:166|442:60|442:60|396:202|396:202,1,470.4,4|2,3:2|3:1,0:0:0:0:
260,292,78685,2,0,B|218:345|218:345|192:282|192:282|207:216|207:216|180:110|180:110,1,313.6,10|2,3:2|3:2,0:0:0:0:
244,144,79090,6,0,L|293:205|293:205|296:283|296:283|333:352|333:352|372:284|372:284|363:217|363:217|316:167|316:167|303:100|303:100|244:7|244:7,2,313.6,2|2|2,3:1|3:1|3:1,0:0:0:0:
108,208,79766,1,10,3:2:0:0:
84,148,79901,1,2,3:2:0:0:
108,88,80036,1,2,3:2:0:0:
172,64,80171,1,2,3:3:0:0:
364,256,80577,6,0,L|366:99|366:99,1,156.8,2|2,3:3|3:2,0:0:0:0:
232,128,80847,2,0,L|168:271|168:271,1,156.8,8|0,3:2|0:0,0:0:0:0:
232,128,81117,1,2,3:2:0:0:
360,256,81388,5,2,3:2:0:0:
376,216,81478,1,0,0:0:0:0:
360,176,81568,1,0,0:0:0:0:
320,160,81658,1,0,0:0:0:0:
256,224,81793,2,0,L|254:381|254:381,1,156.8,2|10,3:2|3:3,0:0:0:0:
452,96,82063,2,0,L|454:253|454:253,1,156.8,2|2,3:1|3:2,0:0:0:0:
256,288,82469,6,0,B|231:184|231:184|171:95|171:95|146:199|146:199|132:347|132:347,1,470.4,2|2,3:3|3:1,0:0:0:0:
268,232,83009,2,0,B|272:300|272:300|288:366|288:366|294:298|294:298|268:191|268:191,1,313.6,10|2,3:2|3:2,0:0:0:0:
204,64,83415,6,0,L|164:131|164:131|146:207|146:207|107:275|107:275|76:347|76:347|119:294|119:294|150:233|150:233|178:171|178:171|204:64|204:64,2,313.6,2|2|2,3:1|3:1|3:1,0:0:0:0:
340,128,84090,1,8,3:2:0:0:
364,188,84225,1,2,3:2:0:0:
340,248,84361,1,2,3:2:0:0:
276,272,84496,1,2,3:3:0:0:
84,80,84901,6,0,L|82:237|82:237,1,156.8,2|2,3:3|3:1,0:0:0:0:
216,208,85171,2,0,L|280:351|280:351,1,156.8,10|2,3:2|3:1,0:0:0:0:
216,208,85442,1,2,3:1:0:0:
88,336,85712,5,2,3:2:0:0:
60,320,85779,1,0,0:0:0:0:
40,296,85847,1,2,3:2:0:0:
32,264,85915,1,0,0:0:0:0:
40,232,85982,1,0,0:0:0:0:
60,208,86050,1,0,0:0:0:0:
88,192,86117,1,0,0:0:0:0:
288,256,86252,2,0,L|352:113|352:113,1,156.8,10|2,3:3|3:2,0:0:0:0:
224,188,86658,1,2,3:2:0:0:
424,316,86793,6,0,B|441:210|441:210|444:103|444:103|412:1|412:1|368:143|368:143,1,470.4,4|2,3:2|3:1,0:0:0:0:
232,108,87334,2,0,L|168:251|168:251,1,156.8,10|2,3:2|3:2,0:0:0:0:
296,232,87739,2,0,B|356:321|356:321|379:216|379:216|409:113|409:113|420:262|420:262,1,470.4,2|0,3:2|0:0,0:0:0:0:
220,240,88415,2,0,L|217:308|217:308|201:374|201:374|206:306|206:306|216:197|216:197,1,313.6,10|2,3:1|3:2,0:0:0:0:
88,368,88955,6,0,B|100:262|100:262|131:160|131:160|145:54|145:54|212:187|212:187,1,470.4,2|2,3:1|3:1,0:0:0:0:
348,184,89496,1,8,3:2:0:0:
476,312,89766,2,0,L|430:215|430:215|392:115|392:115|351:16|351:16|284:149|284:149,1,470.4,2|2,3:1|3:1,0:0:0:0:
348,240,90307,2,0,L|284:383|284:383,1,156.8,0|0,0:0|0:0,0:0:0:0:
148,300,90577,2,0,L|136:367|136:367|155:302|155:302|126:240|126:240|144:132|144:132,1,313.6,10|2,3:1|3:2,0:0:0:0:
208,170,90982,1,2,3:2:0:0:
344,232,91117,6,0,B|352:300|352:300|328:363|328:363|292:305|292:305|264:199|264:199,1,313.6,2|2,3:1|3:2,0:0:0:0:
200,146,91523,1,2,3:1:0:0:
336,208,91658,2,0,L|332:276|332:276|347:342|347:342|333:276|333:276|340:166|340:166,1,313.6,10|2,3:2|3:1,0:0:0:0:
212,336,92198,2,0,B|213:263|213:263|240:195|240:195|233:122|233:122|249:51|249:51|260:123|260:123|307:179|307:179|338:245|338:245|376:354|376:354,1,627.2,2|10,3:2|3:1,0:0:0:0:
176,48,93009,1,2,3:2:0:0:
48,176,93279,6,0,L|69:241|69:241|120:285|120:285|143:349|143:349|176:244|176:244,1,313.6,2|0,3:1|0:0,0:0:0:0:
312,236,93685,2,0,L|314:79|314:79,1,156.8,2|8,3:1|3:2,0:0:0:0:
112,300,94090,2,0,B|84:197|84:197|84:90|84:90|105:195|105:195|168:330|168:330,1,470.4,2|2,3:1|3:1,0:0:0:0:
232,154,94631,1,0,0:0:0:0:
432,280,94901,2,0,L|433:173|433:173|452:67|452:67|421:170|421:170|438:318|438:318,1,470.4,10|0,3:1|0:0,0:0:0:0:
300,24,95442,6,0,B|277:129|277:129|279:236|279:236|303:340|303:340|356:201|356:201,1,470.4,2|2,3:1|3:1,0:0:0:0:
220,232,95982,2,0,L|156:375|156:375,1,156.8,10|2,3:2|3:2,0:0:0:0:
284,364,96388,2,0,B|287:257|287:257|292:150|292:150|274:44|274:44|228:186|228:186,1,470.4,2|2,3:2|3:2,0:0:0:0:
28,92,97063,2,0,L|43:158|43:158|97:199|97:199|106:266|106:266|156:364|156:364,1,313.6,10|2,3:2|3:2,0:0:0:0:
28,216,97604,6,0,L|61:318|61:318|131:237|131:237|141:130|141:130|220:4|220:4,1,470.4,10|2,3:1|3:1,0:0:0:0:
356,144,98144,1,8,3:2:0:0:
228,272,98415,2,0,B|202:376|202:376|218:270|218:270|218:163|218:163|284:30|284:30,1,470.4,2|2,3:1|3:1,0:0:0:0:
348,192,98955,2,0,L|284:335|284:335,1,156.8,0|0,0:0|0:0,0:0:0:0:
420,252,99225,2,0,L|428:320|428:320|412:386|412:386|425:319|425:319|424:209|424:209,1,313.6,10|2,3:1|3:2,0:0:0:0:
224,380,99766,6,0,L|212:313|212:313|188:250|188:250|157:190|157:190|96:99|96:99,1,313.6,2|2,3:1|3:2,0:0:0:0:
160,374,100171,1,2,3:1:0:0:
296,308,100307,1,10,3:2:0:0:
424,180,100577,2,0,B|400:284|400:284|411:177|411:177|339:97|339:97|300:241|300:241,1,470.4,2|2,3:1|3:1,0:0:0:0:
236,58,101117,1,0,0:0:0:0:
436,312,101388,2,0,L|455:377|455:377|438:311|438:311|443:243|443:243|440:133|440:133,1,313.6,10|0,3:1|0:0,0:0:0:0:
240,312,101928,6,0,B|257:378|257:378|270:311|270:311|261:244|261:244|320:151|320:151,1,313.6,2|2,3:1|3:2,0:0:0:0:
384,226,102334,1,2,3:1:0:0:
248,160,102469,2,0,L|235:227|235:227|175:258|175:258|174:326|174:326|120:230|120:230,1,313.6,10|2,3:2|3:1,0:0:0:0:
248,284,103009,6,0,B|273:347|273:347|283:280|283:280|299:214|299:214|328:108|328:108,1,313.6,0|2,2:3|3:2,0:0:0:0:
264,198,103415,1,0,2:3:0:0:
128,132,103550,2,0,L|120:210|120:210|128:288|128:288,2,78.4,10|0|0,3:1|0:0|0:0,0:0:0:0:
264,68,103820,2,0,L|272:146|272:146|264:224|264:224,2,78.4,2|0|0,2:2|0:0|2:3,0:0:0:0:
64,324,104090,6,0,B|40:220|40:220|47:113|47:113|75:10|75:10|120:152|120:152,1,470.4,2|2,3:3|3:1,0:0:0:0:
320,244,104631,2,0,B|338:310|338:310|374:368|374:368|399:305|399:305|400:195|400:195,1,313.6,10|2,3:2|3:1,0:0:0:0:
264,96,105036,6,0,L|246:162|246:162|194:205|194:205|177:271|177:271|136:373|136:373,1,313.6,2|2,3:3|3:1,0:0:0:0:
200,28,105442,2,0,L|136:171|136:171,1,156.8,2|0,3:3|0:0,0:0:0:0:
336,152,105712,2,0,L|357:217|357:217|378:281|378:281|427:328|427:328|464:225|464:225,1,313.6,10|2,3:1|3:2,0:0:0:0:
264,276,106252,5,2,3:1:0:0:
232,268,106320,1,0,0:0:0:0:
208,248,106388,1,0,0:0:0:0:
192,224,106455,1,0,0:0:0:0:
184,192,106523,2,0,L|248:335|248:335,1,156.8,2|2,3:2|3:1,0:0:0:0:
448,128,106793,2,0,L|468:283|468:283,1,156.8,10|0,3:2|0:0,0:0:0:0:
448,128,107063,1,2,3:1:0:0:
312,256,107198,6,0,B|280:316|280:316|288:383|288:383|290:315|290:315|312:208|312:208,1,313.6,2|2,3:3|3:1,0:0:0:0:
376,88,107604,2,0,L|312:231|312:231,1,156.8,2|0,3:3|0:0,0:0:0:0:
112,20,107874,2,0,L|48:163|48:163,1,156.8,10|0,3:1|0:0,0:0:0:0:
44,144,108279,1,0,0:0:0:0:
244,208,108415,6,0,B|279:309|279:309|328:214|328:214|336:107|336:107|368:252|368:252,1,470.4,2|2,3:3|3:1,0:0:0:0:
168,264,108955,2,0,B|159:331|159:331|135:267|135:267|121:201|121:201|168:102|168:102,1,313.6,10|2,3:2|3:1,0:0:0:0:
304,96,109361,6,0,L|332:158|332:158|353:222|353:222|403:268|403:268|432:374|432:374,1,313.6,2|2,3:3|3:1,0:0:0:0:
408,32,109766,1,2,3:3:0:0:
344,8,109901,1,0,0:0:0:0:
144,72,110036,2,0,L|122:136|122:136|81:190|81:190|80:258|80:258|16:347|16:347,1,313.6,10|2,3:1|3:2,0:0:0:0:
216,324,110577,6,0,L|224:246|224:246|216:168|216:168|224:90|224:90|216:12|216:12,4,78.4,2|0|0|0|2,3:1|0:0|0:0|0:0|3:2,0:0:0:0:
152,322,110982,1,2,3:1:0:0:
352,256,111117,1,8,3:2:0:0:
384,236,111185,1,0,0:0:0:0:
396,204,111252,1,0,0:0:0:0:
384,172,111320,1,0,0:0:0:0:
352,152,111388,1,2,3:2:0:0:
216,88,111523,6,0,L|202:155|202:155|158:206|158:206|121:263|121:263|88:368|88:368,1,313.6,2|2,3:3|3:1,0:0:0:0:
112,24,111928,1,2,3:3:0:0:
176,0,112063,1,0,0:0:0:0:
376,64,112198,2,0,L|440:207|440:207,1,156.8,10|2,3:1|3:3,0:0:0:0:
376,64,112469,1,2,3:2:0:0:
40,320,112739,6,0,B|9:381|9:381|3:313|3:313|16:246|16:246|40:139|40:139,1,313.6,2|2,3:3|3:2,0:0:0:0:
104,214,113144,1,2,3:1:0:0:
304,148,113279,2,0,L|284:213|284:213|235:260|235:260|218:326|218:326|176:225|176:225,1,313.6,10|2,3:2|3:1,0:0:0:0:
312,208,113685,6,0,B|315:276|315:276|338:340|338:340|346:273|346:273|312:169|312:169,1,313.6,2|2,3:3|3:1,0:0:0:0:
248,168,114090,2,0,L|246:325|246:325,1,156.8,2|0,3:3|0:0,0:0:0:0:
448,232,114361,2,0,L|432:298|432:298|448:364|448:364|462:297|462:297|452:188|452:188,1,313.6,10|0,3:1|0:0,0:0:0:0:
252,360,114901,6,0,L|264:293|264:293|288:230|288:230|345:193|345:193|380:89|380:89,1,313.6,2|2,3:1|3:2,0:0:0:0:
316,354,115307,1,2,3:1:0:0:
116,288,115442,2,0,L|96:133|96:133,1,156.8,10|0,3:2|0:0,0:0:0:0:
116,288,115712,1,2,3:1:0:0:
252,160,115847,6,0,L|212:215|212:215|210:283|210:283|153:320|153:320|124:214|124:214,1,313.6,2|2,3:3|3:1,0:0:0:0:
148,96,116252,1,2,3:3:0:0:
212,72,116388,1,0,0:0:0:0:
348,128,116523,1,10,3:1:0:0:
412,104,116658,1,0,0:0:0:0:
436,44,116793,1,0,0:0:0:0:
100,300,117063,6,0,L|87:367|87:367|109:303|109:303|86:239|86:239|96:130|96:130,1,313.6,2|0,3:3|0:0,0:0:0:0:
160,170,117469,1,2,3:1:0:0:
360,232,117604,2,0,B|371:299|371:299|392:364|392:364|418:301|418:301|440:193|440:193,1,313.6,10|2,3:2|3:1,0:0:0:0:
304,84,118009,2,0,L|276:146|276:146|265:213|265:213|219:263|219:263|176:364|176:364,1,313.6,2|2,3:3|3:1,0:0:0:0:
240,144,118415,2,0,L|242:301|242:301,1,156.8,2|2,3:3|3:2,0:0:0:0:
44,208,118685,2,0,L|47:315|47:315|54:208|54:208|47:101|47:101|38:250|38:250,1,470.4,10|0,3:1|0:0,0:0:0:0:
104,18,119225,5,2,3:1:0:0:
240,84,119361,2,0,L|205:142|205:142|171:201|171:201|163:268|163:268|112:365|112:365,1,313.6,2|2,3:3|3:1,0:0:0:0:
312,152,119766,2,0,L|314:309|314:309,1,156.8,8|2,3:2|3:3,0:0:0:0:
248,280,120036,1,2,3:2:0:0:
280,281,120104,1,0,0:0:0:0:
312,282,120171,1,0,0:0:0:0:
448,348,120307,5,2,3:3:0:0:
432,288,120442,1,2,3:1:0:0:
384,244,120577,1,2,3:2:0:0:
356,232,120644,1,0,0:0:0:0:
324,228,120712,1,0,0:0:0:0:
124,164,120847,2,0,L|116:242|116:242|124:320|124:320,2,78.4,10|0|0,3:1|0:0|0:0,0:0:0:0:
260,100,121117,2,0,L|268:178|268:178|260:256|260:256,2,78.4,2|0|0,3:2|0:0|0:0,0:0:0:0:
48,36,121388,6,0,B|5:140|5:140|8:252|8:252|0:364|0:364|-6:252|-6:252|22:143|22:143|61:37|61:37|93:145|93:145|164:282|164:282,1,940.8,4|0,3:2|0:0,0:0:0:0:
364,184,122469,1,2,3:2:0:0:
492,180,122739,2,0,L|494:248|494:248|508:315|508:315|513:383|513:383|496:275|496:275,1,313.6,2|2,3:2|3:2,0:0:0:0:
296,372,123279,6,0,B|278:298|278:298|250:227|250:227|228:155|228:155|217:80|217:80|227:5|227:5|216:80|216:80|264:139|264:139|290:210|290:210|303:285|303:285|339:352|339:352|349:277|349:277|360:202|360:202|379:129|379:129|363:55|363:55|328:122|328:122|296:235|296:235,1,1254.4,2|0,3:2|0:0,0:0:0:0:
96,164,124631,2,0,B|114:229|114:229|125:296|125:296|136:363|136:363|176:261|176:261,1,313.6,2|2,3:2|3:2,0:0:0:0:
240,312,125036,2,0,L|267:374|267:374|297:313|297:313|327:252|327:252|368:150|368:150,1,313.6,2|2,3:2|3:2,0:0:0:0:
168,52,125577,6,0,B|122:149|122:149|77:246|77:246|57:351|57:351|44:203|44:203,1,470.4,2|0,3:2|0:0,0:0:0:0:
244,300,126252,2,0,L|255:367|255:367|236:302|236:302|230:234|230:234|248:126|248:126,1,313.6,2|2,3:2|3:2,0:0:0:0:
448,364,126793,2,0,B|437:306|437:306|420:250|420:250|440:195|440:195|415:142|415:142|380:95|380:95|379:36|379:36|329:6|329:6|324:65|324:65|359:166|359:166|392:268|392:268|419:372|419:372|448:226|448:226,2,470.4,2|2|2,3:2|3:2|3:2,0:0:0:0:
332,320,127874,5,0,0:0:0:0:
284,204,128144,1,2,3:3:0:0:
332,88,128415,1,0,0:0:0:0:
448,44,128685,1,0,0:0:0:0:
248,300,128955,2,0,L|239:367|239:367|212:305|212:305|173:249|173:249|120:153|120:153,1,313.6,2|2,3:2|3:2,0:0:0:0:
56,232,129361,2,0,L|98:298|98:298|118:374|118:374|133:297|133:297|184:237|184:237|150:178|150:178|118:118|118:118|104:52|104:52|56:151|56:151,2,313.6,2|2|2,3:2|3:2|3:2,0:0:0:0:
256,168,130036,6,0,B|259:256|259:256|276:342|276:342|254:257|254:257|228:130|228:130,1,392,2|0,1:2|0:0,0:0:0:0:
368,104,130511,2,0,L|382:171|382:171|405:235|405:235|451:285|451:285|496:385|496:385,1,313.6,2|2,1:2|3:2,0:0:0:0:
296,356,131051,2,0,B|270:252|270:252|222:156|222:156|220:49|220:49|240:197|240:197,1,470.4,2|2,1:2|3:2,0:0:0:0:
376,148,131592,2,0,L|378:216|378:216|372:284|372:284|384:351|384:351|380:241|380:241,1,313.6,0|2,1:3|3:2,0:0:0:0:
180,276,132132,6,0,B|188:383|188:383|206:277|206:277|228:172|228:172|304:44|304:44,1,470.4,0|0,1:3|0:0,0:0:0:0:
168,92,132672,2,0,L|139:154|139:154|113:217|113:217|77:275|77:275|40:378|40:378,1,313.6,0|2,1:3|3:2,0:0:0:0:
240,344,133213,2,0,B|282:291|282:291|298:225|298:225|304:157|304:157|320:48|320:48,1,313.6,2|2,1:2|3:2,0:0:0:0:
256,324,133618,2,0,L|254:167|254:167,1,156.8,2|0,3:2|1:3,0:0:0:0:
388,196,133888,1,2,3:2:0:0:
452,132,134023,1,0,0:0:0:0:
453,100,134091,1,0,0:0:0:0:
454,68,134159,1,2,3:2:0:0:
256,196,134294,5,0,1:3:0:0:
232,136,134429,1,0,0:0:0:0:
256,76,134564,1,0,1:3:0:0:
320,52,134699,1,0,0:0:0:0:
184,116,134834,2,0,L|170:183|170:183|145:246|145:246|82:271|82:271|56:378|56:378,1,313.6,0|0,1:3|1:3,0:0:0:0:
256,368,135375,5,2,1:2:0:0:
280,308,135510,1,0,0:0:0:0:
256,248,135645,1,2,1:2:0:0:
192,224,135780,1,2,3:2:0:0:
328,160,135915,1,0,1:3:0:0:
392,136,136050,1,2,3:2:0:0:
416,76,136186,1,2,1:2:0:0:
80,332,136456,5,0,1:3:0:0:
96,272,136591,1,0,1:3:0:0:
144,228,136726,1,0,1:3:0:0:
204,212,136861,1,0,1:3:0:0:
404,148,136996,2,0,L|340:291|340:291,1,156.8,0|0,1:3|1:3,0:0:0:0:
140,80,137267,1,0,1:3:0:0:
172,79,137334,1,0,1:3:0:0:
204,78,137402,1,0,1:3:0:0:
404,12,137537,6,0,L|406:169|406:169,1,156.8,8|10,3:1|3:1,0:0:0:0:
208,332,137942,2,0,L|200:254|200:254|208:176|208:176,2,78.4,8|0|10,3:1|0:0|3:1,0:0:0:0:
272,330,138213,1,8,3:1:0:0:
408,264,138348,1,4,3:1:0:0:
72,8,138618,6,0,B|53:113|53:113|50:220|50:220|81:323|81:323|128:182|128:182,1,470.4,6|0,3:3|0:0,0:0:0:0:
264,216,139159,2,0,L|268:284|268:284|257:351|257:351|256:283|256:283|268:174|268:174,1,313.6,10|2,3:3|3:3,0:0:0:0:
396,344,139699,6,0,B|405:277|405:277|392:210|392:210|372:145|372:145|316:50|316:50,1,313.6,2|0,3:3|0:0,0:0:0:0:
180,196,140104,2,0,L|116:339|116:339,1,156.8,2|8,3:3|3:3,0:0:0:0:
452,320,140510,2,0,L|446:213|446:213|434:107|434:107|446:1|446:1|452:150|452:150,1,470.4,2|0,3:3|0:0,0:0:0:0:
388,126,141050,6,0,L|452:269|452:269,1,156.8,2|2,3:3|3:3,0:0:0:0:
316,64,141321,2,0,L|252:207|252:207,1,156.8,10|0,3:3|0:0,0:0:0:0:
316,64,141591,1,2,3:3:0:0:
116,320,141861,5,2,2:3:0:0:
140,260,141996,1,0,2:3:0:0:
204,236,142132,1,0,0:0:0:0:
340,172,142267,2,0,L|404:315|404:315,1,156.8,2|8,2:3|2:3,0:0:0:0:
68,296,142672,2,0,B|23:377|23:377|7:286|7:286|-4:194|-4:194|-2:101|-2:101|19:11|19:11|45:100|45:100|62:191|62:191|128:308|128:308,1,784,2|0,3:3|0:0,0:0:0:0:
328,136,143483,5,10,3:3:0:0:
392,112,143618,1,0,0:0:0:0:
416,52,143753,1,2,3:3:0:0:
288,308,144023,6,0,B|260:370|260:370|251:303|251:303|255:235|255:235|288:130|288:130,1,313.6,2|0,3:3|0:0,0:0:0:0:
424,140,144429,2,0,L|488:283|488:283,1,156.8,2|8,3:3|3:3,0:0:0:0:
152,264,144834,2,0,L|167:370|167:370|154:264|154:264|145:157|145:157|152:8|152:8,1,470.4,2|0,3:3|0:0,0:0:0:0:
216,74,145375,6,0,L|152:217|152:217,1,156.8,2|0,3:3|0:0,0:0:0:0:
268,4,145645,2,0,L|332:147|332:147,1,156.8,10|0,3:3|0:0,0:0:0:0:
268,4,145915,1,2,3:3:0:0:
68,260,146186,6,0,L|48:105|48:105,1,156.8,2|0,2:3|2:3,0:0:0:0:
68,260,146456,1,0,0:0:0:0:
204,196,146591,2,0,L|268:339|268:339,1,156.8,2|8,2:3|2:3,0:0:0:0:
204,128,146861,2,0,L|140:271|140:271,1,156.8,0|2,0:0|3:3,0:0:0:0:
344,380,147267,6,0,L|376:226|376:226,1,156.8,2|0,3:2|3:3,0:0:0:0:
344,380,147537,2,0,L|376:226|376:226,1,156.8,0|2,3:3|3:2,0:0:0:0:
164,256,147807,5,10,0:0:0:0:
100,232,147942,1,0,0:0:0:0:
76,172,148077,1,2,0:0:0:0:
204,300,148348,6,0,B|217:367|217:367|255:310|255:310|264:243|264:243|284:135|284:135,1,313.6,2|0,0:0|0:0,0:0:0:0:
148,152,148753,2,0,L|146:309|146:309,1,156.8,2|8,0:0|3:3,0:0:0:0:
484,216,149159,2,0,L|488:323|488:323|470:217|470:217|481:110|481:110|484:259|484:259,1,470.4,2|0,0:0|0:0,0:0:0:0:
420,22,149699,6,0,L|484:165|484:165,1,156.8,2|2,0:0|3:3,0:0:0:0:
348,88,149969,2,0,L|284:231|284:231,1,156.8,10|0,0:0|0:0,0:0:0:0:
348,88,150240,2,0,L|284:231|284:231,1,156.8,2|0,0:0|0:0,0:0:0:0:
148,156,150510,5,2,2:0:0:0:
172,216,150645,1,0,2:3:0:0:
236,240,150780,1,0,0:0:0:0:
100,304,150915,2,0,L|36:161|36:161,1,156.8,2|8,2:0|2:3,0:0:0:0:
372,44,151321,2,0,B|414:127|414:127|442:215|442:215|433:307|433:307|426:214|426:214|431:121|431:121|408:31|408:31|377:118|377:118|312:236|312:236,1,784,2|0,0:0|0:0,0:0:0:0:
112,332,152132,5,10,0:0:0:0:
48,308,152267,1,0,0:0:0:0:
24,248,152402,1,2,0:0:0:0:
152,120,152672,6,0,L|179:182|179:182|213:241|213:241|227:307|227:307|280:211|280:211,1,313.6,2|0,0:0|0:0,0:0:0:0:
416,180,153077,2,0,L|418:337|418:337,1,156.8,2|8,0:0|3:3,0:0:0:0:
80,244,153483,2,0,L|69:351|69:351|72:244|72:244|71:137|71:137|80:286|80:286,1,470.4,2|0,0:0|0:0,0:0:0:0:
144,50,154023,6,0,L|80:193|80:193,1,156.8,2|0,0:0|0:0,0:0:0:0:
216,116,154294,2,0,L|280:259|280:259,1,156.8,10|0,0:0|0:0,0:0:0:0:
216,116,154564,1,2,0:0:0:0:
416,372,154834,5,2,2:3:0:0:
392,312,154969,1,0,2:3:0:0:
328,288,155104,1,0,0:0:0:0:
192,224,155240,2,0,L|256:367|256:367,1,156.8,2|8,2:3|2:3,0:0:0:0:
392,156,155510,2,0,L|456:299|456:299,1,156.8,0|2,0:0|3:3,0:0:0:0:
120,24,155915,6,0,B|73:80|73:80|53:150|53:150|37:221|37:221|4:287|4:287|7:360|7:360|-18:291|-18:291|-6:219|-6:219|12:105|12:105,1,627.2,4|8,3:2|3:2,0:0:0:0:
140,208,156726,1,0,0:0:0:0:
340,336,156996,2,0,L|341:268|341:268|359:202|359:202|332:140|332:140|344:31|344:31,1,313.6,2|2,3:2|3:2,0:0:0:0:
216,204,157537,1,10,3:2:0:0:
416,332,157807,6,0,B|442:263|442:263|423:192|423:192|435:120|435:120|435:47|435:47|414:117|414:117|366:172|366:172|353:244|353:244|308:350|308:350,1,627.2,2|0,3:2|0:0,0:0:0:0:
180,280,158618,2,0,L|186:348|186:348|173:281|173:281|182:214|182:214|176:104|176:104,1,313.6,8|0,3:2|0:0,0:0:0:0:
376,24,159159,2,0,B|413:81|413:81|421:149|421:149|446:212|446:212|456:321|456:321,1,313.6,2|2,3:2|3:2,0:0:0:0:
392,132,159564,1,2,3:2:0:0:
368,192,159699,1,8,3:2:0:0:
392,252,159834,1,2,3:2:0:0:
192,380,160104,6,0,B|188:273|188:273|218:170|218:170|272:77|272:77|316:219|316:219,1,470.4,2|0,3:2|0:0,0:0:0:0:
188,132,160780,2,0,L|153:190|153:190|140:257|140:257|116:321|116:321|60:227|60:227,1,313.6,10|2,3:2|3:2,0:0:0:0:
260,256,161321,2,0,B|312:350|312:350|324:243|324:243|376:150|376:150|384:1|384:1,1,470.4,2|2,3:2|3:2,0:0:0:0:
384,72,161861,1,8,3:2:0:0:
184,328,162132,2,0,B|142:229|142:229|103:129|103:129|62:30|62:30|60:179|60:179,1,470.4,2|0,3:2|0:0,0:0:0:0:
76,148,162672,5,0,0:0:0:0:
124,104,162807,1,0,0:0:0:0:
184,88,162942,2,0,L|216:160|216:160|262:224|262:224|266:302|266:302|312:366|312:366|268:314|268:314|263:246|263:246|244:181|244:181|184:89|184:89,2,313.6,8|0|2,3:2|0:0|3:2,0:0:0:0:
388,216,163753,1,2,3:2:0:0:
184,344,164023,2,0,L|120:201|120:201,1,156.8,8|2,3:2|3:3,0:0:0:0:
116,212,164429,1,2,3:3:0:0:
316,276,164564,6,0,L|315:344|315:344|303:277|303:277|316:210|316:210|320:100|320:100,1,313.6,2|0,1:2|0:0,0:0:0:0:
186,212,164969,1,2,3:3:0:0:
184,148,165104,2,0,L|205:213|205:213|253:261|253:261|264:328|264:328|312:229|312:229,1,313.6,2|2,1:2|3:2,0:0:0:0:
112,272,165645,2,0,L|115:340|115:340|110:272|110:272|91:207|91:207|108:99|108:99,1,313.6,2|0,1:2|0:0,0:0:0:0:
244,80,166050,2,0,L|308:223|308:223,1,156.8,2|0,3:3|1:3,0:0:0:0:
180,72,166456,1,2,3:3:0:0:
380,200,166726,6,0,B|410:261|410:261|432:325|432:325|431:257|431:257|460:151|460:151,1,313.6,2|0,1:3|0:0,0:0:0:0:
324,54,167132,1,2,3:3:0:0:
260,52,167267,2,0,L|272:119|272:119|311:174|311:174|326:240|326:240|388:331|388:331,1,313.6,0|2,1:3|3:2,0:0:0:0:
188,304,167807,2,0,B|144:356|144:356|136:288|136:288|107:227|107:227|108:117|108:117,1,313.6,2|2,1:2|3:2,0:0:0:0:
244,156,168213,2,0,L|308:299|308:299,1,156.8,2|0,3:3|1:3,0:0:0:0:
244,88,168483,2,0,L|180:231|180:231,1,156.8,2|2,3:2|3:3,0:0:0:0:
244,88,168753,1,2,3:2:0:0:
444,216,168888,5,2,1:3:0:0:
468,156,169023,1,0,0:0:0:0:
444,96,169159,1,0,1:3:0:0:
380,72,169294,1,2,3:3:0:0:
244,8,169429,2,0,L|263:73|263:73|299:130|299:130|314:196|314:196|372:289|372:289,1,313.6,0|2,1:3|1:3,0:0:0:0:
172,260,169969,5,2,1:3:0:0:
148,200,170104,1,0,0:0:0:0:
172,140,170240,1,2,1:2:0:0:
236,116,170375,1,2,3:3:0:0:
372,180,170510,2,0,L|392:335|392:335,1,156.8,0|2,1:3|3:2,0:0:0:0:
372,180,170780,1,2,1:3:0:0:
36,308,171050,6,0,L|34:151|34:151,1,156.8,0|0,1:3|1:3,0:0:0:0:
100,180,171321,2,0,L|36:323|36:323,1,156.8,0|0,1:3|1:3,0:0:0:0:
236,112,171591,2,0,L|300:255|300:255,1,156.8,0|0,1:3|1:3,0:0:0:0:
100,44,171861,1,0,1:3:0:0:
88,76,171929,1,0,1:3:0:0:
100,108,171996,1,0,1:3:0:0:
132,128,172064,1,0,1:3:0:0:
484,384,172672,6,0,B|490:277|490:277|461:174|461:174|429:72|429:72|360:204|360:204,1,470.4,4|0,3:1|0:0,0:0:0:0:
160,328,173213,6,0,B|131:267|131:267|124:199|124:199|87:142|87:142|80:32|80:32,1,313.6,6|0,3:3|0:0,0:0:0:0:
216,180,173618,2,0,L|280:323|280:323,1,156.8,2|8,3:3|3:3,0:0:0:0:
216,112,173888,2,0,L|152:255|152:255,1,156.8,0|2,0:0|3:3,0:0:0:0:
352,236,174294,6,0,B|357:304|357:304|402:355|402:355|379:291|379:291|352:185|352:185,1,313.6,2|2,3:3|3:3,0:0:0:0:
216,68,174699,2,0,L|152:211|152:211,1,156.8,2|8,3:3|3:3,0:0:0:0:
488,320,175104,2,0,L|485:213|485:213|471:107|471:107|481:0|481:0|488:149|488:149,1,470.4,2|0,3:3|0:0,0:0:0:0:
460,68,175645,5,2,3:3:0:0:
396,44,175780,1,2,3:3:0:0:
260,108,175915,2,0,L|196:251|196:251,1,156.8,10|2,3:3|3:3,0:0:0:0:
260,108,176186,1,2,3:3:0:0:
60,364,176456,5,2,2:3:0:0:
76,304,176591,1,0,2:3:0:0:
124,260,176726,1,2,3:3:0:0:
184,244,176861,1,2,2:3:0:0:
320,180,176996,2,0,L|256:323|256:323,1,156.8,8|0,2:3|0:0,0:0:0:0:
56,240,177267,2,0,L|54:318|54:318|56:240|56:240|57:162|57:162|56:84|56:84|49:16|49:16|67:82|67:82|61:150|61:150|56:260|56:260,2,313.6,2|0|0,3:3|1:3|1:3,0:0:0:0:
64,208,177875,2,0,L|56:286|56:286,1,78.4,0|0,1:3|1:3,0:0:0:0:
256,304,178077,6,0,B|266:371|266:371|309:318|309:318|327:253|327:253|336:144|336:144,1,313.6,10|2,3:3|3:3,0:0:0:0:
272,218,178483,1,0,0:0:0:0:
136,152,178618,6,0,L|173:209|173:209|210:266|210:266|204:334|204:334|264:242|264:242,1,313.6,2|2,3:3|3:3,0:0:0:0:
266,84,179023,1,2,3:3:0:0:
128,20,179159,2,0,L|64:163|64:163,1,156.8,8|0,3:3|0:0,0:0:0:0:
264,272,179429,2,0,B|292:375|292:375|320:272|320:272|302:166|302:166|264:22|264:22,1,470.4,2|0,3:3|0:0,0:0:0:0:
200,130,179969,6,0,L|264:273|264:273,1,156.8,2|2,3:3|3:3,0:0:0:0:
400,192,180240,2,0,L|336:335|336:335,1,156.8,10|2,3:3|3:3,0:0:0:0:
272,256,180510,2,0,L|336:113|336:113,1,156.8,2|2,3:3|3:3,0:0:0:0:
472,324,180780,6,0,L|492:169|492:169,1,156.8,2|0,2:3|2:3,0:0:0:0:
472,324,181050,1,0,0:0:0:0:
336,196,181186,2,0,L|272:339|272:339,1,156.8,2|8,2:3|2:3,0:0:0:0:
336,128,181456,2,0,L|400:271|400:271,1,156.8,0|2,0:0|3:3,0:0:0:0:
200,380,181861,6,0,L|168:226|168:226,1,156.8,2|0,3:2|3:3,0:0:0:0:
200,380,182132,2,0,L|168:226|168:226,1,156.8,0|2,3:3|3:2,0:0:0:0:
380,256,182402,6,0,B|409:317|409:317|412:385|412:385|447:327|447:327|460:218|460:218,1,313.6,10|2,3:3|3:3,0:0:0:0:
396,170,182807,1,0,0:0:0:0:
260,104,182942,6,0,B|238:168|238:168|224:235|224:235|176:283|176:283|180:173|180:173,1,313.6,2|2,3:3|3:3,0:0:0:0:
316,84,183348,2,0,L|380:227|380:227,1,156.8,2|8,3:3|3:3,0:0:0:0:
44,336,183753,2,0,L|46:229|46:229|43:122|43:122|48:15|48:15|44:164|44:164,1,470.4,2|0,3:3|0:0,0:0:0:0:
72,84,184294,5,2,3:3:0:0:
136,60,184429,1,2,3:3:0:0:
272,124,184564,2,0,L|336:267|336:267,1,156.8,10|2,3:3|3:3,0:0:0:0:
272,124,184834,1,2,3:3:0:0:
472,380,185104,5,2,2:3:0:0:
456,320,185240,1,0,2:3:0:0:
408,276,185375,1,2,3:3:0:0:
348,260,185510,1,2,2:3:0:0:
212,196,185645,2,0,L|276:339|276:339,1,156.8,8|0,2:3|0:0,0:0:0:0:
476,256,185915,2,0,L|473:334|473:334|466:256|466:256|482:179|482:179|476:101|476:101|479:33|479:33|493:99|493:99|476:165|476:165|476:275|476:275,2,313.6,2|0|0,3:3|1:3|1:3,0:0:0:0:
468,224,186523,2,0,L|476:302|476:302,1,78.4,0|0,1:3|1:3,0:0:0:0:
276,320,186726,6,0,B|240:378|240:378|251:311|251:311|231:246|231:246|276:146|276:146,1,313.6,10|2,3:3|3:3,0:0:0:0:
340,214,187132,1,0,0:0:0:0:
204,148,187267,6,0,B|166:204|166:204|149:270|149:270|128:334|128:334|124:224|124:224,1,313.6,2|2,3:3|3:3,0:0:0:0:
188,62,187672,1,2,3:3:0:0:
324,124,187807,2,0,L|260:267|260:267,1,156.8,8|0,3:3|0:0,0:0:0:0:
60,248,188077,2,0,B|59:355|59:355|77:249|77:249|138:161|138:161|184:19|184:19,1,470.4,2|0,3:3|0:0,0:0:0:0:
248,192,188618,6,0,L|250:349|250:349,1,156.8,2|2,3:3|3:3,0:0:0:0:
116,256,188888,2,0,L|180:113|180:113,1,156.8,10|2,3:3|3:3,0:0:0:0:
244,188,189159,2,0,L|180:331|180:331,1,156.8,2|2,3:3|3:3,0:0:0:0:
44,312,189429,6,0,L|42:155|42:155,1,156.8,2|0,2:3|2:3,0:0:0:0:
104,246,189699,1,0,0:0:0:0:
240,180,189834,2,0,L|304:323|304:323,1,156.8,2|8,2:3|2:3,0:0:0:0:
168,112,190104,2,0,L|104:255|104:255,1,156.8,0|2,0:0|3:3,0:0:0:0:
440,364,190510,6,0,B|436:257|436:257|421:151|421:151|360:63|360:63|316:205|316:205,1,470.4,4|2,3:2|3:1,0:0:0:0:
180,308,191050,2,0,L|190:375|190:375|160:314|160:314|177:248|177:248|176:138|176:138,1,313.6,10|2,3:2|3:2,0:0:0:0:
312,116,191456,2,0,L|284:178|284:178|246:234|246:234|225:299|225:299|184:197|184:197,1,313.6,2|2,3:3|3:1,0:0:0:0:
208,52,191861,1,2,3:3:0:0:
272,28,191996,1,2,3:2:0:0:
408,156,192132,2,0,L|428:311|428:311,1,156.8,10|2,3:2|3:2,0:0:0:0:
408,156,192402,2,0,L|428:311|428:311,1,156.8,2|2,3:2|3:2,0:0:0:0:
408,156,192672,1,0,0:0:0:0:
208,284,192942,5,2,3:2:0:0:
176,264,193010,1,0,0:0:0:0:
164,232,193077,1,2,3:2:0:0:
176,200,193145,1,0,0:0:0:0:
208,180,193213,2,0,L|272:323|272:323,1,156.8,10|0,3:2|0:0,0:0:0:0:
208,180,193483,1,2,3:2:0:0:
72,244,193618,6,0,L|94:308|94:308|127:367|127:367|144:301|144:301|200:207|200:207,1,313.6,2|2,3:3|3:2,0:0:0:0:
224,180,194023,1,2,3:3:0:0:
200,120,194159,1,2,3:2:0:0:
136,96,194294,1,8,3:2:0:0:
336,32,194429,2,0,L|400:175|400:175,1,156.8,2|2,3:3|3:2,0:0:0:0:
200,348,194834,6,0,B|182:282|182:282|136:232|136:232|119:166|119:166|120:56|120:56,1,313.6,2|2,3:3|3:1,0:0:0:0:
184,262,195240,1,0,0:0:0:0:
320,324,195375,2,0,L|318:256|318:256|311:188|311:188|328:122|328:122|324:12|324:12,1,313.6,10|2,3:2|3:2,0:0:0:0:
188,132,195780,6,0,L|230:186|230:186|238:253|238:253|260:317|260:317|316:223|316:223,1,313.6,2|2,3:3|3:1,0:0:0:0:
292,68,196186,1,2,3:3:0:0:
228,44,196321,1,2,3:1:0:0:
92,172,196456,2,0,L|72:327|72:327,1,156.8,8|2,3:2|3:2,0:0:0:0:
92,172,196726,2,0,L|72:327|72:327,1,156.8,2|0,3:2|0:0,0:0:0:0:
92,172,196996,1,2,3:2:0:0:
292,300,197267,6,0,L|356:157|356:157,1,156.8,2|2,3:2|3:1,0:0:0:0:
220,232,197537,2,0,B|199:297|199:297|201:365|201:365|205:297|205:297|220:188|220:188,1,313.6,10|2,3:2|3:2,0:0:0:0:
356,192,197942,6,0,L|420:335|420:335,1,156.8,2|2,3:3|3:2,0:0:0:0:
356,192,198213,1,2,3:2:0:0:
220,256,198348,2,0,L|156:113|156:113,1,156.8,2|0,3:3|0:0,0:0:0:0:
356,324,198618,2,0,L|358:167|358:167,1,156.8,10|2,3:2|3:3,0:0:0:0:
232,256,199023,1,2,3:2:0:0:
32,192,199159,6,0,B|28:265|28:265|31:338|31:338|33:265|33:265|41:192|41:192|38:119|38:119|75:56|75:56|76:129|76:129|140:224|140:224,1,627.2,4|10,3:2|3:2,0:0:0:0:
268,16,199969,1,0,0:0:0:0:
468,144,200240,2,0,L|428:205|428:205|400:273|400:273|394:346|394:346|335:303|335:303|325:231|325:231|275:178|275:178|273:105|273:105|212:7|212:7,1,627.2,2|10,3:2|3:2,0:0:0:0:
340,280,201050,2,0,L|376:338|376:338|386:271|386:271|425:215|425:215|468:114|468:114,1,313.6,2|0,3:2|0:0,0:0:0:0:
340,156,201591,5,2,3:2:0:0:
140,152,201861,2,0,B|125:226|125:226|156:295|156:295|152:371|152:371|173:298|173:298|206:230|206:230|240:162|240:162|247:87|247:87|278:18|278:18|330:73|330:73|339:148|339:148|396:198|396:198|390:274|390:274|439:332|439:332|439:256|439:256|466:185|466:185|460:68|460:68,1,1254.4,8|8,3:2|3:2,0:0:0:0:
332,148,203213,1,0,0:0:0:0:
132,276,203483,6,0,B|115:347|115:347|131:276|131:276|133:203|133:203|118:131|118:131|133:59|133:59|165:125|165:125|196:191|196:191|240:297|240:297,1,627.2,2|10,3:2|3:2,0:0:0:0:
112,92,204294,1,0,0:0:0:0:
312,348,204564,2,0,L|295:277|295:277|312:206|312:206|308:133|308:133|299:60|299:60|312:132|312:132|312:205|312:205|319:278|319:278|320:163|320:163,1,627.2,2|8,3:2|3:2,0:0:0:0:
192,88,205375,1,0,0:0:0:0:
392,216,205645,6,0,B|419:284|419:284|425:357|425:357|386:295|386:295|388:222|388:222|367:152|367:152|369:79|369:79|324:21|324:21|284:129|284:129,1,627.2,2|10,3:2|3:2,0:0:0:0:
412,32,206456,1,0,0:0:0:0:
212,160,206726,2,0,L|255:219|255:219|272:290|272:290|309:353|309:353|345:290|345:290|344:217|344:217|376:151|376:151|418:91|418:91|468:195|468:195,1,627.2,2|8,3:2|3:2,0:0:0:0:
404,150,207402,1,0,0:0:0:0:
276,276,207672,1,0,0:0:0:0:
412,212,207807,5,4,3:2:0:0:
256,192,208077,12,0,215915,3:3:0:0:
