osu file format v14

[General]
AudioFilename: audio.mp3
AudioLeadIn: 0
PreviewTime: 137433
Countdown: 1
SampleSet: None
StackLeniency: 0.7
Mode: 0
LetterboxInBreaks: 0
WidescreenStoryboard: 0

[Editor]
DistanceSpacing: 1.4
BeatDivisor: 4
GridSize: 4
TimelineZoom: 1

[Metadata]
Title:Vuelve
TitleUnicode:Vuelve
Artist:Coscu
ArtistUnicode:Coscu
Creator:Netsuzou
Version:Coscu Army
Source:
Tags:Coscu Vuelve CoscuArmy
BeatmapID:1901399
BeatmapSetID:911068

[Difficulty]
HPDrainRate:6
CircleSize:4.2
OverallDifficulty:8
ApproachRate:9.2
SliderMultiplier:1.4
SliderTickRate:1

[Events]
//Background and Video events
0,0,"anime-girl-black-hair-sad-expression-semi-realistic-anime-20035.jpg",0,0
//Break Periods
//Storyboard Layer 0 (Background)
//Storyboard Layer 1 (Fail)
//Storyboard Layer 2 (Pass)
//Storyboard Layer 3 (Foreground)
//Storyboard Sound Samples

[TimingPoints]
6801,759.493670886076,4,1,0,100,1,0
44775,-200,4,1,0,100,0,0
52370,-1000,4,1,0,100,0,0
56168,-100,4,1,0,100,0,0
72497,-66.6666666666667,4,1,0,100,0,0
76674,-500,4,1,0,100,0,0
80471,-66.6666666666667,4,1,0,100,0,0
92244,-45.4545454545455,4,1,0,100,0,0
137244,-666.666666666658,4,1,0,100,0,0
140471,-41.6666666666667,4,1,0,100,0,1
140471,-41.6666666666667,4,1,0,100,0,1
175028,-25,4,1,0,100,0,1
176927,-45.4545454545455,4,1,0,100,0,1
189079,-45.4545454545455,4,1,0,100,0,0
199712,-285.714285714284,4,1,0,100,0,0
211484,-285.714285714284,4,1,0,5,0,0

[HitObjects]
256,191,6801,5,0,0:0:0:0:
351,192,7940,1,0,0:0:0:0:
253,191,8319,2,0,L|172:192,1,70
256,192,9838,5,0,0:0:0:0:
427,191,10978,1,0,0:0:0:0:
302,190,11357,2,0,L|208:189,1,70
256,191,12876,5,0,0:0:0:0:
115,191,14395,2,0,L|115:116,1,70
209,192,15155,2,0,L|209:115,1,70
256,192,15914,1,0,0:0:0:0:
357,191,17433,6,0,L|357:268,1,70
439,191,18193,2,0,L|439:262,1,70
255,192,18763,1,0,0:0:0:0:
255,192,18952,1,0,0:0:0:0:
96,65,20471,5,0,0:0:0:0:
199,182,21990,1,0,0:0:0:0:
108,183,22370,2,0,L|108:227,1,35
188,271,22750,1,0,0:0:0:0:
279,223,22940,1,0,0:0:0:0:
186,49,23130,6,0,L|251:49,1,35
189,144,23509,2,0,L|246:144,1,35
319,63,24079,1,0,0:0:0:0:
320,148,24269,1,0,0:0:0:0:
255,191,25028,5,0,0:0:0:0:
146,118,25978,2,0,P|132:169|146:227,1,105
217,223,26737,2,0,P|271:232|326:220,1,105,0|0,0:3|0:0,0:0:0:0:
263,149,27497,2,0,P|277:98|263:40,1,105
113,240,29585,6,0,L|163:276,1,35
210,298,29965,2,0,L|260:328,1,35
286,167,30345,5,0,0:0:0:0:
197,94,31104,1,0,0:0:0:0:
312,78,32054,2,0,L|362:113,1,35
410,161,32433,5,0,0:0:0:0:
411,265,32623,2,0,L|324:265,1,70
215,263,33193,5,0,0:0:0:0:
124,170,33383,1,0,0:0:0:0:
255,98,34142,6,0,L|255:192,1,70
92,45,35092,2,0,P|78:96|92:154,1,105
162,170,35851,2,0,P|208:227|262:254,1,105
308,219,36611,2,0,P|360:223|415:200,1,105
121,190,37560,6,0,L|163:230,1,35
174,129,37940,2,0,L|213:162,1,35
259,68,38319,5,0,0:0:0:0:
96,295,38509,1,0,0:0:0:0:
241,257,38889,2,0,L|278:303,1,35
345,195,39269,2,0,L|308:149,1,35
273,92,39649,5,0,0:0:0:0:
186,144,39838,1,0,0:0:0:0:
256,177,40028,2,0,L|256:221,1,35
330,174,40408,2,0,L|330:209,1,35
341,69,40788,5,0,0:0:0:0:
141,65,40978,2,0,P|131:82|141:130,1,70
159,208,41547,1,0,0:0:0:0:
76,282,41737,1,0,0:0:0:0:
253,235,42117,2,0,P|299:292|353:319,1,105
337,191,42876,5,0,0:0:0:0:
101,56,43066,1,0,0:0:0:0:
101,254,43256,1,0,0:0:0:0:
406,91,44016,6,0,L|369:131,2,35
410,202,44585,5,0,0:0:0:0:
329,199,44775,6,0,L|263:199,1,35
346,114,46294,2,0,P|316:127|346:147,1,70
256,191,47433,1,0,0:0:0:0:
346,114,47813,2,0,P|316:127|346:147,1,70
150,196,49332,6,0,B|180:221|180:221|150:229,1,70
256,192,50282,1,0,0:0:0:0:
256,192,50471,1,0,0:0:0:0:
256,192,50661,1,0,0:0:0:0:
371,182,50851,2,0,B|341:157|341:157|371:149,1,70
100,145,52370,6,0,L|100:174,1,28
182,195,54649,6,0,L|197:194,1,14
394,94,56168,1,0,0:0:0:0:
394,94,56357,1,0,0:0:0:0:
394,94,56547,2,0,L|394:139,1,35
397,220,56927,5,0,0:0:0:0:
354,281,57117,1,0,0:0:0:0:
285,303,57307,1,0,0:0:0:0:
48,180,57497,5,0,0:0:0:0:
47,103,57687,1,0,0:0:0:0:
184,88,58066,6,0,L|113:162,1,70
113,230,59206,1,0,0:0:0:0:
212,260,59395,2,0,L|300:260,1,70
367,212,59965,1,0,0:0:0:0:
359,84,60725,5,0,0:0:0:0:
260,54,60914,2,0,L|172:54,1,70
105,102,61484,1,0,0:0:0:0:
254,192,62244,5,0,0:0:0:0:
254,192,62433,1,0,0:0:0:0:
260,192,62623,2,0,L|260:132,1,35
255,68,63003,5,0,0:0:0:0:
184,130,63193,1,0,0:0:0:0:
154,229,63383,2,0,L|177:258,1,35
253,275,63763,6,0,L|291:261,1,35
357,254,64142,2,0,L|391:277,1,35
465,275,64522,2,0,L|465:188,1,70
463,126,65092,5,0,0:0:0:0:
463,126,65282,1,0,0:0:0:0:
463,126,65471,1,0,0:0:0:0:
388,78,65661,2,0,L|355:127,1,35
331,176,66041,6,0,L|291:202,1,35
210,196,66421,2,0,L|155:170,1,35
124,105,66801,2,0,L|151:70,1,35
231,70,67180,5,0,0:0:0:0:
231,70,67370,1,0,0:0:0:0:
63,191,68319,6,0,L|83:222,1,35
128,153,68699,6,0,L|148:184,1,35
63,191,69079,6,0,L|83:222,1,35
219,176,69459,5,0,0:0:0:0:
329,271,69649,1,0,0:0:0:0:
341,172,69838,5,0,0:0:0:0:
209,281,70028,1,0,0:0:0:0:
188,107,70218,5,0,0:0:0:0:
346,317,70408,1,0,0:0:0:0:
356,72,70598,5,0,0:0:0:0:
166,330,70788,1,0,0:0:0:0:
154,37,70978,5,0,0:0:0:0:
383,348,71168,1,0,0:0:0:0:
396,36,71357,5,0,0:0:0:0:
129,347,71547,1,0,0:0:0:0:
385,182,71737,6,0,L|386:132,1,35
183,185,72117,2,0,L|149:152,1,35
317,77,72497,2,0,P|333:82|316:153,1,105
312,232,73066,6,0,P|269:291|313:343,1,105.000004005432
128,191,73636,1,0,0:0:0:0:
128,191,73826,1,0,0:0:0:0:
165,132,75155,5,0,0:0:0:0:
165,132,75345,1,0,0:0:0:0:
341,110,75914,1,0,0:0:0:0:
346,112,76104,1,0,0:0:0:0:
164,80,76674,6,0,P|95:129|84:152,1,112
278,78,80471,2,0,P|391:76|407:171,1,210.000008010865
314,242,81421,1,0,0:0:0:0:
314,242,81611,1,0,0:0:0:0:
70,160,82750,6,0,P|113:295|206:336,1,210.000008010865
256,191,84269,1,0,0:0:0:0:
424,181,85788,1,0,0:0:0:0:
365,113,86547,5,0,0:0:0:0:
255,74,86737,1,0,0:0:0:0:
129,111,86927,2,0,P|75:153|89:211,1,105.000004005432
163,316,88066,6,0,P|298:319|315:270,1,210.000008010865
255,190,89585,1,0,0:0:0:0:
255,190,89775,1,0,0:0:0:0:
256,192,90155,12,0,91864,0:0:0:0:
337,89,92244,6,0,P|432:138|392:233,1,231.000007049561
391,233,93003,1,0,0:0:0:0:
391,233,93193,1,0,0:0:0:0:
323,276,93383,6,0,P|286:324|135:319,1,154.000004699707
198,347,93952,1,0,0:0:0:0:
198,347,94142,1,0,0:0:0:0:
117,326,94332,6,0,P|76:298|95:211,1,77.0000023498536
61,235,94712,1,0,0:0:0:0:
61,235,94902,1,0,0:0:0:0:
136,70,95282,6,0,L|81:131,3,77.0000023498536
84,127,96041,1,0,0:0:0:0:
84,127,96231,1,0,0:0:0:0:
62,228,96421,6,0,L|157:229,2,77.0000023498536
62,228,96990,1,0,0:0:0:0:
62,228,97180,1,0,0:0:0:0:
407,238,97560,2,0,L|407:154,1,77.0000023498536
400,70,97940,5,0,0:0:0:0:
323,169,98130,1,0,0:0:0:0:
364,125,98319,6,0,L|422:41,1,77.0000023498536
288,233,98699,2,0,L|237:301,1,77.0000023498536
361,121,99079,2,0,L|415:40,1,77.0000023498536
280,233,99459,2,0,L|212:313,1,77.0000023498536
402,241,99838,5,0,0:0:0:0:
237,64,100028,1,0,0:0:0:0:
135,329,100218,5,0,0:0:0:0:
81,90,100408,1,0,0:0:0:0:
376,325,100598,5,0,0:0:0:0:
277,37,100788,1,0,0:0:0:0:
287,175,100978,1,0,0:0:0:0:
415,83,101168,5,0,0:0:0:0:
415,83,101357,2,0,P|441:140|411:183,1,77.0000023498536
438,150,101737,1,0,0:0:0:0:
438,150,101927,1,0,0:0:0:0:
440,237,102117,6,0,L|356:302,1,77.0000023498536
312,234,102497,2,0,L|245:287,1,77.0000023498536
176,227,102876,2,0,L|101:275,1,77.0000023498536
111,268,103256,1,0,0:0:0:0:
111,268,103446,1,0,0:0:0:0:
394,82,103636,6,0,L|394:196,1,77.0000023498536
141,81,104016,2,0,L|141:184,1,77.0000023498536
441,82,104395,5,0,0:0:0:0:
141,79,104585,1,0,0:0:0:0:
444,171,104775,5,0,0:0:0:0:
142,189,104965,2,0,L|86:243,1,77.0000023498536
86,242,105345,2,0,L|149:299,1,77.0000023498536
143,294,105725,2,0,L|206:231,1,77.0000023498536
197,239,106104,5,0,0:0:0:0:
456,46,106294,2,0,L|456:126,1,77.0000023498536
456,341,106674,2,0,L|456:233,1,77.0000023498536
456,264,107054,5,0,0:0:0:0:
454,127,107244,1,0,0:0:0:0:
305,62,107433,5,0,0:0:0:0:
311,274,107623,1,0,0:0:0:0:
305,62,107813,6,0,L|305:146,1,77.0000023498536
311,274,108193,2,0,L|311:182,1,77.0000023498536
311,197,108573,1,0,0:0:0:0:
152,99,108763,5,0,0:0:0:0:
104,234,108952,1,0,0:0:0:0:
301,58,109142,5,0,0:0:0:0:
314,293,109332,1,0,0:0:0:0:
433,64,109522,2,0,L|433:152,1,77.0000023498536
433,141,109902,2,0,L|343:141,1,77.0000023498536
356,141,110282,5,0,0:0:0:0:
356,141,110471,1,0,0:0:0:0:
125,54,110661,1,0,0:0:0:0:
82,149,110851,6,8,P|53:250|82:274,1,154.000004699707
82,149,111421,2,8,P|53:250|82:274,1,154.000004699707
82,149,111990,6,8,P|53:250|82:274,1,154.000004699707
78,272,112560,2,8,P|107:171|78:147,1,154.000004699707
78,272,113130,2,8,P|107:171|78:147,1,154.000004699707
78,272,113699,2,8,P|107:171|78:147,1,154.000004699707
81,148,114269,5,0,0:0:0:0:
81,148,114459,1,0,0:0:0:0:
81,148,114649,1,0,0:0:0:0:
113,77,114838,6,8,L|189:123,1,77.0000023498536
158,185,115218,6,8,L|234:231,1,77.0000023498536
280,183,115598,6,8,L|356:229,1,77.0000023498536
345,222,115978,1,0,0:0:0:0:
345,222,116168,1,0,0:0:0:0:
101,112,116737,6,0,P|79:153|101:196,1,77.0000023498536
86,180,117117,1,0,0:0:0:0:
328,102,117307,2,0,L|327:186,1,77.0000023498536
191,102,117687,2,0,L|191:193,1,77.0000023498536
319,277,118066,5,0,0:0:0:0:
319,277,118256,1,0,0:0:0:0:
319,277,118446,2,0,P|268:302|202:276,1,77.0000023498536
373,277,119585,5,0,0:0:0:0:
373,277,119775,2,0,L|373:190,1,77.0000023498536
373,200,120155,1,0,0:0:0:0:
376,126,120345,6,0,P|344:96|376:45,1,77.0000023498536
347,66,120725,1,0,0:0:0:0:
347,66,120914,1,0,0:0:0:0:
347,66,121104,1,0,0:0:0:0:
151,62,121294,5,0,0:0:0:0:
102,155,121484,2,0,P|53:196|69:252,1,77.0000023498536
51,204,121864,1,0,0:0:0:0:
51,204,122054,1,0,0:0:0:0:
381,305,122813,6,0,L|381:213,1,77.0000023498536
381,37,123193,2,0,L|381:125,1,77.0000023498536
381,114,123573,1,0,0:0:0:0:
381,114,123763,1,0,0:0:0:0:
86,38,123952,6,0,L|86:134,1,77.0000023498536
124,289,124332,1,0,0:0:0:0:
124,289,124522,1,0,0:0:0:0:
88,41,124712,2,0,L|88:134,1,77.0000023498536
377,282,125851,6,0,L|377:192,2,77.0000023498536
377,282,126421,1,0,0:0:0:0:
377,282,126611,1,0,0:0:0:0:
301,290,126990,5,0,0:0:0:0:
153,198,127180,1,0,0:0:0:0:
79,117,127370,2,0,P|153:116|185:153,1,77.0000023498536
152,115,127750,1,0,0:0:0:0:
313,69,127940,6,0,P|365:103|338:145,1,77.0000023498536
391,202,128509,2,0,P|385:289|376:298,1,77.0000023498536
393,275,128889,1,0,0:0:0:0:
393,275,129079,1,0,0:0:0:0:
212,312,129459,6,0,P|189:258|114:270,1,77.0000023498536
82,152,129838,6,0,P|105:206|180:194,1,77.0000023498536
211,309,130218,1,0,0:0:0:0:
83,154,130408,1,0,0:0:0:0:
54,229,130598,6,0,P|62:232|191:219,1,77.0000023498536
230,73,130978,2,0,P|245:63|311:137,1,77.0000023498536
352,122,131547,6,0,P|389:188|352:202,1,77.0000023498536
397,169,131927,1,0,0:0:0:0:
338,304,132117,6,0,P|197:327|168:295,1,154.000004699707
200,329,132687,1,0,0:0:0:0:
87,227,132876,2,0,L|135:145,1,77.0000023498536
181,95,133256,5,0,0:0:0:0:
181,95,133446,1,0,0:0:0:0:
276,48,133636,2,0,P|366:71|354:144,1,154.000004699707
369,118,134206,5,0,0:0:0:0:
369,118,134395,1,0,0:0:0:0:
372,135,134585,6,8,P|343:236|372:260,1,154.000004699707
193,81,135155,6,8,P|294:110|318:81,1,154.000004699707
129,248,135725,6,8,P|157:146|128:123,1,154.000004699707
308,303,136294,6,8,P|207:274|183:303,1,154.000004699707
391,89,136864,1,0,0:0:0:0:
339,152,137054,1,0,0:0:0:0:
124,132,137244,6,0,L|124:178,1,36.749998878479
256,192,138952,12,0,140471,0:0:0:0:
327,83,140851,6,0,P|407:123|414:211,1,175
195,43,141421,2,0,P|136:85|180:124,1,83.9999974365235
135,82,141801,1,0,0:0:0:0:
135,82,141990,1,0,0:0:0:0:
103,290,142180,6,0,P|115:309|171:317,2,83.9999974365235
103,290,142750,1,0,0:0:0:0:
103,290,142940,1,0,0:0:0:0:
95,61,143130,6,0,L|181:61,1,83.9999974365235
179,61,143509,1,0,0:0:0:0:
303,92,143699,5,0,0:0:0:0:
381,96,143889,2,0,P|451:147|444:190,2,83.9999974365235
449,244,144459,1,0,0:0:0:0:
451,338,144649,1,0,0:0:0:0:
257,107,144838,6,8,P|191:91|194:118,1,83.9999974365235
363,97,145218,6,8,P|355:164|381:158,1,83.9999974365235,8|8,0:3|0:3,0:3:0:0:
173,214,145598,6,8,P|177:146|151:153,1,83.9999974365235
329,243,145978,6,8,P|263:227|266:254,1,83.9999974365235
286,219,146357,1,0,0:0:0:0:
392,62,146547,2,0,L|347:142,1,83.9999974365235
387,211,146927,6,0,B|455:249|351:296|321:311,1,83.9999974365235
383,275,147307,1,0,0:0:0:0:
387,281,147497,2,0,L|268:338,1,83.9999974365235
191,42,147876,5,0,0:0:0:0:
44,263,148066,1,0,0:0:0:0:
55,66,148256,5,0,0:0:0:0:
192,262,148446,1,0,0:0:0:0:
217,43,148636,5,0,0:0:0:0:
44,311,148826,1,0,0:0:0:0:
41,43,149016,5,0,0:0:0:0:
223,304,149206,1,0,0:0:0:0:
362,87,149395,6,0,L|400:165,1,83.9999974365235
384,301,149775,2,0,L|305:236,1,83.9999974365235
231,54,150155,1,0,0:0:0:0:
132,265,150345,1,0,0:0:0:0:
433,63,150535,6,0,P|372:58|345:106,1,83.9999974365235
260,246,150914,2,0,P|301:290|354:272,1,83.9999974365235
32,223,151294,1,0,0:0:0:0:
320,40,151484,1,0,0:0:0:0:
412,346,151674,1,0,0:0:0:0:
256,192,151864,12,0,152623,0:0:0:0:
400,54,152813,5,0,0:0:0:0:
387,292,153003,1,0,0:0:0:0:
213,54,153193,6,0,P|152:49|125:97,1,83.9999974365235
139,249,153573,6,0,B|108:288|108:288|51:292,1,83.9999974365235
73,290,153952,1,0,0:0:0:0:
73,290,154142,1,0,0:0:0:0:
415,47,154332,6,0,P|435:124|415:137,1,83.9999974365235
371,264,154712,1,0,0:0:0:0:
214,57,154902,1,0,0:0:0:0:
72,133,155092,2,0,B|38:187|38:187|70:224,1,83.9999974365235
51,202,155471,5,0,0:0:0:0:
51,202,155661,1,0,0:0:0:0:
172,49,156041,2,0,B|216:29|216:29|256:83|253:106,2,83.9999974365235
324,57,156611,1,0,0:0:0:0:
345,293,156801,1,0,0:0:0:0:
58,103,156990,6,0,L|61:197,1,83.9999974365235
367,84,157370,2,0,L|368:181,1,83.9999974365235
96,42,157750,6,0,L|96:139,1,83.9999974365235
426,166,158130,2,0,L|426:262,1,83.9999974365235
71,299,158509,1,0,0:0:0:0:
344,235,158699,1,0,0:0:0:0:
67,175,158889,5,0,0:0:0:0:
361,321,159079,6,8,P|389:219|360:196,1,154.000004699707
307,254,159649,6,8,B|269:228|269:228|306:129,2,83.9999974365235
267,160,160218,6,8,P|295:58|266:35,1,154.000004699707
270,37,160788,1,0,0:0:0:0:
270,37,160978,1,0,0:0:0:0:
87,100,161168,5,0,0:0:0:0:
87,100,161357,2,0,B|216:121|216:121|189:154,1,167.999994873047
50,217,161927,1,0,0:0:0:0:
291,291,162117,1,0,0:0:0:0:
437,42,162307,6,0,L|416:131,1,83.9999974365235
45,90,162687,2,0,L|44:187,1,83.9999974365235
288,46,163066,2,0,L|288:148,1,83.9999974365235
40,265,163446,2,0,L|40:366,1,83.9999974365235
434,54,163826,5,0,0:0:0:0:
206,337,164016,1,0,0:0:0:0:
202,42,164206,5,0,0:0:0:0:
437,345,164395,1,0,0:0:0:0:
456,39,164585,5,0,0:0:0:0:
152,349,164775,1,0,0:0:0:0:
136,83,164965,6,0,B|77:109|77:109|85:154,1,83.9999974365235
80,128,165345,1,0,0:0:0:0:
80,128,165535,1,0,0:0:0:0:
408,47,165725,6,0,B|436:156|402:207|473:234|342:286|246:146|346:73|149:134|261:266|422:333|340:357|157:338|70:268|26:143|-55:73|183:109,1,755.999976928712
233,43,167623,1,0,0:0:0:0:
421,201,167813,1,0,0:0:0:0:
66,79,168003,6,0,B|46:135|46:135|113:188,2,83.9999974365235
224,52,168573,1,0,0:0:0:0:
426,67,168763,6,0,L|426:159,1,83.9999974365235
37,39,169142,2,0,L|37:142,1,83.9999974365235
453,206,169522,2,0,L|453:297,1,83.9999974365235
42,231,169902,2,0,B|49:327|152:331|262:291|121:187|31:101|207:46,1,419.999987182618
289,43,170851,5,0,0:0:0:0:
440,221,171041,1,0,0:0:0:0:
179,343,171231,1,0,0:0:0:0:
48,197,171421,1,0,0:0:0:0:
57,69,171611,6,0,B|171:66|259:113|321:56|405:127|273:218|52:154|21:232|47:283|101:299|148:319|247:328|312:302|327:268|337:221|356:188|342:125|423:320|423:380|350:382|299:382|234:374|168:368|46:352|-29:313|-12:250|229:226|312:172|362:116|385:61|475:36,1,1343.99995898438
416,197,174838,1,0,0:0:0:0:
41,42,175028,6,0,B|163:38|251:98|139:122|70:116|28:156|24:194|34:227|53:251|86:283|111:280|132:263|177:237|204:219|216:187|216:162|231:125|251:84|284:43|305:30|326:18|361:39|389:38|402:52|416:68|418:83|418:115|390:132|388:148|369:167|349:182|327:207|299:234|263:252|234:275|203:310|199:335|209:353|229:372|238:377|275:384|329:365|365:340|385:299|387:288|432:258|471:241|483:229|463:175|466:98|465:70,1,1343.99995898438
451,43,177117,1,0,0:0:0:0:
299,329,177307,1,0,0:0:0:0:
72,304,177497,1,0,0:0:0:0:
47,44,177687,6,0,B|97:43|122:46|130:58|112:87|89:108|61:123|46:150|72:178|87:189|108:202|159:188|227:169|311:143|329:98|302:67|273:56|219:46|197:55|166:72|157:99|162:124|162:144|162:177|167:213|166:225|163:244|166:259|171:274|177:283|191:289|232:278|266:259|305:247|342:233|393:196|416:172|423:135|397:107|373:84|424:86|456:104|474:127|483:157|482:183|476:199|468:223|465:245|465:272|452:304|445:322|423:335|402:339|385:328|329:318|281:333|251:330|136:304,1,1232.00003759766
446,39,180914,5,0,0:0:0:0:
53,346,181104,1,0,0:0:0:0:
86,37,181294,5,0,0:0:0:0:
447,347,181484,1,0,0:0:0:0:
35,101,181674,5,0,0:0:0:0:
442,273,181864,1,0,0:0:0:0:
40,245,182054,5,0,0:0:0:0:
465,121,182244,1,0,0:0:0:0:
141,344,182433,5,0,0:0:0:0:
348,42,182623,1,0,0:0:0:0:
362,345,182813,5,0,0:0:0:0:
136,39,183003,2,0,B|59:40|45:93|37:143|38:176|47:238|156:168|181:97|196:72|230:43|247:42|271:44|279:47|306:51|330:53|351:57|395:63|398:82|404:108|406:124|386:145|361:152|336:154|313:153|291:153|258:153|241:157|218:174|198:187|171:209|150:219|121:237|101:254|92:268|75:290|78:299|83:307|92:323|116:337|129:343|149:350|183:358|226:353|257:343|277:340|295:330|326:311|348:296|373:279|407:266|424:261|434:258|446:276|458:298|470:317|477:336|477:348|473:364|454:370|368:361|339:341|330:312|320:290|315:271|312:251|314:241|319:229|336:217|341:210|350:199|360:192|361:191|377:186|389:184|400:180|400:180|400:179,1,1386.00004229736
426,52,186611,1,0,0:0:0:0:
211,333,186801,1,0,0:0:0:0:
100,47,186990,5,0,0:0:0:0:
256,192,187180,12,0,188699,0:0:0:0:
279,249,188889,6,0,B|323:229|323:229|363:283|360:306,2,83.9999974365235
62,84,190218,2,0,L|181:84,1,77.0000023498536
222,84,190598,2,0,L|318:84,1,77.0000023498536
416,61,190978,1,0,0:0:0:0:
72,253,191168,6,0,B|116:233|116:233|156:287|153:310,2,83.9999974365235
414,166,192497,6,0,L|414:255,1,77.0000023498536
336,165,192876,1,0,0:0:0:0:
260,165,193066,2,0,L|260:255,1,77.0000023498536
260,242,193446,1,0,0:0:0:0:
260,242,193636,5,0,0:0:0:0:
150,283,193826,2,0,B|186:339|186:339|234:317|231:340,2,77.0000023498536
150,283,194395,1,0,0:0:0:0:
48,154,194585,1,0,0:0:0:0:
163,40,194775,6,0,L|267:70,1,77.0000023498536
443,46,195535,1,0,0:0:0:0:
443,46,195725,2,0,B|472:82|472:82|435:129,1,77.0000023498536
452,106,196104,1,0,0:0:0:0:
456,112,196294,5,0,0:0:0:0:
448,218,196484,2,0,B|396:224|378:237|378:237|375:292,2,77.0000023498536
67,55,197433,1,0,0:0:0:0:
65,320,198193,1,0,0:0:0:0:
60,56,199712,6,0,B|86:49|86:49|106:67,1,48.9999985046387
255,192,201231,1,0,0:0:0:0:
338,173,202750,6,0,P|348:198|338:228,1,48.9999985046387
169,220,204269,2,0,P|154:200|147:167,1,48.9999985046387
256,191,205788,1,0,0:0:0:0:
352,278,207307,6,0,P|347:304|325:320,1,48.9999985046387
129,288,208826,1,0,0:0:0:0:
385,74,209585,1,0,0:0:0:0:
89,73,210345,2,0,L|125:114,1,48.9999985046387
256,192,211864,12,0,213383,0:0:0:0:
